osu file format v14

[General]
AudioFilename: audio.MP3
AudioLeadIn: 0
PreviewTime: 8017
Countdown: 0
SampleSet: Normal
StackLeniency: 0.7
Mode: 3
LetterboxInBreaks: 0
EpilepsyWarning: 1
SpecialStyle: 0
WidescreenStoryboard: 0

[Editor]
DistanceSpacing: 0.5
BeatDivisor: 4
GridSize: 4
TimelineZoom: 3.699998

[Metadata]
Title:TRAUMATIC
TitleUnicode:TRAUMATIC
Artist:Utsu-P
ArtistUnicode:鬱P
Creator:Net0
Version:PUXTU'S HD
Source:
Tags:Kagamine Rin Vocaloid Heavy Metal Rock Post Traumatic Stress Disorder Trynna Kalindraz Seto Kosuke Tarrasky ghm12 SkullKid puxtu S A N A E Prophecy Hi_Hello Nishizumi Chara breathless SpectorDG RyanSlipk Hatsune Miku Marianna
BeatmapID:1082777
BeatmapSetID:502648

[Difficulty]
HPDrainRate:8
CircleSize:4
OverallDifficulty:8
ApproachRate:9.7
SliderMultiplier:1.4
SliderTickRate:1

[Events]
//Background and Video events
0,0,"MadRin.jpg",0,0
//Break Periods
//Storyboard Layer 0 (Background)
//Storyboard Layer 1 (Fail)
//Storyboard Layer 2 (Pass)
//Storyboard Layer 3 (Foreground)
//Storyboard Sound Samples

[TimingPoints]
17,500,4,1,2,50,1,0
17,-50,4,1,2,50,0,0
8017,250,4,1,2,50,1,1
16017,-100,4,1,2,50,0,0
20017,-100,4,1,2,50,0,1
30517,-100,4,1,2,50,0,0
32017,250,6,1,2,50,1,1
33517,-100,3,1,2,50,0,0

[Colours]
Combo1 : 128,0,0
Combo2 : 255,0,0
Combo3 : 64,0,0
Combo4 : 231,103,116
SliderBorder : 255,50,40

[HitObjects]
64,192,517,128,0,4017:2:0:0:0:
448,192,4017,5,2,0:0:0:0:
192,192,4017,1,0,2:0:0:0:
192,192,4392,1,0,2:0:0:0:
320,192,4517,1,0,2:0:0:0:
192,192,4892,1,0,2:0:0:0:
448,192,5017,1,0,2:0:0:0:
64,192,5392,1,0,2:0:0:0:
320,192,5517,1,0,2:0:0:0:
192,192,5767,1,0,2:0:0:0:
448,192,6017,1,0,2:0:0:0:
64,192,6017,1,2,0:0:0:0:
320,192,6392,1,0,2:0:0:0:
192,192,6517,1,0,2:0:0:0:
64,192,6892,1,0,2:0:0:0:
448,192,7017,1,0,2:0:0:0:
64,192,7392,1,0,2:0:0:0:
192,192,7517,1,0,2:0:0:0:
320,192,7767,1,0,2:0:0:0:
448,192,8017,1,2,0:0:0:0:
64,192,8017,1,2,0:0:0:0:
192,192,8017,1,4,0:0:0:0:
448,192,8142,1,2,0:0:0:0:
320,192,8142,1,8,0:0:0:0:
192,192,8267,1,2,0:0:0:0:
64,192,8392,1,8,0:0:0:0:
448,192,8392,1,2,0:0:0:0:
320,192,8517,1,2,0:0:0:0:
448,192,8642,1,2,0:0:0:0:
192,192,8642,1,8,0:0:0:0:
320,192,8767,1,2,0:0:0:0:
192,192,8829,1,2,0:0:0:0:
448,192,8892,1,8,0:0:0:0:
64,192,8892,1,2,0:0:0:0:
320,192,9017,1,2,0:0:0:0:
64,192,9142,1,2,0:0:0:0:
192,192,9142,1,8,0:0:0:0:
448,192,9267,1,2,0:0:0:0:
320,192,9392,1,8,0:0:0:0:
192,192,9392,1,2,0:0:0:0:
64,192,9517,1,2,0:0:0:0:
448,192,9642,1,2,0:0:0:0:
192,192,9642,1,8,0:0:0:0:
320,192,9767,1,2,0:0:0:0:
192,192,9829,1,2,0:0:0:0:
64,192,9892,1,8,0:0:0:0:
448,192,9892,1,2,0:0:0:0:
192,192,10017,1,2,0:0:0:0:
64,192,10142,1,2,0:0:0:0:
320,192,10142,1,8,0:0:0:0:
448,192,10267,1,2,0:0:0:0:
320,192,10392,1,8,0:0:0:0:
192,192,10392,1,2,0:0:0:0:
448,192,10517,1,2,0:0:0:0:
64,192,10642,1,2,0:0:0:0:
192,192,10642,1,8,0:0:0:0:
448,192,10767,1,2,0:0:0:0:
320,192,10829,1,2,0:0:0:0:
64,192,10892,1,8,0:0:0:0:
448,192,10892,1,2,0:0:0:0:
192,192,11017,1,2,0:0:0:0:
320,192,11142,1,2,0:0:0:0:
64,192,11142,1,8,0:0:0:0:
448,192,11267,1,2,0:0:0:0:
64,192,11392,1,8,0:0:0:0:
320,192,11392,1,2,0:0:0:0:
192,192,11517,1,2,0:0:0:0:
448,192,11642,1,2,0:0:0:0:
320,192,11642,1,8,0:0:0:0:
192,192,11767,1,2,0:0:0:0:
448,192,11829,1,2,0:0:0:0:
320,192,11892,1,8,0:0:0:0:
64,192,11892,1,2,0:0:0:0:
448,192,12017,1,2,0:0:0:0:
320,192,12142,1,8,0:0:0:0:
192,192,12142,1,2,0:0:0:0:
64,192,12267,1,2,0:0:0:0:
320,192,12392,1,2,0:0:0:0:
448,192,12392,1,8,0:0:0:0:
192,192,12517,1,2,0:0:0:0:
320,192,12642,1,8,0:0:0:0:
64,192,12642,1,2,0:0:0:0:
448,192,12767,1,2,0:0:0:0:
320,192,12829,1,2,0:0:0:0:
448,192,12892,1,2,0:0:0:0:
64,192,12892,1,8,0:0:0:0:
192,192,13017,1,2,0:0:0:0:
320,192,13142,1,8,0:0:0:0:
448,192,13142,1,2,0:0:0:0:
64,192,13267,1,2,0:0:0:0:
448,192,13392,1,2,0:0:0:0:
192,192,13392,1,8,0:0:0:0:
320,192,13517,1,2,0:0:0:0:
64,192,13642,1,8,0:0:0:0:
448,192,13642,1,2,0:0:0:0:
192,192,13767,1,2,0:0:0:0:
448,192,13829,1,2,0:0:0:0:
64,192,13892,1,2,0:0:0:0:
192,192,13892,1,8,0:0:0:0:
320,192,14017,1,2,0:0:0:0:
64,192,14142,1,2,0:0:0:0:
448,192,14142,1,8,0:0:0:0:
192,192,14267,1,2,0:0:0:0:
320,192,14392,1,8,0:0:0:0:
64,192,14392,1,2,0:0:0:0:
448,192,14517,1,2,0:0:0:0:
64,192,14642,1,2,0:0:0:0:
192,192,14642,1,8,0:0:0:0:
448,192,14767,1,2,0:0:0:0:
320,192,14829,1,2,0:0:0:0:
64,192,14892,1,8,0:0:0:0:
192,192,14892,1,2,0:0:0:0:
448,192,15017,1,2,0:0:0:0:
320,192,15142,1,2,0:0:0:0:
192,192,15142,1,8,0:0:0:0:
64,192,15267,1,2,0:0:0:0:
448,192,15392,1,8,0:0:0:0:
192,192,15392,1,2,0:0:0:0:
64,192,15517,1,8,0:0:0:0:
320,192,15517,1,2,0:0:0:0:
448,192,15767,1,8,0:0:0:0:
320,192,15767,1,2,0:0:0:0:
192,192,15850,1,2,0:0:0:0:
320,192,15933,1,2,0:0:0:0:
64,192,16017,1,0,0:0:0:0:
192,192,16017,1,2,0:0:0:0:
320,192,16642,1,2,0:0:0:0:
64,192,16642,1,8,0:0:0:0:
320,192,16767,1,2,0:0:0:0:
64,192,16767,1,8,0:0:0:0:
192,192,16892,1,2,0:0:0:0:
64,192,16892,1,8,0:0:0:0:
192,192,17017,1,2,0:0:0:0:
64,192,17017,1,8,0:0:0:0:
320,192,17642,1,8,0:0:0:0:
448,192,17642,1,2,0:0:0:0:
320,192,17767,1,8,0:0:0:0:
448,192,17767,1,2,0:0:0:0:
64,192,17892,1,8,0:0:0:0:
192,192,17892,1,2,0:0:0:0:
192,192,18017,1,2,0:0:0:0:
64,192,18017,1,8,0:0:0:0:
320,192,18642,1,2,0:0:0:0:
64,192,18642,1,8,0:0:0:0:
320,192,18767,1,2,0:0:0:0:
64,192,18767,1,8,0:0:0:0:
320,192,18892,1,2,0:0:0:0:
448,192,18892,1,8,0:0:0:0:
448,192,19017,1,8,0:0:0:0:
320,192,19017,1,2,0:0:0:0:
64,192,19267,1,8,0:0:0:0:
320,192,19267,1,2,0:0:0:0:
192,192,19517,1,2,0:0:0:0:
64,192,19517,1,8,0:0:0:0:
64,192,19767,1,8,0:0:0:0:
448,192,19767,128,2,20017:0:0:0:0:
64,192,20017,1,2,0:0:0:0:
192,192,20017,1,2,0:0:0:0:
320,192,20017,1,4,0:0:0:0:
64,192,20142,1,2,0:0:0:0:
448,192,20142,1,8,0:0:0:0:
320,192,20267,1,2,0:0:0:0:
192,192,20392,1,8,0:0:0:0:
64,192,20392,1,2,0:0:0:0:
448,192,20517,1,2,0:0:0:0:
64,192,20642,1,2,0:0:0:0:
192,192,20642,1,8,0:0:0:0:
320,192,20767,1,2,0:0:0:0:
192,192,20829,1,2,0:0:0:0:
64,192,20892,1,8,0:0:0:0:
448,192,20892,1,2,0:0:0:0:
192,192,21017,1,2,0:0:0:0:
448,192,21142,1,2,0:0:0:0:
320,192,21142,1,8,0:0:0:0:
64,192,21267,1,2,0:0:0:0:
192,192,21392,1,2,0:0:0:0:
320,192,21392,1,8,0:0:0:0:
448,192,21517,1,2,0:0:0:0:
64,192,21642,1,2,0:0:0:0:
320,192,21642,1,8,0:0:0:0:
192,192,21767,1,2,0:0:0:0:
320,192,21829,1,2,0:0:0:0:
448,192,21892,1,8,0:0:0:0:
64,192,21892,1,2,0:0:0:0:
320,192,22017,1,2,0:0:0:0:
448,192,22142,1,2,0:0:0:0:
192,192,22142,1,8,0:0:0:0:
320,192,22267,1,2,0:0:0:0:
192,192,22392,1,8,0:0:0:0:
64,192,22392,1,2,0:0:0:0:
448,192,22517,1,2,0:0:0:0:
320,192,22642,1,2,0:0:0:0:
192,192,22642,1,8,0:0:0:0:
64,192,22767,1,2,0:0:0:0:
192,192,22829,1,2,0:0:0:0:
448,192,22892,1,8,0:0:0:0:
320,192,22892,1,2,0:0:0:0:
64,192,23017,1,2,0:0:0:0:
192,192,23142,1,2,0:0:0:0:
320,192,23142,1,8,0:0:0:0:
448,192,23267,1,2,0:0:0:0:
320,192,23392,1,8,0:0:0:0:
64,192,23392,1,2,0:0:0:0:
192,192,23517,1,2,0:0:0:0:
64,192,23642,1,2,0:0:0:0:
448,192,23642,1,8,0:0:0:0:
320,192,23767,1,2,0:0:0:0:
192,192,23829,1,2,0:0:0:0:
64,192,23892,1,8,0:0:0:0:
320,192,23892,1,2,0:0:0:0:
448,192,24017,1,2,0:0:0:0:
192,192,24142,1,8,0:0:0:0:
320,192,24142,1,2,0:0:0:0:
64,192,24267,1,2,0:0:0:0:
448,192,24392,1,2,0:0:0:0:
320,192,24392,1,8,0:0:0:0:
192,192,24517,1,2,0:0:0:0:
64,192,24642,1,8,0:0:0:0:
448,192,24642,1,2,0:0:0:0:
320,192,24767,1,2,0:0:0:0:
192,192,24829,1,2,0:0:0:0:
64,192,24892,1,2,0:0:0:0:
448,192,24892,1,8,0:0:0:0:
320,192,25017,1,2,0:0:0:0:
192,192,25142,1,8,0:0:0:0:
64,192,25142,1,2,0:0:0:0:
448,192,25267,1,2,0:0:0:0:
64,192,25392,1,2,0:0:0:0:
320,192,25392,1,8,0:0:0:0:
192,192,25517,1,2,0:0:0:0:
448,192,25642,1,8,0:0:0:0:
64,192,25642,1,2,0:0:0:0:
320,192,25767,1,2,0:0:0:0:
64,192,25829,1,2,0:0:0:0:
448,192,25892,1,2,0:0:0:0:
192,192,25892,1,8,0:0:0:0:
320,192,26017,1,2,0:0:0:0:
64,192,26142,1,2,0:0:0:0:
448,192,26142,1,8,0:0:0:0:
192,192,26267,1,2,0:0:0:0:
320,192,26392,1,8,0:0:0:0:
64,192,26392,1,2,0:0:0:0:
448,192,26517,1,2,0:0:0:0:
192,192,26642,1,2,0:0:0:0:
320,192,26642,1,8,0:0:0:0:
448,192,26767,1,2,0:0:0:0:
192,192,26829,1,2,0:0:0:0:
64,192,26892,1,8,0:0:0:0:
320,192,26892,1,2,0:0:0:0:
448,192,27017,1,2,0:0:0:0:
320,192,27142,1,2,0:0:0:0:
64,192,27142,1,8,0:0:0:0:
192,192,27267,1,2,0:0:0:0:
448,192,27392,1,8,0:0:0:0:
64,192,27392,1,2,0:0:0:0:
320,192,27517,1,2,0:0:0:0:
64,192,27642,1,2,0:0:0:0:
192,192,27642,1,8,0:0:0:0:
320,192,27767,1,2,0:0:0:0:
448,192,27767,1,8,0:0:0:0:
192,192,27892,1,8,0:0:0:0:
64,192,27892,1,2,0:0:0:0:
448,192,28017,1,2,0:0:0:0:
320,192,28142,1,8,0:0:0:0:
64,192,28142,1,2,0:0:0:0:
192,192,28267,1,2,0:0:0:0:
64,192,28392,1,2,0:0:0:0:
320,192,28392,1,8,0:0:0:0:
448,192,28517,1,2,0:0:0:0:
320,192,28642,1,8,0:0:0:0:
64,192,28642,1,2,0:0:0:0:
192,192,28767,1,2,0:0:0:0:
320,192,28829,1,2,0:0:0:0:
192,192,28892,1,2,0:0:0:0:
64,192,28892,1,8,0:0:0:0:
448,192,29017,1,2,0:0:0:0:
192,192,29142,1,8,0:0:0:0:
320,192,29142,1,2,0:0:0:0:
64,192,29267,1,2,0:0:0:0:
320,192,29392,1,8,0:0:0:0:
448,192,29392,1,2,0:0:0:0:
192,192,29517,1,2,0:0:0:0:
64,192,29642,1,8,0:0:0:0:
448,192,29642,1,2,0:0:0:0:
192,192,29767,1,2,0:0:0:0:
448,192,29829,1,2,0:0:0:0:
192,192,29892,1,2,0:0:0:0:
320,192,29892,1,8,0:0:0:0:
64,192,30017,1,2,0:0:0:0:
448,192,30142,1,2,0:0:0:0:
320,192,30142,1,8,0:0:0:0:
192,192,30267,1,2,0:0:0:0:
320,192,30392,1,8,0:0:0:0:
64,192,30392,1,2,0:0:0:0:
448,192,30517,1,2,0:0:0:0:
64,192,30642,1,2,0:0:0:0:
192,192,30642,1,8,0:0:0:0:
320,192,30767,1,2,0:0:0:0:
448,192,30829,1,2,0:0:0:0:
64,192,30892,1,8,0:0:0:0:
192,192,30892,1,2,0:0:0:0:
320,192,31017,1,2,0:0:0:0:
448,192,31142,1,2,0:0:0:0:
192,192,31142,1,8,0:0:0:0:
320,192,31267,1,2,0:0:0:0:
64,192,31392,1,2,0:0:0:0:
448,192,31392,1,8,0:0:0:0:
320,192,31517,1,8,0:0:0:0:
192,192,31517,1,2,0:0:0:0:
64,192,31767,1,8,0:0:0:0:
448,192,31767,1,2,0:0:0:0:
320,192,31850,1,2,0:0:0:0:
192,192,31933,1,2,0:0:0:0:
320,192,32017,1,2,0:0:0:0:
448,192,32017,128,4,32267:2:0:0:0:
192,192,32267,1,4,2:0:0:0:
64,192,32267,128,2,32517:0:0:0:0:
448,192,32517,1,4,2:0:0:0:
320,192,32517,128,2,32767:0:0:0:0:
64,192,32767,1,4,2:0:0:0:
192,192,32767,128,2,33017:0:0:0:0:
320,192,33017,1,2,0:0:0:0:
448,192,33017,128,4,33267:2:0:0:0:
192,192,33267,1,4,2:0:0:0:
64,192,33267,128,2,33517:0:0:0:0:
320,192,33517,1,10,0:0:0:0:
448,192,33517,1,4,2:0:0:0:
