osu file format v14

[General]
AudioFilename: audio.MP3
AudioLeadIn: 0
PreviewTime: 8017
Countdown: 0
SampleSet: Normal
StackLeniency: 0.7
Mode: 1
LetterboxInBreaks: 0
EpilepsyWarning: 1
WidescreenStoryboard: 0

[Editor]
Bookmarks: 16017,20017
DistanceSpacing: 0.1
BeatDivisor: 2
GridSize: 16
TimelineZoom: 1.4

[Metadata]
Title:TRAUMATIC
TitleUnicode:TRAUMATIC
Artist:Utsu-P
ArtistUnicode:鬱P
Creator:Net0
Version:PROPHECY'S FUTSUU
Source:
Tags:Kagamine Rin Vocaloid Heavy Metal Rock Post Traumatic Stress Disorder Trynna Kalindraz Seto Kosuke Tarrasky ghm12 SkullKid puxtu S A N A E Prophecy Hi_Hello Nishizumi Chara breathless SpectorDG RyanSlipk Hatsune Miku Marianna
BeatmapID:1082776
BeatmapSetID:502648

[Difficulty]
HPDrainRate:6
CircleSize:2
OverallDifficulty:3
ApproachRate:9
SliderMultiplier:1
SliderTickRate:1

[Events]
//Background and Video events
0,0,"MadRin.jpg",0,120
//Break Periods
//Storyboard Layer 0 (Background)
//Storyboard Layer 1 (Fail)
//Storyboard Layer 2 (Pass)
//Storyboard Layer 3 (Foreground)
//Storyboard Sound Samples

[TimingPoints]
17,500,4,1,2,80,1,0
17,-100,4,1,2,5,0,0
4020,-100,4,1,2,80,0,0
8017,250,4,1,2,80,1,0
8017,-100,4,1,0,80,0,0
32017,250,6,1,2,80,1,0

[Colours]
Combo1 : 44,88,35
Combo2 : 115,145,95
Combo3 : 23,71,117
Combo4 : 231,103,116
Combo5 : 222,216,194
SliderBorder : 255,50,40

[HitObjects]
256,192,767,8,0,3517,0:0:0:0:
256,192,4017,5,0,0:0:0:0:
256,188,6017,1,0,0:0:0:0:
254,190,8017,1,2,0:0:0:0:
254,190,8517,1,0,0:0:0:0:
254,190,9017,1,2,0:0:0:0:
254,190,9267,1,0,0:0:0:0:
254,190,9517,1,0,0:0:0:0:
254,190,10017,1,2,0:0:0:0:
254,190,10517,1,0,0:0:0:0:
254,190,11017,1,2,0:0:0:0:
254,190,11267,1,0,0:0:0:0:
254,190,11517,1,0,0:0:0:0:
254,190,12017,1,2,0:0:0:0:
254,190,12267,1,0,0:0:0:0:
254,190,12517,1,2,0:0:0:0:
254,190,13017,1,2,0:0:0:0:
254,190,13267,1,0,0:0:0:0:
254,190,13517,1,2,0:0:0:0:
256,192,14017,8,0,15517,0:0:0:0:
255,191,16017,5,4,0:0:0:0:
256,192,16642,1,2,0:0:0:0:
255,191,16767,1,2,0:0:0:0:
255,191,16892,1,2,0:0:0:0:
255,191,17017,1,2,0:0:0:0:
256,192,17642,1,2,0:0:0:0:
255,191,17767,1,2,0:0:0:0:
255,191,17892,1,2,0:0:0:0:
255,191,18017,1,2,0:0:0:0:
255,191,18642,1,2,0:0:0:0:
255,191,18767,1,2,0:0:0:0:
255,191,18892,1,2,0:0:0:0:
255,191,19017,1,2,0:0:0:0:
255,191,19267,1,2,0:0:0:0:
255,191,19517,1,0,0:0:0:0:
255,191,19767,1,0,0:0:0:0:
255,191,20017,1,2,0:0:0:0:
256,192,20517,1,0,0:0:0:0:
256,192,21017,1,2,0:0:0:0:
256,192,21267,1,0,0:0:0:0:
256,192,21517,1,0,0:0:0:0:
256,192,22017,1,2,0:0:0:0:
256,192,22517,1,0,0:0:0:0:
256,192,23017,1,2,0:0:0:0:
256,192,23267,1,0,0:0:0:0:
256,192,23517,1,0,0:0:0:0:
256,192,24017,1,2,0:0:0:0:
256,192,24517,1,0,0:0:0:0:
256,192,24767,1,0,0:0:0:0:
256,192,25017,1,2,0:0:0:0:
256,192,25517,1,0,0:0:0:0:
256,192,25767,1,0,0:0:0:0:
256,192,26017,1,2,0:0:0:0:
256,192,26517,1,0,0:0:0:0:
256,192,26767,1,0,0:0:0:0:
256,192,27017,1,2,0:0:0:0:
256,192,27267,1,2,0:0:0:0:
256,192,27517,1,0,0:0:0:0:
256,192,28017,1,2,0:0:0:0:
256,192,28267,8,0,31767,0:0:0:0:
256,192,32017,5,0,0:0:0:0:
256,192,32267,1,0,0:0:0:0:
256,192,32517,1,0,0:0:0:0:
256,192,32767,1,0,0:0:0:0:
256,192,33017,1,2,0:0:0:0:
256,192,33267,1,0,0:0:0:0:
256,192,33517,1,6,0:0:0:0:
