osu file format v14

[General]
AudioFilename: audio.MP3
AudioLeadIn: 0
PreviewTime: 8017
Countdown: 0
SampleSet: Normal
StackLeniency: 0.6
Mode: 0
LetterboxInBreaks: 0
EpilepsyWarning: 1
WidescreenStoryboard: 0

[Editor]
Bookmarks: 6004,8017,10017,12017,14017,16017,16642,17017,17642,18017,18642,19017,19767,20017,22017,24017,26017,28017
DistanceSpacing: 1.1
BeatDivisor: 2
GridSize: 4
TimelineZoom: 2.5

[Metadata]
Title:TRAUMATIC
TitleUnicode:TRAUMATIC
Artist:Utsu-P
ArtistUnicode:鬱P
Creator:Net0
Version:MARIANNA'S HARD
Source:
Tags:Kagamine Rin Vocaloid Heavy Metal Rock Post Traumatic Stress Disorder Trynna Kalindraz Seto Kosuke Tarrasky ghm12 SkullKid puxtu S A N A E Prophecy Hi_Hello Nishizumi Chara breathless SpectorDG RyanSlipk Hatsune Miku Marianna
BeatmapID:1155228
BeatmapSetID:502648

[Difficulty]
HPDrainRate:5
CircleSize:3.9
OverallDifficulty:6
ApproachRate:7.2
SliderMultiplier:1.5
SliderTickRate:2

[Events]
//Background and Video events
0,0,"MadRin.jpg",0,0
//Break Periods
//Storyboard Layer 0 (Background)
//Storyboard Layer 1 (Fail)
//Storyboard Layer 2 (Pass)
//Storyboard Layer 3 (Foreground)
//Storyboard Sound Samples

[TimingPoints]
17,500,4,1,0,5,1,0
4017,-100,4,1,0,30,0,0
8017,250,4,1,2,70,1,0
12017,-100,4,1,2,70,0,0
16017,-100,4,1,2,50,0,0
19767,-100,3,1,2,70,0,0
20017,-100,4,1,2,70,0,0
24017,-100,4,1,2,70,0,0
32017,250,6,1,2,70,1,1
32017,-100,6,1,2,70,0,1
33517,-100,6,1,2,70,0,0

[Colours]
Combo1 : 128,0,0
Combo2 : 255,0,0
Combo3 : 64,0,0
Combo4 : 231,103,116
SliderBorder : 255,50,40

[HitObjects]
256,192,767,12,0,4017,0:0:0:0:
80,40,6017,5,0,0:0:0:0:
80,40,8017,6,0,P|144:60|220:36,1,150
296,72,8392,1,0,0:0:0:0:
296,72,8517,2,0,L|284:224,1,150
332,288,8892,1,0,0:0:0:0:
332,288,9017,6,0,B|248:316|256:276|184:292,2,150
488,228,9767,1,0,0:0:0:0:
396,92,10017,6,0,L|244:100,1,150
172,64,10392,1,0,0:0:0:0:
172,64,10517,2,0,P|168:128|228:184,1,150
308,208,10892,1,0,0:0:0:0:
308,208,11017,6,0,L|160:240,2,150
472,176,11767,1,0,0:0:0:0:
404,24,12017,5,0,0:0:0:0:
404,24,12142,2,0,B|344:24|344:24|320:28|320:28|252:28,1,150
220,104,12517,1,0,0:0:0:0:
220,104,12642,2,0,B|280:104|280:104|304:108|304:108|372:108,1,150
400,184,13017,5,0,0:0:0:0:
400,184,13142,2,0,B|340:184|340:184|316:188|316:188|248:188,1,150
240,272,13517,1,0,0:0:0:0:
240,272,13642,2,0,B|300:272|300:272|324:276|324:276|392:276,1,150
428,348,14017,6,0,L|272:348,1,150
196,352,14392,1,0,0:0:0:0:
132,300,14517,2,0,P|116:268|116:224,1,75
60,168,14767,2,0,P|92:152|136:152,1,75
192,208,15017,6,0,L|144:64,1,150
308,100,15517,2,0,L|355:242,1,150
388,320,15892,1,0,0:0:0:0:
444,260,16017,5,0,0:0:0:0:
84,56,16642,2,0,L|8:64,2,75
164,40,17017,5,0,0:0:0:0:
428,56,17642,2,0,L|504:64,2,75
348,40,18017,5,0,0:0:0:0:
76,28,18642,1,0,0:0:0:0:
76,112,18767,1,0,0:0:0:0:
140,164,18892,1,0,0:0:0:0:
212,204,19017,6,0,P|152:244|76:220,1,150
248,132,19517,2,0,P|288:192|264:268,1,150
176,124,20017,6,0,L|340:92,1,150
404,76,20392,1,0,0:0:0:0:
380,156,20517,2,0,P|368:224|408:296,1,150
476,336,20892,1,0,0:0:0:0:
476,336,21017,6,0,L|320:320,2,150
492,172,21767,1,0,0:0:0:0:
376,52,22017,6,0,P|308:40|244:88,1,150
200,152,22392,1,0,0:0:0:0:
200,152,22517,2,0,P|212:84|164:20,1,150
136,96,22892,1,0,0:0:0:0:
76,152,23017,6,0,L|88:304,2,150
192,32,23767,1,0,0:0:0:0:
324,128,24017,5,0,0:0:0:0:
324,128,24142,2,0,B|448:124|448:124|420:108,1,150
376,44,24517,1,0,0:0:0:0:
376,44,24642,2,0,B|252:48|252:48|280:64,1,150
216,120,25017,5,0,0:0:0:0:
216,120,25142,2,0,B|148:120|148:120|140:116|140:116|140:124|140:124|132:120|132:120|72:120,1,150
88,200,25517,1,0,0:0:0:0:
88,200,25642,2,0,B|156:200|156:200|164:196|164:196|164:204|164:204|172:200|172:200|232:200,1,150
292,252,26017,6,0,B|364:252|364:252|376:248|376:248|444:248,1,150
500,192,26392,1,0,0:0:0:0:
441,136,26517,2,0,B|376:136|376:136|364:132|364:132|292:132,1,150
256,56,26892,1,0,0:0:0:0:
180,92,27017,6,0,B|140:100|140:100|104:92,1,75
52,152,27267,2,0,B|60:192|60:192|52:228,1,75
16,300,27517,2,0,L|156:216,1,150
216,180,27892,1,0,0:0:0:0:
284,228,28017,6,0,P|356:248|432:228,1,150
500,192,28392,1,0,0:0:0:0:
427,153,28517,2,0,P|355:136|284:156,1,150
220,104,28892,1,0,0:0:0:0:
188,180,29017,6,0,L|32:180,1,150
64,260,29392,1,0,0:0:0:0:
64,260,29517,2,0,L|214:260,1,150
292,288,29892,1,0,0:0:0:0:
360,240,30017,2,0,B|360:200|360:200|376:168,1,75
436,112,30267,2,0,B|436:72|436:72|420:40,1,75
340,28,30517,2,0,L|184:40,1,150
108,44,30892,1,0,0:0:0:0:
164,104,31017,6,0,P|184:172|164:248,1,150
112,312,31392,1,0,0:0:0:0:
112,312,31517,2,0,L|260:260,1,150
408,204,32017,6,0,B|400:88|400:88|380:132,1,150
231,176,32517,2,0,B|239:292|239:292|259:248,1,150
408,204,33017,2,0,B|396:48|396:48,1,150
232,32,33517,5,0,0:0:0:0:
