osu file format v14

[General]
AudioFilename: audio.MP3
AudioLeadIn: 0
PreviewTime: 8017
Countdown: 0
SampleSet: Normal
StackLeniency: 0.7
Mode: 2
LetterboxInBreaks: 0
EpilepsyWarning: 1
WidescreenStoryboard: 0

[Editor]
DistanceSpacing: 1
BeatDivisor: 4
GridSize: 4
TimelineZoom: 3.699998

[Metadata]
Title:TRAUMATIC
TitleUnicode:TRAUMATIC
Artist:Utsu-P
ArtistUnicode:鬱P
Creator:Net0
Version:HELLO'S EPiLEPTiCAL DELUGE
Source:
Tags:Kagamine Rin Vocaloid Heavy Metal Rock Post Traumatic Stress Disorder Trynna Kalindraz Seto Kosuke Tarrasky ghm12 SkullKid puxtu S A N A E Prophecy Hi_Hello Nishizumi Chara breathless SpectorDG RyanSlipk Hatsune Miku Marianna
BeatmapID:1082770
BeatmapSetID:502648

[Difficulty]
HPDrainRate:7
CircleSize:4.2
OverallDifficulty:9.8
ApproachRate:9.8
SliderMultiplier:2.8
SliderTickRate:2

[Events]
//Background and Video events
0,0,"MadRin.jpg",0,0
//Break Periods
//Storyboard Layer 0 (Background)
//Storyboard Layer 1 (Fail)
//Storyboard Layer 2 (Pass)
//Storyboard Layer 3 (Foreground)
//Storyboard Sound Samples

[TimingPoints]
17,500,4,1,0,5,1,0
4017,-100,4,2,0,30,0,0
5892,-100,4,2,0,5,0,0
6017,-100,4,2,0,30,0,0
8017,250,4,1,2,70,1,0
8017,-125,4,1,2,70,0,0
16017,-125,4,1,2,50,0,0
16079,-125,4,1,0,5,0,0
16642,-125,4,1,2,50,0,0
17079,-125,4,1,0,5,0,0
17642,-125,4,1,2,50,0,0
18079,-125,4,2,0,5,0,0
18642,-66.6666666666667,4,1,2,50,0,0
19079,-66.6666666666667,4,2,0,5,0,0
19267,-66.6666666666667,4,1,2,50,0,0
19329,-66.6666666666667,4,2,0,5,0,0
19517,-66.6666666666667,4,1,2,50,0,0
19579,-66.6666666666667,4,2,0,5,0,0
19767,-66.6666666666667,4,1,2,50,0,0
19829,-66.6666666666667,4,2,0,5,0,0
20017,-125,3,1,2,70,0,0
31704,-125,3,1,2,5,0,0
31767,-125,3,1,2,70,0,0
32017,250,6,1,2,70,1,1
32017,-66.6666666666667,3,1,2,70,0,1
32079,-66.6666666666667,3,2,0,5,0,1
32267,-66.6666666666667,3,1,2,70,0,1
32329,-66.6666666666667,3,2,0,5,0,1
32517,-66.6666666666667,3,1,2,70,0,1
32579,-66.6666666666667,3,1,0,5,0,1
32767,-66.6666666666667,3,1,2,70,0,1
32829,-66.6666666666667,3,2,0,50,0,1
33017,-66.6666666666667,3,1,2,70,0,1
33079,-66.6666666666667,3,2,0,5,0,1
33267,-66.6666666666667,3,1,2,70,0,1
33329,-66.6666666666667,3,2,0,5,0,1
33517,-66.6666666666667,3,1,2,70,0,0

[Colours]
Combo1 : 128,0,0
Combo2 : 255,0,0
Combo3 : 64,0,0
Combo4 : 231,103,116
SliderBorder : 255,50,40

[HitObjects]
256,192,767,8,2,4017,0:0:0:0:
448,288,4517,6,0,L|484:144,1,140,2|0,0:0|0:0,0:0:0:0:
288,256,5017,2,0,L|224:96,1,140,2|0,0:0|0:0,0:0:0:0:
32,320,5517,2,0,L|128:96,1,210,2|0,0:0|0:0,0:0:0:0:
416,128,6017,5,2,0:0:0:0:
224,320,6517,2,0,L|176:180,1,140,2|0,0:0|0:0,0:0:0:0:
416,204,7017,2,0,P|472:140|256:128,1,490,2|0,0:0|0:0,0:0:0:0:
460,324,8017,6,0,L|348:244,1,112,12|0,0:0|0:0,0:0:0:0:
256,256,8267,2,0,L|372:176,1,112,8|0,0:0|0:0,0:0:0:0:
140,296,8517,1,8,0:0:0:0:
88,284,8579,1,0,0:0:0:0:
48,244,8642,1,2,0:0:0:0:
36,192,8704,1,2,0:0:0:0:
60,140,8767,1,10,0:0:0:0:
112,112,8829,1,0,0:0:0:0:
164,100,8892,1,0,0:0:0:0:
444,100,9017,6,0,L|304:56,1,112,8|0,0:0|0:0,0:0:0:0:
20,64,9267,2,0,L|172:44,1,112,8|0,0:0|0:0,0:0:0:0:
388,336,9517,1,10,0:0:0:0:
424,292,9579,1,2,0:0:0:0:
416,236,9642,1,2,0:0:0:0:
360,204,9704,1,2,0:0:0:0:
304,192,9767,1,10,0:0:0:0:
248,184,9829,1,2,0:0:0:0:
440,152,9892,2,0,L|508:96,1,56
108,312,10017,6,12,L|4:224,1,112,12|0,0:0|0:0,0:0:0:0:
216,232,10267,2,0,L|344:176,1,112,8|0,0:0|0:0,0:0:0:0:
96,200,10517,1,8,0:0:0:0:
60,156,10579,1,0,0:0:0:0:
56,100,10642,1,2,0:0:0:0:
92,60,10704,1,2,0:0:0:0:
144,40,10767,1,10,0:0:0:0:
208,32,10829,1,0,0:0:0:0:
272,32,10892,1,0,0:0:0:0:
60,128,11017,6,0,L|208:112,1,112,8|0,0:0|0:0,0:0:0:0:
304,184,11267,2,0,L|192:177,1,112,8|0,0:0|0:0,0:0:0:0:
480,280,11517,1,10,0:0:0:0:
496,228,11579,1,2,0:0:0:0:
488,172,11642,1,2,0:0:0:0:
452,128,11704,1,2,0:0:0:0:
404,100,11767,2,2,L|332:80,1,56,10|2,0:0|0:0,0:0:0:0:
112,112,11892,2,2,L|16:84,1,56
380,280,12017,6,2,L|512:216,1,112,14|2,0:0|0:0,0:0:0:0:
364,200,12267,2,0,L|232:180,1,112,8|0,0:0|0:0,0:0:0:0:
24,284,12517,6,2,L|180:268,1,112,14|2,0:0|0:0,0:0:0:0:
464,312,12767,1,8,0:0:0:0:
412,304,12829,1,0,0:0:0:0:
360,292,12892,1,0,0:0:0:0:
72,204,13017,6,2,L|200:216,1,112,14|2,0:0|0:0,0:0:0:0:
432,196,13267,2,2,L|304:180,1,112,10|2,0:0|0:0,0:0:0:0:
8,132,13517,6,2,L|124:188,1,112,14|2,0:0|0:0,0:0:0:0:
312,48,13767,1,8,0:0:0:0:
260,72,13829,1,0,0:0:0:0:
210,95,13892,1,0,0:0:0:0:
496,142,14017,6,0,L|408:212,1,112,8|0,0:0|0:0,0:0:0:0:
43,146,14267,2,0,L|132:216,1,112,8|0,0:0|0:0,0:0:0:0:
504,246,14517,2,0,L|416:316,1,112,8|0,0:0|0:0,0:0:0:0:
76,256,14767,1,0,0:0:0:0:
28,288,14830,1,2,0:0:0:0:
76,316,14892,1,10,0:0:0:0:
428,352,15017,5,8,0:0:0:0:
476,324,15079,1,0,0:0:0:0:
488,268,15142,1,8,0:0:0:0:
456,224,15204,1,0,0:0:0:0:
72,244,15267,1,8,0:0:0:0:
20,200,15329,1,0,0:0:0:0:
40,140,15392,1,8,0:0:0:0:
96,120,15454,1,0,0:0:0:0:
416,132,15517,6,2,L|500:120,1,56,10|2,0:0|0:0,0:0:0:0:
280,104,15642,2,2,L|212:88,1,56,10|2,0:0|0:0,0:0:0:0:
40,50,15767,2,10,L|96:60,1,56
478,187,15892,2,10,L|424:200,1,56
72,336,16017,6,0,P|44:240|380:148,1,560,0|8,0:0|0:0,0:0:0:0:
172,184,16767,1,0,0:0:0:0:
380,224,16892,1,8,0:0:0:0:
64,344,17017,6,0,P|95:114|380:112,1,560,8|8,0:0|0:0,0:0:0:0:
152,188,17767,1,0,0:0:0:0:
404,224,17892,1,8,0:0:0:0:
80,344,18017,6,0,P|40:268|368:140,1,560,8|8,0:0|0:0,0:0:0:0:
140,188,18767,1,0,0:0:0:0:
416,224,18892,1,8,0:0:0:0:
68,352,19017,6,0,P|4:240|116:80,1,315.000012016297
428,100,19267,2,0,P|508:204|396:312,1,315.000012016297
140,280,19517,2,0,P|40:192|160:104,1,315.000012016297
376,264,19767,2,0,P|472:188|336:148,1,315.000012016297
144,272,20017,6,0,L|16:252,1,112,12|0,0:0|0:0,0:0:0:0:
316,232,20267,2,0,L|204:245,1,112,8|0,0:0|0:0,0:0:0:0:
440,304,20517,1,8,0:0:0:0:
488,280,20579,1,0,0:0:0:0:
504,224,20642,1,2,0:0:0:0:
464,184,20704,1,2,0:0:0:0:
412,164,20767,1,10,0:0:0:0:
356,156,20829,1,0,0:0:0:0:
300,172,20892,1,0,0:0:0:0:
494,96,21017,6,0,L|384:112,1,112,8|0,0:0|0:0,0:0:0:0:
20,109,21267,2,0,L|132:116,1,112,8|0,0:0|0:0,0:0:0:0:
412,308,21517,1,10,0:0:0:0:
460,276,21579,1,2,0:0:0:0:
480,224,21642,1,2,0:0:0:0:
452,176,21704,1,2,0:0:0:0:
400,156,21767,1,10,0:0:0:0:
344,148,21829,1,2,0:0:0:0:
288,148,21892,1,2,0:0:0:0:
236,164,21954,1,0,0:0:0:0:
501,80,22017,6,0,L|392:104,1,112,12|0,0:0|0:0,0:0:0:0:
24,56,22267,2,0,L|135:68,1,112,8|0,0:0|0:0,0:0:0:0:
456,280,22517,1,8,0:0:0:0:
480,240,22580,1,0,0:0:0:0:
468,188,22642,1,2,0:0:0:0:
424,156,22705,1,2,0:0:0:0:
372,140,22767,1,10,0:0:0:0:
320,148,22829,1,0,0:0:0:0:
272,164,22892,1,0,0:0:0:0:
480,88,23017,6,0,L|340:76,1,112,8|0,0:0|0:0,0:0:0:0:
16,96,23267,2,0,L|164:80,1,112,8|0,0:0|0:0,0:0:0:0:
384,320,23517,1,10,0:0:0:0:
440,300,23579,1,2,0:0:0:0:
456,248,23642,1,2,0:0:0:0:
432,192,23704,1,2,0:0:0:0:
384,176,23767,1,10,0:0:0:0:
324,160,23829,1,2,0:0:0:0:
292,116,23892,1,2,0:0:0:0:
328,68,23954,1,0,0:0:0:0:
160,336,24017,5,10,0:0:0:0:
104,328,24079,1,2,0:0:0:0:
60,292,24142,1,2,0:0:0:0:
68,236,24204,1,2,0:0:0:0:
120,212,24267,1,10,0:0:0:0:
180,204,24329,1,0,0:0:0:0:
380,212,24392,2,0,L|456:196,1,56
140,276,24517,5,10,0:0:0:0:
88,256,24579,1,2,0:0:0:0:
72,208,24642,1,2,0:0:0:0:
104,168,24704,1,2,0:0:0:0:
312,164,24767,2,0,L|367:161,1,56,8|0,0:0|0:0,0:0:0:0:
92,112,24892,2,0,L|20:104,1,56
364,328,25017,5,10,0:0:0:0:
420,316,25079,1,2,0:0:0:0:
464,280,25142,1,2,0:0:0:0:
460,224,25204,1,2,0:0:0:0:
408,200,25267,1,8,0:0:0:0:
352,196,25329,1,0,0:0:0:0:
200,196,25392,2,0,L|124:196,1,56
412,288,25517,5,10,0:0:0:0:
452,252,25579,1,2,0:0:0:0:
460,196,25642,1,2,0:0:0:0:
428,152,25704,1,2,0:0:0:0:
220,144,25767,2,0,L|152:128,1,56,8|0,0:0|0:0,0:0:0:0:
400,92,25892,2,0,L|476:76,1,56,8|0,0:0|0:0,0:0:0:0:
19,280,26017,6,0,L|128:308,1,112,12|0,0:0|0:0,0:0:0:0:
472,256,26267,2,2,L|361:276,1,112,10|2,0:0|0:0,0:0:0:0:
24,224,26517,2,0,L|135:238,1,112,8|0,0:0|0:0,0:0:0:0:
488,224,26767,1,0,0:0:0:0:
424,208,26830,1,0,0:0:0:0:
360,192,26892,1,8,0:0:0:0:
12,124,27017,2,0,L|122:139,1,112,8|0,0:0|0:0,0:0:0:0:
508,120,27267,2,0,L|397:135,1,112,8|0,0:0|0:0,0:0:0:0:
88,344,27517,5,10,0:0:0:0:
32,328,27579,1,2,0:0:0:0:
8,284,27642,1,2,0:0:0:0:
24,236,27704,1,0,0:0:0:0:
84,216,27767,2,0,L|156:208,1,56,8|0,0:0|0:0,0:0:0:0:
424,208,27892,2,0,L|504:204,1,56
296,156,28017,6,0,L|200:140,1,56,10|0,0:0|0:0,0:0:0:0:
92,136,28142,2,0,L|20:132,1,56,2|0,0:0|0:0,0:0:0:0:
296,84,28267,2,0,L|368:64,1,56,8|0,0:0|0:0,0:0:0:0:
108,36,28392,2,0,L|40:28,1,56
328,148,28517,6,0,L|404:132,1,56,10|0,0:0|0:0,0:0:0:0:
108,100,28642,2,0,L|40:92,1,56,2|0,0:0|0:0,0:0:0:0:
332,220,28767,2,0,L|400:204,1,56,8|0,0:0|0:0,0:0:0:0:
60,232,28892,2,0,L|136:212,1,56
404,128,29017,6,0,L|464:124,1,56,10|0,0:0|0:0,0:0:0:0:
112,188,29142,2,0,L|40:184,1,56,10|0,0:0|0:0,0:0:0:0:
392,196,29267,2,0,L|492:184,1,56,8|0,0:0|0:0,0:0:0:0:
128,248,29392,2,0,L|44:240,1,56,8|0,0:0|0:0,0:0:0:0:
420,248,29517,6,0,L|500:240,1,56,10|0,0:0|0:0,0:0:0:0:
144,304,29642,2,0,L|80:300,1,56,10|0,0:0|0:0,0:0:0:0:
440,292,29767,2,0,L|504:284,1,56,8|0,0:0|0:0,0:0:0:0:
32,267,29892,2,0,L|88:264,1,56,8|0,0:0|0:0,0:0:0:0:
368,268,30017,6,0,L|292:260,1,56,10|0,0:0|0:0,0:0:0:0:
32,186,30142,2,0,L|116:178,1,56,2|0,0:0|0:0,0:0:0:0:
383,173,30267,2,0,L|328:176,1,56,10|0,0:0|0:0,0:0:0:0:
32,116,30392,2,0,L|87:118,1,56,2|0,0:0|0:0,0:0:0:0:
496,136,30517,2,0,L|432:136,1,56
152,284,30642,1,0,0:0:0:0:
64,240,30767,1,8,0:0:0:0:
36,188,30829,1,0,0:0:0:0:
172,172,30892,2,0,L|252:168,1,56
384,236,31017,5,0,0:0:0:0:
464,192,31142,1,8,0:0:0:0:
496,132,31204,1,0,0:0:0:0:
348,124,31267,2,0,L|272:128,1,56
95,233,31392,6,2,L|40:240,1,56,10|2,0:0|0:0,0:0:0:0:
428,244,31517,2,2,L|484:251,1,56,10|2,0:0|0:0,0:0:0:0:
87,301,31642,2,2,L|32:308,1,56,10|2,0:0|0:0,0:0:0:0:
503,326,31767,2,2,L|447:319,1,56,10|2,0:0|0:0,0:0:0:0:
24,374,31892,2,2,L|80:368,1,56,10|2,0:0|0:0,0:0:0:0:
336,368,32017,6,0,P|464:336|480:144,1,315.000012016297,4|0,0:0|0:0,0:0:0:0:
176,368,32267,2,0,P|48:336|32:144,1,315.000012016297,4|0,0:0|0:0,0:0:0:0:
448,320,32517,6,0,P|496:208|352:96,1,315.000012016297,4|0,0:0|0:0,0:0:0:0:
64,320,32767,2,0,P|16:208|160:96,1,315.000012016297,4|0,0:0|0:0,0:0:0:0:
497,210,33017,6,0,P|477:62|336:15,1,315.000012016297,4|0,0:0|0:0,0:0:0:0:
14,210,33267,2,0,P|34:62|176:16,1,315.000012016297,4|0,0:0|0:0,0:0:0:0:
496,208,33517,1,4,0:0:0:0:
