osu file format v14

[General]
AudioFilename: audio.MP3
AudioLeadIn: 0
PreviewTime: 8017
Countdown: 0
SampleSet: Normal
StackLeniency: 0.7
Mode: 2
LetterboxInBreaks: 0
EpilepsyWarning: 1
WidescreenStoryboard: 0

[Editor]
DistanceSpacing: 0.5
BeatDivisor: 4
GridSize: 4
TimelineZoom: 3.699998

[Metadata]
Title:TRAUMATIC
TitleUnicode:TRAUMATIC
Artist:Utsu-P
ArtistUnicode:鬱P
Creator:Net0
Version:EVANENT'S RAIN
Source:
Tags:Kagamine Rin Vocaloid Heavy Metal Rock Post Traumatic Stress Disorder Trynna Kalindraz Seto Kosuke Tarrasky ghm12 SkullKid puxtu S A N A E Prophecy Hi_Hello Nishizumi Chara breathless SpectorDG RyanSlipk Hatsune Miku Marianna
BeatmapID:1084062
BeatmapSetID:502648

[Difficulty]
HPDrainRate:6
CircleSize:3.8
OverallDifficulty:8.8
ApproachRate:8.8
SliderMultiplier:1.8
SliderTickRate:2

[Events]
//Background and Video events
0,0,"MadRin.jpg",0,0
//Break Periods
2,4217,5388
2,6217,7388
//Storyboard Layer 0 (Background)
//Storyboard Layer 1 (Fail)
//Storyboard Layer 2 (Pass)
//Storyboard Layer 3 (Foreground)
//Storyboard Sound Samples

[TimingPoints]
17,500,4,1,0,5,1,0
4017,-100,4,2,0,20,0,0
8017,250,4,1,2,50,1,0
14017,-125,4,1,2,50,0,0
15017,-83.3333333333333,4,1,2,50,0,0
16017,-200,4,1,2,40,0,0
19017,-100,4,1,2,50,0,0
19204,-100,4,1,2,10,0,0
19267,-100,4,1,2,50,0,0
19454,-100,4,1,2,10,0,0
19517,-100,4,1,2,50,0,0
19704,-100,4,1,2,10,0,0
19767,-100,4,1,2,50,0,0
19954,-100,4,1,2,10,0,0
20017,-100,3,1,2,70,0,0
23017,-90.9090909090909,3,1,2,70,0,0
24017,-100,3,1,2,70,0,0
26017,-125,3,1,2,70,0,0
27017,-133.333333333333,4,1,2,70,0,0
28017,-100,3,1,2,70,0,0
31017,-100,4,1,2,75,0,0
31517,-80,4,1,2,60,0,0
32017,250,6,1,2,85,1,1
32017,-142.857142857143,3,1,2,85,0,1
32204,-142.857142857143,3,1,2,10,0,1
32267,-133.333333333333,3,1,2,85,0,1
32454,-133.333333333333,3,1,2,10,0,1
32517,-125,3,1,2,85,0,1
32704,-125,3,1,2,10,0,1
32767,-117.647058823529,3,1,2,85,0,1
32954,-117.647058823529,3,1,2,10,0,1
33017,-111.111111111111,3,1,2,85,0,1
33204,-111.111111111111,3,1,2,10,0,1
33267,-100,3,1,2,85,0,1
33454,-100,3,1,2,10,0,1
33517,-100,3,1,2,100,0,0

[Colours]
Combo1 : 33,58,160
Combo2 : 255,53,73
Combo3 : 255,9,15
Combo4 : 125,213,140
SliderBorder : 255,50,40

[HitObjects]
256,192,767,12,0,3767,0:0:0:0:
116,336,4017,5,4,0:0:0:0:
444,44,6017,5,4,0:0:0:0:
348,128,8017,5,2,0:0:0:0:
240,80,8142,1,8,0:0:0:0:
348,56,8267,2,0,L|440:56,1,90,2|8,0:0|0:0,0:0:0:0:
240,108,8517,2,0,L|204:192,1,90,2|8,0:0|0:0,0:0:0:0:
308,232,8767,6,0,L|352:232,2,45,2|2|10,0:0|0:0|0:0,0:0:0:0:
380,292,9017,6,0,L|472:292,1,90,2|8,0:0|0:0,0:0:0:0:
244,332,9267,2,0,L|152:332,1,90,2|8,0:0|0:0,0:0:0:0:
64,240,9517,1,2,0:0:0:0:
172,208,9642,1,8,0:0:0:0:
84,148,9767,2,0,L|40:148,2,45,2|2|10,0:0|0:0|0:0,0:0:0:0:
272,100,10017,5,2,0:0:0:0:
380,144,10142,1,8,0:0:0:0:
272,176,10267,1,2,0:0:0:0:
164,236,10392,1,8,0:0:0:0:
272,308,10517,1,2,0:0:0:0:
384,252,10642,1,8,0:0:0:0:
276,256,10767,2,0,L|232:256,2,45,2|2|10,0:0|0:0|0:0,0:0:0:0:
464,256,11017,5,2,0:0:0:0:
356,200,11142,1,8,0:0:0:0:
240,192,11267,1,2,0:0:0:0:
348,140,11392,1,8,0:0:0:0:
240,112,11517,1,2,0:0:0:0:
348,80,11642,1,8,0:0:0:0:
124,104,11767,6,0,L|80:104,2,45,2|2|10,0:0|0:0|0:0,0:0:0:0:
340,56,12017,6,0,L|364:144,1,90,6|8,0:0|0:0,0:0:0:0:
240,199,12267,1,2,0:0:0:0:
384,248,12392,2,0,L|296:264,2,90,8|2|8,0:0|0:0|0:0,0:0:0:0:
184,332,12767,5,2,0:0:0:0:
140,332,12829,1,2,0:0:0:0:
96,332,12892,1,10,0:0:0:0:
232,144,13017,6,0,L|300:204,1,90,2|8,0:0|0:0,0:0:0:0:
216,264,13267,1,2,0:0:0:0:
132,236,13392,2,0,L|40:236,2,90,8|2|8,0:0|0:0|0:0,0:0:0:0:
340,184,13767,5,2,0:0:0:0:
384,184,13829,1,2,0:0:0:0:
428,184,13892,1,10,0:0:0:0:
356,104,14017,6,0,L|284:104,1,72,2|8,0:0|0:0,0:0:0:0:
96,152,14267,2,0,L|168:152,1,72,2|8,0:0|0:0,0:0:0:0:
268,236,14517,2,0,L|196:236,1,72,2|8,0:0|0:0,0:0:0:0:
304,308,14767,5,2,0:0:0:0:
356,308,14829,1,2,0:0:0:0:
304,308,14892,1,10,0:0:0:0:
120,336,15017,6,0,L|40:264,1,107.999996704102,2|8,0:0|0:0,0:0:0:0:
224,208,15267,2,0,L|332:208,1,107.999996704102,2|8,0:0|0:0,0:0:0:0:
440,72,15517,2,0,L|332:72,1,107.999996704102,2|2,0:0|0:0,0:0:0:0:
244,128,15704,5,0,0:0:0:0:
180,128,15767,1,10,0:0:0:0:
228,128,15829,1,2,0:0:0:0:
284,128,15892,1,2,0:0:0:0:
472,200,16017,5,8,0:0:0:0:
148,276,16642,5,10,0:0:0:0:
292,276,16767,1,10,0:0:0:0:
220,276,16892,1,10,0:0:0:0:
420,276,17017,1,6,0:0:0:0:
364,108,17642,5,10,0:0:0:0:
220,108,17767,1,10,0:0:0:0:
292,108,17892,1,10,0:0:0:0:
92,108,18017,1,6,0:0:0:0:
196,288,18642,5,10,0:0:0:0:
316,288,18767,1,10,0:0:0:0:
152,288,18892,1,0,0:0:0:0:
340,140,19017,6,0,L|476:140,1,135,2|0,0:0|0:0,0:0:0:0:
448,192,19267,2,0,L|312:192,1,135,2|0,0:0|0:0,0:0:0:0:
340,248,19517,6,0,L|476:248,1,135,2|0,0:0|0:0,0:0:0:0:
448,304,19767,2,0,L|312:304,1,135,2|0,0:0|0:0,0:0:0:0:
256,300,20017,5,2,0:0:0:0:
156,224,20142,1,8,0:0:0:0:
268,176,20267,1,2,0:0:0:0:
152,184,20392,1,8,0:0:0:0:
72,336,20517,2,0,L|164:336,1,90,2|8,0:0|0:0,0:0:0:0:
88,264,20767,6,0,L|44:264,2,45,2|2|10,0:0|0:0|0:0,0:0:0:0:
168,164,21017,6,0,L|260:164,1,90,2|8,0:0|0:0,0:0:0:0:
356,236,21267,2,0,L|264:236,1,90,2|8,0:0|0:0,0:0:0:0:
148,288,21517,2,0,L|240:288,1,90,2|8,0:0|0:0,0:0:0:0:
436,336,21767,5,2,0:0:0:0:
384,336,21829,1,2,0:0:0:0:
332,336,21892,1,10,0:0:0:0:
196,336,22017,6,0,L|104:336,2,90,2|8|2,0:0|0:0|0:0,0:0:0:0:
332,256,22392,2,0,L|424:256,2,90,8|2|8,0:0|0:0|0:0,0:0:0:0:
196,248,22767,1,2,0:0:0:0:
144,248,22829,1,2,0:0:0:0:
92,248,22892,1,10,0:0:0:0:
364,152,23017,6,0,L|464:152,2,99.0000030212403,2|8|2,0:0|0:0|0:0,0:0:0:0:
244,104,23392,2,0,L|144:104,2,99.0000030212403,8|2|8,0:0|0:0|0:0,0:0:0:0:
92,164,23767,1,2,0:0:0:0:
128,200,23829,1,2,0:0:0:0:
180,200,23892,1,10,0:0:0:0:
44,336,24017,6,0,L|136:336,2,90,2|8|2,0:0|0:0|0:0,0:0:0:0:
268,212,24392,1,8,0:0:0:0:
380,212,24517,1,2,0:0:0:0:
472,264,24642,1,8,0:0:0:0:
324,340,24767,5,2,0:0:0:0:
276,340,24829,1,2,0:0:0:0:
228,340,24892,1,10,0:0:0:0:
424,144,25017,6,0,L|332:144,2,90,2|8|2,0:0|0:0|0:0,0:0:0:0:
280,232,25392,2,0,L|188:232,1,90,8|2,0:0|0:0,0:0:0:0:
36,152,25642,2,0,L|128:152,1,90,8|2,0:0|0:0,0:0:0:0:
88,152,25829,5,2,0:0:0:0:
48,152,25892,1,10,0:0:0:0:
160,312,26017,6,0,L|232:312,1,72,2|8,0:0|0:0,0:0:0:0:
332,240,26267,2,0,L|260:240,1,72,2|8,0:0|0:0,0:0:0:0:
116,216,26517,2,0,L|168:164,1,72,2|8,0:0|0:0,0:0:0:0:
388,136,26767,5,2,0:0:0:0:
428,176,26829,1,2,0:0:0:0:
396,224,26892,1,10,0:0:0:0:
272,308,27017,6,0,L|340:308,1,67.5000025749208,2|8,0:0|0:0,0:0:0:0:
88,244,27267,2,0,L|156:244,1,67.5000025749208,2|8,0:0|0:0,0:0:0:0:
260,172,27517,2,0,L|192:172,1,67.5000025749208,2|8,0:0|0:0,0:0:0:0:
440,84,27767,5,2,0:0:0:0:
392,84,27829,1,2,0:0:0:0:
348,84,27892,1,10,0:0:0:0:
232,40,28017,5,6,0:0:0:0:
132,40,28142,1,8,0:0:0:0:
40,80,28267,1,6,0:0:0:0:
148,80,28392,1,8,0:0:0:0:
236,144,28517,1,0,0:0:0:0:
180,228,28642,1,0,0:0:0:0:
84,232,28767,6,0,L|40:232,2,45,2|2|10,0:0|0:0|0:0,0:0:0:0:
280,344,29017,5,6,0:0:0:0:
380,344,29142,1,8,0:0:0:0:
472,304,29267,1,6,0:0:0:0:
364,304,29392,1,8,0:0:0:0:
276,240,29517,1,0,0:0:0:0:
332,156,29642,1,0,0:0:0:0:
428,152,29767,6,0,L|472:152,2,45,2|2|10,0:0|0:0|0:0,0:0:0:0:
328,192,30017,5,0,0:0:0:0:
212,192,30142,1,0,0:0:0:0:
184,192,30267,1,0,0:0:0:0:
300,192,30392,1,0,0:0:0:0:
328,192,30517,1,0,0:0:0:0:
212,192,30642,1,0,0:0:0:0:
140,272,30767,5,2,0:0:0:0:
188,272,30829,1,2,0:0:0:0:
236,272,30892,1,10,0:0:0:0:
372,336,31017,5,6,0:0:0:0:
432,296,31142,1,8,0:0:0:0:
448,216,31267,1,2,0:0:0:0:
400,152,31392,1,8,0:0:0:0:
136,328,31517,5,0,0:0:0:0:
84,316,31579,1,0,0:0:0:0:
48,264,31642,1,0,0:0:0:0:
40,200,31704,1,0,0:0:0:0:
56,140,31767,1,0,0:0:0:0:
100,96,31829,1,0,0:0:0:0:
160,88,31892,1,0,0:0:0:0:
188,340,32017,6,0,L|284:340,1,94.499997116089,6|0,0:0|0:0,0:0:0:0:
308,288,32267,6,0,L|204:288,1,101.250003862381,6|0,0:0|0:0,0:0:0:0:
168,240,32517,6,0,L|276:240,1,108,6|0,0:0|0:0,0:0:0:0:
320,200,32767,2,0,L|204:200,1,114.750002188683,6|0,0:0|0:0,0:0:0:0:
152,156,33017,6,0,L|276:156,1,121.499996292114,6|0,0:0|0:0,0:0:0:0:
332,120,33267,2,0,L|196:120,1,135,6|0,0:0|0:0,0:0:0:0:
376,64,33517,5,14,0:0:0:0:
