osu file format v14

[General]
AudioFilename: audio.MP3
AudioLeadIn: 0
PreviewTime: 8017
Countdown: 0
SampleSet: Normal
StackLeniency: 0.7
Mode: 2
LetterboxInBreaks: 0
EpilepsyWarning: 1
WidescreenStoryboard: 0

[Editor]
DistanceSpacing: 1
BeatDivisor: 4
GridSize: 4
TimelineZoom: 3.699998

[Metadata]
Title:TRAUMATIC
TitleUnicode:TRAUMATIC
Artist:Utsu-P
ArtistUnicode:鬱P
Creator:Net0
Version:CHARA'S DYSFUNCTiONAL OVERDOSE
Source:
Tags:Kagamine Rin Vocaloid Heavy Metal Rock Post Traumatic Stress Disorder Trynna Kalindraz Seto Kosuke Tarrasky ghm12 SkullKid puxtu S A N A E Prophecy Hi_Hello Nishizumi Chara breathless SpectorDG RyanSlipk Hatsune Miku Marianna
BeatmapID:1082766
BeatmapSetID:502648

[Difficulty]
HPDrainRate:6
CircleSize:3.8
OverallDifficulty:9.5
ApproachRate:9.5
SliderMultiplier:2.3
SliderTickRate:2

[Events]
//Background and Video events
0,0,"MadRin.jpg",0,0
//Break Periods
//Storyboard Layer 0 (Background)
//Storyboard Layer 1 (Fail)
//Storyboard Layer 2 (Pass)
//Storyboard Layer 3 (Foreground)
//Storyboard Sound Samples

[TimingPoints]
17,500,4,1,0,5,1,0
4017,-100,4,2,0,30,0,0
5892,-100,4,2,0,5,0,0
6017,-100,4,2,0,30,0,0
8017,250,4,2,5,70,1,0
8017,-125,4,2,5,80,0,0
14017,-125,4,1,5,80,0,0
15017,-125,4,2,5,80,0,0
16017,-125,4,1,2,50,0,0
19767,-83.3333333333333,4,1,2,50,0,0
20017,-100,3,2,5,80,0,0
32017,250,6,2,5,85,1,1
32017,-72.7272727272727,3,2,5,85,0,1
33517,-100,3,1,5,85,0,0

[Colours]
Combo1 : 128,0,0
Combo2 : 255,0,0
Combo3 : 64,0,0
Combo4 : 231,103,116
SliderBorder : 255,50,40

[HitObjects]
256,192,767,12,0,3767,0:0:0:0:
56,192,4017,5,6,0:0:0:0:
456,192,6017,1,6,0:0:0:0:
252,284,7017,2,0,P|104:272|156:44,1,402.5
432,136,8017,6,0,L|300:120,1,92,4|0,0:0|1:0,0:0:0:0:
80,136,8267,2,0,L|212:120,1,92,0|0,0:1|1:0,0:0:0:0:
388,192,8517,2,0,P|424:140|416:104,1,92,0|0,0:0|1:0,0:0:0:0:
232,84,8767,1,0,0:0:0:0:
284,104,8829,1,0,0:0:0:0:
336,80,8892,1,0,1:0:0:0:
136,152,9017,6,0,L|44:124,1,92,0|0,0:0|1:0,0:0:0:0:
300,68,9267,2,0,L|211:94,1,92,0|0,0:0|1:0,0:0:0:0:
464,125,9517,2,0,L|376:152,1,92,0|0,0:0|1:0,0:0:0:0:
140,248,9767,6,0,L|96:184,1,46
184,156,9892,1,0,1:0:0:0:
440,112,10017,6,0,L|328:132,1,92,0|0,0:0|1:0,0:0:0:0:
472,156,10267,1,0,0:0:0:0:
352,188,10392,1,0,1:0:0:0:
80,196,10517,2,0,P|124:152|192:132,1,92,0|0,0:0|1:0,0:0:0:0:
264,164,10767,1,0,0:0:0:0:
212,184,10829,1,0,0:0:0:0:
160,172,10892,1,0,1:0:0:0:
428,184,11017,6,0,P|480:136|488:108,1,92,0|0,0:0|1:0,0:0:0:0:
296,60,11267,2,0,L|200:60,1,92,0|0,0:0|1:0,0:0:0:0:
404,160,11517,2,0,L|308:160,1,92,0|0,0:0|1:0,0:0:0:0:
108,192,11767,2,0,L|72:136,1,46
160,96,11892,1,0,1:0:0:0:
448,104,12017,5,4,0:0:0:0:
332,80,12142,1,0,1:0:0:0:
456,80,12267,1,0,0:0:0:0:
340,56,12392,1,0,1:0:0:0:
200,80,12517,1,0,0:0:0:0:
316,56,12642,1,0,1:0:0:0:
192,56,12767,1,0,0:0:0:0:
308,32,12892,1,0,1:0:0:0:
172,56,13017,5,0,0:0:0:0:
56,80,13142,1,0,1:0:0:0:
180,80,13267,1,0,0:0:0:0:
64,104,13392,1,0,1:0:0:0:
200,80,13517,1,0,0:0:0:0:
316,56,13642,1,0,1:0:0:0:
192,56,13767,1,0,0:0:0:0:
308,32,13892,1,0,1:0:0:0:
88,152,14017,6,0,P|104:84|180:52,1,138,0|0,2:0|2:0,0:0:0:0:
424,152,14267,2,0,P|408:84|332:52,1,138,0|0,2:0|2:0,0:0:0:0:
200,192,14517,2,0,P|120:168|96:88,1,138,0|0,2:0|2:0,0:0:0:0:
312,192,14767,2,0,P|392:168|416:88,1,138,0|0,2:0|2:0,0:0:0:0:
156,84,15017,5,0,0:0:0:0:
256,120,15142,1,0,1:0:0:0:
356,84,15267,1,0,0:0:0:0:
136,60,15392,1,0,1:0:0:0:
376,60,15517,1,0,1:0:0:0:
176,128,15767,1,0,1:0:0:0:
256,120,15850,1,0,0:0:0:0:
336,128,15933,1,0,0:0:0:0:
56,136,16017,5,4,0:2:0:0:
56,136,16642,2,0,L|188:136,2,92
456,136,17017,5,4,0:2:0:0:
456,136,17642,2,0,L|324:136,2,92
56,136,18017,5,4,0:2:0:0:
56,136,18642,2,0,L|188:136,2,92
312,184,19017,6,0,P|384:152|408:60,1,138,4|0,0:2|2:0,0:0:0:0:
200,184,19267,2,0,P|128:152|104:60,1,138,4|0,0:2|2:0,0:0:0:0:
340,128,19517,2,0,P|404:112|480:48,1,138,4|0,0:2|2:0,0:0:0:0:
256,68,19767,2,0,L|118:68,1,137.999995788574,4|0,0:2|0:0,0:0:0:0:
396,112,20017,6,0,L|296:212,1,115,4|0,2:0|1:0,0:0:0:0:
200,244,20267,1,0,0:0:0:0:
325,274,20392,1,0,1:0:0:0:
40,304,20517,2,0,L|116:188,1,115,0|0,0:0|1:0,0:0:0:0:
244,176,20767,1,0,0:0:0:0:
188,144,20829,1,0,0:0:0:0:
132,168,20892,1,0,1:0:0:0:
404,172,21017,6,0,L|460:64,1,115,0|0,0:0|1:0,0:0:0:0:
196,84,21267,2,0,L|324:84,1,115,0|0,0:0|1:0,0:0:0:0:
55,69,21517,2,0,L|108:172,1,115,0|0,0:0|1:0,0:0:0:0:
312,208,21767,1,0,0:0:0:0:
256,232,21829,1,0,0:0:0:0:
200,208,21892,1,0,1:0:0:0:
440,208,22017,6,0,L|400:80,1,115,0|0,0:0|1:0,0:0:0:0:
160,144,22267,2,0,L|200:16,1,115,0|0,0:0|1:0,0:0:0:0:
448,56,22517,2,0,L|312:112,1,115,0|0,0:0|1:0,0:0:0:0:
80,144,22767,2,0,L|44:88,1,57.5
120,56,22892,1,0,1:0:0:0:
404,196,23017,6,0,L|340:92,1,115,0|0,0:0|1:0,0:0:0:0:
108,196,23267,2,0,L|172:92,1,115,0|0,0:0|1:0,0:0:0:0:
424,120,23517,2,0,P|344:80|288:80,1,115,0|0,0:0|1:0,0:0:0:0:
80,144,23767,2,0,L|44:88,1,57.5
120,56,23892,1,0,1:0:0:0:
352,116,24017,6,0,L|520:100,3,115,4|0|0|0,0:0|1:0|0:0|1:0,0:0:0:0:
312,88,24517,2,0,L|144:72,3,115,0|0|0|0,0:0|1:0|0:0|1:0,0:0:0:0:
45,105,25017,2,0,L|160:116,3,115,0|0|0|0,0:0|1:0|0:0|1:0,0:0:0:0:
368,228,25517,2,0,P|436:188|432:144,1,115,0|0,0:0|1:0,0:0:0:0:
144,228,25767,2,0,P|76:188|80:144,1,115,0|0,0:0|1:0,0:0:0:0:
340,124,26017,6,0,P|384:76|460:36,1,115,0|0,0:0|1:0,0:0:0:0:
160,104,26267,1,0,0:0:0:0:
352,104,26392,1,0,1:0:0:0:
52,184,26517,2,0,L|84:60,1,115,0|0,0:0|1:0,0:0:0:0:
312,148,26767,1,0,0:0:0:0:
256,160,26829,1,0,0:0:0:0:
200,148,26892,1,0,1:0:0:0:
384,212,27017,6,0,P|472:188|488:156,1,115,0|0,0:0|1:0,0:0:0:0:
208,144,27267,2,0,P|249:182|305:182,1,115,0|0,0:0|1:0,0:0:0:0:
56,192,27517,5,0,0:0:0:0:
372,192,27642,1,0,1:0:0:0:
256,208,27767,1,0,1:0:0:0:
140,192,27892,1,0,1:0:0:0:
432,128,28017,6,0,L|304:112,1,115,4|0,0:0|1:0,0:0:0:0:
444,100,28267,2,0,L|316:84,1,115,0|0,0:0|1:0,0:0:0:0:
456,72,28517,2,0,L|328:56,1,115,0|0,0:0|1:0,0:0:0:0:
468,44,28767,2,0,L|496:112,2,57.5,0|0|0,0:0|0:0|1:0,0:0:0:0:
80,128,29017,6,0,L|208:112,1,115,4|0,0:0|1:0,0:0:0:0:
68,100,29267,2,0,L|196:84,1,115,0|0,0:0|1:0,0:0:0:0:
56,72,29517,2,0,L|184:56,1,115,0|0,0:0|1:0,0:0:0:0:
44,44,29767,2,0,L|16:112,2,57.5,0|0|0,0:0|0:0|1:0,0:0:0:0:
352,192,30017,5,4,0:0:0:0:
256,240,30142,1,0,1:0:0:0:
160,192,30267,1,0,0:0:0:0:
396,144,30392,1,0,1:0:0:0:
188,108,30517,1,0,0:0:0:0:
324,108,30642,1,0,1:0:0:0:
116,144,30767,2,0,L|76:88,2,57.5,0|0|0,0:0|0:0|1:0,0:0:0:0:
312,108,31017,6,0,L|176:108,2,115,4|0|0,0:0|1:0|0:0,0:0:0:0:
96,164,31392,1,0,1:0:0:0:
416,164,31517,1,0,1:0:0:0:
184,184,31767,1,0,1:0:0:0:
256,192,31850,1,0,0:0:0:0:
328,184,31933,1,0,0:0:0:0:
40,248,32017,6,0,P|80:128|204:76,1,237.187502261996,6|0,0:0|0:0,0:0:0:0:
339,77,32267,6,0,P|439:136|472:248,1,237.187502261996,6|0,0:0|0:0,0:0:0:0:
188,228,32517,6,0,P|88:192|96:56,1,237.187502261996,6|0,0:0|0:0,0:0:0:0:
324,228,32767,6,0,P|424:192|416:56,1,237.187502261996,6|0,0:0|0:0,0:0:0:0:
40,224,33017,6,0,P|56:144|232:96,1,237.187502261996,6|0,0:0|0:0,0:0:0:0:
471,224,33267,6,0,P|434:115|325:80,1,237.187502261996,6|0,0:0|0:0,0:0:0:0:
20,64,33517,5,6,0:2:0:0:
