osu file format v14

[General]
AudioFilename: audio.MP3
AudioLeadIn: 0
PreviewTime: 8017
Countdown: 0
SampleSet: Normal
StackLeniency: 0.7
Mode: 1
LetterboxInBreaks: 0
EpilepsyWarning: 1
WidescreenStoryboard: 0

[Editor]
Bookmarks: 16017,20017
DistanceSpacing: 0.5
BeatDivisor: 2
GridSize: 32
TimelineZoom: 1.999999

[Metadata]
Title:TRAUMATIC
TitleUnicode:TRAUMATIC
Artist:Utsu-P
ArtistUnicode:鬱P
Creator:Net0
Version:KANTAN
Source:
Tags:Kagamine Rin Vocaloid Heavy Metal Rock Post Traumatic Stress Disorder Trynna Kalindraz Seto Kosuke Tarrasky ghm12 SkullKid puxtu S A N A E Prophecy Hi_Hello Nishizumi Chara breathless SpectorDG RyanSlipk Hatsune Miku Marianna
BeatmapID:1082772
BeatmapSetID:502648

[Difficulty]
HPDrainRate:5
CircleSize:2
OverallDifficulty:3
ApproachRate:9
SliderMultiplier:1
SliderTickRate:1

[Events]
//Background and Video events
0,0,"MadRin.jpg",0,120
//Break Periods
//Storyboard Layer 0 (Background)
//Storyboard Layer 1 (Fail)
//Storyboard Layer 2 (Pass)
//Storyboard Layer 3 (Foreground)
//Storyboard Sound Samples

[TimingPoints]
17,500,4,1,2,50,1,0
17,-100,4,1,2,5,0,0
4020,-50,4,1,2,50,0,0
8017,250,4,1,2,85,1,0
8017,-100,4,1,0,50,0,0
32017,250,6,1,2,100,1,0
32017,-100,6,1,2,100,0,1
33517,-100,6,1,2,100,0,0

[Colours]
Combo1 : 44,88,35
Combo2 : 115,145,95
Combo3 : 23,71,117
Combo4 : 231,103,116
Combo5 : 222,216,194
SliderBorder : 255,50,40

[HitObjects]
256,192,267,12,0,3517,0:0:0:0:
175,178,4017,5,0,0:0:0:0:
256,188,6017,1,0,0:0:0:0:
254,190,8017,5,6,0:0:0:0:
254,190,8517,1,0,0:0:0:0:
254,190,9017,1,8,0:0:0:0:
214,159,9267,1,8,0:0:0:0:
254,190,9517,1,0,0:0:0:0:
254,190,10017,5,8,0:0:0:0:
254,190,10517,1,0,0:0:0:0:
254,190,11017,1,8,0:0:0:0:
221,152,11267,1,8,0:0:0:0:
254,190,11517,1,0,0:0:0:0:
253,187,12017,5,8,0:0:0:0:
253,187,12517,1,8,0:0:0:0:
253,187,13017,1,8,0:0:0:0:
253,187,13517,1,10,0:0:0:0:
253,187,14017,1,4,0:0:0:0:
253,187,14517,1,10,0:0:0:0:
253,187,15017,1,4,0:0:0:0:
253,187,15517,1,10,0:0:0:0:
213,156,15767,1,8,0:0:0:0:
255,191,16017,5,4,0:0:0:0:
255,191,17017,5,8,0:0:0:0:
255,191,18017,5,8,0:0:0:0:
255,191,19017,5,12,0:0:0:0:
398,103,19267,1,0,0:0:0:0:
183,202,19517,1,0,0:0:0:0:
261,82,20017,5,12,0:0:0:0:
258,183,20517,1,0,0:0:0:0:
258,183,21017,1,8,0:0:0:0:
248,133,21267,1,8,0:0:0:0:
258,183,21517,1,0,0:0:0:0:
181,119,22017,5,8,0:0:0:0:
180,218,22517,1,0,0:0:0:0:
286,141,23017,1,8,0:0:0:0:
242,116,23267,1,8,0:0:0:0:
187,168,23517,1,0,0:0:0:0:
301,113,24017,5,0,0:0:0:0:
256,192,24517,1,0,0:0:0:0:
224,128,25017,1,0,0:0:0:0:
256,192,25517,1,0,0:0:0:0:
288,160,25767,1,0,0:0:0:0:
223,199,26017,5,8,0:0:0:0:
367,117,26517,1,0,0:0:0:0:
223,199,27017,1,8,0:0:0:0:
367,117,27517,1,0,0:0:0:0:
160,215,28017,1,12,0:0:0:0:
256,192,28267,12,0,31267,0:0:0:0:
258,213,32017,5,4,0:0:0:0:
258,213,32517,1,0,0:0:0:0:
258,213,33017,1,0,0:0:0:0:
258,213,33267,1,4,0:0:0:0:
258,213,33517,1,14,0:0:0:0:
