osu file format v14

[General]
AudioFilename: audio.MP3
AudioLeadIn: 0
PreviewTime: 8017
Countdown: 0
SampleSet: Normal
StackLeniency: 0.7
Mode: 0
LetterboxInBreaks: 0
EpilepsyWarning: 1
WidescreenStoryboard: 0

[Editor]
Bookmarks: 6017,7980,10017,12017,14017,16017,16642,17017,17642,18017,18642,20017,21980,23980,26017,28017
DistanceSpacing: 1.1
BeatDivisor: 2
GridSize: 16
TimelineZoom: 2.5

[Metadata]
Title:TRAUMATIC
TitleUnicode:TRAUMATIC
Artist:Utsu-P
ArtistUnicode:鬱P
Creator:Net0
Version:ADVANCED
Source:
Tags:Kagamine Rin Vocaloid Heavy Metal Rock Post Traumatic Stress Disorder Trynna Kalindraz Seto Kosuke Tarrasky ghm12 SkullKid puxtu S A N A E Prophecy Hi_Hello Nishizumi Chara breathless SpectorDG RyanSlipk Hatsune Miku Marianna
BeatmapID:1082765
BeatmapSetID:502648

[Difficulty]
HPDrainRate:5
CircleSize:3.5
OverallDifficulty:5
ApproachRate:7
SliderMultiplier:1.2
SliderTickRate:1

[Events]
//Background and Video events
0,0,"MadRin.jpg",0,0
//Break Periods
//Storyboard Layer 0 (Background)
//Storyboard Layer 1 (Fail)
//Storyboard Layer 2 (Pass)
//Storyboard Layer 3 (Foreground)
//Storyboard Sound Samples

[TimingPoints]
17,500,4,1,0,5,1,0
3517,-100,4,2,0,5,0,0
4017,-100,4,2,0,30,0,0
8017,250,4,1,2,70,1,0
8017,-100,4,1,2,70,0,0
32017,250,6,1,2,70,1,1
32017,-100,6,1,2,70,0,1
33517,-100,6,1,2,70,0,0

[Colours]
Combo1 : 128,0,0
Combo2 : 255,0,0
Combo3 : 64,0,0
Combo4 : 231,103,116
SliderBorder : 255,50,40

[HitObjects]
256,192,767,12,0,3517,0:0:0:0:
87,316,4017,6,0,P|162:334|216:294,1,120,8|2,0:0|0:0,0:0:0:0:
196,171,5017,2,0,P|121:153|67:193,1,120,0|2,0:0|0:0,0:0:0:0:
223,243,6017,2,0,P|271:178|255:120,1,120,8|0,0:0|0:0,0:0:0:0:
142,237,7017,2,2,P|189:318|290:292,1,180
378,244,8017,6,0,L|403:309,2,60,8|0|0,0:0|0:0|0:0,0:0:0:0:
339,117,8517,1,0,0:0:0:0:
296,242,8767,1,0,0:0:0:0:
208,340,9017,2,0,P|126:357|84:323,1,120,8|0,0:0|0:0,0:0:0:0:
33,225,9517,1,0,0:0:0:0:
86,104,9767,1,0,0:0:0:0:
218,103,10017,6,0,L|274:39,2,60,8|0|0,0:0|0:0|0:0,0:0:0:0:
161,222,10517,1,0,0:0:0:0:
259,310,10767,1,0,0:0:0:0:
377,250,11017,2,0,B|420:209|420:209|408:143,1,120,8|0,0:0|0:0,0:0:0:0:
329,43,11517,1,0,0:0:0:0:
197,30,11767,1,0,0:0:0:0:
92,111,12017,6,0,L|22:76,2,60,8|0|0,0:0|0:0|0:0,0:0:0:0:
98,242,12517,2,0,L|33:279,2,60,8|0|0,0:0|0:0|0:0,0:0:0:0:
214,304,13017,2,0,L|214:380,2,60,8|0|0,0:0|0:0|0:0,0:0:0:0:
310,214,13517,1,0,0:0:0:0:
257,92,13767,1,0,0:0:0:0:
131,51,14017,6,0,P|80:72|48:133,1,120,4|0,0:0|0:0,0:0:0:0:
48,258,14517,2,0,P|69:309|132:334,1,120
258,333,15017,1,8,0:0:0:0:
374,270,15267,2,0,B|373:224|373:224|357:208|357:208|357:144,2,120
492,212,16017,21,4,0:0:0:0:
196,61,16642,2,0,L|121:61,2,60
252,95,17017,5,4,0:0:0:0:
451,335,17642,2,0,L|494:396,2,60
391,309,18017,53,4,0:0:0:0:
102,186,18642,2,0,L|48:217,2,60
142,133,19017,37,8,0:0:0:0:
262,72,19267,1,0,0:0:0:0:
379,131,19517,1,0,0:0:0:0:
383,262,19767,1,0,0:0:0:0:
266,322,20017,54,0,L|266:388,2,60,12|0|0,0:0|0:0|0:0,0:0:0:0:
146,265,20517,1,0,0:0:0:0:
142,133,20767,1,0,0:0:0:0:
262,72,21017,2,0,B|296:72|296:72|347:45|347:45|384:45,1,120,8|0,0:0|0:0,0:0:0:0:
410,170,21517,1,0,0:0:0:0:
294,233,21767,1,0,0:0:0:0:
189,314,22017,22,0,L|126:313,2,60,8|0|0,0:0|0:0|0:0,0:0:0:0:
320,302,22517,1,0,0:0:0:0:
381,184,22767,1,0,0:0:0:0:
336,61,23017,2,0,B|307:61|307:61|256:88|256:88|222:88,1,120,8|0,0:0|0:0,0:0:0:0:
100,129,23517,1,0,0:0:0:0:
215,193,23767,1,0,0:0:0:0:
331,131,24017,6,0,L|406:106,2,60,8|0|0,0:0|0:0|0:0,0:0:0:0:
267,247,24517,2,0,L|267:317,2,60,8|0|0,0:0|0:0|0:0,0:0:0:0:
197,134,25017,2,0,L|150:87,2,60,8|0|0,0:0|0:0|0:0,0:0:0:0:
319,86,25517,1,0,0:0:0:0:
335,216,25767,1,0,0:0:0:0:
259,325,26017,6,0,B|195:326|195:326|155:278,1,120,4|0,0:0|0:0,0:0:0:0:
207,160,26517,2,0,B|271:159|271:159|311:207,1,120
386,307,27017,1,8,0:0:0:0:
448,192,27267,2,0,P|425:115|383:83,2,120
256,192,28017,12,4,31517,0:0:0:0:
248,238,32017,22,0,B|256:271|256:271|280:305,1,60,8|0,0:0|0:0,0:0:0:0:
329,303,32267,1,8,0:0:0:0:
413,217,32517,2,0,B|405:183|405:183|381:150,1,60,8|0,0:0|0:0,0:0:0:0:
332,152,32767,1,8,0:0:0:0:
248,238,33017,1,8,0:0:0:0:
215,121,33267,1,8,0:0:0:0:
131,207,33517,37,4,0:0:0:0:
