osu file format v14

[General]
AudioFilename: audio.mp3
AudioLeadIn: 0
PreviewTime: 8000
Countdown: 0
SampleSet: Soft
StackLeniency: 0.7
Mode: 2
LetterboxInBreaks: 0
WidescreenStoryboard: 1

[Editor]
DistanceSpacing: 2
BeatDivisor: 4
GridSize: 16
TimelineZoom: 2.6

[Metadata]
Title:TRAUMATIC
TitleUnicode:TRAUMATIC
Artist:Utsu-P
ArtistUnicode:鬱P
Creator:Mrbinking
Version:CUP
Source:
Tags:Post-Traumatic Stress Disorder P.T.S.D. PxTxSxD Reissue metalcore hatsune miku 初音ミク rock vocaloid UtsuP jusenkyo razor sharp hareimu [_-Kukkai-_] cowboy
BeatmapID:1568984
BeatmapSetID:743708

[Difficulty]
HPDrainRate:3
CircleSize:3
OverallDifficulty:6
ApproachRate:6
SliderMultiplier:0.75
SliderTickRate:1

[Events]
//Background and Video events
0,0,"BG.jpg",0,0
//Break Periods
//Storyboard Layer 0 (Background)
//Storyboard Layer 1 (Fail)
//Storyboard Layer 2 (Pass)
//Storyboard Layer 3 (Foreground)
//Storyboard Layer 4 (Overlay)
//Storyboard Sound Samples

[TimingPoints]
1000,250,4,2,1,60,1,0
8000,-86.9565217391304,4,2,1,60,0,0
16000,-100,4,2,1,60,0,0
20000,-86.9565217391304,4,2,1,60,0,0
33500,-100,4,2,1,60,0,0

[Colours]
Combo1 : 173,255,95
Combo2 : 255,88,100
Combo3 : 255,94,55
Combo4 : 121,188,255

[HitObjects]
256,192,1000,12,0,3500,0:0:0:0:
64,208,4000,6,0,L|224:160,1,150,6|0,0:0|0:0,0:0:0:0:
304,128,4750,1,0,0:0:0:0:
416,80,5000,2,0,L|336:80,2,75
320,192,5750,1,0,0:0:0:0:
176,192,6000,6,0,B|48:192|48:192|208:256,1,300,6|0,0:0|0:0,0:0:0:0:
304,256,7250,1,0,0:0:0:0:
400,224,7500,1,0,0:0:0:0:
304,160,7750,1,0,0:0:0:0:
176,144,8000,6,0,L|112:64,3,86.2500016450882,6|0|2|2,0:0|0:0|0:0|0:0,0:0:0:0:
48,160,9000,2,0,L|48:256,1,86.2500016450882,2|2,0:0|0:0,0:0:0:0:
160,192,9500,2,0,L|256:192,1,86.2500016450882,2|2,0:0|0:0,0:0:0:0:
368,160,10000,6,0,L|368:256,2,86.2500016450882,2|0|2,0:0|0:0|0:0,0:0:0:0:
464,192,10750,1,2,0:0:0:0:
352,192,11000,2,0,L|256:160,1,86.2500016450882,2|2,0:0|0:0,0:0:0:0:
352,96,11500,2,0,L|256:64,1,86.2500016450882,2|2,0:0|0:0,0:0:0:0:
160,96,12000,6,0,L|160:192,1,86.2500016450882,2|0,0:0|0:0,0:0:0:0:
256,96,12500,2,0,L|256:192,1,86.2500016450882,2|2,0:0|0:0,0:0:0:0:
160,96,13000,2,0,L|160:192,1,86.2500016450882,2|0,0:0|0:0,0:0:0:0:
256,96,13500,2,0,L|352:96,1,86.2500016450882,2|2,0:0|0:0,0:0:0:0:
448,192,14000,5,2,0:0:0:0:
352,192,14250,1,2,0:0:0:0:
256,192,14500,1,2,0:0:0:0:
352,192,14750,1,2,0:0:0:0:
256,192,15000,2,0,L|160:192,2,86.2500016450882,2|2|2,0:0|0:0|0:0,0:0:0:0:
352,192,15750,1,8,0:0:0:0:
448,192,16000,5,2,0:0:0:0:
128,176,16625,2,0,L|192:128,1,75
192,64,17000,5,0,0:0:0:0:
368,224,17625,2,0,L|400:144,1,75
432,128,18000,5,0,0:0:0:0:
320,192,18625,2,0,L|256:128,1,75
208,80,19000,5,0,0:0:0:0:
320,144,19250,1,4,0:0:0:0:
384,208,19500,1,4,0:0:0:0:
272,240,19750,1,2,0:0:0:0:
160,144,20000,6,0,L|96:80,1,86.2500016450882,6|0,0:0|0:0,0:0:0:0:
288,96,20500,2,0,L|192:96,1,86.2500016450882,2|2,0:0|0:0,0:0:0:0:
96,192,21000,1,0,0:0:0:0:
176,160,21250,1,0,0:0:0:0:
96,96,21500,1,0,0:0:0:0:
144,128,21750,1,0,0:0:0:0:
272,224,22000,6,0,L|352:160,1,86.2500016450882
432,224,22500,2,0,L|368:288,1,86.2500016450882,0|2,0:0|0:0,0:0:0:0:
240,288,23000,1,0,0:0:0:0:
112,208,23250,1,0,0:0:0:0:
176,112,23500,1,0,0:0:0:0:
224,208,23750,1,0,0:0:0:0:
352,224,24000,6,0,L|352:320,1,86.2500016450882,2|0,0:0|0:0,0:0:0:0:
448,224,24500,2,0,L|448:320,1,86.2500016450882,2|2,0:0|0:0,0:0:0:0:
352,160,25000,2,0,L|256:160,1,86.2500016450882,2|0,0:0|0:0,0:0:0:0:
160,64,25500,2,0,L|256:64,1,86.2500016450882,2|2,0:0|0:0,0:0:0:0:
352,64,26000,6,0,L|352:160,2,86.2500016450882,2|2|2,0:0|0:0|0:0,0:0:0:0:
256,64,26750,2,0,L|192:128,1,86.2500016450882,2|2,0:0|0:0,0:0:0:0:
128,192,27250,1,2,0:0:0:0:
224,192,27500,2,0,L|320:192,1,86.2500016450882,2|6,0:0|0:0,0:0:0:0:
432,192,28000,5,0,0:0:0:0:
320,272,28250,1,0,0:0:0:0:
240,160,28500,1,0,0:0:0:0:
320,128,28750,1,0,0:0:0:0:
192,288,29000,6,0,L|96:288,1,86.2500016450882,6|2,0:0|0:0,0:0:0:0:
224,224,29500,2,0,L|320:224,1,86.2500016450882,2|2,0:0|0:0,0:0:0:0:
432,160,30000,5,0,0:0:0:0:
352,112,30250,1,0,0:0:0:0:
400,176,30500,1,0,0:0:0:0:
304,192,30750,1,0,0:0:0:0:
176,160,31000,6,0,L|272:160,1,86.2500016450882,6|2,0:0|0:0,0:0:0:0:
368,128,31500,2,0,L|416:208,1,86.2500016450882,2|8,0:0|0:0,0:0:0:0:
352,272,31875,1,0,0:0:0:0:
288,320,32000,6,0,L|192:320,2,86.2500016450882,6|6|6,0:0|0:0|0:0,0:0:0:0:
192,256,32749,2,0,L|96:256,2,86.2500016450882,6|6|6,0:0|0:0|0:0,0:0:0:0:
64,256,33500,1,8,0:0:0:0:
