osu file format v14

[General]
AudioFilename: 00 - Psychokinesis.mp3
AudioLeadIn: 1996
PreviewTime: 110167
Countdown: 0
SampleSet: Normal
StackLeniency: 0.7
Mode: 0
LetterboxInBreaks: 0
WidescreenStoryboard: 0

[Editor]
DistanceSpacing: 1.2
BeatDivisor: 4
GridSize: 4
TimelineZoom: 3.199998

[Metadata]
Title:Psychokinesis
TitleUnicode:Psychokinesis
Artist:Utsu-P
ArtistUnicode:鬱P
Creator:Osu Tatakae Ouendan
Version:Psycho Miku
Source:
Tags:Hagane Hatsune Miku Net0 Rice Vocaloid DIARRHEA utsuP heavy metal rock Imparfait japanese Hiseii Phychokinesis
BeatmapID:203861
BeatmapSetID:70988

[Difficulty]
HPDrainRate:7.5
CircleSize:4
OverallDifficulty:8
ApproachRate:9
SliderMultiplier:2.2
SliderTickRate:1

[Events]
//Background and Video events
0,0,"utsup.jpg",0,0
//Break Periods
2,142167,146167
2,151767,155767
2,162567,171367
2,200967,209167
//Storyboard Layer 0 (Background)
//Storyboard Layer 1 (Fail)
//Storyboard Layer 2 (Pass)
//Storyboard Layer 3 (Foreground)
//Storyboard Layer 4 (Overlay)
//Storyboard Sound Samples

[TimingPoints]
367,300,4,1,1,65,1,0
3967,-100,4,2,0,75,0,0
5167,-100,4,1,1,65,0,0
43567,-100,4,1,1,65,0,1
46267,-100,4,1,1,65,0,0
48667,-100,4,1,1,65,0,1
51067,-100,4,1,1,65,0,0
53467,-100,4,1,1,65,0,1
55867,-100,4,1,1,65,0,0
58267,-100,4,1,1,65,0,1
61867,-100,4,1,1,65,0,0
62467,-100,4,2,0,50,0,0
62767,-100,4,1,1,65,0,0
71992,-100,4,1,1,55,0,0
72367,-100,4,1,1,65,0,0
91567,-133.333333333333,4,1,1,55,0,0
101167,-100,4,1,1,65,0,0
110767,-100,4,1,1,75,0,1
129967,-100,4,1,1,65,0,0
146767,-83.3333333333333,4,1,1,65,0,0
156367,-83.3333333333333,4,1,1,65,0,0
158767,-83.3333333333333,4,1,1,40,0,0
159067,-83.3333333333333,4,1,1,45,0,0
159217,-83.3333333333333,4,1,1,50,0,0
159367,-83.3333333333333,4,1,1,55,0,0
159517,-83.3333333333333,4,1,1,60,0,0
159667,-83.3333333333333,4,1,1,65,0,0
159817,-83.3333333333333,4,1,1,70,0,0
159967,-83.3333333333333,4,1,1,75,0,0
160117,-83.3333333333333,4,1,1,80,0,0
162367,-100,4,1,1,90,0,0
171967,-100,4,1,1,60,0,0
209767,-133.333333333333,4,1,1,60,0,0
219967,-100,4,1,1,70,0,1
239167,-100,4,1,1,80,0,0
246367,-100,4,1,1,60,0,0
247567,-100,4,1,1,75,0,0
248767,-100,4,1,1,90,0,0
251167,-80,4,1,1,65,0,1
254767,-80,4,1,1,65,0,0
255967,-80,4,1,1,65,0,1
260917,-80,4,1,1,65,0,0
261667,-100,4,1,1,65,0,0

[Colours]
Combo1 : 192,192,192
Combo2 : 255,128,128
Combo3 : 255,98,255
Combo4 : 128,255,255
Combo5 : 255,255,128
Combo6 : 128,128,128

[HitObjects]
304,312,367,5,0,0:0:0:0:
392,248,517,1,0,0:0:0:0:
292,200,667,1,2,0:0:0:0:
121,112,817,5,0,0:0:0:0:
195,192,967,1,0,0:0:0:0:
231,87,1117,1,2,0:0:0:0:
148,12,1267,6,0,B|64:24|40:104,1,110
92,344,1567,5,0,0:0:0:0:
180,280,1717,1,0,0:0:0:0:
80,232,1867,1,2,0:0:0:0:
304,145,2017,37,0,0:0:0:0:
216,80,2167,1,0,0:0:0:0:
201,190,2317,1,2,0:0:0:0:
100,152,2467,5,0,0:0:0:0:
100,152,2617,1,0,0:0:0:0:
280,272,2767,6,0,B|340:308|404:280,1,110
336,92,3067,1,2,0:0:0:0:
264,176,3217,1,0,0:0:0:0:
372,196,3367,1,0,0:0:0:0:
388,192,3442,1,0,0:0:0:0:
404,184,3517,1,0,0:0:0:0:
416,176,3592,1,0,0:0:0:0:
428,168,3667,1,0,0:0:0:0:
440,156,3742,1,0,0:0:0:0:
448,144,3817,1,0,0:0:0:0:
456,128,3892,1,0,0:0:0:0:
460,112,3967,5,2,0:0:0:0:
256,336,4267,1,0,0:0:0:0:
52,112,4567,1,0,0:0:0:0:
256,196,4867,1,8,0:0:0:0:
100,352,5167,37,4,0:0:0:0:
64,224,5317,1,0,0:0:0:0:
140,116,5467,2,0,B|244:40,1,110,0|8,0:0|0:0,0:0:0:0:
256,188,5767,1,0,0:0:0:0:
372,268,5917,2,0,B|268:344,1,110,0|8,0:0|0:0,0:0:0:0:
256,180,6217,1,0,0:0:0:0:
360,92,6367,6,0,B|424:72|428:12,1,110,4|0,0:0|0:0,0:0:0:0:
252,92,6667,1,0,0:0:0:0:
380,160,6817,2,0,B|432:192|484:168,1,110,8|0,0:0|0:0,0:0:0:0:
428,304,7117,1,0,0:0:0:0:
320,228,7267,2,0,B|264:260|268:328,1,110,8|0,0:0|0:0,0:0:0:0:
452,220,7567,6,0,B|324:124,1,110,4|0,0:0|0:0,0:0:0:0:
252,84,7867,1,0,0:0:0:0:
240,268,8017,2,0,B|112:172,1,110,8|0,0:0|0:0,0:0:0:0:
48,116,8317,1,0,0:0:0:0:
16,304,8467,2,0,B|144:336,1,110,8|0,0:0|0:0,0:0:0:0:
256,356,8767,5,0,0:0:0:0:
380,192,9067,1,2,0:0:0:0:
256,36,9367,1,0,0:0:0:0:
132,192,9667,1,2,0:0:0:0:
496,92,9967,38,0,B|469:38|404:42,1,110,4|0,0:0|0:0,0:0:0:0:
374,149,10267,1,0,0:0:0:0:
362,283,10417,2,0,B|421:286|450:228,1,110,8|0,0:0|0:0,0:0:0:0:
374,149,10717,1,0,0:0:0:0:
263,72,10867,2,0,B|230:121|265:175,1,110,8|0,0:0|0:0,0:0:0:0:
415,332,11167,6,0,B|469:305|465:240,1,110,4|0,0:0|0:0,0:0:0:0:
358,210,11467,1,0,0:0:0:0:
223,198,11617,2,0,B|220:257|278:286,1,110,8|0,0:0|0:0,0:0:0:0:
358,210,11917,1,0,0:0:0:0:
435,99,12067,2,0,B|385:66|331:102,1,110,8|0,0:0|0:0,0:0:0:0:
162,19,12367,6,0,B|103:31|91:95,1,110,4|0,0:0|0:0,0:0:0:0:
188,152,12667,1,0,0:0:0:0:
315,196,12817,2,0,B|332:139|283:96,1,110,8|0,0:0|0:0,0:0:0:0:
188,152,13117,1,0,0:0:0:0:
86,241,13267,2,0,B|126:284|187:265,1,110,8|0,0:0|0:0,0:0:0:0:
340,256,13567,69,2,0:0:0:0:
429,55,13867,1,0,0:0:0:0:
210,77,14167,1,0,0:0:0:0:
124,144,14317,1,0,0:0:0:0:
112,152,14392,1,0,0:0:0:0:
100,164,14467,1,8,0:0:0:0:
88,176,14542,1,0,0:0:0:0:
76,188,14617,1,8,0:0:0:0:
64,200,14692,1,0,0:0:0:0:
52,212,14767,5,0,0:0:0:0:
36,236,14842,1,0,0:0:0:0:
24,260,14917,1,0,0:0:0:0:
20,288,14992,1,0,0:0:0:0:
28,316,15067,5,8,0:0:0:0:
48,336,15142,1,0,0:0:0:0:
76,344,15217,1,0,0:0:0:0:
104,340,15292,1,0,0:0:0:0:
132,332,15367,37,0,0:0:0:0:
156,320,15442,1,0,0:0:0:0:
180,308,15517,1,0,0:0:0:0:
204,296,15592,1,0,0:0:0:0:
228,284,15667,2,0,B|292:312,3,55,8|0|0|0,0:0|0:0|0:0|0:0,0:0:0:0:
308,320,15967,5,0,0:0:0:0:
336,312,16042,1,0,0:0:0:0:
360,300,16117,1,0,0:0:0:0:
380,280,16192,1,0,0:0:0:0:
392,256,16267,5,8,0:0:0:0:
396,228,16342,1,0,0:0:0:0:
388,204,16417,1,0,0:0:0:0:
376,180,16492,1,0,0:0:0:0:
364,156,16567,5,0,0:0:0:0:
368,128,16642,1,0,0:0:0:0:
384,104,16717,1,0,0:0:0:0:
408,88,16792,1,0,0:0:0:0:
432,72,16867,2,0,B|424:40|396:12,3,55,8|0|0|0,0:0|0:0|0:0|0:0,0:0:0:0:
368,40,17167,37,0,0:0:0:0:
340,60,17242,1,0,0:0:0:0:
308,72,17317,1,0,0:0:0:0:
276,72,17392,1,0,0:0:0:0:
244,60,17467,1,8,0:0:0:0:
216,40,17542,1,0,0:0:0:0:
184,32,17617,1,0,0:0:0:0:
152,36,17692,1,0,0:0:0:0:
120,48,17767,5,0,0:0:0:0:
96,72,17842,1,0,0:0:0:0:
80,100,17917,1,0,0:0:0:0:
80,132,17992,1,0,0:0:0:0:
96,160,18067,1,8,0:0:0:0:
112,188,18142,1,0,0:0:0:0:
116,220,18217,1,0,0:0:0:0:
104,252,18292,1,0,0:0:0:0:
80,276,18367,6,0,B|72:344|140:372,1,110,2|0,0:0|0:0,0:0:0:0:
300,232,18667,2,0,B|352:180|332:108,1,110,2|0,0:0|0:0,0:0:0:0:
175,132,18967,2,0,B|160:180|212:232,1,110,2|0,0:0|0:0,0:0:0:0:
256,68,19267,1,2,0:0:0:0:
256,68,19417,1,4,0:0:0:0:
432,172,19567,5,4,0:0:0:0:
448,196,19642,1,0,0:0:0:0:
456,224,19717,1,0,0:0:0:0:
456,252,19792,1,0,0:0:0:0:
452,280,19867,37,8,0:0:0:0:
440,304,19942,1,0,0:0:0:0:
420,324,20017,1,0,0:0:0:0:
396,336,20092,1,0,0:0:0:0:
368,344,20167,5,0,0:0:0:0:
340,344,20242,1,0,0:0:0:0:
316,336,20317,1,0,0:0:0:0:
292,320,20392,1,0,0:0:0:0:
264,312,20467,1,8,0:0:0:0:
236,316,20542,1,0,0:0:0:0:
208,324,20617,1,0,0:0:0:0:
184,340,20692,1,0,0:0:0:0:
160,352,20767,5,0,0:0:0:0:
132,356,20842,1,0,0:0:0:0:
104,348,20917,1,0,0:0:0:0:
84,332,20992,1,0,0:0:0:0:
76,304,21067,5,8,0:0:0:0:
84,280,21142,1,0,0:0:0:0:
104,264,21217,1,0,0:0:0:0:
128,252,21292,1,0,0:0:0:0:
152,240,21367,37,0,0:0:0:0:
176,228,21442,1,0,0:0:0:0:
188,204,21517,1,0,0:0:0:0:
188,176,21592,1,0,0:0:0:0:
180,148,21667,2,0,B|144:96,3,55,8|0|0|0,0:0|0:0|0:0|0:0,0:0:0:0:
156,68,21967,5,0,0:0:0:0:
180,44,22042,1,0,0:0:0:0:
212,36,22117,1,0,0:0:0:0:
244,36,22192,1,0,0:0:0:0:
276,48,22267,1,8,0:0:0:0:
300,72,22342,1,0,0:0:0:0:
316,100,22417,1,0,0:0:0:0:
328,132,22492,1,0,0:0:0:0:
352,112,22567,5,0,0:0:0:0:
380,96,22642,1,0,0:0:0:0:
412,92,22717,1,0,0:0:0:0:
444,100,22792,1,0,0:0:0:0:
468,120,22867,1,8,0:0:0:0:
480,152,22942,1,0,0:0:0:0:
480,184,23017,1,0,0:0:0:0:
468,216,23092,1,0,0:0:0:0:
448,240,23167,6,4,B|412:296|356:292,1,110,4|0,0:0|0:0,0:0:0:0:
64,144,23467,2,4,B|100:88|156:92,1,110,4|0,0:0|0:0,0:0:0:0:
256,212,23767,1,2,0:0:0:0:
256,224,23842,1,0,0:0:0:0:
256,236,23917,1,0,0:0:0:0:
256,248,23992,1,0,0:0:0:0:
256,260,24067,1,8,0:0:0:0:
256,272,24142,1,0,0:0:0:0:
256,284,24217,1,0,0:0:0:0:
256,296,24292,1,0,0:0:0:0:
256,308,24367,38,0,B|228:360|148:364,1,110,4|0,0:0|0:0,0:0:0:0:
176,204,24667,2,0,B|200:132|272:128,1,110
404,168,24967,2,0,B|332:192|248:140|240:64,1,220,8|0,0:0|0:0,0:0:0:0:
368,32,25417,2,0,B|252:256,1,220,0|8,0:0|0:0,0:0:0:0:
324,336,25867,5,0,0:0:0:0:
456,309,26017,1,0,0:0:0:0:
365,197,26167,1,8,0:0:0:0:
172,352,26467,1,8,0:0:0:0:
436,132,26767,6,0,B|392:56|300:40|224:132,1,220,4|0,0:0|0:0,0:0:0:0:
184,208,27217,1,0,0:0:0:0:
24,136,27367,2,0,B|176:312,1,220,8|0,0:0|0:0,0:0:0:0:
320,168,27817,2,0,B|264:188|248:260|272:320|324:348,1,220,0|8,0:0|0:0,0:0:0:0:
504,252,28267,5,0,0:0:0:0:
352,277,28417,1,0,0:0:0:0:
490,348,28567,1,8,0:0:0:0:
420,209,28717,1,0,0:0:0:0:
395,362,28867,1,8,0:0:0:0:
448,52,29167,38,0,B|428:132|340:168|272:112,1,220,4|0,0:0|0:0,0:0:0:0:
208,12,29617,1,0,0:0:0:0:
208,12,29767,2,0,B|120:16|72:84|116:184,1,220,8|0,0:0|0:0,0:0:0:0:
112,300,30217,2,0,B|288:132,1,220,0|8,0:0|0:0,0:0:0:0:
476,132,30667,6,0,B|528:184|504:272,1,110
372,108,30967,2,0,B|320:56|344:-32,1,110,8|0,0:0|0:0,0:0:0:0:
408,244,31267,1,8,0:0:0:0:
272,80,31567,6,0,B|44:24,1,220,4|0,0:0|0:0,0:0:0:0:
140,132,32017,1,0,0:0:0:0:
108,260,32167,2,0,B|192:296|272:264|284:156,1,220,8|0,0:0|0:0,0:0:0:0:
404,224,32617,2,0,B|460:160|432:52|328:24,1,220,0|8,0:0|0:0,0:0:0:0:
252,112,33067,5,0,0:0:0:0:
97,162,33217,1,0,0:0:0:0:
193,31,33367,1,8,0:0:0:0:
193,194,33517,1,0,0:0:0:0:
97,62,33667,1,8,0:0:0:0:
384,220,33967,38,0,B|444:204|440:136,1,110,4|0,0:0|0:0,0:0:0:0:
336,56,34267,1,0,0:0:0:0:
244,152,34417,1,0,0:0:0:0:
268,280,34567,2,0,B|168:336|48:304,1,220,8|0,0:0|0:0,0:0:0:0:
120,192,35017,2,0,B|52:148|76:32|168:16,1,220,0|8,0:0|0:0,0:0:0:0:
260,100,35467,5,0,0:0:0:0:
355,222,35617,1,0,0:0:0:0:
206,179,35767,1,8,0:0:0:0:
351,126,35917,1,0,0:0:0:0:
265,254,36067,1,8,0:0:0:0:
168,356,36367,6,0,B|88:368|16:308|8:212,1,220,4|0,0:0|0:0,0:0:0:0:
136,280,36817,1,0,0:0:0:0:
136,280,36967,2,0,B|192:220|192:124|132:72,1,220,8|0,0:0|0:0,0:0:0:0:
16,144,37417,2,0,B|264:224,1,220,0|8,0:0|0:0,0:0:0:0:
376,308,37867,6,0,B|428:332|492:292,1,110
404,148,38167,2,8,B|352:124|288:164,1,110,8|0,0:0|0:0,0:0:0:0:
376,228,38467,1,8,0:0:0:0:
176,360,38767,38,0,B|272:360|308:264|268:204,1,220,4|0,0:0|0:0,0:0:0:0:
156,144,39217,1,0,0:0:0:0:
156,144,39367,2,0,B|184:76|276:40|372:88,1,220,8|0,0:0|0:0,0:0:0:0:
468,192,39817,2,0,B|440:260|348:296|252:248,1,220,0|8,0:0|0:0,0:0:0:0:
240,132,40267,6,0,B|296:100|352:124,1,110
208,216,40567,2,8,B|152:248|96:224,1,110,8|0,0:0|0:0,0:0:0:0:
160,108,40867,1,8,0:0:0:0:
368,148,41167,6,4,B|436:120|416:36,1,110,4|0,0:0|0:0,0:0:0:0:
292,80,41467,2,0,B|56:80,1,220,0|8,0:0|0:0,0:0:0:0:
144,176,41917,1,0,0:0:0:0:
60,264,42067,1,0,0:0:0:0:
156,340,42217,2,0,B|240:344|288:252|268:176,1,220,8|8,0:0|0:0,0:0:0:0:
256,64,42667,5,0,0:0:0:0:
164,224,42817,1,8,0:0:0:0:
348,224,42967,1,8,0:0:0:0:
348,224,43042,1,0,0:0:0:0:
348,224,43117,1,0,0:0:0:0:
256,152,43267,1,8,0:0:0:0:
256,152,43342,1,0,0:0:0:0:
256,152,43417,1,0,0:0:0:0:
297,275,43567,38,0,B|328:325|404:329,1,110,4|0,0:0|0:0,0:0:0:0:
339,150,43867,2,2,B|389:119|393:43,1,110
214,108,44167,2,2,B|183:58|107:54,1,110
172,233,44467,2,2,B|122:264|118:340,1,110
317,283,44767,6,2,B|359:317|420:295,1,110
347,130,45067,2,2,B|381:88|359:27,1,110
194,100,45367,2,2,B|152:66|91:88,1,110
164,253,45667,2,2,B|130:295|152:356,1,110
300,256,45967,5,8,0:0:0:0:
332,260,46042,1,8,0:0:0:0:
364,268,46117,1,8,0:0:0:0:
392,284,46192,1,8,0:0:0:0:
416,304,46267,1,4,0:0:0:0:
204,184,46567,5,8,0:0:0:0:
172,188,46642,1,8,0:0:0:0:
140,196,46717,1,8,0:0:0:0:
112,212,46792,1,8,0:0:0:0:
88,232,46867,1,4,0:0:0:0:
296,136,47167,37,8,0:0:0:0:
324,120,47242,1,8,0:0:0:0:
348,96,47317,1,8,0:0:0:0:
360,64,47392,1,8,0:0:0:0:
356,32,47467,1,4,0:0:0:0:
216,248,47767,5,8,0:0:0:0:
188,264,47842,1,8,0:0:0:0:
164,288,47917,1,8,0:0:0:0:
152,320,47992,1,8,0:0:0:0:
156,352,48067,1,4,0:0:0:0:
256,156,48367,1,4,0:0:0:0:
355,344,48667,6,2,B|317:287|374:214,1,110,6|2,0:0|0:0,0:0:0:0:
408,92,48967,2,2,B|351:130|278:73,1,110
156,39,49267,2,2,B|194:96|137:169,1,110
103,291,49567,2,2,B|160:253|233:310,1,110
332,314,49867,6,2,B|389:291|393:222,1,110
322,64,50167,2,2,B|275:26|213:57,1,110
111,196,50467,2,2,B|102:257|160:295,1,110
220,208,50767,37,8,0:0:0:0:
244,192,50842,1,8,0:0:0:0:
268,176,50917,1,8,0:0:0:0:
292,160,50992,1,8,0:0:0:0:
316,144,51067,2,0,B|360:204|324:260,1,110,4|0,0:0|0:0,0:0:0:0:
184,144,51367,5,8,0:0:0:0:
160,128,51442,1,8,0:0:0:0:
136,112,51517,1,8,0:0:0:0:
112,96,51592,1,8,0:0:0:0:
88,80,51667,2,0,B|44:140|80:196,1,110,4|0,0:0|0:0,0:0:0:0:
272,104,51967,5,8,0:0:0:0:
296,88,52042,1,8,0:0:0:0:
320,72,52117,1,8,0:0:0:0:
344,56,52192,1,8,0:0:0:0:
368,40,52267,2,0,B|412:100|376:156,1,110,4|0,0:0|0:0,0:0:0:0:
192,96,52567,5,8,0:0:0:0:
168,80,52642,1,8,0:0:0:0:
144,64,52717,1,8,0:0:0:0:
120,48,52792,1,8,0:0:0:0:
96,32,52867,2,0,B|52:92|88:148,1,110,4|0,0:0|0:0,0:0:0:0:
156,268,53167,1,4,0:0:0:0:
320,146,53467,38,2,B|378:130|397:73,1,110,6|2,0:0|0:0,0:0:0:0:
210,127,53767,2,2,B|194:69|137:50,1,110
191,237,54067,2,2,B|133:253|114:310,1,110
301,256,54367,2,2,B|317:314|374:333,1,110
385,150,54667,6,2,B|366:85|317:58,1,110
153,100,54967,2,2,B|108:149|109:205,1,110
227,324,55267,2,2,B|292:340|340:311,1,110
276,228,55567,5,8,0:0:0:0:
248,212,55642,1,8,0:0:0:0:
220,196,55717,1,8,0:0:0:0:
192,180,55792,1,8,0:0:0:0:
164,160,55867,2,0,B|120:212|152:284,1,110,4|0,0:0|0:0,0:0:0:0:
324,180,56167,5,8,0:0:0:0:
352,164,56242,1,8,0:0:0:0:
380,148,56317,1,8,0:0:0:0:
408,132,56392,1,8,0:0:0:0:
436,112,56467,2,0,B|480:164|448:236,1,110,4|0,0:0|0:0,0:0:0:0:
244,144,56767,37,8,0:0:0:0:
216,128,56842,1,8,0:0:0:0:
188,112,56917,1,8,0:0:0:0:
160,96,56992,1,8,0:0:0:0:
132,76,57067,2,0,B|88:128|120:200,1,110,4|0,0:0|0:0,0:0:0:0:
304,80,57367,5,8,0:0:0:0:
332,64,57442,1,8,0:0:0:0:
360,48,57517,1,8,0:0:0:0:
388,32,57592,1,8,0:0:0:0:
416,12,57667,2,0,B|460:64|428:136,1,110,4|0,0:0|0:0,0:0:0:0:
372,280,57967,1,4,0:0:0:0:
145,295,58267,6,2,B|84:272|84:203,1,110,6|2,0:0|0:0,0:0:0:0:
152,81,58567,2,2,B|175:20|244:20,1,110
366,88,58867,2,2,B|427:111|427:180,1,110
359,302,59167,2,2,B|336:363|267:363,1,110
149,295,59467,6,2,B|95:264|107:188,1,110
219,47,59767,2,2,B|273:16|333:64,1,110
398,232,60067,2,2,B|398:294|326:322,1,110
232,200,60367,37,8,0:0:0:0:
200,180,60442,1,8,0:0:0:0:
168,156,60517,1,8,0:0:0:0:
140,132,60592,1,8,0:0:0:0:
108,108,60667,2,0,B|68:164|104:220,1,110,4|0,0:0|0:0,0:0:0:0:
280,200,60967,5,8,0:0:0:0:
312,180,61042,1,8,0:0:0:0:
344,156,61117,1,8,0:0:0:0:
372,132,61192,1,8,0:0:0:0:
404,108,61267,2,0,B|444:164|408:220,1,110,4|0,0:0|0:0,0:0:0:0:
256,164,61567,5,8,0:0:0:0:
232,136,61642,1,8,0:0:0:0:
204,108,61717,1,8,0:0:0:0:
180,76,61792,1,8,0:0:0:0:
156,44,61867,6,4,B|212:8|276:24,1,110
348,268,62167,2,4,B|292:304|228:288,1,110
144,224,62467,2,2,B|120:208,8,27.5
248,140,62917,38,0,B|308:48,1,110
304,236,63217,1,4,0:0:0:0:
372,124,63367,2,0,B|432:32,1,110,0|0,0:0|0:0,0:0:0:0:
436,220,63667,1,4,0:0:0:0:
436,220,63817,1,0,0:0:0:0:
252,332,63967,6,0,B|164:260,1,110,4|0,0:0|0:0,0:0:0:0:
352,276,64267,1,0,0:0:0:0:
248,196,64417,2,0,B|160:124,1,110
52,188,64717,1,0,0:0:0:0:
60,196,64792,1,0,0:0:0:0:
64,204,64867,1,8,0:0:0:0:
64,216,64942,1,8,0:0:0:0:
60,228,65017,1,8,0:0:0:0:
56,240,65092,1,8,0:0:0:0:
52,252,65167,6,0,B|44:328|120:344,1,110,4|0,0:0|0:0,0:0:0:0:
204,236,65467,1,0,0:0:0:0:
348,240,65617,2,0,B|464:152,1,110,4|0,0:0|0:0,0:0:0:0:
248,180,65917,1,0,0:0:0:0:
360,112,66067,2,0,B|476:24,1,110,4|0,0:0|0:0,0:0:0:0:
292,52,66367,5,0,0:0:0:0:
192,136,66517,1,0,0:0:0:0:
92,52,66667,2,0,B|56:112|96:192,1,110
140,312,66967,1,2,0:0:0:0:
156,304,67042,1,2,0:0:0:0:
172,300,67117,1,2,0:0:0:0:
188,300,67192,1,0,0:0:0:0:
204,304,67267,1,0,0:0:0:0:
220,308,67342,1,0,0:0:0:0:
236,308,67417,1,0,0:0:0:0:
252,304,67492,1,0,0:0:0:0:
268,296,67567,38,0,B|336:272|352:200,1,110,4|0,0:0|0:0,0:0:0:0:
248,136,67867,1,0,0:0:0:0:
176,24,68017,2,0,B|84:136,1,110,4|0,0:0|0:0,0:0:0:0:
32,220,68317,1,0,0:0:0:0:
164,204,68467,1,4,0:0:0:0:
164,204,68617,1,0,0:0:0:0:
272,60,68767,6,0,B|336:76|360:148,1,110,4|0,0:0|0:0,0:0:0:0:
412,248,69067,1,4,0:0:0:0:
496,104,69217,2,0,B|432:120|408:192,1,110,4|0,0:0|0:0,0:0:0:0:
348,292,69517,1,0,0:0:0:0:
244,360,69667,1,0,0:0:0:0:
232,356,69742,1,0,0:0:0:0:
220,352,69817,1,0,0:0:0:0:
208,348,69892,1,0,0:0:0:0:
196,344,69967,6,0,B|120:340|96:272,1,110,4|0,0:0|0:0,0:0:0:0:
12,184,70267,1,0,0:0:0:0:
160,224,70417,2,0,B|220:200|220:120,1,110,4|0,0:0|0:0,0:0:0:0:
252,20,70717,1,0,0:0:0:0:
112,128,70867,2,0,B|44:116|32:28,1,110,4|0,0:0|0:0,0:0:0:0:
180,160,71167,5,2,0:0:0:0:
196,172,71242,1,0,0:0:0:0:
216,180,71317,1,0,0:0:0:0:
240,180,71392,1,0,0:0:0:0:
260,176,71467,37,2,0:0:0:0:
280,168,71542,1,0,0:0:0:0:
300,160,71617,1,0,0:0:0:0:
320,152,71692,1,0,0:0:0:0:
340,148,71767,5,2,0:0:0:0:
360,144,71842,1,0,0:0:0:0:
380,144,71917,2,8,B|444:176,5,55
460,184,72367,1,4,0:0:0:0:
316,344,72667,6,0,B|212:272,1,110
384,224,72967,2,0,B|488:296,1,110,8|0,0:0|0:0,0:0:0:0:
296,232,73267,1,0,0:0:0:0:
296,232,73417,2,0,B|104:88,1,220,0|8,0:0|0:0,0:0:0:0:
32,228,73867,6,0,B|0:280|36:340,1,110
24,136,74167,2,0,B|56:84|20:24,1,110,8|0,0:0|0:0,0:0:0:0:
104,180,74467,1,8,0:0:0:0:
104,180,74617,1,0,0:0:0:0:
104,180,74767,37,4,0:0:0:0:
348,352,75067,2,0,B|448:268,1,110
264,252,75367,2,0,B|164:336,1,110,8|0,0:0|0:0,0:0:0:0:
364,228,75667,1,0,0:0:0:0:
364,228,75817,2,0,B|452:216|496:136|468:40,1,220,0|8,0:0|0:0,0:0:0:0:
308,180,76267,5,0,0:0:0:0:
176,268,76417,1,0,0:0:0:0:
336,268,76567,1,8,0:0:0:0:
204,180,76717,1,0,0:0:0:0:
256,328,76867,1,8,0:0:0:0:
256,112,77167,6,0,B|256:0,1,110,4|0,0:0|0:0,0:0:0:0:
152,84,77467,2,0,B|80:92|28:168|60:264,1,220,2|8,0:0|0:0,0:0:0:0:
148,352,77917,1,0,0:0:0:0:
148,352,78067,2,0,B|268:356,1,110
432,212,78367,2,0,B|360:152|264:208|288:308,1,220,2|0,0:0|0:0,0:0:0:0:
408,336,78817,5,0,0:0:0:0:
408,336,78967,1,8,0:0:0:0:
460,136,79117,1,0,0:0:0:0:
460,136,79267,1,8,0:0:0:0:
220,208,79567,38,0,B|256:164|224:76|148:52|80:92,1,220,4|0,0:0|0:0,0:0:0:0:
120,212,80017,1,0,0:0:0:0:
8,144,80167,2,0,B|80:352,1,220,8|0,0:0|0:0,0:0:0:0:
168,256,80617,2,0,B|268:336|400:260,1,220,0|8,0:0|0:0,0:0:0:0:
432,136,81067,5,0,0:0:0:0:
300,47,81217,1,0,0:0:0:0:
355,198,81367,1,8,0:0:0:0:
401,43,81517,1,0,0:0:0:0:
273,140,81667,1,8,0:0:0:0:
444,340,81967,6,0,B|404:272|288:264|240:360,1,220,4|0,0:0|0:0,0:0:0:0:
144,252,82417,1,0,0:0:0:0:
156,120,82567,2,0,B|104:84|128:16,1,110,8|0,0:0|0:0,0:0:0:0:
240,152,82867,1,0,0:0:0:0:
240,152,83017,2,0,B|288:204|288:288|200:336,1,220,0|8,0:0|0:0,0:0:0:0:
176,204,83467,6,0,B|112:164|136:72,1,110
336,180,83767,2,0,B|400:220|376:312,1,110,8|0,0:0|0:0,0:0:0:0:
256,96,84067,1,8,0:0:0:0:
376,352,84367,38,0,B|296:336|248:244|296:168,1,220,4|0,0:0|0:0,0:0:0:0:
344,64,84817,1,0,0:0:0:0:
462,20,84967,2,0,B|222:108,1,220,8|0,0:0|0:0,0:0:0:0:
184,196,85417,2,0,B|96:160|16:204|12:320,1,220,0|8,0:0|0:0,0:0:0:0:
136,336,85867,6,0,B|200:344|228:284,1,110
128,88,86167,2,8,B|64:80|36:140,1,110,8|0,0:0|0:0,0:0:0:0:
112,248,86467,1,8,0:0:0:0:
260,92,86767,6,0,B|308:36|404:52|444:140,1,220,4|0,0:0|0:0,0:0:0:0:
368,232,87217,1,0,0:0:0:0:
424,340,87367,2,0,B|316:132,1,220,8|0,0:0|0:0,0:0:0:0:
189,144,87817,2,0,B|88:340,1,220,0|8,0:0|0:0,0:0:0:0:
204,360,88267,2,0,B|176:296|216:252,1,110
299,256,88567,2,0,B|336:296|308:360,1,110,8|0,0:0|0:0,0:0:0:0:
256,196,88867,2,0,B|256:72,1,110,8|0,0:0|0:0,0:0:0:0:
348,232,89167,6,0,B|304:300|208:300|160:232,1,220,4|0,0:0|0:0,0:0:0:0:
80,132,89617,1,0,0:0:0:0:
96,296,89767,2,0,B|0:264|-20:164|20:68,1,220,8|0,0:0|0:0,0:0:0:0:
112,196,90217,2,0,B|304:84,1,220,0|8,0:0|0:0,0:0:0:0:
396,180,90667,1,0,0:0:0:0:
480,80,90817,1,0,0:0:0:0:
492,212,90967,38,8,B|484:316|404:364,2,165
400,116,91567,54,0,B|352:96|312:104|296:160|284:212|240:224|180:212,2,247.500009441376,4|0|0,0:0|0:0|0:0,0:0:0:0:
400,260,92767,2,0,B|336:256|292:312|308:384,1,165.000006294251
112,260,93367,2,0,B|176:256|220:312|204:384,1,165.000006294251
296,180,93967,6,0,B|324:128|304:88|256:44|208:88|184:128|224:196,2,247.500009441376
404,260,95167,2,0,B|348:320|256:352|168:320|100:260,1,330.000012588501
195,125,96367,70,0,B|131:89|51:133|55:225|119:277,2,247.500009441376,4|0|0,0:0|0:0|0:0,0:0:0:0:
317,259,97567,2,0,B|381:295|461:251|457:159|393:107,2,247.500009441376,4|0|0,0:0|0:0|0:0,0:0:0:0:
176,112,98767,2,0,B|188:40|256:-8|324:40|336:112,2,247.500009441376
256,184,99967,2,0,B|256:364,1,165.000006294251
168,248,100567,1,8,0:0:0:0:
168,248,100717,1,8,0:0:0:0:
72,108,101167,22,0,B|80:20|184:-4|240:84,1,220,4|8,0:0|0:0,0:0:0:0:
332,192,101617,2,0,B|324:280|220:304|164:216,1,220
268,136,102067,1,8,0:0:0:0:
412,360,102367,6,0,B|496:244|404:124,1,220,0|8,0:0|0:0,0:0:0:0:
87,154,102967,2,0,B|27:262|100:362,1,220,0|8,0:0|0:0,0:0:0:0:
204,240,103417,1,0,0:0:0:0:
316,348,103567,6,0,B|400:336|424:236|364:152,1,220,0|8,0:0|0:0,0:0:0:0:
252,76,104017,2,0,B|168:88|144:188|204:272,1,220
288,160,104467,2,0,B|352:64,1,110,8|0,0:0|0:0,0:0:0:0:
136,152,104767,6,0,B|88:224|136:320|244:324,1,220,0|8,0:0|0:0,0:0:0:0:
376,232,105367,2,0,B|424:160|376:64|268:60,1,220,8|8,0:0|0:0,0:0:0:0:
168,44,105817,1,8,0:0:0:0:
34,121,105967,38,0,B|-22:189|10:285|110:293,1,220,4|0,0:0|0:0,0:0:0:0:
226,213,106417,2,0,B|282:145|250:49|150:41,1,220,12|0,0:0|0:0,0:0:0:0:
130,177,106867,1,0,0:0:0:0:
130,177,107017,1,8,0:0:0:0:
196,308,107167,6,0,B|252:368|344:368|408:296,1,220,4|0,0:0|0:0,0:0:0:0:
492,192,107617,2,0,B|436:132|344:132|280:204,1,220,4|0,0:0|0:0,0:0:0:0:
476,300,108067,2,0,B|446:249|392:232,1,110,8|0,0:0|0:0,0:0:0:0:
292,272,108367,1,4,0:0:0:0:
256,192,108517,12,8,109567,0:0:0:0:
152,312,110167,5,0,0:0:0:0:
360,312,110467,1,0,0:0:0:0:
256,144,110767,6,0,B|184:96|96:144|104:232,1,220,4|8,0:0|0:0,0:0:0:0:
248,312,111217,1,0,0:0:0:0:
324,164,111367,2,0,B|368:108|320:36,1,110
188,220,111667,2,0,B|144:276|192:348,1,110,8|0,0:0|0:0,0:0:0:0:
392,220,111967,38,0,B|456:176|460:80|392:28,1,220,4|8,0:0|0:0,0:0:0:0:
260,128,112417,1,0,0:0:0:0:
104,168,112567,2,0,B|140:212|200:216,1,110
344,88,112867,2,0,B|308:44|248:40,1,110,8|0,0:0|0:0,0:0:0:0:
28,132,113167,6,0,B|8:220|52:288|168:288,1,220,4|8,0:0|0:0,0:0:0:0:
312,136,113617,2,0,B|240:96|140:124|116:212,1,220,8|0,0:0|0:0,0:0:0:0:
256,292,114067,2,0,B|324:292|352:232,1,110,8|0,0:0|0:0,0:0:0:0:
408,84,114367,6,0,B|332:52|248:96|244:188,1,220,2|0,0:0|0:0,0:0:0:0:
180,328,114817,1,0,0:0:0:0:
64,208,114967,2,0,B|28:148|88:88,1,110,8|0,0:0|0:0,0:0:0:0:
124,264,115267,2,0,B|160:324|100:384,1,110,8|0,0:0|0:0,0:0:0:0:
184,192,115567,6,0,B|196:108|272:76|364:124,1,220,4|8,0:0|0:0,0:0:0:0:
476,232,116017,1,0,0:0:0:0:
360,348,116167,1,0,0:0:0:0:
324,188,116317,1,0,0:0:0:0:
476,232,116467,2,0,B|492:288|432:336,1,110,8|0,0:0|0:0,0:0:0:0:
280,288,116767,38,0,B|216:296|168:248,1,110
232,96,117067,2,0,B|296:88|344:136,1,110,8|0,0:0|0:0,0:0:0:0:
128,312,117367,2,0,B|92:264|128:192,1,110,8|0,0:0|0:0,0:0:0:0:
384,72,117667,2,0,B|420:120|384:192,1,110,8|0,0:0|0:0,0:0:0:0:
348,332,117967,6,0,B|304:284|252:284|220:352|176:352|112:300,1,220,12|0,0:0|0:0,0:0:0:0:
16,216,118417,2,0,B|72:260|112:220|120:176|172:160|240:224,1,220,8|0,0:0|0:0,0:0:0:0:
368,140,118867,2,0,B|324:92|268:96,1,110,8|0,0:0|0:0,0:0:0:0:
120,24,119167,6,0,B|64:72|60:176|136:220,1,220,0|8,0:0|0:0,0:0:0:0:
256,324,119617,1,0,0:0:0:0:
400,244,119767,2,0,B|380:188|320:172,1,110,8|0,0:0|0:0,0:0:0:0:
364,340,120067,1,8,0:0:0:0:
384,336,120142,1,8,0:0:0:0:
404,328,120217,1,8,0:0:0:0:
424,316,120292,1,8,0:0:0:0:
440,300,120367,6,0,B|508:256|512:164|448:96,1,220,4|8,0:0|0:0,0:0:0:0:
312,28,120817,1,0,0:0:0:0:
220,164,120967,2,0,B|192:220|232:280,1,110
372,196,121267,2,0,B|400:140|360:80,1,110,8|0,0:0|0:0,0:0:0:0:
200,36,121567,38,0,B|136:72|104:140|132:236,1,220,4|8,0:0|0:0,0:0:0:0:
228,360,122017,1,0,0:0:0:0:
300,212,122167,2,0,B|348:256|428:232,1,110
212,172,122467,2,0,B|164:128|84:152,1,110,8|0,0:0|0:0,0:0:0:0:
224,280,122767,6,0,B|284:336|384:340|468:272,1,220,4|8,0:0|0:0,0:0:0:0:
496,144,123217,2,0,B|468:88|408:88,1,110
256,156,123517,2,0,B|284:212|344:212,1,110,0|8,0:0|0:0,0:0:0:0:
460,252,123817,1,0,0:0:0:0:
332,104,123967,6,0,B|276:44|180:68|160:160,1,220,2|8,0:0|0:0,0:0:0:0:
64,280,124417,1,0,0:0:0:0:
216,344,124567,2,0,B|280:352|324:312,1,110,8|0,0:0|0:0,0:0:0:0:
104,200,124867,2,0,B|40:192|-4:232,1,110,8|0,0:0|0:0,0:0:0:0:
212,276,125167,6,0,B|288:268|344:164|332:96,1,220,4|8,0:0|0:0,0:0:0:0:
200,20,125617,1,0,0:0:0:0:
80,136,125767,2,0,B|56:204|92:304|192:352,1,220,0|8,0:0|0:0,0:0:0:0:
208,172,126217,1,0,0:0:0:0:
300,308,126367,38,0,B|368:336|424:276,1,110
212,76,126667,2,0,B|144:48|88:108,1,110,8|0,0:0|0:0,0:0:0:0:
272,224,126967,2,0,B|336:252|392:196,1,110
240,160,127267,2,0,B|176:132|120:188,1,110,8|0,0:0|0:0,0:0:0:0:
232,308,127567,6,0,B|292:360|376:360|440:308,1,220,8|0,0:0|0:0,0:0:0:0:
504,164,128017,2,0,B|428:112|344:164|344:240,1,220,8|0,0:0|0:0,0:0:0:0:
440,236,128467,1,8,0:0:0:0:
440,236,128617,1,0,0:0:0:0:
364,108,128767,6,0,B|292:16,1,110
268,168,129067,2,0,B|340:260,1,110,8|0,0:0|0:0,0:0:0:0:
456,96,129367,2,0,B|384:4,1,110,8|0,0:0|0:0,0:0:0:0:
216,96,129667,1,8,0:0:0:0:
196,108,129742,1,8,0:0:0:0:
176,120,129817,1,8,0:0:0:0:
156,132,129892,1,8,0:0:0:0:
136,144,129967,6,0,B|64:192|60:288|128:340,1,220,4|0,0:0|0:0,0:0:0:0:
216,352,130417,1,0,0:0:0:0:
256,160,130717,1,8,0:3:0:0:
256,160,130867,1,8,0:3:0:0:
376,144,131167,38,0,B|448:192|452:288|384:340,1,220,4|0,0:0|0:0,0:0:0:0:
296,352,131617,1,0,0:0:0:0:
256,160,131917,1,0,0:0:0:0:
256,72,132067,1,8,0:0:0:0:
148,164,132367,6,0,B|88:196|96:260,1,110,4|0,0:0|0:0,0:0:0:0:
172,364,132667,1,0,0:0:0:0:
276,284,132817,2,0,B|384:228,1,110,4|0,0:0|0:0,0:0:0:0:
488,168,133117,1,0,0:0:0:0:
392,80,133267,2,0,B|332:56|288:120,1,110,4|0,0:0|0:0,0:0:0:0:
188,188,133567,6,0,B|160:244|200:312,1,110,4|0,0:0|0:0,0:0:0:0:
304,364,133867,1,8,0:0:0:0:
420,304,134017,2,0,B|452:260|420:196,1,110
328,112,134317,1,8,0:0:0:0:
312,96,134392,1,8,0:0:0:0:
296,80,134467,1,8,0:0:0:0:
276,72,134542,1,8,0:0:0:0:
256,68,134617,1,8,0:0:0:0:
236,68,134692,1,8,0:0:0:0:
216,68,134767,6,0,B|156:56|112:104,1,110,4|0,0:0|0:0,0:0:0:0:
44,208,135067,1,0,0:0:0:0:
196,280,135217,2,0,B|296:212,1,110,4|0,0:0|0:0,0:0:0:0:
396,144,135517,1,0,0:0:0:0:
368,340,135667,2,0,B|468:272,1,110,4|0,0:0|0:0,0:0:0:0:
484,148,135967,38,0,B|496:92|452:32,1,110,4|0,0:0|0:0,0:0:0:0:
332,84,136267,1,8,0:0:0:0:
268,200,136417,1,0,0:0:0:0:
184,96,136567,1,2,0:0:0:0:
168,100,136642,1,2,0:0:0:0:
156,108,136717,1,2,0:0:0:0:
140,116,136792,1,0,0:0:0:0:
124,124,136867,1,8,0:0:0:0:
108,120,136942,1,8,0:0:0:0:
92,112,137017,1,8,0:0:0:0:
76,104,137092,1,8,0:0:0:0:
60,96,137167,6,0,B|16:148|28:224,1,110,4|0,0:0|0:0,0:0:0:0:
80,320,137467,1,0,0:0:0:0:
248,192,137617,2,0,B|360:144,1,110,4|0,0:0|0:0,0:0:0:0:
472,100,137917,1,0,0:0:0:0:
416,288,138067,2,0,B|348:276|324:348,1,110,4|0,0:0|0:0,0:0:0:0:
212,268,138367,6,0,B|160:232|168:160,1,110
252,72,138667,1,0,0:0:0:0:
336,216,138817,2,0,B|360:276|316:320,1,110
196,368,139117,1,0,0:0:0:0:
176,360,139192,1,0,0:0:0:0:
156,348,139267,1,2,0:0:0:0:
140,332,139342,1,0,0:0:0:0:
128,312,139417,1,2,0:0:0:0:
120,292,139492,1,0,0:0:0:0:
112,272,139567,6,0,B|88:216|104:152,1,110,4|0,0:0|0:0,0:0:0:0:
148,48,139867,1,0,0:0:0:0:
220,200,140017,2,0,B|316:256,1,110,4|0,0:0|0:0,0:0:0:0:
432,316,140317,1,0,0:0:0:0:
460,128,140467,2,0,B|404:104|356:140,1,110,4|0,0:0|0:0,0:0:0:0:
240,300,140767,37,0,0:0:0:0:
216,316,140842,1,0,0:0:0:0:
192,328,140917,1,0,0:0:0:0:
164,332,140992,1,0,0:0:0:0:
136,324,141067,5,0,0:0:0:0:
108,316,141142,1,0,0:0:0:0:
80,308,141217,1,0,0:0:0:0:
52,312,141292,1,0,0:0:0:0:
32,292,141367,5,0,0:0:0:0:
24,264,141442,1,8,0:0:0:0:
32,236,141517,1,8,0:0:0:0:
48,212,141592,1,8,0:0:0:0:
64,192,141667,5,8,0:0:0:0:
92,188,141742,1,8,0:0:0:0:
116,176,141817,1,8,0:0:0:0:
132,152,141892,1,8,0:0:0:0:
140,124,141967,1,4,0:0:0:0:
160,320,146767,37,8,0:0:0:0:
160,320,146842,1,8,0:0:0:0:
160,320,146917,1,8,0:0:0:0:
160,320,146992,1,8,0:0:0:0:
160,320,147067,1,8,0:0:0:0:
268,204,147217,1,8,0:0:0:0:
120,144,147367,1,8,0:0:0:0:
120,144,147442,1,8,0:0:0:0:
120,144,147517,2,8,B|144:68|228:76,1,131.99999597168
376,44,147817,1,8,0:0:0:0:
264,168,147967,5,8,0:0:0:0:
404,240,148117,2,8,B|480:288,2,65.9999979858399
268,328,148417,1,8,0:0:0:0:
232,336,148492,1,8,0:0:0:0:
196,328,148567,2,8,L|132:300,2,65.9999979858399
152,204,148867,6,8,B|88:184,3,65.9999979858399
52,160,149167,5,8,0:0:0:0:
48,124,149242,1,8,0:0:0:0:
64,92,149317,1,8,0:0:0:0:
92,72,149392,1,8,0:0:0:0:
128,68,149467,37,8,0:0:0:0:
156,88,149542,1,8,0:0:0:0:
188,100,149617,1,8,0:0:0:0:
224,100,149692,1,8,0:0:0:0:
260,88,149767,5,0,0:0:0:0:
292,72,149842,1,0,0:0:0:0:
328,72,149917,1,0,0:0:0:0:
364,84,149992,1,0,0:0:0:0:
392,108,150067,5,0,0:0:0:0:
412,140,150142,1,0,0:0:0:0:
408,176,150217,1,0,0:0:0:0:
392,208,150292,1,0,0:0:0:0:
384,244,150367,5,8,0:0:0:0:
392,280,150442,1,8,0:0:0:0:
376,312,150517,1,8,0:0:0:0:
344,328,150592,1,8,0:0:0:0:
308,332,150667,37,8,0:0:0:0:
276,316,150742,1,8,0:0:0:0:
244,304,150817,1,8,0:0:0:0:
208,304,150892,1,8,0:0:0:0:
172,316,150967,6,0,B|112:360|36:324|28:240,2,197.99999395752
224,196,151567,1,4,0:0:0:0:
312,304,156367,5,8,0:0:0:0:
340,280,156442,1,8,0:0:0:0:
376,284,156517,1,8,0:0:0:0:
412,284,156592,1,8,0:0:0:0:
440,260,156667,1,8,0:0:0:0:
428,148,156817,5,8,0:0:0:0:
400,124,156892,1,8,0:0:0:0:
368,136,156967,1,8,0:0:0:0:
336,148,157042,1,8,0:0:0:0:
304,132,157117,1,8,0:0:0:0:
204,84,157267,38,8,L|112:128,3,65.9999979858399
120,132,157567,5,8,0:0:0:0:
96,156,157642,1,0,0:0:0:0:
84,188,157717,1,8,0:0:0:0:
80,220,157792,1,8,0:0:0:0:
84,252,157867,1,8,0:0:0:0:
168,344,158017,1,0,0:0:0:0:
208,336,158092,1,0,0:0:0:0:
248,340,158167,1,8,0:0:0:0:
288,348,158242,1,8,0:0:0:0:
328,340,158317,1,8,0:0:0:0:
424,256,158467,6,0,L|396:192,1,65.9999979858399,8|0,0:0|0:0,0:0:0:0:
348,180,158617,2,0,B|300:232,1,65.9999979858399,8|0,0:0|0:0,0:0:0:0:
272,248,158767,5,8,0:0:0:0:
236,256,158842,1,8,0:0:0:0:
200,256,158917,1,8,0:0:0:0:
164,244,158992,1,8,0:0:0:0:
132,228,159067,37,8,0:0:0:0:
104,204,159142,1,8,0:0:0:0:
88,172,159217,1,8,0:0:0:0:
88,136,159292,1,8,0:0:0:0:
96,100,159367,5,8,0:0:0:0:
108,68,159442,1,8,0:0:0:0:
136,44,159517,1,8,0:0:0:0:
172,44,159592,1,8,0:0:0:0:
204,60,159667,5,8,0:0:0:0:
236,76,159742,1,8,0:0:0:0:
272,84,159817,1,8,0:0:0:0:
308,84,159892,1,8,0:0:0:0:
340,68,159967,5,8,0:0:0:0:
376,60,160042,1,8,0:0:0:0:
412,64,160117,1,8,0:0:0:0:
440,88,160192,1,8,0:0:0:0:
456,120,160267,37,8,0:0:0:0:
468,156,160342,1,8,0:0:0:0:
464,192,160417,5,8,0:0:0:0:
440,220,160492,1,8,0:0:0:0:
408,240,160567,6,0,B|419:273|419:273|452:288|464:336|440:364|440:364|396:352|392:328,2,197.99999395752
256,192,161092,12,4,162367,0:0:0:0:
92,240,171967,6,0,B|44:200|56:136,1,110,4|0,0:0|0:0,0:0:0:0:
156,56,172267,2,0,B|204:96|192:160,1,110
152,284,172567,2,0,B|212:336|320:296|328:208,1,220,8|0,0:0|0:0,0:0:0:0:
420,64,173017,2,0,B|360:12|252:52|244:140,1,220,0|8,0:0|0:0,0:0:0:0:
136,200,173467,38,0,B|76:220|56:312,1,110
208,340,173767,2,8,B|268:320|288:228,1,110
164,124,174067,1,8,0:0:0:0:
396,328,174367,6,0,B|316:300|280:204|324:116,1,220,4|0,0:0|0:0,0:0:0:0:
428,212,174817,1,0,0:0:0:0:
428,212,174967,2,0,B|444:140|404:36|284:16,1,220,8|0,0:0|0:0,0:0:0:0:
228,112,175417,2,0,B|152:160|164:260|240:324,1,220,0|8,0:0|0:0,0:0:0:0:
368,208,175867,6,0,B|244:208,1,110
72,136,176167,2,8,B|196:136,1,110
312,136,176467,1,8,0:0:0:0:
57,34,176767,6,0,B|105:78|61:158,1,110,4|0,0:0|0:0,0:0:0:0:
61,278,177067,2,0,B|73:218|161:198,1,110
229,298,177367,2,0,B|301:278|353:174|329:90,1,220,8|0,0:0|0:0,0:0:0:0:
205,154,177817,2,0,B|257:222|349:242|449:202,1,220,0|8,0:0|0:0,0:0:0:0:
480,80,178267,38,0,B|440:28|364:24,1,110
252,96,178567,2,8,B|292:148|368:152,1,110
468,240,178867,1,8,0:0:0:0:
220,360,179167,6,0,B|156:328|152:260,1,110,4|0,0:0|0:0,0:0:0:0:
240,164,179467,2,0,B|304:196|308:264,1,110
172,208,179767,2,0,B|139:155|159:86|223:64|284:93,1,220,8|0,0:0|0:0,0:0:0:0:
396,24,180217,2,0,B|472:72|480:152|416:240,1,220,0|8,0:0|0:0,0:0:0:0:
324,296,180667,1,0,0:0:0:0:
296,168,180817,1,0,0:0:0:0:
220,276,180967,6,8,B|176:256|176:256|144:332|52:336,1,165
16,128,181417,1,8,0:0:0:0:
140,104,181567,21,4,0:0:0:0:
68,288,182017,1,0,0:0:0:0:
256,352,182467,1,0,0:0:0:0:
348,260,182767,2,0,B|300:184|208:184|156:280,1,220
164,124,183367,2,0,B|212:200|304:200|356:104,1,220
376,40,183817,1,0,0:0:0:0:
452,88,183967,5,4,0:0:0:0:
392,276,184417,1,0,0:0:0:0:
256,132,184867,1,0,0:0:0:0:
160,220,185167,70,0,B|108:184|108:184|176:116|124:40,1,220
352,220,185767,2,0,B|404:184|404:184|336:116|388:40,1,220
448,108,186217,1,0,0:0:0:0:
480,192,186367,6,0,B|484:248|484:248|444:304|396:320|344:368|328:356,1,220,4|0,0:0|0:0,0:0:0:0:
332,264,186817,2,0,B|304:224|280:200|256:184|256:184|232:200|208:224|180:272,1,220
154,349,187267,2,0,B|143:348|113:318|51:288|27:245|27:245|33:184,1,220
148,68,187867,69,2,0:0:0:0:
176,152,188017,1,0,0:0:0:0:
336,152,188317,5,0,0:0:0:0:
364,68,188467,1,2,0:0:0:0:
472,208,188767,70,0,B|388:180|340:272|368:348,1,220
436,292,189217,1,0,0:0:0:0:
172,276,189667,2,0,B|256:140|340:280,1,220
256,116,190267,1,0,0:0:0:0:
256,292,190567,1,8,0:0:0:0:
256,292,190717,1,8,0:0:0:0:
84,136,191167,22,0,B|72:68|132:24,1,110,4|0,0:0|0:0,0:0:0:0:
204,136,191467,1,8,0:0:0:0:
204,136,191617,2,0,B|420:236,1,220
480,336,192067,1,8,0:0:0:0:
380,92,192367,6,0,B|320:80|288:152,2,110,0|0|8,0:0|0:0|0:0,0:0:0:0:
132,92,192967,2,0,B|192:80|224:152,2,110,0|0|8,0:0|0:0|0:0,0:0:0:0:
124,356,193567,6,0,B|60:316|88:216,1,110
212,276,193867,1,8,0:0:0:0:
212,276,194017,2,0,B|248:212|344:184|412:224,1,220
504,132,194467,1,8,0:0:0:0:
424,28,194617,1,0,0:0:0:0:
344,132,194767,6,0,B|308:100|276:100|236:132|208:164|168:168|124:128,1,220,0|8,0:0|0:0,0:0:0:0:
56,240,195217,2,0,B|92:272|124:272|164:240|192:208|232:204|276:244,1,220,8|0,0:0|0:0,0:0:0:0:
384,280,195667,1,8,0:0:0:0:
268,148,195967,38,0,B|220:80|124:80|72:156,1,220,4|0,0:0|0:0,0:0:0:0:
188,220,196417,1,8,0:0:0:0:
360,144,196717,2,8,B|404:88|380:28,1,110
256,272,197167,6,0,B|300:348|388:368|468:336,1,220,4|8,0:0|0:0,0:0:0:0:
372,236,197617,1,8,0:0:0:0:
184,172,197917,2,8,B|120:188|112:276,1,110
256,80,198367,5,4,0:0:0:0:
256,192,198442,12,0,199267,0:0:0:0:
400,184,199567,5,0,0:0:0:0:
332,128,199717,1,0,0:0:0:0:
256,172,199867,1,0,0:0:0:0:
180,128,200017,1,0,0:0:0:0:
112,184,200167,1,0,0:0:0:0:
148,264,200317,1,0,0:0:0:0:
212,324,200467,1,0,0:0:0:0:
300,324,200617,1,0,0:0:0:0:
364,264,200767,1,4,0:0:0:0:
252,244,209767,6,0,B|308:248|352:200,1,82.5000031471254
268,156,210067,2,0,B|212:152|168:200,1,82.5000031471254
168,268,210367,6,0,B|80:240|56:136|56:136,1,165.000006294251,0|8,0:0|0:3,0:0:0:0:
116,80,210817,1,8,0:3:0:0:
256,196,211117,1,0,0:0:0:0:
256,288,211267,1,8,0:0:0:0:
308,116,211567,70,0,B|400:144|400:248,1,165.000006294251,0|8,0:0|0:3,0:0:0:0:
332,296,212017,1,8,0:3:0:0:
424,140,212317,1,0,0:0:0:0:
468,60,212467,1,8,0:0:0:0:
336,184,212767,6,0,B|256:168|184:240,1,165.000006294251,0|8,0:0|0:3,0:0:0:0:
144,308,213217,1,8,0:3:0:0:
132,128,213517,2,0,B|84:168|100:232,1,82.5000031471254,0|8,0:0|0:0,0:0:0:0:
40,24,213967,70,0,B|200:64,1,165.000006294251,0|8,0:0|0:3,0:0:0:0:
276,96,214417,1,8,0:3:0:0:
348,136,214567,2,0,B|388:168|380:212,1,82.5000031471254
324,268,214867,2,0,B|284:236|292:192,1,82.5000031471254,8|0,0:0|0:0,0:0:0:0:
208,180,215167,6,0,B|156:264|244:336,1,165.000006294251,0|8,0:0|0:3,0:0:0:0:
324,340,215617,1,8,0:3:0:0:
440,200,215917,2,0,B|464:120,1,82.5000031471254,0|8,0:0|0:0,0:0:0:0:
288,76,216367,70,0,B|252:52|200:76,1,82.5000031471254
144,136,216667,2,0,B|180:160|232:136,1,82.5000031471254
312,216,216967,2,0,B|276:192|224:216,1,82.5000031471254,0|0,0:0|0:0,0:0:0:0:
176,284,217267,2,0,B|212:308|264:284,1,82.5000031471254
344,308,217567,6,0,B|400:240,1,82.5000031471254
396,152,217867,2,0,B|328:96,1,82.5000031471254
240,100,218167,2,0,B|184:168,1,82.5000031471254
188,256,218467,2,0,B|256:312,1,82.5000031471254
424,328,218767,5,0,0:0:0:0:
424,328,218917,1,0,0:0:0:0:
424,328,219067,1,0,0:0:0:0:
424,328,219217,1,0,0:0:0:0:
424,328,219367,1,0,0:0:0:0:
360,92,219667,1,4,0:0:0:0:
144,168,219967,6,0,B|120:80|188:24|276:52,1,220,4|8,0:0|0:0,0:0:0:0:
388,176,220417,1,0,0:0:0:0:
248,284,220567,2,0,B|204:332|116:316,1,110
252,144,220867,2,0,B|296:96|384:112,1,110,8|0,0:0|0:0,0:0:0:0:
420,272,221167,6,0,B|336:296|236:260|200:176,1,220,4|8,0:0|0:0,0:0:0:0:
224,36,221617,1,0,0:0:0:0:
332,172,221767,2,0,B|340:236|292:280,1,110
132,192,222067,2,0,B|124:128|172:84,1,110,8|0,0:0|0:0,0:0:0:0:
228,256,222367,6,0,B|172:320|80:324|12:256,1,220,4|8,0:0|0:0,0:0:0:0:
132,156,222817,1,0,0:0:0:0:
308,176,222967,2,0,P|312:224|292:284,1,110
60,152,223267,2,0,P|56:104|76:44,1,110,8|0,0:0|0:0,0:0:0:0:
244,64,223567,38,0,B|324:24|396:68|412:148,1,220,2|8,0:0|0:0,0:0:0:0:
304,288,224017,1,0,0:0:0:0:
188,156,224167,2,0,B|156:16,1,110,8|0,0:0|0:0,0:0:0:0:
324,228,224467,2,0,B|356:368,1,110,8|0,0:0|0:0,0:0:0:0:
196,244,224767,6,0,B|104:212|80:136|116:44,1,220,12|0,0:0|0:0,0:0:0:0:
252,172,225217,2,0,B|308:112|384:100|468:128,1,220,8|0,0:0|0:0,0:0:0:0:
444,300,225667,2,0,B|384:256|376:184,1,110,8|0,0:0|0:0,0:0:0:0:
388,36,225967,6,0,B|332:68|272:48,1,110
100,60,226267,2,0,B|132:116|112:176,1,110,8|0,0:0|0:0,0:0:0:0:
124,348,226567,2,0,B|180:316|240:336,1,110
412,324,226867,2,8,B|380:268|400:208,1,110
256,112,227167,6,0,B|196:80|144:116,1,110,4|0,0:0|0:0,0:0:0:0:
28,240,227467,1,8,0:0:0:0:
184,320,227617,2,0,B|228:276|232:216,1,110
164,60,227917,1,0,0:0:0:0:
316,148,228067,2,0,B|376:172|404:224,1,110,8|0,0:0|0:0,0:0:0:0:
280,344,228367,37,0,0:0:0:0:
260,336,228442,1,0,0:0:0:0:
240,328,228517,1,0,0:0:0:0:
220,320,228592,1,0,0:0:0:0:
200,312,228667,5,0,0:0:0:0:
216,296,228742,1,0,0:0:0:0:
232,280,228817,1,0,0:0:0:0:
248,264,228892,1,0,0:0:0:0:
264,248,228967,5,0,0:0:0:0:
256,228,229042,1,0,0:0:0:0:
244,208,229117,1,0,0:0:0:0:
232,192,229192,1,0,0:0:0:0:
216,176,229267,2,8,B|176:160|188:124,3,55
196,116,229567,6,0,B|244:52|336:40|392:80,1,220,12|8,0:0|0:0,0:0:0:0:
484,232,230017,1,0,0:0:0:0:
384,376,230167,2,0,B|336:328|348:256,1,110
384,104,230467,2,0,B|432:152|420:224,1,110,8|0,0:0|0:0,0:0:0:0:
280,304,230767,38,0,B|192:296|136:216|176:120,1,220,4|8,0:0|0:0,0:0:0:0:
292,24,231217,1,0,0:0:0:0:
364,184,231367,2,0,B|316:228|256:212,1,110
108,124,231667,2,0,B|156:80|216:96,1,110,8|0,0:0|0:0,0:0:0:0:
388,92,231967,6,0,B|464:136|464:256|380:320,1,220,4|8,0:0|0:0,0:0:0:0:
280,192,232417,1,8,0:0:0:0:
228,348,232567,2,0,B|136:372|60:304|60:216,1,220
156,92,233017,1,8,0:0:0:0:
156,92,233167,1,2,0:0:0:0:
120,320,233467,1,8,0:0:0:0:
276,108,233767,2,0,B|320:56|400:48,1,110,8|0,0:0|0:0,0:0:0:0:
432,216,234067,2,8,B|388:268|308:276,1,110,8|0,0:0|0:0,0:0:0:0:
192,172,234367,6,0,B|108:156|48:228|64:316,1,220,4|8,0:0|0:0,0:0:0:0:
236,268,234817,1,0,0:0:0:0:
384,340,234967,2,0,B|500:288|496:132,1,220,0|8,0:0|0:0,0:0:0:0:
160,56,235567,6,0,B|128:112|152:160,1,110
352,328,235867,2,0,B|384:272|360:224,1,110,8|0,0:0|0:0,0:0:0:0:
324,48,236167,2,0,B|260:44|224:108,1,110,0|0,0:0|0:0,0:0:0:0:
188,336,236467,2,0,B|252:340|288:276,1,110,8|0,0:0|0:0,0:0:0:0:
256,192,236767,1,4,0:0:0:0:
256,192,236842,12,0,237667,0:0:0:0:
172,268,237967,38,0,B|136:212|164:136,1,110
355,162,238267,2,0,B|376:212|340:268,1,110
256,340,238567,1,0,0:0:0:0:
256,340,238717,1,0,0:0:0:0:
256,220,238867,1,8,0:0:0:0:
256,188,238942,1,8,0:0:0:0:
256,156,239017,1,8,0:0:0:0:
256,124,239092,1,8,0:0:0:0:
256,92,239167,5,4,0:0:0:0:
256,192,239242,12,4,240367,0:0:0:0:
256,192,240442,12,8,241267,0:0:0:0:
256,28,241567,69,4,0:0:0:0:
256,72,242167,1,0,0:0:0:0:
256,116,242767,1,0,0:0:0:0:
256,160,243367,1,0,0:0:0:0:
256,204,243967,1,0,0:0:0:0:
256,248,244567,1,0,0:0:0:0:
256,292,245167,1,0,0:0:0:0:
256,336,245767,1,0,0:0:0:0:
256,204,246367,5,0,0:0:0:0:
264,216,246442,1,0,0:0:0:0:
276,228,246517,1,0,0:0:0:0:
288,240,246592,1,0,0:0:0:0:
300,252,246667,1,0,0:0:0:0:
312,260,246742,1,0,0:0:0:0:
324,268,246817,1,0,0:0:0:0:
336,276,246892,1,0,0:0:0:0:
352,284,246967,5,0,0:0:0:0:
368,292,247042,1,0,0:0:0:0:
384,300,247117,1,0,0:0:0:0:
400,308,247192,1,0,0:0:0:0:
416,312,247267,1,0,0:0:0:0:
432,316,247342,1,0,0:0:0:0:
448,316,247417,1,0,0:0:0:0:
464,312,247492,1,0,0:0:0:0:
476,304,247567,5,0,0:0:0:0:
488,292,247642,1,0,0:0:0:0:
496,276,247717,1,0,0:0:0:0:
500,260,247792,1,0,0:0:0:0:
500,244,247867,1,0,0:0:0:0:
496,228,247942,1,0,0:0:0:0:
488,212,248017,1,0,0:0:0:0:
480,196,248092,1,0,0:0:0:0:
468,184,248167,38,0,P|444:164|412:172,3,55
404,168,248467,2,0,P|376:184|324:164,3,55
336,180,248767,5,0,0:0:0:0:
320,172,248842,1,0,0:0:0:0:
308,160,248917,1,0,0:0:0:0:
300,144,248992,1,0,0:0:0:0:
300,128,249067,1,0,0:0:0:0:
312,116,249142,1,0,0:0:0:0:
324,104,249217,1,0,0:0:0:0:
340,96,249292,1,0,0:0:0:0:
356,96,249367,5,0,0:0:0:0:
372,100,249442,1,0,0:0:0:0:
388,104,249517,1,0,0:0:0:0:
404,104,249592,1,0,0:0:0:0:
420,96,249667,5,0,0:0:0:0:
432,84,249742,1,0,0:0:0:0:
444,72,249817,1,0,0:0:0:0:
452,56,249892,1,0,0:0:0:0:
452,40,249967,37,0,0:0:0:0:
256,196,250267,1,0,0:0:0:0:
256,44,250567,2,0,B|236:52|236:52|220:76|220:76|256:80|256:80|288:100|288:100|260:128|260:128|248:132,2,165
116,24,251167,6,0,B|52:72,1,68.75,8|0,0:0|0:0,0:0:0:0:
96,72,251317,2,0,B|32:120,1,68.75,8|0,0:0|0:0,0:0:0:0:
76,120,251467,2,0,B|12:168,1,68.75,8|0,0:0|0:0,0:0:0:0:
56,168,251617,2,0,B|-8:216,1,68.75,8|0,0:0|0:0,0:0:0:0:
36,212,251767,6,0,B|4:276,1,68.75,8|0,0:0|0:0,0:0:0:0:
44,256,251917,2,0,B|36:332,1,68.75,8|0,0:0|0:0,0:0:0:0:
64,300,252067,2,0,B|100:372,1,68.75,8|0,0:0|0:0,0:0:0:0:
108,332,252217,2,0,B|168:368,1,68.75,8|0,0:0|0:0,0:0:0:0:
168,332,252367,6,0,B|240:356,1,68.75,8|0,0:0|0:0,0:0:0:0:
224,320,252517,2,0,B|300:316,1,68.75,8|0,0:0|0:0,0:0:0:0:
272,288,252667,2,0,B|348:268,1,68.75,8|0,0:0|0:0,0:0:0:0:
312,248,252817,2,0,B|372:216,1,68.75,8|0,0:0|0:0,0:0:0:0:
344,200,252967,38,8,B|400:148,1,68.75,8|0,0:0|0:0,0:0:0:0:
360,152,253117,2,0,B|392:84,1,68.75,8|0,0:0|0:0,0:0:0:0:
360,108,253267,2,0,B|368:40,1,68.75,8|0,0:0|0:0,0:0:0:0:
332,72,253417,2,0,L|300:12,1,68.75,8|0,0:0|0:0,0:0:0:0:
292,56,253567,6,0,B|228:24,1,68.75,8|0,0:0|0:0,0:0:0:0:
244,56,253717,2,0,B|168:64,1,68.75,8|0,0:0|0:0,0:0:0:0:
204,84,253867,2,0,B|120:116,1,68.75,8|0,0:0|0:0,0:0:0:0:
172,124,254017,2,0,B|108:160,1,68.75,8|0,0:0|0:0,0:0:0:0:
144,176,254167,6,0,B|76:220,1,68.75,8|0,0:0|0:0,0:0:0:0:
116,228,254317,2,0,B|64:292,1,68.75,8|0,0:0|0:0,0:0:0:0:
108,276,254467,2,0,B|92:348,1,68.75,8|0,0:0|0:0,0:0:0:0:
120,320,254617,2,0,B|148:388,1,68.75,8|0,0:0|0:0,0:0:0:0:
184,356,254767,21,4,0:0:0:0:
260,300,254917,1,0,0:0:0:0:
356,312,255067,1,4,0:0:0:0:
436,256,255217,1,0,0:0:0:0:
392,172,255367,1,4,0:0:0:0:
300,196,255517,1,0,0:0:0:0:
228,136,255667,1,4,0:0:0:0:
296,68,255817,1,0,0:0:0:0:
408,36,255967,22,0,B|488:92,1,68.75,8|0,0:0|0:0,0:0:0:0:
428,96,256117,2,0,B|496:152,1,68.75,8|0,0:0|0:0,0:0:0:0:
440,152,256267,2,0,B|464:220,1,68.75,8|0,0:0|0:0,0:0:0:0:
424,196,256417,2,0,B|408:272,1,68.75,8|0,0:0|0:0,0:0:0:0:
388,228,256567,6,0,B|356:296,1,68.75,8|0,0:0|0:0,0:0:0:0:
344,252,256717,2,0,B|300:308,1,68.75,8|0,0:0|0:0,0:0:0:0:
300,264,256867,2,0,B|236:328,1,68.75,8|0,0:0|0:0,0:0:0:0:
240,264,257017,2,0,B|188:312,1,68.75,8|0,0:0|0:0,0:0:0:0:
188,268,257167,6,0,B|120:288,1,68.75,8|0,0:0|0:0,0:0:0:0:
144,252,257317,2,0,B|76:224,1,68.75,8|0,0:0|0:0,0:0:0:0:
120,212,257467,2,0,B|72:152,1,68.75,8|0,0:0|0:0,0:0:0:0:
120,164,257617,2,0,B|88:96,1,68.75,8|0,0:0|0:0,0:0:0:0:
128,116,257767,6,0,B|144:44,1,68.75,8|0,0:0|0:0,0:0:0:0:
168,84,257917,2,0,B|224:44,1,68.75,8|0,0:0|0:0,0:0:0:0:
224,84,258067,2,0,B|300:64,1,68.75,8|0,0:0|0:0,0:0:0:0:
280,108,258217,2,0,B|356:112,1,68.75,8|0,0:0|0:0,0:0:0:0:
324,148,258367,38,0,B|404:192,1,68.75,8|0,0:0|0:0,0:0:0:0:
344,196,258517,2,0,B|396:256,1,68.75,8|0,0:0|0:0,0:0:0:0:
348,256,258667,2,0,B|404:300,1,68.75,8|0,0:0|0:0,0:0:0:0:
360,304,258817,2,0,B|336:368,1,68.75,8|0,0:0|0:0,0:0:0:0:
324,328,258967,6,0,B|248:356,1,68.75,8|0,0:0|0:0,0:0:0:0:
268,312,259117,2,0,B|184:324,1,68.75,8|0,0:0|0:0,0:0:0:0:
220,284,259267,2,0,B|148:260,1,68.75,8|0,0:0|0:0,0:0:0:0:
184,232,259417,2,0,B|136:184,1,68.75,8|0,0:0|0:0,0:0:0:0:
176,172,259567,6,0,B|152:104,1,68.75,8|0,0:0|0:0,0:0:0:0:
192,120,259717,2,0,B|216:48,1,68.75,8|0,0:0|0:0,0:0:0:0:
236,92,259867,6,0,B|288:36,1,68.75,8|0,0:0|0:0,0:0:0:0:
288,84,260017,2,0,B|376:72,1,68.75,8|0,0:0|0:0,0:0:0:0:
344,116,260167,6,0,B|424:156,1,68.75,8|0,0:0|0:0,0:0:0:0:
372,172,260317,2,0,B|428:228,1,68.75,8|0,0:0|0:0,0:0:0:0:
380,232,260467,6,0,B|404:304,1,68.75,8|0,0:0|0:0,0:0:0:0:
364,284,260617,2,0,B|336:348,1,68.75,8|0,0:0|0:0,0:0:0:0:
304,324,260767,6,12,B|248:176,1,137.5
