osu file format v14

[General]
AudioFilename: 00 - Psychokinesis.mp3
AudioLeadIn: 1996
PreviewTime: 110167
Countdown: 0
SampleSet: Normal
StackLeniency: 0.7
Mode: 0
LetterboxInBreaks: 0
WidescreenStoryboard: 0

[Editor]
Bookmarks: 96367
DistanceSpacing: 1
BeatDivisor: 1
GridSize: 4
TimelineZoom: 1

[Metadata]
Title:Psychokinesis
TitleUnicode:Psychokinesis
Artist:Utsu-P
ArtistUnicode:鬱P
Creator:Osu Tatakae Ouendan
Version:Normal
Source:
Tags:Hagane Hatsune Miku Net0 Rice Vocaloid DIARRHEA utsuP heavy metal rock Imparfait japanese Hiseii Phychokinesis
BeatmapID:232533
BeatmapSetID:70988

[Difficulty]
HPDrainRate:4
CircleSize:3
OverallDifficulty:4
ApproachRate:5
SliderMultiplier:0.9
SliderTickRate:1

[Events]
//Background and Video events
0,0,"utsup.jpg",0,0
//Break Periods
2,62967,71167
2,132567,140767
2,146967,150367
2,156567,161167
2,181767,198967
2,241767,249967
//Storyboard Layer 0 (Background)
//Storyboard Layer 1 (Fail)
//Storyboard Layer 2 (Pass)
//Storyboard Layer 3 (Foreground)
//Storyboard Layer 4 (Overlay)
//Storyboard Sound Samples

[TimingPoints]
367,300,4,1,1,75,1,0
43567,-100,4,1,1,75,0,1
46267,-100,4,1,1,75,0,0
48667,-100,4,1,1,75,0,1
51067,-100,4,1,1,75,0,0
53467,-100,4,1,1,75,0,1
55867,-100,4,1,1,75,0,0
58267,-100,4,1,1,75,0,1
62767,-100,4,1,1,75,0,0
110767,-100,4,1,1,75,0,1
129967,-100,4,1,1,70,0,0
141967,-100,4,2,1,90,0,0
146767,-100,4,1,1,80,0,0
151567,-100,4,2,1,90,0,0
156367,-100,4,1,1,80,0,0
162367,-100,4,1,1,65,0,0
219967,-100,4,1,1,70,0,1
239167,-100,4,1,1,80,0,0
251167,-100,4,1,1,80,0,1
254767,-100,4,1,1,80,0,0
255967,-100,4,1,1,80,0,1
259567,-100,4,1,1,80,0,0
260767,-100,4,1,1,70,0,1
261067,-100,4,1,1,70,0,0

[Colours]
Combo1 : 255,255,128
Combo2 : 255,128,128
Combo3 : 255,98,255
Combo4 : 128,255,255

[HitObjects]
28,128,24667,6,0,P|24:212|152:308,1,225,8|8,0:0|0:0,0:0:0:0:
240,256,25867,2,8,P|308:240|360:256,2,90
136,120,27067,6,0,P|152:260|72:324,1,225,8|8,0:0|0:0,0:0:0:0:
44,196,28267,2,8,P|20:244|12:320,2,90,0|8|8,0:0|0:0|0:0,0:0:0:0:
196,276,29467,6,0,P|252:348|392:296,1,225,8|8,0:0|0:0,0:0:0:0:
428,212,30667,2,8,P|396:164|328:152,2,90
268,268,31867,6,0,P|172:304|108:200,1,225,2|2,0:0|0:0,0:0:0:0:
224,172,33067,2,0,B|268:156|268:156|344:164,2,90,8|0|8,0:0|0:0|0:0,0:0:0:0:
168,108,33967,5,4,0:0:0:0:
232,52,34267,2,0,L|348:72,1,90,8|8,0:0|0:0,0:0:0:0:
404,84,34867,1,0,0:0:0:0:
404,84,35017,1,0,0:0:0:0:
336,196,35467,2,8,P|320:264|340:308,1,90
404,312,36067,1,8,0:0:0:0:
464,152,36667,6,0,L|392:92,1,90,0|8,0:0|0:0,0:0:0:0:
328,40,37267,1,0,0:0:0:0:
328,40,37417,1,0,0:0:0:0:
224,116,37867,2,8,P|156:132|116:128,1,90
52,124,38467,1,8,0:0:0:0:
24,292,39067,6,2,P|124:316|240:264,1,225
300,160,40267,2,8,L|268:56,2,90,8|8|2,0:0|0:0|0:0,0:0:0:0:
304,332,41467,6,2,P|396:284|412:152,1,225,10|10,0:0|0:0,0:0:0:0:
296,212,42667,2,0,P|240:208|180:184,1,90
148,136,43267,1,2,0:0:0:0:
220,88,43567,6,0,P|368:104|388:312,1,360,4|0,0:0|0:0,0:0:0:0:
336,336,45067,1,2,0:0:0:0:
256,304,45367,2,2,L|256:176,1,90
324,164,45967,6,0,P|232:72|84:108,1,270,0|4,0:0|0:0,0:0:0:0:
84,176,47167,2,0,P|176:268|324:232,1,270,0|4,0:0|0:0,0:0:0:0:
292,88,48667,6,0,P|144:104|124:312,1,360
176,336,50167,1,2,0:0:0:0:
256,304,50467,2,2,L|256:176,1,90,2|2,0:0|0:0,0:0:0:0:
188,164,51067,6,0,P|280:72|428:108,1,270,4|0,0:0|0:0,0:0:0:0:
428,176,52267,2,0,P|336:268|188:232,1,270,4|0,0:0|0:0,0:0:0:0:
144,192,53467,6,0,P|260:136|380:196,1,270
348,284,54667,2,0,L|164:284,1,180
168,100,55867,6,0,L|364:100,2,180
168,192,57367,1,0,0:0:0:0:
256,192,57667,2,0,L|352:192,1,90
380,108,58267,6,0,P|256:60|128:112,1,270
132,196,59467,2,0,P|255:242|378:194,1,270
400,108,60667,6,0,P|400:56|364:12,1,90,0|4,0:0|0:0,0:0:0:0:
312,80,61267,1,0,0:0:0:0:
222,80,61567,2,0,L|106:80,2,90
312,80,62467,1,0,0:0:0:0:
364,152,62767,5,4,0:0:0:0:
256,344,72367,5,4,0:0:0:0:
172,316,72667,2,0,P|124:296|72:244,1,90,0|8,0:0|0:0,0:0:0:0:
40,200,73267,1,0,0:0:0:0:
40,200,73417,2,2,P|124:152|184:148,1,135
248,172,74167,2,0,L|176:256,1,90,8|8,0:0|0:0,0:0:0:0:
340,316,75067,6,0,P|388:296|440:244,1,90,0|8,0:0|0:0,0:0:0:0:
472,200,75667,1,0,0:0:0:0:
472,200,75817,2,2,P|388:152|328:148,1,135
264,172,76567,2,0,L|336:256,1,90,8|8,0:0|0:0,0:0:0:0:
256,296,77167,5,4,0:0:0:0:
172,312,77467,2,2,P|88:216|136:72,1,270
184,144,78667,2,0,P|168:184|204:232,2,90,8|0|8,0:0|0:0|0:0,0:0:0:0:
392,87,79867,6,2,P|424:216|340:312,1,270
323,223,81067,2,0,P|344:184|328:144,2,90,8|0|8,0:0|0:0|0:0,0:0:0:0:
180,324,82267,6,2,P|48:252|44:112,1,270,0|2,0:0|0:0,0:0:0:0:
108,184,83467,2,0,L|224:236,1,90,0|8,0:0|0:0,0:0:0:0:
256,276,84067,1,8,0:0:0:0:
336,308,84367,5,4,0:0:0:0:
416,276,84667,2,2,P|473:136|396:40,1,270
376,128,85867,2,8,P|350:185|320:240,2,90
252,244,87067,6,0,P|116:232|40:128,1,270,8|0,0:0|0:0,0:0:0:0:
76,56,88267,2,8,L|184:80,1,90
180,156,88867,1,8,0:0:0:0:
256,124,89167,5,4,0:0:0:0:
332,156,89467,2,2,P|404:88|508:140,1,225
464,212,90517,2,0,P|288:252|192:160,1,315,8|4,0:0|0:0,0:0:0:0:
72,204,92017,6,0,P|72:280|96:344,1,135
176,340,92767,2,0,P|256:372|344:344,1,180,8|8,0:0|0:0,0:0:0:0:
212,236,93967,6,0,P|152:204|86:209,2,135,0|8|0,0:0|0:0|0:0,0:0:0:0:
300,236,95167,2,0,P|360:204|425:209,2,135,0|8|0,0:0|0:0|0:0,0:0:0:0:
216,232,96367,6,0,P|108:148|170:63,1,270,4|2,0:0|0:0,0:0:0:0:
240,112,97567,2,0,P|367:60|405:170,1,270,4|2,0:0|0:0,0:0:0:0:
332,192,98767,2,0,P|314:327|208:314,1,270,4|2,0:0|0:0,0:0:0:0:
144,260,99967,5,8,0:0:0:0:
256,132,100567,1,8,0:0:0:0:
256,132,100717,1,8,0:0:0:0:
208,292,101167,6,0,P|140:336|60:336,1,135,4|8,0:0|0:0,0:0:0:0:
140,224,102067,1,2,0:0:0:0:
184,152,102367,2,0,P|268:104|368:136,1,180,2|2,0:0|0:0,0:0:0:0:
304,292,103567,6,0,P|372:336|452:336,1,135,4|8,0:0|0:0,0:0:0:0:
372,224,104467,1,2,0:0:0:0:
328,152,104767,2,0,P|244:104|144:136,1,180,2|2,0:0|0:0,0:0:0:0:
44,240,105967,6,0,P|76:160|228:196,1,270,4|8,0:0|0:0,0:0:0:0:
284,256,107167,2,0,L|448:316,2,135,4|8|0,0:0|0:0|0:0,0:0:0:0:
208,296,108367,5,4,0:0:0:0:
256,192,108667,12,4,110767,0:0:0:0:
44,120,111367,6,0,L|128:216,1,90,0|8,0:0|0:0,0:0:0:0:
168,244,111967,2,0,L|384:244,1,180,4|0,0:0|0:0,0:0:0:0:
432,232,112867,1,8,0:0:0:0:
368,172,113167,6,2,P|256:56|144:176,1,360,6|2,0:0|0:0,0:0:0:0:
176,344,114967,1,8,0:0:0:0:
256,372,115267,1,8,0:0:0:0:
328,328,115567,6,0,L|464:156,1,180,4|8,0:0|0:0,0:0:0:0:
360,144,116467,1,2,0:0:0:0:
312,220,116767,2,0,P|176:268|56:244,1,270,4|8,0:0|0:0,0:0:0:0:
36,156,117967,6,2,L|340:160,1,270,6|2,0:0|0:0,0:0:0:0:
332,240,119167,2,2,L|28:236,1,270,6|2,0:0|0:0,0:0:0:0:
32,316,120367,6,0,L|248:316,1,180,4|0,0:0|0:0,0:0:0:0:
296,316,121267,1,8,0:0:0:0:
364,264,121567,2,2,P|412:168|288:164,1,270,6|8,0:0|0:0,0:0:0:0:
224,212,122767,6,2,P|104:203|152:107,1,270,6|8,0:0|0:0,0:0:0:0:
236,80,123967,1,12,0:0:0:0:
328,224,124567,6,0,L|408:284,2,90,0|0|4,0:0|0:0|0:0,0:0:0:0:
252,72,125767,1,8,0:0:0:0:
184,124,126067,1,8,0:0:0:0:
128,192,126367,6,2,P|192:280|388:184,1,360,2|4,0:0|0:0,0:0:0:0:
384,108,127867,1,8,0:0:0:0:
308,148,128167,2,8,P|256:208|204:144,1,180
168,72,129067,2,0,L|380:72,1,180,8|8,0:0|0:0,0:0:0:0:
432,72,129967,5,4,0:0:0:0:
256,192,130267,12,4,132367,0:0:0:0:
126,272,141967,6,2,P|256:304|392:268,1,270,4|2,1:0|0:0,0:0:0:0:
384,180,143167,2,2,P|254:211|118:175,1,270
128,88,144367,2,2,P|257:119|393:83,1,270
304,32,145567,2,0,L|184:32,2,90,2|8|2,0:0|0:0|0:0,0:0:0:0:
256,108,146467,1,0,1:0:0:0:
256,200,146767,5,4,0:0:0:0:
385,272,151567,6,2,P|256:304|120:268,1,270,4|2,1:0|0:0,0:0:0:0:
128,180,152767,2,2,P|257:211|393:175,1,270
384,88,153967,2,2,P|254:119|118:83,1,270
208,32,155167,2,0,L|328:32,2,90,2|8|2,0:0|0:0|0:0,0:0:0:0:
256,108,156067,1,0,1:0:0:0:
256,200,156367,5,4,0:0:0:0:
28,312,162367,5,4,0:0:0:0:
104,352,162667,1,8,0:0:0:0:
188,352,162967,2,8,P|220:312|276:364,2,135
140,280,164167,2,8,L|196:200,1,90
336,300,165067,5,8,0:0:0:0:
404,248,165367,2,8,P|412:180|368:112,2,135
324,216,166567,1,8,0:0:0:0:
256,164,166867,1,8,0:0:0:0:
156,304,167467,6,2,P|64:296|24:208,1,180,8|2,0:0|0:0,0:0:0:0:
60,148,168367,2,0,L|124:56,1,90,2|8,0:0|0:0,0:0:0:0:
164,144,168967,2,8,L|204:236,1,90
356,304,169867,6,2,P|448:296|488:226,1,180,8|2,0:0|0:0,0:0:0:0:
452,148,170767,2,0,L|388:56,1,90,2|8,0:0|0:0,0:0:0:0:
348,144,171367,2,8,L|308:236,1,90
236,264,171967,5,4,0:0:0:0:
160,304,172267,2,2,P|64:248|60:116,1,225
132,180,173317,1,0,0:0:0:0:
132,180,173467,2,8,P|184:196|216:220,2,90
288,76,174667,6,2,P|392:112|472:212,1,225
384,232,175717,1,0,0:0:0:0:
384,232,175867,2,8,L|276:208,2,90
480,344,177067,5,8,0:0:0:0:
396,348,177367,2,8,L|244:340,1,135,8|0,0:0|0:0,0:0:0:0:
172,328,178117,1,8,0:0:0:0:
172,328,178267,1,8,0:0:0:0:
196,240,178567,2,0,P|236:228|276:188,1,90,8|8,0:0|0:0,0:0:0:0:
388,72,179467,5,0,0:0:0:0:
300,96,179767,1,8,0:0:0:0:
216,64,180067,1,0,0:0:0:0:
216,64,180217,2,0,P|132:104|88:156,1,135,0|8,0:0|0:0,0:0:0:0:
152,204,180967,2,2,L|372:204,1,180,2|4,0:0|0:0,0:0:0:0:
396,124,200167,5,8,0:0:0:0:
352,200,200467,1,8,0:0:0:0:
304,272,200767,2,2,P|176:180|308:88,1,360,4|2,0:0|0:0,0:0:0:0:
476,268,202867,1,2,0:0:0:0:
404,312,203167,6,2,P|268:356|100:340,1,270
68,308,204367,1,2,0:0:0:0:
172,172,204967,1,0,0:0:0:0:
256,172,205267,1,0,0:0:0:0:
340,172,205567,1,2,0:0:0:0:
148,340,206467,1,2,0:0:0:0:
240,336,206767,6,0,L|352:336,1,90
328,252,207367,2,8,L|436:252,2,90,0|0|2,0:0|0:0|0:0,0:0:0:0:
88,140,209167,5,2,0:0:0:0:
248,76,209767,1,0,0:0:0:0:
332,76,210067,1,0,0:0:0:0:
416,76,210367,1,4,0:0:0:0:
340,228,210967,5,0,0:0:0:0:
256,228,211267,1,0,0:0:0:0:
172,228,211567,1,4,0:0:0:0:
96,76,212167,5,0,0:0:0:0:
180,76,212467,1,0,0:0:0:0:
264,76,212767,1,4,0:0:0:0:
340,228,213367,5,0,0:0:0:0:
256,228,213667,1,0,0:0:0:0:
172,228,213967,1,4,0:0:0:0:
256,80,214567,5,0,0:0:0:0:
336,112,214867,1,8,0:0:0:0:
328,196,215167,1,4,0:0:0:0:
180,280,215767,6,0,P|276:340|476:228,1,360,0|4,0:0|0:0,0:0:0:0:
256,192,217567,12,4,219967,0:0:0:0:
468,120,220567,6,0,L|384:216,1,90,0|8,0:0|0:0,0:0:0:0:
344,244,221167,2,0,L|128:244,1,180,4|0,0:0|0:0,0:0:0:0:
80,232,222067,1,8,0:0:0:0:
144,172,222367,6,2,P|256:56|368:176,1,360,6|2,0:0|0:0,0:0:0:0:
336,344,224167,1,8,0:0:0:0:
256,372,224467,1,8,0:0:0:0:
184,328,224767,6,0,L|48:156,1,180,4|8,0:0|0:0,0:0:0:0:
152,144,225667,1,2,0:0:0:0:
200,220,225967,2,0,P|336:268|456:244,1,270,4|8,0:0|0:0,0:0:0:0:
476,156,227167,6,2,L|172:160,1,270,6|2,0:0|0:0,0:0:0:0:
180,240,228367,1,0,0:0:0:0:
268,240,228667,1,8,0:0:0:0:
356,240,228967,1,0,0:0:0:0:
444,240,229267,1,8,0:0:0:0:
480,316,229567,6,0,L|264:316,1,180,4|0,0:0|0:0,0:0:0:0:
216,316,230467,1,8,0:0:0:0:
148,264,230767,2,2,P|100:168|224:164,1,270,6|8,0:0|0:0,0:0:0:0:
288,212,231967,6,2,P|408:203|360:107,1,270,6|8,0:0|0:0,0:0:0:0:
276,80,233167,1,2,0:0:0:0:
184,224,233767,6,0,L|104:284,2,90,0|0|4,0:0|0:0|0:0,0:0:0:0:
260,72,234967,1,8,0:0:0:0:
328,124,235267,1,8,0:0:0:0:
384,192,235567,6,2,P|320:280|124:184,1,360,2|4,0:0|0:0,0:0:0:0:
128,108,237067,1,8,0:0:0:0:
204,148,237367,2,8,P|256:208|308:144,1,180
344,72,238267,1,8,0:0:0:0:
256,72,238567,1,0,0:0:0:0:
168,72,238867,1,0,0:0:0:0:
80,72,239167,5,4,0:0:0:0:
256,192,239467,12,0,241567,0:0:0:0:
72,156,251167,6,2,P|80:268|232:248,1,270,6|2,0:0|0:0,0:0:0:0:
298,273,252367,2,2,P|432:268|440:156,1,270,6|2,0:0|0:0,0:0:0:0:
436,72,253567,6,2,L|52:72,1,360,6|6,0:0|0:0,0:0:0:0:
92,156,255067,2,2,P|148:248|228:288,1,180
292,296,255967,6,2,P|368:196|300:80,1,270,6|2,0:0|0:0,0:0:0:0:
206,82,257167,2,2,P|143:193|220:296,1,270,6|2,0:0|0:0,0:0:0:0:
308,284,258367,6,2,P|392:204|284:124,1,270,6|2,0:0|0:0,0:0:0:0:
212,120,259567,2,2,P|120:204|204:284,1,270,6|2,0:0|0:0,0:0:0:0:
256,208,260767,5,4,0:0:0:0:
256,208,260917,1,4,0:0:0:0:
