osu file format v14

[General]
AudioFilename: 00 - Psychokinesis.mp3
AudioLeadIn: 1996
PreviewTime: 110167
Countdown: 0
SampleSet: Normal
StackLeniency: 0.7
Mode: 0
LetterboxInBreaks: 0
WidescreenStoryboard: 0

[Editor]
DistanceSpacing: 1
BeatDivisor: 4
GridSize: 4
TimelineZoom: 1

[Metadata]
Title:Psychokinesis
TitleUnicode:Psychokinesis
Artist:Utsu-P
ArtistUnicode:鬱P
Creator:Osu Tatakae Ouendan
Version:Hard
Source:
Tags:Hagane Hatsune Miku Net0 Rice Vocaloid DIARRHEA utsuP heavy metal rock Imparfait japanese Hiseii Phychokinesis
BeatmapID:233826
BeatmapSetID:70988

[Difficulty]
HPDrainRate:6
CircleSize:4
OverallDifficulty:7
ApproachRate:8
SliderMultiplier:1.5
SliderTickRate:1

[Events]
//Background and Video events
0,0,"utsup.jpg",0,0
//Break Periods
2,91767,100417
2,142167,146017
2,151767,155617
2,162567,171217
2,200967,209017
//Storyboard Layer 0 (Background)
//Storyboard Layer 1 (Fail)
//Storyboard Layer 2 (Pass)
//Storyboard Layer 3 (Foreground)
//Storyboard Layer 4 (Overlay)
//Storyboard Sound Samples

[TimingPoints]
367,300,4,1,1,65,1,0
43567,-100,4,1,1,65,0,1
46267,-100,4,1,1,65,0,0
48667,-100,4,1,1,65,0,1
51067,-100,4,1,1,65,0,0
53467,-100,4,1,1,65,0,1
55867,-100,4,1,1,65,0,0
58267,-100,4,1,1,65,0,1
62767,-100,4,1,1,65,0,0
110767,-100,4,1,1,75,0,1
129967,-100,4,1,1,65,0,0
162367,-100,4,1,1,65,0,0
209767,-133.333333333333,4,1,1,60,0,0
219967,-100,4,1,1,70,0,1
239167,-100,4,1,1,80,0,0
246367,-100,4,1,1,65,0,0
251167,-100,4,1,1,80,0,1
260767,-100,4,1,1,70,0,1
261067,-100,4,1,1,70,0,0

[Colours]
Combo1 : 255,255,128
Combo2 : 255,128,128
Combo3 : 255,98,255
Combo4 : 128,255,255

[HitObjects]
36,248,5167,6,0,P|68:336|196:356,2,225,4|8|8,0:0|0:0|0:0,0:0:0:0:
104,116,6367,2,0,P|120:68|112:28,2,75
32,136,6817,2,0,B|56:180|56:180|112:196|112:196|172:164,1,150,8|0,0:0|0:0,0:0:0:0:
204,128,7267,1,8,0:0:0:0:
408,116,7567,6,0,P|392:68|400:28,2,75
480,136,8017,2,0,B|456:180|456:180|400:196|400:196|340:164,1,150,8|0,0:0|0:0,0:0:0:0:
308,128,8467,1,8,0:0:0:0:
256,184,8617,1,0,0:0:0:0:
308,236,8767,5,2,0:0:0:0:
208,348,9067,1,0,0:0:0:0:
120,224,9367,1,0,0:0:0:0:
228,120,9667,1,2,0:0:0:0:
372,164,9967,6,0,L|452:240,1,75,4|0,0:0|0:0,0:0:0:0:
496,240,10267,1,0,0:0:0:0:
440,288,10417,2,0,B|384:304|384:304|308:232,1,150,8|0,0:0|0:0,0:0:0:0:
256,196,10867,1,8,0:0:0:0:
140,164,11167,6,0,L|60:240,1,75
16,240,11467,1,0,0:0:0:0:
72,288,11617,2,0,B|128:304|128:304|204:232,1,150,8|0,0:0|0:0,0:0:0:0:
256,196,12067,1,8,0:0:0:0:
372,100,12367,6,8,P|456:92|504:144,2,150
316,48,13117,2,0,P|264:88|176:96,1,150,8|0,0:0|0:0,0:0:0:0:
120,56,13567,5,2,0:0:0:0:
24,172,13867,1,0,0:0:0:0:
116,292,14167,2,0,L|200:344,1,75,8|0,0:0|0:0,0:0:0:0:
248,368,14467,2,0,L|280:280,1,75,2|0,0:0|0:0,0:0:0:0:
208,256,14767,6,0,L|112:200,1,75,4|0,0:0|0:0,0:0:0:0:
100,156,15067,1,0,0:0:0:0:
100,156,15217,2,0,P|164:108|248:112,1,150,8|0,0:0|0:0,0:0:0:0:
292,64,15667,2,0,L|372:108,1,75,8|0,0:0|0:0,0:0:0:0:
428,128,15967,6,0,L|508:68,2,75,4|0|0,0:0|0:0|0:0,0:0:0:0:
368,172,16417,2,0,L|368:324,1,150,8|0,0:0|0:0,0:0:0:0:
440,304,16867,1,8,0:0:0:0:
292,316,17167,6,0,L|192:332,1,75,8|0,0:0|0:0,0:0:0:0:
148,352,17467,1,8,0:0:0:0:
72,348,17617,2,8,P|28:284|72:200,2,150,8|10|8,0:0|0:0|0:0,0:0:0:0:
112,284,18367,6,8,P|156:228|156:196,1,75,12|8,0:0|0:0,0:0:0:0:
148,152,18667,2,8,P|108:104|-4:116,2,150
252,260,19567,6,0,P|296:292|336:300,2,75,4|0|0,0:0|0:0|0:0,0:0:0:0:
220,192,20017,2,0,P|280:156|372:188,1,150,8|0,0:0|0:0,0:0:0:0:
424,204,20467,2,8,L|492:160,1,75
476,88,20767,6,0,L|432:16,1,75,4|0,0:0|0:0,0:0:0:0:
372,64,21067,1,0,0:0:0:0:
372,64,21217,2,0,L|212:60,1,150,8|0,0:0|0:0,0:0:0:0:
148,60,21667,1,8,0:0:0:0:
256,192,21967,12,4,24367,0:0:0:0:
20,192,24667,6,0,P|72:140|168:140,1,150,0|8,0:0|0:0,0:0:0:0:
100,276,25267,1,0,0:0:0:0:
152,224,25417,2,0,P|224:184|296:196,1,150,0|8,0:0|0:0,0:0:0:0:
356,224,25867,1,0,0:0:0:0:
420,356,26167,1,8,0:0:0:0:
464,208,26467,2,0,L|496:124,1,75,8|0,0:0|0:0,0:0:0:0:
500,64,26767,6,0,P|440:56|388:132,1,150,4|0,0:0|0:0,0:0:0:0:
276,220,27367,2,0,L|176:348,1,150,8|0,0:0|0:0,0:0:0:0:
120,300,27817,1,0,0:0:0:0:
264,352,28117,2,0,L|356:360,1,75,8|0,0:0|0:0,0:0:0:0:
412,340,28417,2,0,L|480:296,2,75,0|8|0,0:0|0:0|0:0,0:0:0:0:
360,288,28867,1,8,0:0:0:0:
256,180,29167,5,4,0:0:0:0:
136,88,29467,2,0,P|60:128|40:208,1,150,0|8,0:0|0:0,0:0:0:0:
168,260,30067,1,0,0:0:0:0:
216,320,30217,2,0,B|152:360|152:360|68:356,1,150,0|8,0:0|0:0,0:0:0:0:
12,316,30667,2,0,L|12:236,1,75
84,256,30967,1,8,0:0:0:0:
84,180,31117,1,0,0:0:0:0:
16,152,31267,1,8,0:0:0:0:
136,64,31567,6,0,B|200:88|200:88|200:184,1,150,4|0,0:0|0:0,0:0:0:0:
120,296,32167,2,0,B|144:352|144:352|248:352,1,150,8|0,0:0|0:0,0:0:0:0:
308,348,32617,1,0,0:0:0:0:
424,252,32917,2,0,L|352:192,1,75,8|0,0:0|0:0,0:0:0:0:
308,252,33217,1,0,0:0:0:0:
276,184,33367,2,8,L|336:116,2,75,8|0|8,0:0|0:0|0:0,0:0:0:0:
176,72,33967,6,0,P|140:44|36:96,1,150,4|0,0:0|0:0,0:0:0:0:
16,220,34567,1,8,0:0:0:0:
160,256,34867,1,0,0:0:0:0:
212,316,35017,2,0,P|136:340|92:260,1,150,0|8,0:0|0:0,0:0:0:0:
92,220,35467,2,0,P|148:168|244:188,1,150,0|8,0:0|0:0,0:0:0:0:
360,224,36067,1,8,0:0:0:0:
336,72,36367,6,0,P|372:44|464:71,1,150,4|0,0:0|0:0,0:0:0:0:
496,220,36966,1,8,0:0:0:0:
352,256,37266,1,0,0:0:0:0:
300,316,37417,2,0,P|376:340|424:296,1,150,0|8,0:0|0:0,0:0:0:0:
420,220,37867,2,0,P|368:168|294:170,1,150,0|8,0:0|0:0,0:0:0:0:
152,224,38466,1,8,0:0:0:0:
256,116,38767,5,4,0:0:0:0:
384,40,39067,2,0,L|460:92,1,75
392,136,39367,2,0,B|396:236|396:236|348:284,1,150,8|0,0:0|0:0,0:0:0:0:
300,312,39817,2,0,P|256:244|288:176,1,150,0|8,0:0|0:0,0:0:0:0:
316,120,40267,1,0,0:0:0:0:
240,112,40417,1,0,0:0:0:0:
164,104,40567,2,0,L|100:152,2,75,8|0|8,0:0|0:0|0:0,0:0:0:0:
300,40,41167,5,4,0:0:0:0:
128,40,41467,2,0,L|52:92,1,75
120,136,41767,2,0,B|116:236|116:236|164:284,1,150,8|0,0:0|0:0,0:0:0:0:
212,312,42217,2,0,P|256:244|224:176,1,150,0|8,0:0|0:0,0:0:0:0:
196,120,42667,1,0,0:0:0:0:
272,112,42817,1,0,0:0:0:0:
348,104,42967,2,0,L|408:152,2,75,8|0|8,0:0|0:0|0:0,0:0:0:0:
256,220,43567,5,4,0:0:0:0:
392,284,43867,2,2,P|356:316|304:328,1,75
260,304,44167,2,2,P|196:296|160:320,1,75
120,336,44467,2,2,P|72:312|60:288,1,75
128,260,44767,2,2,P|92:192|24:188,2,150
256,180,45667,1,0,0:0:0:0:
368,80,45967,6,8,L|460:80,2,75,8|8|4,0:0|0:0|0:0,0:0:0:0:
324,224,46567,2,8,B|360:252|360:252|416:248,2,75,8|8|4,0:0|0:0|0:0,0:0:0:0:
188,224,47167,2,8,B|152:252|152:252|96:248,2,75,8|8|4,0:0|0:0|0:0,0:0:0:0:
144,80,47767,2,8,L|52:80,2,75,8|8|4,0:0|0:0|0:0,0:0:0:0:
256,180,48367,1,0,0:0:0:0:
132,264,48667,6,2,P|88:288|72:332,1,75
140,348,48967,2,2,P|176:368|224:368,1,75
204,296,49267,2,2,P|224:240|208:200,1,75
156,188,49567,2,2,P|84:144|88:52,1,150
156,96,50017,1,2,0:0:0:0:
220,136,50167,2,2,L|304:168,2,75
332,36,50767,5,8,0:0:0:0:
400,68,50917,1,8,0:0:0:0:
468,100,51067,2,0,L|420:276,1,150,4|8,0:0|0:0,0:0:0:0:
308,336,51667,2,0,L|224:188,1,150,0|8,0:0|0:0,0:0:0:0:
100,284,52267,2,0,L|20:224,1,75,4|0,0:0|0:0,0:0:0:0:
108,200,52567,2,8,P|100:120|160:48,2,150,8|4|0,0:0|0:0|0:0,0:0:0:0:
240,276,53467,6,2,P|280:292|336:288,1,75
372,248,53767,2,2,P|420:224|464:240,1,75
504,188,54067,2,2,P|508:140|480:96,1,75
444,64,54367,1,2,0:0:0:0:
444,64,54517,1,2,0:0:0:0:
384,108,54667,2,2,P|340:152|256:168,1,150
196,124,55117,1,2,0:0:0:0:
264,92,55267,1,2,0:0:0:0:
124,148,55567,6,0,P|56:168|8:248,1,150,8|4,0:0|0:0,0:0:0:0:
152,284,56167,2,0,L|292:348,1,150,8|4,0:0|0:0,0:0:0:0:
424,276,56767,2,0,P|372:284|292:236,1,150,8|4,0:0|0:0,0:0:0:0:
276,84,57367,2,8,L|192:32,1,75
140,60,57667,2,0,L|192:216,1,150,4|0,0:0|0:0,0:0:0:0:
284,312,58267,6,2,P|256:348|208:360,1,75
196,292,58567,2,2,P|168:268|124:256,1,75
108,328,58867,2,2,L|32:316,1,75
48,244,59167,1,2,0:0:0:0:
12,176,59317,1,2,0:0:0:0:
88,180,59467,2,2,P|152:144|256:172,1,150
336,252,60067,1,2,0:0:0:0:
468,180,60367,6,8,L|504:104,1,75,0|0,0:0|0:0,0:0:0:0:
424,104,60667,2,0,P|328:152|264:144,1,150,4|8,0:0|0:0,0:0:0:0:
232,100,61117,1,8,0:0:0:0:
156,92,61267,2,0,B|60:76|60:76|4:112,2,150,4|8|4,0:0|0:0|0:0,0:0:0:0:
188,160,62017,1,0,0:0:0:0:
232,220,62167,1,0,0:0:0:0:
156,232,62317,1,0,0:0:0:0:
108,176,62467,1,2,0:0:0:0:
208,288,62767,6,0,L|268:364,2,75,4|0|0,0:0|0:0|0:0,0:0:0:0:
152,336,63217,2,0,P|76:312|52:240,1,150,4|0,0:0|0:0,0:0:0:0:
48,176,63667,2,0,L|60:96,1,75,4|0,0:0|0:0,0:0:0:0:
136,104,63967,2,0,P|168:64|208:68,2,75,4|0|4,0:0|0:0|0:0,0:0:0:0:
200,144,64417,1,0,0:0:0:0:
268,112,64567,2,0,P|353:114|440:84,1,150,4|0,0:0|0:0,0:0:0:0:
456,236,65167,6,0,L|504:312,2,75,4|0|0,0:0|0:0|0:0,0:0:0:0:
404,288,65617,2,0,L|452:364,1,75,4|0,0:0|0:0,0:0:0:0:
368,364,65917,1,0,0:0:0:0:
300,332,66067,2,0,P|228:316|152:340,1,150,4|4,0:0|0:0,0:0:0:0:
104,196,66667,2,0,L|184:180,1,75
252,192,66967,2,0,B|232:244|232:244|124:268,1,150,2|0,0:0|0:0,0:0:0:0:
72,300,67417,1,8,0:0:0:0:
20,248,67567,6,0,P|16:172|68:96,1,150,4|0,0:0|0:0,0:0:0:0:
116,72,68017,1,4,0:0:0:0:
196,204,68317,1,0,0:0:0:0:
268,232,68467,2,8,P|208:276|128:236,1,150
176,108,69067,1,0,0:0:0:0:
232,56,69217,1,0,0:0:0:0:
248,128,69367,2,0,L|312:176,2,75,4|0|0,0:0|0:0|0:0,0:0:0:0:
300,268,69967,6,0,B|272:336|272:336|172:344,2,150,4|0|2,0:0|0:0|0:0,0:0:0:0:
228,248,70717,2,2,P|244:180|336:200,1,150
364,232,71167,2,0,L|428:312,1,75
480,264,71467,2,0,P|492:224|480:172,1,75
448,128,71767,2,8,P|400:108|376:112,1,75
304,128,72067,1,8,0:0:0:0:
256,272,72367,5,4,0:0:0:0:
120,212,72667,2,0,P|48:160|48:72,1,150,0|8,0:0|0:0,0:0:0:0:
180,148,73267,1,0,0:0:0:0:
196,220,73417,2,0,B|196:324|196:324|144:364,1,150,0|8,0:0|0:0,0:0:0:0:
84,344,73867,2,0,L|24:288,1,75
96,256,74167,1,8,0:0:0:0:
232,320,74467,1,8,0:0:0:0:
336,212,74767,6,0,P|368:156|336:68,1,150,4|0,0:0|0:0,0:0:0:0:
256,196,75367,2,0,P|280:284|352:316,1,150,8|0,0:0|0:0,0:0:0:0:
392,348,75817,2,0,P|444:288|444:192,1,150,0|8,0:0|0:0,0:0:0:0:
380,204,76267,2,0,L|332:108,1,75
420,116,76567,2,8,L|452:40,2,75,8|0|8,0:0|0:0|0:0,0:0:0:0:
276,56,77167,5,4,0:0:0:0:
144,132,77467,1,0,0:0:0:0:
228,256,77767,1,8,0:0:0:0:
80,256,78067,1,0,0:0:0:0:
80,256,78217,2,0,P|32:144|44:96,1,150,0|8,0:0|0:0,0:0:0:0:
84,64,78667,2,0,L|164:88,1,75
224,116,78967,1,8,0:0:0:0:
184,180,79117,1,0,0:0:0:0:
116,152,79267,1,8,0:0:0:0:
236,56,79567,5,4,0:0:0:0:
368,132,79867,1,0,0:0:0:0:
284,256,80167,1,8,0:0:0:0:
432,256,80467,1,0,0:0:0:0:
432,256,80617,2,0,P|480:144|468:96,1,150,0|8,0:0|0:0,0:0:0:0:
428,64,81067,2,0,L|348:88,1,75
288,116,81367,1,8,0:0:0:0:
328,180,81517,1,0,0:0:0:0:
396,152,81667,1,8,0:0:0:0:
332,288,81967,6,0,L|164:352,1,150,4|0,0:0|0:0,0:0:0:0:
44,308,82567,2,0,L|184:254,1,150,8|0,0:0|0:0,0:0:0:0:
256,232,83017,1,0,0:0:0:0:
192,96,83317,2,0,L|276:96,2,75,8|0|0,0:0|0:0|0:0,0:0:0:0:
120,120,83767,1,8,0:0:0:0:
48,144,83917,2,0,L|48:228,1,75,0|8,0:0|0:0,0:0:0:0:
180,288,84367,6,0,L|348:352,1,150,4|0,0:0|0:0,0:0:0:0:
468,308,84967,2,0,L|327:254,1,150,8|0,0:0|0:0,0:0:0:0:
256,232,85417,1,0,0:0:0:0:
320,96,85717,2,0,L|236:96,2,75,8|0|0,0:0|0:0|0:0,0:0:0:0:
392,120,86167,1,8,0:0:0:0:
464,144,86317,2,0,L|464:228,1,75,0|8,0:0|0:0,0:0:0:0:
336,296,86767,6,0,P|256:316|176:292,1,150,4|0,0:0|0:0,0:0:0:0:
256,168,87367,1,8,0:0:0:0:
168,52,87667,1,0,0:0:0:0:
168,52,87817,2,2,P|68:112|156:248,1,300
184,184,88567,2,0,L|216:104,2,75,8|0|8,0:0|0:0|0:0,0:0:0:0:
324,244,89167,5,4,0:0:0:0:
212,344,89467,2,0,L|36:344,2,150,0|8|0,0:0|0:0|0:0,0:0:0:0:
288,344,90217,2,8,L|464:344,2,150
256,276,90967,2,2,B|280:232|280:232|236:184|236:184|280:144|280:144|240:104|240:104|256:64|256:64|256:20,1,300,2|6,0:0|0:0,0:0:0:0:
56,208,101167,6,0,P|24:280|132:344,2,225,4|0|8,0:0|0:0|0:0,0:0:0:0:
124,240,102217,1,0,0:0:0:0:
156,172,102367,2,0,L|284:48,1,150,0|8,0:0|0:0,0:0:0:0:
416,76,102967,2,0,L|308:180,1,150,0|8,0:0|0:0,0:0:0:0:
456,208,103567,6,0,P|488:280|380:344,2,225,4|0|8,0:0|0:0|0:0,0:0:0:0:
388,240,104617,1,0,0:0:0:0:
356,172,104767,2,0,L|228:48,1,150,0|8,0:0|0:0,0:0:0:0:
96,76,105367,2,0,L|203:180,1,150,0|8,0:0|0:0,0:0:0:0:
284,308,105967,6,0,B|204:360|204:360|56:356,1,225,4|8,0:0|0:0,0:0:0:0:
212,180,106867,2,0,B|288:180|288:180|352:240,2,150,8|4|0,0:0|0:0|0:0,0:0:0:0:
136,176,107617,1,0,0:0:0:0:
76,132,107767,1,0,0:0:0:0:
124,276,108067,1,0,0:0:0:0:
124,276,108367,1,4,0:0:0:0:
256,192,108517,12,4,110767,0:0:0:0:
64,292,111067,5,8,0:0:0:0:
144,164,111367,2,0,P|188:236|268:280,1,150,0|8,0:0|0:0,0:0:0:0:
356,172,111967,5,4,0:0:0:0:
488,244,112267,2,0,P|444:316|364:360,1,150,8|0,0:0|0:0,0:0:0:0:
260,276,112867,1,8,0:0:0:0:
120,328,113167,6,0,P|68:252|68:164,1,150,4|8,0:0|0:0,0:0:0:0:
148,72,113767,2,8,L|76:116,2,75
180,220,114367,2,0,P|244:168|272:96,1,150,2|8,0:0|0:0,0:0:0:0:
396,192,114967,2,8,L|320:144,2,75
480,316,115567,6,0,P|372:348|304:340,1,150,4|8,0:0|0:0,0:0:0:0:
328,272,116017,2,0,P|256:256|168:280,1,150
140,212,116467,1,8,0:0:0:0:
32,316,116767,6,0,P|140:348|208:340,1,150,0|8,0:0|0:0,0:0:0:0:
184,272,117217,2,0,P|256:256|344:280,1,150
372,212,117667,1,8,0:0:0:0:
296,84,117967,6,8,L|192:84,2,75,4|8|8,0:0|0:0|0:0,0:0:0:0:
176,172,118567,2,8,L|132:256,2,75,0|8|8,0:0|0:0|0:0,0:0:0:0:
256,300,119167,2,8,L|256:220,2,75,0|8|0,0:0|0:0|0:0,0:0:0:0:
336,172,119767,2,8,L|380:256,2,75,0|8|8,0:0|0:0|0:0,0:0:0:0:
292,112,120217,1,8,0:0:0:0:
368,108,120367,6,0,P|428:120|488:188,1,150,4|8,0:0|0:0,0:0:0:0:
416,316,120967,2,0,L|340:356,1,75
276,348,121267,1,8,0:0:0:0:
132,312,121567,6,0,P|136:232|208:192,1,150,4|8,0:0|0:0,0:0:0:0:
324,132,122167,1,0,0:0:0:0:
240,256,122467,1,8,0:0:0:0:
196,112,122767,6,0,P|240:168|336:208,1,150,4|8,0:0|0:0,0:0:0:0:
384,188,123217,1,0,0:0:0:0:
432,132,123367,1,0,0:0:0:0:
460,280,123667,2,0,L|444:364,1,75,8|0,0:0|0:0,0:0:0:0:
380,316,123967,6,0,L|216:316,1,150,2|8,0:0|0:0,0:0:0:0:
88,264,124567,2,8,L|32:196,2,75
172,140,125167,6,0,L|336:140,1,150,4|8,0:0|0:0,0:0:0:0:
464,88,125767,2,8,L|520:20,2,75
316,84,126367,5,0,0:0:0:0:
180,148,126667,1,8,0:0:0:0:
204,296,126967,1,0,0:0:0:0:
352,324,127267,1,8,0:0:0:0:
424,192,127567,1,4,0:0:0:0:
256,192,127717,12,4,129367,0:0:0:0:
256,352,129667,5,8,0:0:0:0:
256,276,129817,1,8,0:0:0:0:
256,200,129967,2,0,L|256:44,1,150,4|8,0:0|0:3,0:0:0:0:
184,76,130417,1,8,0:3:0:0:
184,76,130567,1,0,0:0:0:0:
120,264,130867,1,8,0:0:0:0:
256,200,131167,6,0,L|256:44,1,150,4|0,0:0|0:0,0:0:0:0:
328,76,131617,1,0,0:0:0:0:
328,76,131767,1,8,0:0:0:0:
392,264,132067,1,0,0:0:0:0:
260,332,132367,6,0,L|176:332,2,75,4|0|0,0:0|0:0|0:0,0:0:0:0:
336,336,132817,2,0,B|424:336|424:336|476:304,1,150,4|0,0:0|0:0,0:0:0:0:
500,232,133267,1,4,0:0:0:0:
500,156,133417,1,0,0:0:0:0:
452,96,133567,2,8,P|408:72|356:68,1,75
324,112,133867,2,8,P|276:128|224:120,1,75
184,100,134167,2,0,P|104:136|60:188,1,150,4|0,0:0|0:0,0:0:0:0:
128,220,134617,1,0,0:0:0:0:
72,272,134767,6,0,P|112:320|208:328,1,150,4|0,0:0|0:0,0:0:0:0:
260,296,135217,2,0,P|352:272|416:304,2,150,4|0|2,0:0|0:0|0:0,0:0:0:0:
196,256,135967,2,2,L|116:200,1,75,2|0,0:0|0:0,0:0:0:0:
64,236,136267,2,2,L|40:136,1,75,2|0,0:0|0:0,0:0:0:0:
76,96,136567,1,2,0:0:0:0:
144,124,136717,1,2,0:0:0:0:
132,48,136867,1,2,0:0:0:0:
260,128,137167,6,0,L|332:92,2,75,4|0|0,0:0|0:0|0:0,0:0:0:0:
316,180,137617,2,0,L|404:324,1,150,4|0,0:0|0:0,0:0:0:0:
468,300,138067,1,4,0:0:0:0:
328,352,138367,2,8,L|236:352,1,75,8|0,0:0|0:0,0:0:0:0:
180,340,138667,2,8,L|120:272,1,75
84,224,138967,2,0,B|40:192|40:192|8:296,2,150,8|0|4,0:0|0:0|0:0,0:0:0:0:
188,116,139867,5,2,0:0:0:0:
252,156,140017,2,2,L|408:156,1,150
424,84,140467,2,0,L|324:84,1,75,2|0,0:0|0:0,0:0:0:0:
276,72,140767,1,0,0:0:0:0:
208,36,140917,1,0,0:0:0:0:
132,48,141067,1,0,0:0:0:0:
80,100,141217,1,0,0:0:0:0:
32,156,141367,2,0,L|60:240,2,75
0,88,141817,1,0,0:0:0:0:
32,20,141967,1,4,0:0:0:0:
256,248,146767,6,0,L|256:336,2,75,4|0|0,0:0|0:0|0:0,0:0:0:0:
180,244,147217,2,2,P|152:168|176:96,1,150
220,48,147667,2,8,L|308:48,1,75
256,124,147967,6,0,L|256:224,2,75,4|0|0,0:0|0:0|0:0,0:0:0:0:
341,104,148417,2,2,P|360:168|332:244,1,150
296,312,148867,2,8,L|208:312,1,75
152,340,149167,6,0,P|72:280|76:208,1,150,4|0,0:0|0:0,0:0:0:0:
96,168,149617,1,8,0:0:0:0:
148,112,149767,2,8,P|144:56|120:32,1,75
76,92,150067,2,8,P|32:120|12:156,1,75
8,212,150367,6,0,B|24:276|24:276|136:300,1,150,4|0,0:0|0:0,0:0:0:0:
156,240,150817,1,8,0:0:0:0:
212,288,150967,2,8,P|284:248|336:264,2,112.5
172,352,151567,1,4,0:0:0:0:
368,252,156367,6,0,L|448:284,2,75,4|0|0,0:0|0:0|0:0,0:0:0:0:
308,208,156817,2,2,L|288:132,2,75
296,284,157267,1,8,0:0:0:0:
252,344,157417,1,0,0:0:0:0:
184,316,157567,6,0,P|136:320|88:344,2,75,4|0|0,0:0|0:0|0:0,0:0:0:0:
220,252,158017,2,2,P|248:200|248:152,2,75
148,236,158467,1,8,0:0:0:0:
100,176,158617,1,0,0:0:0:0:
156,128,158767,6,2,L|224:92,1,75,10|10,0:0|0:0,0:0:0:0:
292,60,159067,2,10,P|332:48|376:64,1,75
420,108,159367,2,10,P|432:152|464:184,1,75
484,244,159667,2,0,P|448:276|440:328,1,75,2|2,0:0|0:0,0:0:0:0:
364,288,159967,5,8,0:0:0:0:
308,336,160117,1,8,0:0:0:0:
240,304,160267,2,8,P|184:340|96:336,1,150
152,236,160792,2,8,P|96:224|20:264,1,112.5
256,192,161167,12,4,162367,0:0:0:0:
120,312,171967,6,0,P|148:272|176:256,1,75,4|0,0:0|0:0,0:0:0:0:
232,300,172267,2,0,P|264:328|320:344,1,75
368,356,172567,2,0,P|448:296|456:232,1,150,8|0,0:0|0:0,0:0:0:0:
508,192,173017,2,0,P|444:168|384:224,1,150,0|8,0:0|0:0,0:0:0:0:
324,256,173467,2,0,L|240:204,1,75
192,188,173767,2,8,L|156:112,2,75
308,88,174367,5,4,0:0:0:0:
416,192,174667,2,0,P|412:248|348:328,1,150,0|8,0:0|0:0,0:0:0:0:
208,348,175267,1,0,0:0:0:0:
208,348,175417,2,0,P|128:296|112:216,1,150,0|8,0:0|0:0,0:0:0:0:
40,228,175867,2,0,L|64:152,1,75
124,116,176167,2,2,P|168:168|248:200,2,150,10|10|4,0:0|0:0|0:0,0:0:0:0:
272,108,177067,6,0,P|324:128|344:160,1,75
404,176,177367,2,0,L|352:324,1,150,8|0,0:0|0:0,0:0:0:0:
284,292,177817,1,0,0:0:0:0:
432,328,178117,1,8,0:0:0:0:
432,328,178267,2,0,L|464:252,1,75
480,184,178567,2,8,L|472:108,2,75
336,184,179167,6,0,P|236:180|180:236,1,150,4|0,0:0|0:0,0:0:0:0:
76,292,179767,2,2,B|124:336|184:336|232:280|296:280|376:320,1,300
432,344,180517,1,0,0:0:0:0:
484,288,180667,1,0,0:0:0:0:
432,236,180817,1,0,0:0:0:0:
372,192,180967,2,8,P|408:144|480:136,2,112.5
324,252,181567,6,0,P|240:320|328:188,1,600,4|0,0:0|0:0,0:0:0:0:
388,40,183067,2,2,P|444:104|436:184,2,150
280,144,183967,6,0,P|332:276|196:136,1,600,4|0,0:0|0:0,0:0:0:0:
76,44,185467,2,2,P|24:128|28:200,2,150
184,148,186367,6,0,P|156:232|232:348,2,225,4|0|0,0:0|0:0|0:0,0:0:0:0:
328,236,187567,2,0,P|356:152|280:36,2,225,4|0|0,0:0|0:0|0:0,0:0:0:0:
256,108,188767,6,0,L|256:276,1,150,4|0,0:0|0:0,0:0:0:0:
256,332,189217,1,0,0:0:0:0:
144,232,189517,1,0,0:0:0:0:
180,168,189667,1,8,0:0:0:0:
332,168,189967,1,0,0:0:0:0:
476,128,190267,1,0,0:0:0:0:
368,232,190567,1,0,0:0:0:0:
316,284,190717,1,8,0:0:0:0:
108,196,191167,6,0,P|88:132|124:52,1,150,0|8,0:0|0:0,0:0:0:0:
188,84,191617,2,0,P|260:104|336:92,1,150
404,120,192067,1,8,0:0:0:0:
384,268,192367,2,8,L|472:272,2,75
240,304,192967,2,8,L|144:308,2,75
300,168,193567,6,0,P|236:148|180:220,1,150,0|8,0:0|0:0,0:0:0:0:
182,275,194017,2,0,P|231:326|300:307,1,150
372,284,194467,2,0,L|456:332,1,75,8|0,0:0|0:0,0:0:0:0:
504,284,194767,2,0,P|496:184|432:136,1,150,8|8,0:0|0:0,0:0:0:0:
424,88,195217,1,0,0:0:0:0:
384,152,195367,1,8,0:0:0:0:
256,228,195667,1,8,0:0:0:0:
112,180,195967,6,0,P|68:248|168:340,1,225,4|0,0:0|0:0,0:0:0:0:
256,144,196867,1,8,0:0:0:0:
400,180,197167,6,0,P|444:248|344:340,1,225,4|0,0:0|0:0,0:0:0:0:
256,144,198067,1,8,0:0:0:0:
200,284,198367,6,0,B|196:328|196:328|168:360,2,75,8|0|8,0:0|0:0|0:0,0:0:0:0:
336,351,198967,2,0,B|316:328|316:328|312:284,2,75,8|0|8,0:0|0:0|0:0,0:0:0:0:
256,224,199567,1,0,0:0:0:0:
188,188,199717,1,0,0:0:0:0:
256,152,199867,1,0,0:0:0:0:
324,116,200017,1,0,0:0:0:0:
256,80,200167,1,0,0:0:0:0:
256,80,200467,1,0,0:0:0:0:
256,80,200767,1,4,0:0:0:0:
48,248,209767,6,0,L|164:288,1,112.500004291535
264,312,210367,1,4,0:0:0:0:
428,156,210967,2,0,L|384:280,1,112.500004291535
308,184,211567,1,4,0:0:0:0:
84,176,212167,2,0,L|216:188,1,112.500004291535
132,92,212767,1,4,0:0:0:0:
312,228,213367,2,0,L|264:104,1,112.500004291535
236,232,213967,1,4,0:0:0:0:
32,324,214567,6,0,L|160:360,1,112.500004291535
252,336,215167,1,4,0:0:0:0:
92,176,215767,2,0,L|176:264,1,112.500004291535
280,276,216367,2,0,P|320:240|328:216,1,56.2500021457673
364,184,216667,2,0,P|384:108|372:56,1,112.500004291535
276,120,217267,1,0,0:0:0:0:
176,176,217567,6,0,P|108:136|92:88,2,112.500004291535
256,256,218467,1,0,0:0:0:0:
312,296,218617,1,0,0:0:0:0:
376,272,218767,2,0,P|424:220|376:68,1,225.000008583069,0|4,0:0|0:0,0:0:0:0:
288,168,219667,1,0,0:0:0:0:
288,168,219967,1,4,0:0:0:0:
256,316,220267,6,0,P|216:328|164:308,1,75,8|0,0:0|0:0,0:0:0:0:
116,352,220567,2,0,P|92:268|96:204,1,150,0|8,0:0|0:0,0:0:0:0:
180,80,221167,5,4,0:0:0:0:
300,168,221467,2,0,L|380:200,1,75,8|0,0:0|0:0,0:0:0:0:
435,228,221767,2,0,P|391:280|307:268,1,150,0|8,0:0|0:0,0:0:0:0:
204,176,222367,5,4,0:0:0:0:
68,240,222667,2,0,L|20:336,1,75,8|0,0:0|0:0,0:0:0:0:
88,360,222967,2,0,B|152:324|152:324|232:344,1,150,0|8,0:0|0:0,0:0:0:0:
376,320,223567,5,2,0:0:0:0:
288,200,223867,2,0,L|248:108,1,75,8|0,0:0|0:0,0:0:0:0:
200,176,224167,2,0,P|124:168|56:116,1,150,0|8,0:0|0:0,0:0:0:0:
140,260,224767,6,0,P|164:304|264:340,1,150,0|8,0:0|0:0,0:0:0:0:
320,304,225217,2,0,P|380:268|468:300,1,150,0|8,0:0|0:0,0:0:0:0:
404,344,225667,1,8,0:0:0:0:
444,192,225967,5,0,0:0:0:0:
332,92,226267,1,8,0:0:0:0:
256,224,226567,1,0,0:0:0:0:
180,92,226867,1,8,0:0:0:0:
68,192,227167,5,4,0:0:0:0:
172,300,227467,1,8,0:0:0:0:
112,252,227617,1,0,0:0:0:0:
183,224,227767,2,0,L|303:95,1,150,0|8,0:0|0:0,0:0:0:0:
328,52,228217,1,0,0:0:0:0:
328,52,228367,6,2,P|372:68|396:96,1,75
460,120,228667,2,2,P|448:180|432:208,1,75
392,248,228967,2,2,P|324:200|296:124,1,150,2|0,0:0|0:0,0:0:0:0:
264,76,229417,1,8,0:0:0:0:
200,116,229567,6,0,L|144:256,1,150,4|8,0:0|0:0,0:0:0:0:
60,132,230167,1,0,0:0:0:0:
108,76,230317,1,0,0:0:0:0:
36,60,230467,1,8,0:0:0:0:
108,192,230767,6,0,P|88:272|140:348,1,150,4|8,0:0|0:0,0:0:0:0:
260,292,231367,1,0,0:0:0:0:
200,248,231517,1,0,0:0:0:0:
192,324,231667,1,8,0:0:0:0:
332,272,231967,6,8,P|404:244|472:272,1,150,4|8,0:0|0:0,0:0:0:0:
404,132,232567,1,0,0:0:0:0:
464,180,232717,1,0,0:0:0:0:
472,104,232867,1,8,0:0:0:0:
324,80,233167,6,0,P|280:132|192:116,1,150,2|8,0:0|0:0,0:0:0:0:
84,216,233767,1,0,0:0:0:0:
148,176,233917,1,0,0:0:0:0:
148,252,234067,1,8,0:0:0:0:
56,136,234367,6,0,P|52:60|124:16,1,150,4|8,0:0|0:0,0:0:0:0:
216,120,234967,1,0,0:0:0:0:
148,88,235117,1,0,0:0:0:0:
208,44,235267,1,8,0:0:0:0:
164,188,235567,6,0,P|172:228|216:268,1,75
260,292,235867,2,0,P|296:282|325:259,1,75,8|0,0:0|0:0,0:0:0:0:
392,224,236167,2,0,P|476:240|504:304,2,150,0|8|4,0:0|0:0|0:0,0:0:0:0:
332,96,237067,5,8,0:0:0:0:
332,96,237217,1,0,0:0:0:0:
180,96,237517,1,0,0:0:0:0:
180,96,237667,1,8,0:0:0:0:
324,24,237967,1,8,0:0:0:0:
256,52,238117,1,0,0:0:0:0:
188,24,238267,1,8,0:0:0:0:
180,172,238567,1,2,0:0:0:0:
332,172,238867,1,2,0:0:0:0:
256,300,239167,6,0,P|204:348|40:244,1,300,4|0,0:0|0:0,0:0:0:0:
64,176,239917,1,0,0:0:0:0:
120,228,240067,1,0,0:0:0:0:
256,300,240367,6,0,P|308:348|472:244,1,300,4|0,0:0|0:0,0:0:0:0:
448,176,241117,1,0,0:0:0:0:
392,228,241267,1,0,0:0:0:0:
256,164,241567,5,4,0:0:0:0:
256,192,241642,12,0,243967,0:0:0:0:
256,324,244567,5,0,0:0:0:0:
256,324,245167,1,0,0:0:0:0:
256,324,245767,1,0,0:0:0:0:
256,192,246367,12,2,249967,0:0:0:0:
108,268,250267,5,0,0:0:0:0:
256,296,250567,2,0,L|256:152,2,112.5
324,264,251167,6,8,P|380:284|448:220,1,150,12|8,0:0|0:0,0:0:0:0:
380,192,251617,1,8,0:0:0:0:
440,144,251767,2,8,P|404:72|340:40,1,150
308,108,252217,1,8,0:0:0:0:
232,116,252367,2,8,L|168:160,1,75
104,128,252667,2,8,P|96:80|72:40,1,75
28,108,252967,2,8,P|24:196|68:264,1,150
204,260,253567,6,8,P|252:248|292:264,1,75
332,304,253867,2,8,P|416:324|504:296,2,150
260,172,254767,5,4,0:0:0:0:
128,104,255067,1,0,0:0:0:0:
260,36,255367,1,0,0:0:0:0:
392,104,255667,1,0,0:0:0:0:
476,228,255967,6,8,L|508:328,1,75,12|8,0:0|0:0,0:0:0:0:
424,304,256267,2,8,P|408:348|368:376,1,75
348,304,256567,2,8,P|268:296|216:244,1,150
260,184,257017,1,8,0:0:0:0:
200,136,257167,2,8,L|132:216,1,75
84,228,257467,1,0,0:0:0:0:
148,264,257617,1,8,0:0:0:0:
84,304,257767,2,8,B|120:344|120:344|224:352,1,150
364,316,258367,6,8,P|404:280|412:228,1,75
352,216,258667,2,8,P|352:132|388:56,2,150
288,256,259417,1,8,0:0:0:0:
220,228,259567,6,0,L|144:172,1,75
88,204,259867,2,2,P|120:120|188:116,1,150
228,60,260317,1,0,0:0:0:0:
280,116,260467,2,2,L|360:156,1,75
408,104,260767,5,4,0:0:0:0:
408,104,260917,1,4,0:0:0:0:
