osu file format v14

[General]
AudioFilename: 00 - Psychokinesis.mp3
AudioLeadIn: 1996
PreviewTime: 110167
Countdown: 0
SampleSet: Normal
StackLeniency: 0.7
Mode: 0
LetterboxInBreaks: 0
WidescreenStoryboard: 0

[Editor]
DistanceSpacing: 1.1
BeatDivisor: 4
GridSize: 4
TimelineZoom: 1.1

[Metadata]
Title:Psychokinesis
TitleUnicode:Psychokinesis
Artist:Utsu-P
ArtistUnicode:鬱P
Creator:Osu Tatakae Ouendan
Version:Advanced
Source:
Tags:Hagane Hatsune Miku Net0 Rice Vocaloid DIARRHEA utsuP heavy metal rock Imparfait japanese Hiseii Phychokinesis
BeatmapID:232164
BeatmapSetID:70988

[Difficulty]
HPDrainRate:5
CircleSize:4
OverallDifficulty:6
ApproachRate:7
SliderMultiplier:1.2
SliderTickRate:1

[Events]
//Background and Video events
0,0,"utsup.jpg",0,0
//Break Periods
2,91767,100267
2,132567,141067
2,146967,150667
2,156567,161467
2,181767,190267
2,200967,208867
2,241767,245467
//Storyboard Layer 0 (Background)
//Storyboard Layer 1 (Fail)
//Storyboard Layer 2 (Pass)
//Storyboard Layer 3 (Foreground)
//Storyboard Layer 4 (Overlay)
//Storyboard Sound Samples

[TimingPoints]
367,300,4,1,1,65,1,0
43567,-100,4,1,1,65,0,1
46267,-100,4,1,1,65,0,0
48667,-100,4,1,1,65,0,1
51067,-100,4,1,1,65,0,0
53467,-100,4,1,1,65,0,1
55867,-100,4,1,1,65,0,0
58267,-100,4,1,1,65,0,1
61867,-100,4,1,1,65,0,0
110767,-100,4,1,1,75,0,1
129967,-100,4,1,1,65,0,0
142267,-100,4,2,1,90,0,0
146767,-100,4,1,1,80,0,0
151867,-100,4,2,1,90,0,0
156367,-100,4,1,1,80,0,0
162367,-100,4,1,1,65,0,0
219967,-100,4,1,1,70,0,1
239167,-100,4,1,1,80,0,0
246367,-100,4,1,1,65,0,0
251167,-100,4,1,1,80,0,1
254767,-100,4,1,1,80,0,0
255967,-100,4,1,1,80,0,1
260767,-100,4,1,1,70,0,1
261067,-100,4,1,1,70,0,0

[Colours]
Combo1 : 255,255,128
Combo2 : 255,128,128
Combo3 : 255,98,255
Combo4 : 128,255,255

[HitObjects]
208,324,5167,6,0,B|148:324|148:324|96:352|96:352|24:352,2,180,4|8|8,0:0|0:0|0:0,0:0:0:0:
340,324,6367,2,0,P|416:316|484:224,1,180,4|8,0:0|0:0,0:0:0:0:
372,76,7267,1,8,0:0:0:0:
384,208,7567,6,0,P|316:196|244:100,1,180,4|8,0:0|0:0,0:0:0:0:
64,192,8467,1,8,0:0:0:0:
64,192,8617,1,0,0:0:0:0:
64,192,8767,5,0,0:0:0:0:
172,116,9067,1,2,0:0:0:0:
172,248,9367,1,0,0:0:0:0:
292,192,9667,1,2,0:0:0:0:
304,324,9967,6,0,B|364:324|364:324|416:352|416:352|488:352,2,180,4|8|8,0:0|0:0|0:0,0:0:0:0:
172,324,11167,2,0,P|96:316|28:224,1,180,4|8,0:0|0:0,0:0:0:0:
32,108,11917,1,0,0:0:0:0:
32,108,12067,1,8,0:0:0:0:
128,208,12367,6,0,P|196:196|268:100,1,180,4|8,0:0|0:0,0:0:0:0:
448,192,13267,1,8,0:0:0:0:
448,192,13417,1,0,0:0:0:0:
448,192,13567,5,0,0:0:0:0:
340,116,13867,1,2,0:0:0:0:
340,248,14167,1,0,0:0:0:0:
220,192,14467,1,0,0:0:0:0:
108,264,14767,6,0,L|232:264,2,120,4|8|0,0:0|0:0|0:0,0:0:0:0:
220,192,15667,1,8,0:0:0:0:
108,120,15967,2,0,L|228:120,2,120,4|8|0,0:0|0:0|0:0,0:0:0:0:
220,48,16867,1,8,0:0:0:0:
348,84,17167,6,2,P|465:176|335:298,1,360
216,300,18367,5,4,0:0:0:0:
140,192,18667,1,2,0:0:0:0:
216,84,18967,1,0,0:0:0:0:
292,192,19267,1,2,0:0:0:0:
404,264,19567,6,0,L|280:264,2,120,4|8|0,0:0|0:0|0:0,0:0:0:0:
292,192,20467,1,8,0:0:0:0:
404,120,20767,2,0,L|284:120,2,120,4|8|0,0:0|0:0|0:0,0:0:0:0:
292,48,21667,1,8,0:0:0:0:
256,192,21967,12,4,23767,0:0:0:0:
188,332,24367,5,4,0:0:0:0:
56,312,24667,2,0,P|32:256|44:192,1,120,0|8,0:0|0:0,0:0:0:0:
88,76,25267,1,0,0:0:0:0:
88,76,25417,1,0,0:0:0:0:
164,184,25717,2,0,L|164:256,1,60,8|0,0:0|0:0,0:0:0:0:
296,232,26167,1,8,0:0:0:0:
192,316,26467,1,8,0:0:0:0:
456,312,27067,6,0,P|480:256|468:192,1,120,0|8,0:0|0:0,0:0:0:0:
424,76,27667,1,0,0:0:0:0:
424,76,27817,1,0,0:0:0:0:
348,184,28117,2,0,L|348:256,1,60,8|0,0:0|0:0,0:0:0:0:
216,232,28567,1,8,0:0:0:0:
320,316,28867,1,8,0:0:0:0:
120,136,29467,6,0,P|100:200|140:264,1,120,0|8,0:0|0:0,0:0:0:0:
240,188,30067,1,0,0:0:0:0:
240,188,30217,2,0,L|448:188,1,180,0|2,0:0|0:0,0:0:0:0:
456,60,30967,1,0,0:0:0:0:
456,60,31117,1,0,0:0:0:0:
456,60,31267,1,0,0:0:0:0:
256,232,31867,5,0,0:0:0:0:
256,100,32167,1,0,0:0:0:0:
184,212,32467,1,0,0:0:0:0:
184,212,32617,1,0,0:0:0:0:
328,212,32917,1,0,0:0:0:0:
328,212,33067,1,0,0:0:0:0:
376,88,33367,1,0,0:0:0:0:
376,88,33517,1,0,0:0:0:0:
376,88,33667,1,0,0:0:0:0:
468,188,33967,5,4,0:0:0:0:
372,276,34267,1,0,0:0:0:0:
256,336,34567,2,0,L|60:336,2,180,8|0|0,0:0|0:0|0:0,0:0:0:0:
144,264,35767,2,0,L|228:264,2,60,8|0|0,0:0|0:0|0:0,0:0:0:0:
28,196,36367,5,4,0:0:0:0:
124,108,36667,1,0,0:0:0:0:
240,48,36967,2,0,L|436:48,2,180,8|0|0,0:0|0:0|0:0,0:0:0:0:
352,120,38167,2,0,L|268:120,2,60,8|0|0,0:0|0:0|0:0,0:0:0:0:
472,176,38767,6,0,P|424:276|296:276,1,240,4|8,0:0|0:0,0:0:0:0:
256,160,39667,1,0,0:0:0:0:
256,88,39817,2,0,B|148:40|112:164,1,180,0|8,0:0|0:0,0:0:0:0:
120,284,40567,2,0,L|120:360,2,60
40,176,41167,6,0,P|88:276|216:276,1,240,4|8,0:0|0:0,0:0:0:0:
256,160,42067,1,0,0:0:0:0:
256,160,42217,2,0,L|444:160,1,180,0|8,0:0|0:0,0:0:0:0:
392,284,42967,2,0,L|392:360,2,60
264,316,43567,6,0,L|120:316,1,120,4|2,0:0|0:0,0:0:0:0:
24,264,44167,2,2,L|24:124,1,120
136,72,44767,2,2,L|264:72,1,120
388,84,45367,2,2,P|472:136|492:176,1,120
476,284,45967,1,8,0:0:0:0:
376,372,46267,6,0,P|324:332|316:264,1,120,4|4,0:0|0:0,0:0:0:0:
392,176,46867,1,0,0:0:0:0:
136,12,47467,2,0,P|188:52|196:120,1,120,4|4,0:0|0:0,0:0:0:0:
120,208,48067,1,0,0:0:0:0:
148,336,48367,1,0,0:0:0:0:
37,267,48667,6,2,P|32:152|124:84,1,240,2|2,0:0|0:0,0:0:0:0:
180,204,49567,2,2,L|180:328,1,120
256,216,50167,2,2,L|256:88,1,120
332,204,50767,6,0,L|332:340,1,120,8|4,0:0|0:0,0:0:0:0:
504,124,51667,1,4,0:0:0:0:
372,124,51967,2,0,P|352:60|288:24,1,120,8|4,0:0|0:0,0:0:0:0:
256,152,52567,1,8,0:0:0:0:
200,29,52867,2,0,P|160:60|140:124,1,120,4|8,0:0|0:0,0:0:0:0:
72,236,53467,6,2,P|72:320|204:360,1,240
256,240,54367,1,2,0:0:0:0:
309,360,54667,2,2,P|440:320|440:236,1,240
384,116,55567,6,0,P|380:172|316:216,1,120,8|4,0:0|0:0,0:0:0:0:
256,316,56167,1,0,0:0:0:0:
256,316,56317,1,0,0:0:0:0:
256,316,56467,1,4,0:0:0:0:
256,184,56767,1,8,0:0:0:0:
256,184,57067,2,8,L|256:60,2,120,8|4|8,0:0|0:0|0:0,0:0:0:0:
168,284,57967,1,4,0:0:0:0:
292,324,58267,6,2,P|416:232|316:88,1,360
190,88,59467,2,2,P|93:220|220:324,1,360
336,260,60667,5,4,0:0:0:0:
336,260,60967,2,8,L|348:196,2,60,8|8|4,0:0|0:0|0:0,0:0:0:0:
416,364,61567,2,0,B|460:332|460:332|460:240,1,120,8|4,0:0|0:0,0:0:0:0:
460,132,62167,1,0,0:0:0:0:
460,132,62317,1,0,0:0:0:0:
460,132,62467,1,8,0:0:0:0:
356,52,62767,5,4,0:0:0:0:
232,212,63217,1,0,0:0:0:0:
56,128,63667,1,12,0:0:0:0:
52,260,63967,2,4,B|52:344|52:344|164:372,2,180
136,160,65167,6,4,B|136:56|136:56|56:32,2,180
208,272,66367,2,4,B|256:348|256:348|308:268,2,180
108,184,67567,6,4,P|52:208|20:324,2,180
240,168,68767,2,4,P|312:128|300:32,2,180
140,256,69967,6,4,L|324:344,2,180
52,160,71167,1,2,0:0:0:0:
52,160,71467,2,2,L|152:56,1,120
248,140,72067,1,8,0:0:0:0:
316,164,72217,1,8,0:0:0:0:
384,188,72367,5,4,0:0:0:0:
424,312,72667,1,0,0:0:0:0:
304,364,72967,1,8,0:0:0:0:
184,304,73267,1,0,0:0:0:0:
184,304,73417,2,0,P|120:284|100:216,2,120
256,304,74167,1,8,0:0:0:0:
348,212,74467,2,0,P|400:168|416:104,1,120,0|4,0:0|0:0,0:0:0:0:
312,40,75067,5,0,0:0:0:0:
236,148,75367,1,8,0:0:0:0:
108,108,75667,1,0,0:0:0:0:
108,108,75817,2,0,P|60:160|56:228,2,120,0|8|0,0:0|0:0|0:0,0:0:0:0:
156,56,76567,1,8,0:0:0:0:
272,112,76867,2,0,L|404:112,1,120,0|4,0:0|0:0,0:0:0:0:
488,200,77467,5,0,0:0:0:0:
416,312,77767,1,8,0:0:0:0:
304,244,78067,1,0,0:0:0:0:
304,244,78217,2,0,P|256:288|184:276,2,120,0|8|0,0:0|0:0|0:0,0:0:0:0:
312,172,78967,1,8,0:0:0:0:
184,208,79267,2,0,L|48:208,1,120,0|4,0:0|0:0,0:0:0:0:
128,92,79867,6,0,L|264:92,1,120,0|8,0:0|0:0,0:0:0:0:
368,152,80467,1,0,0:0:0:0:
368,152,80617,2,0,P|416:100|412:48,2,120,0|8|0,0:0|0:0|0:0,0:0:0:0:
308,196,81367,2,0,P|332:308|460:356,1,240,8|4,0:0|0:0,0:0:0:0:
400,228,82267,5,0,0:0:0:0:
460,112,82567,2,0,B|420:64|420:64|352:60,1,120,8|0,0:0|0:0,0:0:0:0:
292,60,83017,1,0,0:0:0:0:
256,184,83317,1,8,0:0:0:0:
256,184,83467,2,0,L|256:304,2,120,8|0|0,0:0|0:0|0:0,0:0:0:0:
112,228,84367,5,4,0:0:0:0:
112,228,84667,1,0,0:0:0:0:
52,112,84967,2,0,B|92:64|92:64|160:60,1,120,8|0,0:0|0:0,0:0:0:0:
220,60,85417,1,0,0:0:0:0:
256,184,85717,1,8,0:0:0:0:
256,184,85867,2,0,L|256:304,2,120,8|0|0,0:0|0:0|0:0,0:0:0:0:
356,96,86767,6,0,P|448:156|448:288,1,240,4|8,0:0|0:0,0:0:0:0:
332,328,87667,1,0,0:0:0:0:
332,328,87817,2,0,P|288:284|272:212,1,120,0|8,0:0|0:0,0:0:0:0:
268,160,88267,2,0,P|308:120|304:44,2,120,8|0|8,0:0|0:0|0:0,0:0:0:0:
156,96,89167,6,0,P|64:156|64:288,1,240,4|8,0:0|0:0,0:0:0:0:
188,292,90067,1,0,0:0:0:0:
188,292,90217,1,0,0:0:0:0:
200,160,90517,2,0,L|132:200,2,60
232,96,90967,2,0,P|288:88|348:120,1,120
452,192,91567,5,4,0:0:0:0:
300,336,101167,6,0,P|376:296|484:316,2,180,4|8|0,0:0|0:0|0:0,0:0:0:0:
176,288,102367,2,0,L|56:216,1,120,0|8,0:0|0:0,0:0:0:0:
204,224,102967,2,0,L|84:152,1,120,0|8,0:0|0:0,0:0:0:0:
12,68,103567,6,0,P|124:96|248:68,1,240,4|8,0:0|0:0,0:0:0:0:
376,68,104467,1,0,0:0:0:0:
376,68,104617,1,0,0:0:0:0:
376,68,104767,1,0,0:0:0:0:
460,168,105067,2,8,L|448:296,1,120
324,328,105667,1,8,0:0:0:0:
216,252,105967,6,0,P|128:264|92:360,2,180,4|0|0,0:0|0:0|0:0,0:0:0:0:
296,132,107167,2,0,P|384:120|420:24,2,180,4|0|0,0:0|0:0|0:0,0:0:0:0:
256,260,108367,1,4,0:0:0:0:
256,192,108442,12,4,110167,0:0:0:0:
256,348,110767,5,4,0:0:0:0:
256,348,111067,1,8,0:0:0:0:
148,272,111367,2,0,P|148:212|184:160,2,120,0|8|4,0:0|0:0|0:0,0:0:0:0:
256,192,112267,1,8,0:0:0:0:
364,272,112567,2,0,P|364:212|328:160,2,120,0|8|4,0:0|0:0|0:0,0:0:0:0:
492,304,113467,5,8,0:0:0:0:
368,352,113767,1,0,0:0:0:0:
252,288,114067,1,8,0:0:0:0:
260,156,114367,1,2,0:0:0:0:
260,156,114967,6,4,P|304:88|364:72,1,120,0|8,0:0|0:0,0:0:0:0:
452,140,115567,2,2,P|408:220|160:208,1,360,6|8,0:0|0:0,0:0:0:0:
100,104,116767,2,0,L|40:208,1,120,0|8,0:0|0:0,0:0:0:0:
60,340,117367,2,0,L|120:236,2,120,0|8|4,0:0|0:0|0:0,0:0:0:0:
188,304,118267,6,2,L|428:304,1,240
500,196,119167,1,8,0:0:0:0:
500,196,119317,1,8,0:0:0:0:
500,196,119467,2,2,L|260:196,1,240
156,276,120367,6,0,P|64:232|40:96,1,240,4|0,0:0|0:0,0:0:0:0:
144,180,121267,1,8,0:0:0:0:
272,156,121567,2,0,P|332:128|400:128,1,120,4|8,0:0|0:0,0:0:0:0:
472,224,122167,1,0,0:0:0:0:
472,224,122467,2,0,P|412:252|344:252,2,120,8|4|8,0:0|0:0|0:0,0:0:0:0:
432,96,123367,5,8,0:0:0:0:
316,160,123667,2,0,L|188:160,1,120,0|2,0:0|0:0,0:0:0:0:
80,96,124267,1,8,0:0:0:0:
16,212,124567,2,0,L|108:320,1,120,0|8,0:0|0:0,0:0:0:0:
208,368,125167,6,0,P|276:296|244:160,1,240,4|8,0:0|0:0,0:0:0:0:
164,68,126067,1,0,0:0:0:0:
88,176,126367,2,8,L|200:248,1,120
323,240,126967,2,2,L|424:176,1,120
256,192,127567,12,4,129367,0:0:0:0:
256,344,129967,5,4,0:0:0:0:
376,88,130867,1,8,0:0:0:0:
436,192,131167,1,4,0:0:0:0:
316,192,131467,1,0,0:0:0:0:
196,192,131767,1,0,0:0:0:0:
76,192,132067,1,0,0:0:0:0:
136,296,132367,1,4,0:0:0:0:
256,312,141967,5,4,0:0:0:0:
144,240,142267,1,0,0:0:0:0:
256,168,142567,2,0,L|384:168,1,120,8|0,0:0|0:0,0:0:0:0:
448,168,143017,1,2,0:0:0:0:
320,328,143467,5,2,0:0:0:0:
200,272,143767,1,8,0:0:0:0:
88,340,144067,1,0,0:0:0:0:
88,340,144217,2,2,P|40:276|44:224,1,120,2|0,0:0|0:0,0:0:0:0:
60,168,144667,5,2,0:0:0:0:
188,208,144967,2,0,L|320:208,1,120,8|0,0:0|0:0,0:0:0:0:
380,208,145417,1,2,0:0:0:0:
504,56,145867,5,2,0:0:0:0:
384,116,146167,2,8,L|312:116,4,60,8|0|0|0|4,0:0|0:0|1:0|0:0|0:0,0:0:0:0:
256,312,151567,5,4,0:0:0:0:
368,240,151867,1,0,0:0:0:0:
256,168,152167,2,0,L|128:168,1,120,8|0,0:0|0:0,0:0:0:0:
64,168,152617,1,2,0:0:0:0:
192,328,153067,5,2,0:0:0:0:
312,272,153367,1,8,0:0:0:0:
424,340,153667,1,0,0:0:0:0:
424,340,153817,2,2,P|472:276|468:224,1,120,2|0,0:0|0:0,0:0:0:0:
452,168,154267,5,2,0:0:0:0:
324,208,154567,2,0,L|192:208,1,120,8|0,0:0|0:0,0:0:0:0:
132,208,155017,1,2,0:0:0:0:
8,56,155467,5,2,0:0:0:0:
128,116,155767,1,8,0:0:0:0:
128,116,156067,2,8,L|200:116,2,60,0|8|4,0:0|0:0|0:0,0:0:0:0:
216,236,162367,5,4,0:0:0:0:
336,292,162667,2,0,P|412:260|420:224,1,120,0|8,0:0|0:0,0:0:0:0:
304,164,163267,1,0,0:0:0:0:
232,164,163417,2,0,L|108:164,1,120,0|8,0:0|0:0,0:0:0:0:
64,112,163867,2,0,P|40:164|72:224,1,120
176,292,164467,1,8,0:0:0:0:
296,236,164767,5,4,0:0:0:0:
176,292,165067,2,0,P|100:260|92:224,1,120,0|8,0:0|0:0,0:0:0:0:
208,164,165667,1,0,0:0:0:0:
280,164,165817,2,0,L|404:164,1,120,0|8,0:0|0:0,0:0:0:0:
448,112,166267,2,0,P|472:164|440:224,1,120
336,292,166867,1,8,0:0:0:0:
256,204,167167,6,0,L|128:204,1,120,4|0,0:0|0:0,0:0:0:0:
24,132,167767,1,8,0:0:0:0:
100,24,168067,1,0,0:0:0:0:
144,80,168217,2,0,L|324:80,1,180
456,72,168967,2,10,P|432:124|368:128,1,120
256,204,169567,6,0,L|384:204,1,120,4|0,0:0|0:0,0:0:0:0:
488,132,170167,1,8,0:0:0:0:
412,24,170467,1,0,0:0:0:0:
368,80,170617,2,0,L|188:80,1,180
56,72,171367,2,10,P|80:124|144:128,1,120
256,204,171967,6,0,P|324:200|384:240,2,120,4|8|8,0:0|0:0|0:0,0:0:0:0:
128,168,172867,1,0,0:0:0:0:
140,236,173017,1,0,0:0:0:0:
156,304,173167,1,8,0:0:0:0:
40,240,173467,2,8,L|-4:172,2,60
136,148,174067,1,2,0:0:0:0:
256,204,174367,6,0,P|188:200|128:240,2,120,4|8|8,0:0|0:0|0:0,0:0:0:0:
384,168,175267,1,0,0:0:0:0:
372,236,175417,1,0,0:0:0:0:
356,304,175567,1,8,0:0:0:0:
472,240,175867,2,8,L|516:172,2,60
376,148,176467,1,2,0:0:0:0:
256,96,176767,5,4,0:0:0:0:
136,152,177067,2,0,L|56:268,1,120,0|8,0:0|0:0,0:0:0:0:
180,320,177667,1,0,0:0:0:0:
180,320,177817,1,0,0:0:0:0:
304,280,178117,2,0,L|304:216,1,60,8|0,0:0|0:0,0:0:0:0:
304,148,178417,1,0,0:0:0:0:
304,148,178567,1,8,0:0:0:0:
380,40,178867,1,8,0:0:0:0:
256,88,179167,5,4,0:0:0:0:
376,152,179467,2,0,L|456:268,1,120,0|8,0:0|0:0,0:0:0:0:
332,320,180067,1,0,0:0:0:0:
332,320,180217,1,0,0:0:0:0:
208,280,180517,2,0,L|208:216,1,60,8|0,0:0|0:0,0:0:0:0:
208,148,180817,1,0,0:0:0:0:
208,148,180967,1,8,0:0:0:0:
24,20,181567,5,4,0:0:0:0:
324,300,191167,6,0,B|388:252|388:252|388:140,2,180,4|8|8,0:0|0:0|0:0,0:0:0:0:
188,300,192367,2,2,B|124:252|124:252|124:140,2,180
300,252,193567,6,0,B|336:216|336:216|336:132|336:132|384:96,2,180,12|8|8,0:0|0:0|0:0,0:0:0:0:
212,252,194767,2,2,B|176:216|176:216|176:132|176:132|128:96,2,180
256,128,195967,6,0,P|324:88|476:160,1,240,4|2,0:0|0:0,0:0:0:0:
356,220,196867,1,8,0:0:0:0:
256,304,197167,2,0,P|160:252|164:128,1,240,4|0,0:0|0:0,0:0:0:0:
272,60,198067,1,0,0:0:0:0:
272,60,198367,1,4,0:0:0:0:
256,192,198517,12,4,200767,0:0:0:0:
184,320,209767,6,0,P|92:248|144:132,1,240,0|4,0:0|0:0,0:0:0:0:
387,144,210967,2,0,P|420:248|328:320,1,240,0|4,0:0|0:0,0:0:0:0:
84,224,212167,6,0,P|100:108|208:84,1,240,0|4,0:0|0:0,0:0:0:0:
428,224,213367,2,0,P|412:108|304:84,1,240,0|4,0:0|0:0,0:0:0:0:
116,257,214567,6,0,P|256:352|400:252,1,360
440,132,215767,2,0,L|300:160,1,120
189,155,216367,2,0,L|72:132,2,120
322,155,217267,2,0,L|440:132,1,120
256,192,217717,12,4,219367,0:0:0:0:
88,164,219967,5,4,0:0:0:0:
88,164,220267,1,8,0:0:0:0:
192,80,220567,2,0,P|248:52|312:52,1,120,0|8,0:0|0:0,0:0:0:0:
436,64,221167,5,4,0:0:0:0:
436,64,221467,1,8,0:0:0:0:
408,192,221767,2,0,P|344:188|284:236,1,120,0|8,0:0|0:0,0:0:0:0:
384,316,222367,6,2,P|204:352|88:228,1,360,6|2,0:0|0:0,0:0:0:0:
200,164,223567,2,8,L|276:68,1,120,2|8,0:0|0:0,0:0:0:0:
268,204,224167,2,4,L|344:108,2,120,8|8|4,0:0|0:0|0:0,0:0:0:0:
188,308,225067,5,8,0:0:0:0:
64,356,225367,2,0,P|20:284|24:228,1,120,0|8,0:0|0:0,0:0:0:0:
72,132,225967,6,0,L|196:168,1,120,4|8,0:0|0:0,0:0:0:0:
324,165,226567,2,0,L|440:132,2,120,0|8|4,0:0|0:0|0:0,0:0:0:0:
240,64,227467,6,2,L|-8:64,1,240
76,172,228367,1,8,0:0:0:0:
76,172,228517,1,8,0:0:0:0:
76,172,228667,2,2,L|316:172,1,240
444,208,229567,6,0,P|392:312|268:316,1,240,4|0,0:0|0:0,0:0:0:0:
184,232,230467,1,8,0:0:0:0:
88,144,230767,2,0,P|72:88|8:64,2,120,4|8|0,0:0|0:0|0:0,0:0:0:0:
132,268,231667,2,0,P|148:324|212:348,1,120,8|4,0:0|0:0,0:0:0:0:
308,272,232267,6,8,L|408:180,1,120
472,80,232867,1,0,0:0:0:0:
472,80,233167,1,2,0:0:0:0:
472,80,233767,6,4,P|408:64|336:80,1,120,0|8,0:0|0:0,0:0:0:0:
256,160,234367,1,4,0:0:0:0:
96,368,234967,1,0,0:0:0:0:
208,296,235267,1,8,0:0:0:0:
328,352,235567,6,0,P|376:280|380:220,1,120,8|0,0:0|0:0,0:0:0:0:
328,128,236167,2,8,P|296:76|224:48,1,120,8|0,0:0|0:0,0:0:0:0:
132,120,236767,1,4,0:0:0:0:
256,192,236917,12,4,239167,0:0:0:0:
256,328,240067,5,0,0:0:0:0:
232,200,240367,2,0,P|140:196|144:64,1,240
256,128,241267,1,0,0:0:0:0:
256,128,241567,5,4,0:0:0:0:
256,192,246367,12,4,249967,0:0:0:0:
324,224,250567,6,8,L|324:314,2,90
384,184,251167,2,2,P|372:100|232:72,1,240,10|10,0:0|0:0,0:0:0:0:
256,200,252067,1,8,0:0:0:0:
128,200,252367,2,10,P|140:284|280:312,1,240
392,252,253267,1,8,0:0:0:0:
324,140,253567,6,10,P|276:64|136:92,1,240
68,192,254467,1,8,0:0:0:0:
188,244,254767,2,10,P|236:320|376:292,1,240
464,208,255667,1,8,0:0:0:0:
364,124,255967,6,10,P|296:76|144:100,1,240
256,176,256867,1,8,0:0:0:0:
148,260,257167,2,10,P|216:308|368:284,1,240
428,172,258067,1,8,0:0:0:0:
316,100,258367,6,10,P|212:72|124:176,1,240
256,192,259267,1,8,0:0:0:0:
385,225,259567,2,10,P|300:312|196:284,1,240
88,360,260467,1,8,0:0:0:0:
44,236,260767,6,4,L|24:180,1,60
