osu file format v14

[General]
AudioFilename: audio.mp3
AudioLeadIn: 0
PreviewTime: 31196
Countdown: 0
SampleSet: Normal
StackLeniency: 0.7
Mode: 0
LetterboxInBreaks: 0
WidescreenStoryboard: 0

[Editor]
Bookmarks: 74670,77721
DistanceSpacing: 1.1
BeatDivisor: 4
GridSize: 4
TimelineZoom: 2

[Metadata]
Title:P.O.R.N.O.
TitleUnicode:P.O.R.N.O.
Artist:Utsu-P
ArtistUnicode:鬱P
Creator:Net0
Version:Tarrasky's Insane
Source:
Tags:Metal Japanese Gumi V3 Vocaloid ALGORITHM PORNO Tarrasky LwL Kalindraz rock Power
BeatmapID:1314102
BeatmapSetID:611553

[Difficulty]
HPDrainRate:6
CircleSize:4
OverallDifficulty:8
ApproachRate:9
SliderMultiplier:2.2
SliderTickRate:1

[Events]
//Background and Video events
0,0,"thumb-1920-418461.jpg",0,0
//Break Periods
//Storyboard Layer 0 (Background)
//Storyboard Layer 1 (Fail)
//Storyboard Layer 2 (Pass)
//Storyboard Layer 3 (Foreground)
//Storyboard Layer 4 (Overlay)
//Storyboard Sound Samples

[TimingPoints]
688,254.237288135593,6,1,1,40,1,0
688,-133.333333333333,3,1,1,40,0,0
6789,-100,3,1,1,60,0,0
19755,254.237288135593,6,1,1,80,1,0
19755,-133.333333333333,3,1,1,80,0,0
31958,-100,6,1,1,80,0,1
44161,-100,6,1,1,60,0,0
47212,-100,6,1,1,90,0,1
57890,-100,6,1,1,70,0,0
59415,-133.333333333333,6,1,1,70,0,0
71619,-100,6,1,1,70,0,1
80771,-100,6,1,1,70,0,0
81534,-400,6,1,1,70,0,0
82297,-100,6,1,1,80,0,1
83822,-200,6,1,1,40,0,0

[Colours]
Combo1 : 255,0,0
Combo2 : 192,192,192
Combo3 : 128,128,128
Combo4 : 128,255,0
Combo5 : 0,128,64
Combo6 : 255,0,255
Combo7 : 128,0,128
Combo8 : 255,128,192

[HitObjects]
52,140,688,5,0,0:0:0:0:
112,96,815,1,0,0:0:0:0:
184,88,942,2,0,P|215:113|228:152,1,82.5000031471254,2|0,0:0|0:0,0:0:0:0:
200,220,1196,1,0,0:0:0:0:
264,256,1323,2,0,L|348:260,1,82.5000031471254,2|0,0:0|0:0,0:0:0:0:
420,232,1577,1,0,0:0:0:0:
448,164,1704,2,0,L|444:81,1,82.5000031471254,2|0,0:0|0:0,0:0:0:0:
316,36,1959,2,0,L|312:118,1,82.5000031471254,2|0,0:0|0:0,0:0:0:0:
200,220,2213,5,0,0:0:0:0:
136,184,2340,1,0,0:0:0:0:
100,120,2467,2,0,L|106:37,1,82.5000031471254,2|0,0:0|0:0,0:0:0:0:
60,180,2721,1,0,0:0:0:0:
92,248,2849,2,0,P|144:260|184:244,1,82.5000031471254,2|0,0:0|0:0,0:0:0:0:
236,216,3103,1,0,0:0:0:0:
276,156,3230,2,0,L|272:73,1,82.5000031471254,2|0,0:0|0:0,0:0:0:0:
344,240,3484,2,0,L|340:322,1,82.5000031471254,2|0,0:0|0:0,0:0:0:0:
464,236,3738,101,0,0:0:0:0:
448,164,3865,1,0,0:0:0:0:
432,92,3993,2,0,L|348:100,1,82.5000031471254,2|0,0:0|0:0,0:0:0:0:
244,64,4247,1,0,0:0:0:0:
244,64,4374,2,0,L|160:56,1,82.5000031471254,2|0,0:0|0:0,0:0:0:0:
88,140,4628,1,0,0:0:0:0:
87,140,4755,2,0,P|83:180|86:222,1,82.5000031471254,2|0,0:0|0:0,0:0:0:0:
204,312,5010,2,0,P|206:270|202:229,1,82.5000031471254,2|0,0:0|0:0,0:0:0:0:
324,196,5264,5,0,0:0:0:0:
388,232,5391,1,0,0:0:0:0:
452,268,5518,2,0,L|370:279,1,82.5000031471254,2|0,0:0|0:0,0:0:0:0:
288,344,5772,1,0,0:0:0:0:
288,344,5899,2,0,L|206:332,1,82.5000031471254,2|0,0:0|0:0,0:0:0:0:
112,284,6154,1,0,0:0:0:0:
112,284,6281,2,0,L|118:201,1,82.5000031471254,2|0,0:0|0:0,0:0:0:0:
16,112,6535,2,0,L|22:194,1,82.5000031471254,2|0,0:0|0:0,0:0:0:0:
180,108,6789,6,0,P|280:72|384:144,1,220,6|0,0:0|0:0,0:0:0:0:
288,180,7171,2,0,P|356:224|476:120,1,220,10|0,0:0|0:0,0:0:0:0:
474,53,7552,2,0,L|467:163,1,110,2|0,0:0|0:0,0:0:0:0:
432,336,7806,6,0,L|252:348,1,165
236,344,8060,2,0,P|200:284|224:164,1,165
248,128,8315,102,0,P|176:156|156:28,1,220,6|0,0:0|0:0,0:0:0:0:
88,200,8696,2,0,P|136:228|324:168,1,220,10|0,0:0|0:0,0:0:0:0:
360,44,9077,6,0,P|346:97|412:200,1,165
472,216,9332,2,0,P|393:234|342:297,1,165
296,356,9586,2,0,P|319:278|290:203,1,165,0|0,0:0|0:0,0:0:0:0:
228,160,9840,102,0,P|340:176|448:128,1,220,6|0,0:0|0:0,0:0:0:0:
296,64,10221,1,10,0:0:0:0:
208,56,10349,1,0,0:0:0:0:
140,108,10476,1,0,0:0:0:0:
116,192,10603,2,0,B|108:232|108:232|128:316,1,110,6|0,0:0|0:0,0:0:0:0:
252,324,10857,6,0,P|330:345|407:318,1,165
407,318,11111,2,0,P|328:296|251:323,1,165
407,318,11365,102,0,L|408:88,1,220,6|0,0:0|0:0,0:0:0:0:
296,32,11747,2,0,L|288:141,2,110,8|0|0,0:0|0:0|0:0,0:0:0:0:
208,264,12128,6,0,L|200:154,1,110,6|0,0:0|0:0,0:0:0:0:
367,184,12382,2,0,P|419:168|470:186,1,110,10|0,0:0|0:0,0:0:0:0:
255,335,12637,2,0,P|203:351|152:333,1,110,2|0,0:0|0:0,0:0:0:0:
276,192,12891,102,0,B|283:131|283:131|325:82,2,110,6|0|0,0:0|0:0|0:0,0:0:0:0:
436,264,13272,2,0,B|380:288|380:288|316:276,2,110,10|0|0,0:0|0:0|0:0,0:0:0:0:
404,84,13654,2,0,B|452:120|452:120|474:181,1,110,2|0,0:0|0:0,0:0:0:0:
272,12,13908,6,0,B|208:84|208:84|197:151,1,165
192,176,14162,2,0,B|183:244|183:244|225:331,1,165
136,328,14416,102,0,B|76:336|76:336|29:318,2,110,6|0|0,0:0|0:0|0:0,0:0:0:0:
92,240,14797,1,10,0:0:0:0:
104,152,14925,1,0,0:0:0:0:
120,64,15052,1,0,0:0:0:0:
312,204,15179,6,0,P|357:271|354:352,1,165
354,352,15433,2,0,P|389:279|461:240,1,165
461,240,15687,2,0,P|380:245|311:202,1,165
252,120,15942,102,0,P|312:100|372:124,2,110,6|0|0,0:0|0:0|0:0,0:0:0:0:
148,176,16323,1,10,0:0:0:0:
136,264,16450,1,0,0:0:0:0:
188,336,16577,1,0,0:0:0:0:
276,348,16704,2,0,B|327:351|327:351|392:340,1,110,2|0,0:0|0:0,0:0:0:0:
476,280,16959,6,0,P|485:199|463:120,1,165
448,100,17213,2,0,P|368:78|287:85,1,165
236,260,17467,102,0,P|249:204|228:140,1,110,6|0,0:0|0:0,0:0:0:0:
184,88,17721,1,0,0:0:0:0:
48,44,17849,2,0,B|40:112|40:112|52:160,2,110,10|0|0,0:0|0:0|0:0,0:0:0:0:
40,244,18230,6,0,L|149:240,1,110,2|0,0:0|0:0,0:0:0:0:
248,88,18484,2,0,L|357:91,1,110,2|0,0:0|0:0,0:0:0:0:
320,304,18738,2,0,L|210:307,1,110,10|0,0:0|0:0,0:0:0:0:
424,148,18993,1,2,0:0:0:0:
424,148,19755,70,0,L|232:136,1,165.000006294251,4|0,0:0|0:0,0:0:0:0:
176,164,20137,2,0,P|156:272|188:336,1,165.000006294251
256,344,20518,2,0,B|364:348|364:348|408:312,2,165.000006294251,8|0|0,0:0|0:0|0:0,0:0:0:0:
52,96,21281,6,0,L|56:276,1,165.000006294251,4|0,0:0|0:0,0:0:0:0:
120,312,21662,2,0,P|200:324|296:264,1,165.000006294251
316,220,22043,2,0,B|333:176|380:152|380:152|464:200,1,165.000006294251,8|0,0:0|0:0,0:0:0:0:
191,331,22552,2,0,P|187:291|191:250,1,82.5000031471254
103,344,22806,102,0,P|106:261|83:182,1,165.000006294251,4|0,0:0|0:0,0:0:0:0:
32,120,23187,2,0,P|108:150|200:152,1,165.000006294251
268,128,23569,2,0,L|264:24,1,82.5000031471254,8|0,0:0|0:0,0:0:0:0:
356,192,23823,2,0,P|285:234|178:195,1,165.000006294251
80,28,24332,6,0,B|52:104|52:104|72:212,1,165.000006294251,4|0,0:0|0:0,0:0:0:0:
99,263,24713,2,0,P|155:323|235:334,1,165.000006294251
316,312,25094,2,0,L|319:229,1,82.5000031471254
440,232,25349,2,0,L|436:149,1,82.5000031471254,8|0,0:0|0:0,0:0:0:0:
264,88,25603,2,0,L|260:170,1,82.5000031471254
196,40,25857,102,0,P|115:73|8:56,1,165.000006294251,4|0,0:0|0:0,0:0:0:0:
68,148,26238,2,0,P|105:220|111:302,1,165.000006294251
56,364,26620,2,0,B|164:336|164:336|217:342,2,165.000006294251,8|0|0,0:0|0:0|0:0,0:0:0:0:
332,348,27382,6,0,L|324:144,1,165.000006294251,4|0,0:0|0:0,0:0:0:0:
320,99,27764,2,0,P|381:47|462:48,1,165.000006294251
508,120,28145,2,0,B|504:208|504:208|487:245|436:272,1,165.000006294251,8|0,0:0|0:0,0:0:0:0:
248,300,28654,2,0,B|288:292|288:292|340:300,1,82.5000031471254
168,320,28908,102,0,B|92:340|92:340|-4:316,1,165.000006294251,4|0,0:0|0:0,0:0:0:0:
48,236,29289,2,0,P|27:156|49:78,1,165.000006294251
116,136,29671,2,0,P|163:69|237:35,2,165.000006294251,8|0|0,0:0|0:0|0:0,0:0:0:0:
64,272,30433,6,0,B|119:305|163:229|213:303,1,165.000006294251,4|0,0:0|0:0,0:0:0:0:
298,303,30815,2,0,B|348:229|392:305|448:272,1,165.000006294251
208,192,31196,22,0,B|205:169|145:165|163:131,1,82.5000031471254,8|0,0:0|0:0,0:0:0:0:
304,192,31450,2,0,B|306:169|366:165|348:131,1,82.5000031471254,2|0,0:0|0:0,0:0:0:0:
257,121,31704,2,0,B|272:88|247:68|256:40,1,82.5000031471254,2|0,0:0|0:0,0:0:0:0:
80,68,31959,6,0,P|32:152|80:260,1,220,6|8,0:0|0:0,0:0:0:0:
160,192,32340,1,2,0:0:0:0:
160,192,32467,2,0,P|184:248|168:308,1,110
248,356,32721,2,0,P|284:307|344:291,1,110,10|0,0:0|0:0,0:0:0:0:
410,361,32975,2,0,P|456:265|407:170,1,220,2|8,0:0|0:0,0:0:0:0:
320,112,33357,1,0,0:0:0:0:
320,112,33484,6,0,L|324:0,1,110,2|0,0:0|0:0,0:0:0:0:
224,160,33738,1,8,0:0:0:0:
224,160,33865,2,0,P|276:208|412:164,1,220,2|0,0:0|0:0,0:0:0:0:
436,31,34247,2,0,P|448:84|484:125,1,110,10|0,0:0|0:0,0:0:0:0:
248,56,34501,2,0,P|291:88|345:96,1,110,2|0,0:0|0:0,0:0:0:0:
137,127,34755,2,0,B|128:73|128:73|140:20,1,110,8|0,0:0|0:0,0:0:0:0:
72,188,35009,102,0,P|96:260|-12:344,1,220,2|8,0:0|0:0,0:0:0:0:
227,268,35391,1,2,0:0:0:0:
227,268,35518,2,0,P|282:264|337:270,1,110
456,140,35772,2,0,P|401:143|346:137,1,110,10|0,0:0|0:0,0:0:0:0:
196,8,36026,2,0,P|192:62|198:117,1,110,2|0,0:0|0:0,0:0:0:0:
48,232,36280,2,0,P|51:177|45:122,1,110,10|0,0:0|0:0,0:0:0:0:
196,316,36535,6,0,B|256:320|256:320|305:312,1,110,2|0,0:0|0:0,0:0:0:0:
432,160,36789,1,8,0:0:0:0:
360,92,36916,2,0,B|256:72|256:72|136:96,1,220,2|0,0:0|0:0,0:0:0:0:
75,175,37297,2,0,P|103:223|113:277,1,110,8|0,0:0|0:0,0:0:0:0:
239,372,37552,2,0,P|287:344|341:334,1,110,2|0,0:0|0:0,0:0:0:0:
436,208,37806,2,0,P|408:160|398:106,1,110,10|0,0:0|0:0,0:0:0:0:
272,12,38060,102,0,P|224:40|170:50,1,110,6|0,0:0|0:0,0:0:0:0:
36,56,38314,1,8,0:0:0:0:
108,96,38442,2,0,P|152:164|100:296,1,220,2|0,0:0|0:0,0:0:0:0:
6,281,38823,2,0,P|59:269|110:286,1,110,10|0,0:0|0:0,0:0:0:0:
304,328,39077,2,0,P|252:345|199:334,1,110,2|0,0:0|0:0,0:0:0:0:
212,120,39331,2,0,P|229:171|224:228,1,110,8|0,0:0|0:0,0:0:0:0:
124,80,39586,6,0,P|188:32|304:112,1,220,2|8,0:0|0:0,0:0:0:0:
308,236,39967,2,0,P|372:192|436:192,1,110,2|0,0:0|0:0,0:0:0:0:
392,304,40221,1,0,0:0:0:0:
296,344,40348,2,0,P|225:310|193:255,1,110,10|0,0:0|0:0,0:0:0:0:
298,92,40603,1,10,0:0:0:0:
224,156,40730,1,0,0:0:0:0:
132,188,40857,2,0,P|80:200|8:176,1,110
80,68,41111,102,0,P|152:28|296:92,1,220,6|8,0:0|0:0,0:0:0:0:
352,168,41492,1,0,0:0:0:0:
288,228,41620,2,0,L|178:224,1,110,8|0,0:0|0:0,0:0:0:0:
0,332,41874,2,0,L|109:335,1,110,8|0,0:0|0:0,0:0:0:0:
248,124,42128,2,0,P|192:121|138:127,1,110,8|0,0:0|0:0,0:0:0:0:
232,336,42382,2,0,P|285:339|341:332,1,110,10|0,0:0|0:0,0:0:0:0:
468,172,42636,6,0,P|458:68|360:31,1,220,6|8,0:0|0:0,0:0:0:0:
248,104,43018,1,0,0:0:0:0:
212,184,43145,2,0,L|215:293,1,110,8|0,0:0|0:0,0:0:0:0:
12,320,43399,2,0,L|15:210,1,110,8|0,0:0|0:0,0:0:0:0:
124,64,43653,1,10,0:0:0:0:
220,44,43781,1,8,0:0:0:0:
324,72,43908,1,10,0:0:0:0:
404,164,44035,1,8,0:0:0:0:
432,292,44162,101,6,0:0:0:0:
432,292,45687,6,0,P|379:305|300:304,1,110,12|0,0:0|0:0,0:0:0:0:
220,72,45942,2,0,P|274:73|328:87,1,110,12|0,0:0|0:0,0:0:0:0:
119,381,46196,2,0,L|116:272,1,110,12|0,0:0|0:0,0:0:0:0:
60,32,46450,1,14,0:0:0:0:
60,32,47213,21,6,0:0:0:0:
104,108,47340,1,10,0:0:0:0:
188,140,47467,2,0,P|241:129|286:98,1,110,0|8,0:0|0:0,0:0:0:0:
432,32,47721,2,0,P|441:86|442:141,1,110,2|8,0:0|0:0,0:0:0:0:
272,308,47975,2,0,P|273:253|284:200,1,110,2|8,0:0|0:0,0:0:0:0:
123,48,48230,2,0,P|174:27|229:25,1,110,2|8,0:0|0:0,0:0:0:0:
144,252,48484,2,0,P|89:249|38:229,1,110,2|8,0:0|0:0,0:0:0:0:
328,28,48738,102,0,P|384:104|352:224,1,220,6|8,0:0|0:0,0:0:0:0:
144,252,49120,1,0,0:0:0:0:
108,172,49247,2,2,P|115:117|140:69,1,110,2|8,0:0|0:0,0:0:0:0:
243,304,49501,2,0,P|153:359|56:320,1,220,2|8,0:0|0:0,0:0:0:0:
24,156,49882,1,0,0:0:0:0:
52,72,50009,1,0,0:0:0:0:
132,40,50136,1,8,0:0:0:0:
264,76,50264,6,0,L|267:185,1,110,6|8,0:0|0:0,0:0:0:0:
456,272,50518,2,0,L|459:162,1,110,2|8,0:0|0:0,0:0:0:0:
132,232,50772,2,0,B|160:280|160:280|208:305,1,110,2|8,0:0|0:0,0:0:0:0:
512,88,51026,2,0,B|484:40|484:40|435:14,1,110,2|8,0:0|0:0,0:0:0:0:
316,364,51281,2,0,P|370:367|420:345,1,110,2|8,0:0|0:0,0:0:0:0:
284,36,51535,2,0,P|229:32|179:54,1,110,2|8,0:0|0:0,0:0:0:0:
412,260,51789,102,0,P|440:160|384:36,1,220,6|8,0:0|0:0,0:0:0:0:
181,160,52170,1,0,0:0:0:0:
152,243,52297,2,0,P|152:298|181:344,1,110,2|8,0:0|0:0,0:0:0:0:
400,200,52552,2,0,B|448:208|448:208|468:200|468:200|507:205,1,110,6|0,0:0|0:0,0:0:0:0:
181,160,52806,2,0,B|141:165|141:165|121:157|121:157|73:165,1,110,0|8,0:0|0:0,0:0:0:0:
432,24,53060,1,0,0:0:0:0:
432,24,53187,1,8,0:0:0:0:
432,24,53314,6,0,L|440:144,1,110,6|8,0:0|0:0,0:0:0:0:
188,50,53569,2,0,L|180:170,1,110,2|8,0:0|0:0,0:0:0:0:
384,200,53823,2,0,L|392:320,1,110,2|8,0:0|0:0,0:0:0:0:
204,328,54077,2,0,P|150:337|96:328,1,110,2|8,0:0|0:0,0:0:0:0:
15,131,54331,2,0,P|33:79|68:37,1,110,2|8,0:0|0:0,0:0:0:0:
280,64,54586,2,0,P|315:105|334:157,1,110,2|8,0:0|0:0,0:0:0:0:
44,232,54840,102,0,P|158:261|272:220,1,220,6|8,0:0|0:0,0:0:0:0:
404,100,55221,1,0,0:0:0:0:
460,168,55348,2,0,L|456:288,1,110,2|8,0:0|0:0,0:0:0:0:
312,60,55603,2,0,P|404:11|492:72,1,220,2|0,0:0|0:0,0:0:0:0:
460,168,55984,1,8,0:0:0:0:
380,204,56111,2,0,L|264:200,1,110,2|8,0:0|0:0,0:0:0:0:
64,160,56365,6,0,P|59:104|64:48,1,110,6|8,0:0|0:0,0:0:0:0:
340,24,56620,2,0,P|343:78|339:133,1,110,2|8,0:0|0:0,0:0:0:0:
40,232,56874,2,0,P|26:177|20:121,1,110,2|8,0:0|0:0,0:0:0:0:
408,224,57128,2,0,P|402:278|388:331,1,110,2|8,0:0|0:0,0:0:0:0:
44,316,57382,2,0,P|21:264|5:210,1,110,2|8,0:0|0:0,0:0:0:0:
360,120,57636,1,2,0:0:0:0:
380,124,57700,1,0,0:0:0:0:
400,128,57764,1,8,0:0:0:0:
112,52,57891,6,0,L|116:224,1,165,6|0,0:0|0:0,0:0:0:0:
96,252,58145,2,0,L|205:263,1,110,8|0,0:0|0:0,0:0:0:0:
416,132,58399,2,0,L|306:120,1,110,8|0,0:0|0:0,0:0:0:0:
176,348,58653,2,0,L|285:336,1,110,8|0,0:0|0:0,0:0:0:0:
68,72,58908,5,2,0:0:0:0:
68,72,59035,1,0,0:0:0:0:
68,72,59162,1,10,0:0:0:0:
68,72,59416,6,0,P|40:160|88:232,1,165.000006294251,6|0,0:0|0:0,0:0:0:0:
168,292,59797,1,0,0:0:0:0:
248,312,59925,1,2,0:0:0:0:
328,292,60052,1,0,0:0:0:0:
380,228,60179,2,0,B|368:116|368:116|336:96|324:56,2,165.000006294251,10|0|2,0:0|0:0|0:0,0:0:0:0:
83,298,60942,6,0,L|275:314,1,165.000006294251,2|0,0:0|0:0,0:0:0:0:
380,228,61323,1,0,0:0:0:0:
424,156,61450,1,2,0:0:0:0:
400,76,61577,1,0,0:0:0:0:
324,44,61704,2,0,B|224:48|224:48|260:120,2,165.000006294251,10|0|2,0:0|0:0|0:0,0:0:0:0:
64,68,62467,102,0,P|100:164|84:252,1,165.000006294251,2|0,0:0|0:0,0:0:0:0:
36,332,62848,1,0,0:0:0:0:
116,312,62975,1,2,0:0:0:0:
200,316,63103,1,0,0:0:0:0:
280,340,63230,2,0,B|288:304|272:276|272:276|292:233|272:152,1,165.000006294251,10|0,0:0|0:0,0:0:0:0:
180,36,63738,2,0,B|222:44|222:44|276:44,1,82.5000031471254,2|0,0:0|0:0,0:0:0:0:
376,36,63992,6,0,P|370:76|367:117,1,82.5000031471254,2|0,0:0|0:0,0:0:0:0:
480,200,64247,2,0,P|477:158|471:118,1,82.5000031471254
360,264,64501,2,0,P|396:282|435:297,1,82.5000031471254
367,116,64755,2,0,P|301:167|254:234,1,165.000006294251,8|2,0:0|0:0,0:0:0:0:
24,320,65264,1,10,0:0:0:0:
36,240,65391,1,0,0:0:0:0:
48,160,65518,102,0,B|40:68|40:68|67:38|120:32,1,165.000006294251,6|0,0:0|0:0,0:0:0:0:
232,40,65899,1,0,0:0:0:0:
312,56,66026,1,2,0:0:0:0:
380,104,66153,1,0,0:0:0:0:
428,172,66280,2,0,L|420:340,2,165.000006294251,10|0|2,0:0|0:0|0:0,0:0:0:0:
128,120,67043,6,0,P|93:191|128:264,1,165.000006294251,2|0,0:0|0:0,0:0:0:0:
288,280,67425,1,0,0:0:0:0:
360,236,67552,1,2,0:0:0:0:
360,148,67679,1,0,0:0:0:0:
288,104,67806,2,0,B|208:112|208:112|204:56|148:40,2,165.000006294251,10|0|2,0:0|0:0|0:0,0:0:0:0:
492,256,68569,102,0,P|452:312|352:272,1,165.000006294251,2|0,0:0|0:0,0:0:0:0:
300,232,68950,1,0,0:0:0:0:
256,160,69077,1,2,0:0:0:0:
212,232,69204,1,0,0:0:0:0:
145,295,69331,2,0,P|70:316|20:256,1,165.000006294251,10|0,0:0|0:0,0:0:0:0:
256,16,69840,2,0,L|256:112,1,82.5000031471254,2|0,0:0|0:0,0:0:0:0:
332,215,70094,6,0,P|255:244|180:216,1,165.000006294251,2|0,0:0|0:0,0:0:0:0:
92,124,70475,1,0,0:0:0:0:
80,204,70603,1,0,0:0:0:0:
64,284,70730,1,0,0:0:0:0:
52,364,70857,2,0,L|164:352,1,82.5000031471254,8|0,0:0|0:0,0:0:0:0:
414,224,71111,2,0,L|331:215,1,82.5000031471254,10|0,0:0|0:0,0:0:0:0:
104,48,71365,1,10,0:0:0:0:
104,48,71492,1,8,0:0:0:0:
104,48,71620,6,0,P|168:36|236:44,1,110,6|0,0:0|0:0,0:0:0:0:
108,208,71874,2,0,P|53:210|0:198,1,110,8|0,0:0|0:0,0:0:0:0:
296,96,72128,2,0,P|325:142|342:194,1,110,2|0,0:0|0:0,0:0:0:0:
48,296,72382,2,0,P|124:328|264:316,1,220,10|0,0:0|0:0,0:0:0:0:
304,216,72764,1,0,0:0:0:0:
259,119,72891,1,10,0:0:0:0:
259,119,73145,6,0,P|311:134|366:139,1,110,2|0,0:0|0:0,0:0:0:0:
116,40,73399,2,0,P|61:44|8:59,1,110,8|0,0:0|0:0,0:0:0:0:
112,251,73653,2,0,P|127:198|132:144,1,110,2|0,0:0|0:0,0:0:0:0:
24,300,73908,2,0,P|112:352|212:272,1,220,10|0,0:0|0:0,0:0:0:0:
296,128,74289,1,0,0:0:0:0:
332,244,74416,1,10,0:0:0:0:
24,300,74670,102,0,P|12:246|16:191,1,110,2|0,0:0|0:0,0:0:0:0:
108,32,74925,2,0,P|70:71|44:120,1,110,8|0,0:0|0:0,0:0:0:0:
300,208,75179,2,0,P|284:155|255:108,1,110,2|0,0:0|0:0,0:0:0:0:
340,328,75433,2,0,P|412:256|396:136,1,220,10|0,0:0|0:0,0:0:0:0:
324,68,75814,1,0,0:0:0:0:
212,64,75942,1,10,0:0:0:0:
212,64,76196,6,0,P|208:140|216:192,1,110,2|0,0:0|0:0,0:0:0:0:
288,304,76450,1,8,0:0:0:0:
192,252,76577,2,0,P|104:240|-12:312,1,220
80,160,76958,2,0,P|78:105|70:50,1,110,8|0,0:0|0:0,0:0:0:0:
380,216,77213,2,0,P|381:161|389:106,1,110,2|0,0:0|0:0,0:0:0:0:
72,272,77467,1,10,0:0:0:0:
180,296,77594,1,0,0:0:0:0:
288,276,77721,102,0,P|348:224|332:84,1,220,6|8,0:0|0:0,0:0:0:0:
236,52,78103,1,0,0:0:0:0:
128,60,78230,2,0,P|120:128|128:212,1,110,2|0,0:0|0:0,0:0:0:0:
400,280,78484,2,0,L|170:296,1,220,10|0,0:0|0:0,0:0:0:0:
72,272,78865,1,0,0:0:0:0:
16,176,78992,1,10,0:0:0:0:
16,176,79247,5,6,0:0:0:0:
96,100,79374,2,0,P|176:84|224:92,1,110,8|0,0:0|0:0,0:0:0:0:
120,300,79628,2,0,P|65:301|12:286,1,110,0|2,0:0|0:0,0:0:0:0:
304,136,79882,1,0,0:0:0:0:
344,236,80009,2,0,B|345:285|312:344|312:344|263:319|228:260,1,220,10|0,0:0|0:0,0:0:0:0:
188,172,80391,1,0,0:0:0:0:
216,68,80518,1,10,0:0:0:0:
216,68,80772,6,0,P|264:43|319:41,1,110,6|0,0:0|0:0,0:0:0:0:
372,300,81026,2,0,P|323:324|268:326,1,110
220,66,81281,2,0,P|270:44|324:43,1,110,2|0,0:0|0:0,0:0:0:0:
370,302,81535,22,0,P|320:325|266:326,1,110,8|0,0:0|0:0,0:0:0:0:
303,20,82297,85,4,0:0:0:0:
384,92,82425,1,0,0:0:0:0:
406,199,82552,2,0,P|393:252|368:301,1,110,8|0,0:0|0:0,0:0:0:0:
106,185,82806,2,0,P|118:131|143:82,1,110,8|0,0:0|0:0,0:0:0:0:
224,344,83060,5,4,0:0:0:0:
96,304,83187,1,0,0:0:0:0:
24,196,83314,2,0,L|28:64,1,110,8|0,0:0|0:0,0:0:0:0:
300,16,83568,2,0,L|304:236,1,220,8|0,0:0|0:0,0:0:0:0:
