osu file format v14

[General]
AudioFilename: audio.mp3
AudioLeadIn: 0
PreviewTime: 31196
Countdown: 0
SampleSet: Soft
StackLeniency: 0.5
Mode: 0
LetterboxInBreaks: 0
WidescreenStoryboard: 0

[Editor]
Bookmarks: 70094,74670,77721
DistanceSpacing: 1
BeatDivisor: 4
GridSize: 4
TimelineZoom: 1.4

[Metadata]
Title:P.O.R.N.O.
TitleUnicode:P.O.R.N.O.
Artist:Utsu-P
ArtistUnicode:鬱P
Creator:Net0
Version:LwL's Insane
Source:
Tags:Metal Japanese Gumi V3 Vocaloid ALGORITHM PORNO Tarrasky LwL Kalindraz rock Power
BeatmapID:1317500
BeatmapSetID:611553

[Difficulty]
HPDrainRate:5.5
CircleSize:3.5
OverallDifficulty:7.7
ApproachRate:9
SliderMultiplier:1.8
SliderTickRate:1

[Events]
//Background and Video events
0,0,"thumb-1920-418461.jpg",0,0
//Break Periods
2,44362,45086
//Storyboard Layer 0 (Background)
//Storyboard Layer 1 (Fail)
//Storyboard Layer 2 (Pass)
//Storyboard Layer 3 (Foreground)
//Storyboard Layer 4 (Overlay)
//Storyboard Sound Samples

[TimingPoints]
688,254.237288135593,6,2,2,30,1,0
688,-142.857142857143,3,2,2,30,0,0
3738,-125,3,2,2,30,0,0
6789,-100,3,3,2,55,0,0
9077,-100,3,3,2,55,0,0
12319,-100,3,2,3,5,0,0
12382,-100,3,3,2,55,0,0
12573,-100,3,2,3,5,0,0
12637,-100,3,3,2,55,0,0
12827,-100,3,2,3,5,0,0
12891,-100,3,3,2,55,0,0
18421,-100,3,2,3,5,0,0
18484,-100,3,3,2,55,0,0
18675,-100,3,2,3,5,0,0
18738,-100,3,3,2,55,0,0
18929,-100,3,2,3,5,0,0
18993,-100,3,3,2,30,0,0
19755,254.237288135593,6,3,2,55,1,0
22805,-200,6,3,2,55,0,0
25856,-100,6,3,2,55,0,0
28907,-200,6,3,2,55,0,0
31958,-83.3333333333333,6,3,2,70,0,1
44161,-200,6,3,2,70,0,0
47212,-71.4285714285714,6,3,2,70,0,1
57890,-200,6,3,2,70,0,0
58907,-200,6,3,2,70,0,0
59097,-200,6,2,3,5,0,0
59161,-200,6,3,2,70,0,0
59352,-200,6,2,3,5,0,0
59415,-100,6,3,2,70,0,0
65199,-100,6,2,3,5,0,0
65263,-100,6,3,2,70,0,0
65453,-100,6,2,3,5,0,0
65517,-100,6,3,2,70,0,0
70856,-100,6,3,2,70,0,0
71619,-83.3333333333333,6,3,2,80,0,1
71873,-83.3333333333333,6,3,2,80,0,1
81534,-400,6,3,2,80,0,0
82297,-71.4285714285714,6,3,2,90,0,1
83568,-86.9565217391304,6,3,2,90,0,1
83822,-200,6,3,2,45,0,0

[Colours]
Combo1 : 255,0,0
Combo2 : 192,192,192
Combo3 : 128,128,128
Combo4 : 128,255,0
Combo5 : 0,128,64
Combo6 : 255,0,255
Combo7 : 128,0,128
Combo8 : 255,128,192

[HitObjects]
109,90,688,5,0,0:0:0:0:
109,90,815,1,0,0:0:0:0:
109,90,942,2,0,L|126:162,1,62.9999980773926
222,90,1196,1,0,0:0:0:0:
222,90,1323,2,0,L|205:162,1,62.9999980773926
148,278,1577,5,0,0:0:0:0:
148,278,1704,2,0,L|165:206,1,62.9999980773926
244,223,1959,2,0,L|259:285,2,62.9999980773926
327,210,2340,5,0,0:0:0:0:
327,210,2467,2,0,L|410:198,1,62.9999980773926
323,107,2721,1,0,0:0:0:0:
323,107,2849,2,0,L|406:119,1,62.9999980773926
512,144,3103,5,0,0:0:0:0:
512,144,3230,2,0,L|429:156,1,62.9999980773926
443,261,3484,2,0,L|526:249,1,62.9999980773926
404,351,3738,5,0,0:0:0:0:
360,333,3865,1,0,0:0:0:0:
316,315,3993,2,0,L|301:228,1,72
152,333,4247,1,0,0:0:0:0:
196,315,4374,2,0,L|211:228,1,72
256,152,4628,5,0,0:0:0:0:
296,127,4755,2,0,L|296:49,1,72
216,55,5010,2,0,L|216:127,2,72
372,89,5391,5,0,0:0:0:0:
416,107,5518,2,0,L|431:194,1,72
407,256,5772,1,0,0:0:0:0:
363,238,5899,2,0,L|348:151,1,72,0|4,0:0|0:2,0:0:0:0:
259,88,6154,5,0,0:0:0:0:
241,132,6281,2,0,L|154:147,1,72
110,79,6535,2,0,L|197:64,1,72
350,167,6789,6,0,P|341:244|272:340,1,180,4|0,0:0|0:0,0:0:0:0:
204,250,7171,2,0,P|132:280|15:268,1,180
88,152,7552,1,0,0:0:0:0:
104,144,7806,1,0,0:0:0:0:
120,136,8060,1,0,0:0:0:0:
144,251,8315,6,0,B|134:284|134:284|185:291|298:229,1,180,12|0,0:0|0:0,0:0:0:0:
368,133,8696,2,0,B|378:100|378:100|327:93|214:155,1,180,12|0,0:0|0:0,0:0:0:0:
144,251,9077,1,4,0:0:0:0:
126,246,9332,1,0,0:0:0:0:
108,241,9586,1,0,0:0:0:0:
152,68,9840,6,0,P|225:43|341:65,1,180,12|0,0:0|0:0,0:0:0:0:
312,157,10221,2,0,P|369:209|408:320,1,180
268,296,10603,1,4,0:0:0:0:
256,316,10857,1,0,0:0:0:0:
248,332,11111,1,0,0:0:0:0:
196,232,11365,6,0,B|163:245|163:245|150:195|201:76,1,180,12|0,0:0|0:0,0:0:0:0:
306,31,11747,2,0,B|338:17|338:17|351:67|300:186,1,180,12|0,0:0|0:0,0:0:0:0:
288,260,12128,1,4,0:0:0:0:
276,280,12382,1,0,0:0:0:0:
268,296,12636,1,0,0:0:0:0:
188,109,12891,6,0,P|190:65|213:14,2,90,4|0|0,0:0|0:0|0:0,0:0:0:0:
145,212,13272,2,0,P|108:187|75:142,2,90
257,201,13654,1,4,0:0:0:0:
257,201,13781,1,0,0:0:0:0:
257,201,13908,2,0,P|222:270|124:336,1,180
148,34,14416,6,0,P|192:30|234:14,2,90,12|0|0,0:0|0:0|0:0,0:0:0:0:
225,116,14798,2,0,P|249:152|294:185,2,90
328,72,15179,1,4,0:0:0:0:
328,72,15306,1,0,0:0:0:0:
328,72,15433,2,0,P|374:148|382:236,1,180
43,356,15942,6,0,P|27:314|24:270,2,90,8|0|0,0:0|0:0|0:0,0:0:0:0:
133,288,16323,2,0,P|168:260|193:222,2,90
100,180,16704,1,4,0:0:0:0:
100,180,16832,1,0,0:0:0:0:
100,180,16959,2,0,P|176:133|264:125,1,180
472,365,17467,6,0,P|488:323|491:278,2,90,12|0|0,0:0|0:0|0:0,0:0:0:0:
382,296,17849,2,0,P|354:260|316:235,2,90
276,328,18230,2,0,P|193:362|104:356,2,180
172,248,18993,5,0,0:0:0:0:
422,148,19755,70,0,L|232:136,1,180,4|0,0:0|0:0,0:0:0:0:
344,240,20136,2,0,L|153:228,1,180,4|0,0:0|0:0,0:0:0:0:
108,320,20518,2,0,B|292:328,2,180,8|0|0,0:0|0:0|0:0,0:0:0:0:
28,100,21280,6,0,L|128:96,1,90
188,152,21534,1,0,0:0:0:0:
188,152,21661,2,0,L|288:148,1,90
348,204,21915,1,0,0:0:0:0:
348,204,22043,2,0,B|432:244|432:244|512:204,2,180
408,104,22805,6,0,B|336:104|336:104|303:87|303:87|228:88,1,180
92,167,23568,2,0,B|163:167|163:167|196:184|196:184|268:184,1,180
180,88,24331,1,0,0:0:0:0:
32,128,24585,1,0,0:0:0:0:
32,128,24712,1,0,0:0:0:0:
48,256,24966,1,0,0:0:0:0:
48,256,25093,6,0,L|60:364,2,90
208,320,25856,6,0,P|292:348|384:312,1,180
371,215,26238,2,0,P|288:187|204:216,1,180
59,301,26619,2,0,P|87:217|51:125,2,180
283,358,27382,5,0,0:0:0:0:
283,358,27509,2,0,L|291:250,1,90
204,216,27763,1,0,0:0:0:0:
204,216,27890,2,0,L|212:108,1,90
300,136,28144,2,0,P|365:102|460:136,2,180
352,260,28907,6,0,B|369:318|369:318|379:176,1,180
204,208,29670,2,0,B|186:150|186:150|176:291,1,180
260,376,30432,2,0,L|268:280,2,90
156,368,31195,5,0,0:0:0:0:
156,368,31449,2,0,P|136:351|120:333,1,45
72,268,31703,2,0,L|46:217,1,45
48,126,31958,6,0,P|144:80|251:81,1,215.999993408203,0|8,0:0|0:0,0:0:0:0:
332,221,32339,2,0,P|383:182|390:107,1,107.999996704102
253,197,32593,1,0,0:0:0:0:
253,197,32721,2,0,P|261:261|322:304,1,107.999996704102,8|0,0:0|0:0,0:0:0:0:
449,321,32975,2,0,P|441:257|380:214,1,107.999996704102
356,360,33229,1,8,0:0:0:0:
113,302,33483,6,0,P|93:197|122:94,1,215.999993408203,0|8,0:0|0:0,0:0:0:0:
299,51,33865,2,0,P|290:114|229:158,1,107.999996704102
122,93,34119,1,0,0:0:0:0:
122,93,34246,2,0,P|181:68|249:99,1,107.999996704102,8|0,0:0|0:0,0:0:0:0:
246,234,34500,2,0,P|195:194|188:120,1,107.999996704102
299,51,34754,1,8,0:0:0:0:
466,17,35009,6,0,P|485:121|456:224,1,215.999993408203,0|8,0:0|0:0,0:0:0:0:
297,190,35390,2,0,P|288:253|336:311,1,107.999996704102
376,142,35644,1,0,0:0:0:0:
376,142,35771,2,0,P|325:102|250:115,1,107.999996704102,8|0,0:0|0:0,0:0:0:0:
151,195,36026,2,0,P|87:186|43:125,1,107.999996704102
53,10,36280,2,0,P|116:18|160:79,1,107.999996704102,8|0,0:0|0:0,0:0:0:0:
56,157,36534,6,0,P|63:262|117:354,1,215.999993408203,0|8,0:0|0:0,0:0:0:0:
258,203,36916,2,0,P|161:155|54:156,1,215.999993408203
55,157,37297,1,8,0:0:0:0:
304,359,37551,2,0,P|364:334|390:263,1,107.999996704102
340,144,37805,2,0,P|279:168|253:239,1,107.999996704102,8|0,0:0|0:0,0:0:0:0:
448,162,38060,6,0,P|416:63|316:37,1,215.999993408203,0|8,0:0|0:0,0:0:0:0:
198,138,38441,2,0,P|138:113|112:42,1,107.999996704102
276,103,38695,1,0,0:0:0:0:
276,103,38822,2,0,P|283:155|255:203,1,107.999996704102,8|0,0:0|0:0,0:0:0:0:
101,184,39077,2,0,P|93:236|117:284,1,107.999996704102
228,320,39331,1,8,0:0:0:0:
440,297,39585,6,0,P|508:223|454:112,1,215.999993408203,0|8,0:0|0:0,0:0:0:0:
322,182,39966,2,0,P|262:157|236:86,1,107.999996704102
399,149,40221,1,0,0:0:0:0:
399,149,40348,2,0,P|399:212|340:263,1,107.999996704102,8|0,0:0|0:0,0:0:0:0:
328,89,40602,1,8,0:0:0:0:
328,89,40729,1,8,0:0:0:0:
118,139,41110,5,0,0:0:0:0:
118,139,41365,2,0,P|141:82|203:50,1,107.999996704102,8|0,0:0|0:0,0:0:0:0:
226,153,41619,2,0,P|267:107|336:98,1,107.999996704102,8|0,0:0|0:0,0:0:0:0:
323,203,41873,2,0,P|377:174|445:189,1,107.999996704102,8|0,0:0|3:0,3:0:0:0:
397,283,42127,2,0,P|457:274|516:312,1,107.999996704102,8|0,0:0|3:0,3:0:0:0:
290,361,42382,6,0,P|261:315|262:262,1,107.999996704102,8|0,0:0|0:0,0:0:0:0:
394,79,42636,2,0,P|422:124|421:177,1,107.999996704102,4|0,0:0|0:0,0:0:0:0:
312,182,42890,2,0,L|284:61,1,107.999996704102,8|0,0:0|0:0,0:0:0:0:
168,4,43144,2,0,L|196:125,1,107.999996704102,8|0,0:0|0:0,0:0:0:0:
216,214,43399,2,0,L|188:93,1,107.999996704102,8|0,0:0|0:0,0:0:0:0:
142,47,43653,5,8,0:0:0:0:
116,90,43780,1,8,0:0:0:0:
90,133,43907,1,8,0:0:0:0:
64,176,44034,1,8,0:0:0:0:
40,218,44161,1,8,0:0:0:0:
388,319,45687,5,8,0:0:0:0:
388,67,45941,1,8,0:0:0:0:
137,67,46195,1,8,0:0:0:0:
137,319,46449,1,8,0:0:0:0:
314,296,47212,6,0,P|299:232|240:183,1,125.999996154785,0|8,0:0|0:0,0:0:0:0:
253,365,47466,2,0,P|315:384|387:357,1,125.999996154785,0|8,0:0|0:0,0:0:0:0:
376,194,47721,2,0,P|313:174|241:201,1,125.999996154785,0|8,0:0|0:0,0:0:0:0:
418,286,47975,2,0,P|465:241|478:165,1,125.999996154785,0|8,0:0|0:0,0:0:0:0:
319,87,48229,2,0,P|272:129|256:189,1,125.999996154785,0|8,0:0|0:0,0:0:0:0:
479,183,48483,2,0,P|464:119|405:70,1,125.999996154785,0|8,0:0|0:0,0:0:0:0:
258,297,48738,6,0,P|185:271|179:114,1,251.999992309571
319,87,49119,1,8,0:0:0:0:
435,231,49246,2,0,P|492:190|490:108,1,125.999996154785,0|8,0:0|0:0,0:0:0:0:
319,87,49500,2,0,P|261:127|263:209,2,125.999996154785,0|8|0,0:0|0:0|0:0,0:0:0:0:
435,231,49882,2,0,P|427:300|355:340,1,125.999996154785,8|0,0:0|0:0,0:0:0:0:
337,241,50136,1,8,0:0:0:0:
194,283,50263,6,0,P|209:219|268:170,1,125.999996154785,0|8,0:0|0:0,0:0:0:0:
256,368,50517,2,0,P|194:387|122:360,1,125.999996154785,0|8,0:0|0:0,0:0:0:0:
131,182,50771,2,0,P|194:162|266:189,1,125.999996154785,0|8,0:0|0:0,0:0:0:0:
89,274,51026,2,0,P|42:229|29:153,1,125.999996154785,0|8,0:0|0:0,0:0:0:0:
188,75,51280,2,0,P|235:117|251:177,1,125.999996154785,0|8,0:0|0:0,0:0:0:0:
27,171,51534,2,0,P|39:109|83:65,1,125.999996154785,0|8,0:0|0:0,0:0:0:0:
248,288,51788,6,0,P|321:262|327:105,1,251.999992309571
188,75,52170,1,8,0:0:0:0:
66,227,52297,2,0,P|29:180|37:90,1,125.999996154785,0|8,0:0|0:0,0:0:0:0:
188,75,52551,2,0,P|232:114|239:204,2,125.999996154785,0|8|0,0:0|0:0|0:0,0:0:0:0:
66,227,52932,2,0,P|125:267|183:267,1,125.999996154785,8|0,0:0|0:0,0:0:0:0:
245,177,53187,1,8,0:0:0:0:
188,75,53314,6,0,P|152:128|152:188,1,125.999996154785
308,272,53568,2,0,P|344:219|344:159,1,125.999996154785
313,82,53822,2,0,L|181:74,1,125.999996154785
182,264,54077,2,0,L|314:272,1,125.999996154785
388,244,54331,2,0,P|408:184|392:120,1,125.999996154785
104,108,54585,2,0,P|84:168|100:232,1,125.999996154785
144,360,54839,6,0,P|259:331|278:214,1,251.999992309571
182,264,55221,1,8,0:0:0:0:
178,150,55348,2,0,P|237:166|277:213,1,125.999996154785,0|8,0:0|0:0,0:0:0:0:
322,308,55602,2,0,P|369:360|446:367,1,125.999996154785,0|8,0:0|0:0,0:0:0:0:
504,244,55856,2,0,P|456:191|379:184,1,125.999996154785,0|8,0:0|0:0,0:0:0:0:
308,188,56110,1,0,0:0:0:0:
308,188,56238,1,0,0:0:0:0:
308,188,56365,6,0,L|288:60,1,125.999996154785
184,71,56620,2,0,L|203:195,1,125.999996154785
136,260,56874,2,0,L|116:388,1,125.999996154785
12,377,57127,2,0,L|31:252,1,125.999996154785
79,186,57382,2,0,B|139:202|139:202|207:194,1,125.999996154785
419,163,57637,2,0,B|356:156|356:156|296:172,1,125.999996154785
476,244,57890,6,0,L|492:364,2,90
360,328,58653,1,0,0:0:0:0:
360,328,58780,1,0,0:0:0:0:
360,328,58907,2,0,P|352:300|332:280,1,45
276,228,59161,2,0,L|220:220,1,45
140,212,59416,6,0,P|116:164|180:56,1,180
54,56,59924,2,0,P|32:111|32:166,1,90
49,248,60178,2,0,P|115:303|201:287,1,180,8|0,0:0|0:0,0:0:0:0:
298,155,60687,1,0,0:0:0:0:
368,92,60941,6,0,P|392:140|328:248,1,180
454,248,61449,2,0,P|476:193|476:138,1,90
459,56,61703,2,0,P|392:0|306:16,1,180,8|0,0:0|0:0,0:0:0:0:
210,149,62212,1,0,0:0:0:0:
176,17,62466,6,0,P|226:7|383:43,1,180
388,124,62848,1,0,0:0:0:0:
388,124,62975,2,0,P|319:122|281:88,1,90
176,17,63229,2,0,P|118:60|58:167,1,180,8|0,0:0|0:0,0:0:0:0:
273,308,63738,1,0,0:0:0:0:
273,308,63992,6,0,P|223:318|66:282,1,180
56,200,64374,1,0,0:0:0:0:
56,200,64501,2,0,P|125:202|163:236,1,90
273,308,64755,2,0,P|331:265|391:158,1,180,8|0,0:0|0:0,0:0:0:0:
190,73,65264,1,0,0:0:0:0:
190,73,65517,6,0,P|120:84|16:59,1,180,4|0,0:0|0:0,0:0:0:0:
297,10,66026,2,0,P|326:55|333:108,1,90
208,197,66280,6,0,P|242:268|300:192,1,180,8|0,0:0|0:0,0:0:0:0:
45,155,66788,1,0,0:0:0:0:
149,363,67043,2,0,P|251:378|359:350,1,180
256,101,67551,2,0,P|211:94|138:113,1,90
239,234,67805,6,0,P|303:280|337:209,1,180,8|0,0:0|0:0,0:0:0:0:
75,270,68314,1,0,0:0:0:0:
327,358,68568,6,0,P|403:331|456:218,1,180
416,148,68949,1,0,0:0:0:0:
416,148,69077,2,0,P|376:180|352:248,1,90
216,336,69331,2,0,P|168:296|132:176,1,180,8|0,0:0|0:0,0:0:0:0:
333,9,69839,1,0,0:0:0:0:
421,257,70093,6,0,P|341:285|226:248,1,180
211,193,70475,2,0,P|267:184|318:216,1,90
148,272,70729,1,0,0:0:0:0:
148,272,70856,6,0,P|113:228|115:167,1,90,12|0,0:0|0:0,0:0:0:0:
234,53,71110,2,0,P|269:97|267:158,1,90,12|0,0:0|0:0,0:0:0:0:
112,108,71365,1,8,0:0:0:0:
145,24,71492,1,8,0:0:0:0:
234,53,71619,6,0,B|292:28|356:48|356:48|404:72|460:56,1,215.999993408203,0|8,0:0|0:0,0:0:0:0:
388,184,72000,1,0,0:0:0:0:
388,184,72127,2,0,P|334:166|302:112,1,107.999996704102
478,157,72382,2,0,P|473:216|330:259,1,215.999993408203,8|0,0:0|0:0,0:0:0:0:
256,220,72763,1,0,0:0:0:0:
256,220,72890,1,8,0:0:0:0:
57,257,73144,6,0,P|96:302|267:340,1,215.999993408203,0|8,0:0|0:0,0:0:0:0:
328,328,73526,1,0,0:0:0:0:
328,328,73653,2,0,P|361:283|356:221,1,107.999996704102
388,112,73907,2,0,P|299:140|250:273,1,215.999993408203,8|0,0:0|0:0,0:0:0:0:
360,232,74288,1,0,0:0:0:0:
360,232,74416,1,8,0:0:0:0:
248,64,74670,6,0,P|360:28|480:52,1,215.999993408203,0|8,0:0|0:0,0:0:0:0:
360,232,75051,1,0,0:0:0:0:
360,232,75178,2,0,P|352:172|380:108,1,107.999996704102
456,208,75432,2,0,P|449:277|321:326,1,215.999993408203,8|0,0:0|0:0,0:0:0:0:
272,252,75814,1,0,0:0:0:0:
272,252,75941,1,8,0:0:0:0:
242,98,76195,6,0,P|188:154|175:286,1,215.999993408203,0|8,0:0|0:0,0:0:0:0:
258,353,76577,2,0,P|278:315|271:249,1,107.999996704102
84,328,76831,1,0,0:0:0:0:
84,328,76958,2,0,P|110:365|173:381,1,107.999996704102,8|0,0:0|0:0,0:0:0:0:
156,216,77212,6,0,P|176:172|227:130,1,107.999996704102
328,268,77466,2,0,P|308:312|257:354,1,107.999996704102,8|0,0:0|0:0,0:0:0:0:
84,328,77721,6,0,P|22:241|8:131,1,215.999993408203,0|8,0:0|0:0,0:0:0:0:
156,106,78102,1,0,0:0:0:0:
156,106,78229,2,0,P|157:166|92:226,1,107.999996704102
84,40,78483,2,0,P|172:12|252:104,1,215.999993408203,8|0,0:0|0:0,0:0:0:0:
264,188,78865,1,0,0:0:0:0:
264,188,78992,1,8,0:0:0:0:
435,328,79246,5,4,0:0:0:0:
370,241,79373,2,0,P|336:281|333:363,1,107.999996704102,8|0,0:0|0:0,0:0:0:0:
435,328,79627,1,0,0:0:0:0:
470,237,79754,2,0,P|452:187|382:143,1,107.999996704102
260,155,80009,2,0,P|264:102|401:2,1,215.999993408203,8|0,0:0|0:0,0:0:0:0:
411,152,80390,1,0,0:0:0:0:
411,152,80517,1,8,0:0:0:0:
93,31,80771,6,0,P|66:101|130:263,1,215.999993408203,4|0,0:0|0:0,0:0:0:0:
418,354,81280,2,0,P|445:284|381:122,1,215.999993408203,0|4,0:0|0:0,0:0:0:0:
414,155,82043,1,0,2:0:0:0:
191,336,82297,5,0,0:0:0:0:
111,236,82424,1,0,0:0:0:0:
229,105,82551,2,0,P|270:149|284:233,1,125.999996154785,8|0,0:0|0:0,0:0:0:0:
111,236,82805,2,0,P|70:192|56:108,1,125.999996154785,8|0,0:0|0:0,0:0:0:0:
127,26,83060,1,0,0:0:0:0:
127,26,83187,1,0,0:0:0:0:
127,26,83314,2,0,L|159:179,1,125.999996154785,8|0,0:0|0:0,0:0:0:0:
348,204,83568,2,0,L|300:0,1,207.000003948212,8|0,0:0|0:0,0:0:0:0:
