osu file format v14

[General]
AudioFilename: audio.mp3
AudioLeadIn: 0
PreviewTime: 31196
Countdown: 0
SampleSet: Normal
StackLeniency: 0.5
Mode: 0
LetterboxInBreaks: 0
WidescreenStoryboard: 0

[Editor]
Bookmarks: 18993,31959,71620
DistanceSpacing: 1.4
BeatDivisor: 4
GridSize: 4
TimelineZoom: 2

[Metadata]
Title:P.O.R.N.O.
TitleUnicode:P.O.R.N.O.
Artist:Utsu-P
ArtistUnicode:鬱P
Creator:Net0
Version:Collab Hard
Source:
Tags:Metal Japanese Gumi V3 Vocaloid ALGORITHM PORNO Tarrasky LwL Kalindraz rock Power
BeatmapID:1319155
BeatmapSetID:611553

[Difficulty]
HPDrainRate:4
CircleSize:3
OverallDifficulty:5
ApproachRate:8
SliderMultiplier:1.15
SliderTickRate:1

[Events]
//Background and Video events
0,0,"thumb-1920-418461.jpg",0,0
//Break Periods
//Storyboard Layer 0 (Background)
//Storyboard Layer 1 (Fail)
//Storyboard Layer 2 (Pass)
//Storyboard Layer 3 (Foreground)
//Storyboard Layer 4 (Overlay)
//Storyboard Sound Samples

[TimingPoints]
688,254.237288135593,6,1,1,40,1,0
688,-125,3,1,1,40,0,0
6789,-125,3,1,1,60,0,0
18993,-125,3,2,2,90,0,0
19056,-125,3,1,1,60,0,0
19755,254.237288135593,6,1,1,80,1,0
19755,-125,6,1,1,80,0,0
31958,-100,6,1,1,80,0,1
44161,-125,6,1,1,60,0,0
47212,-100,6,1,1,90,0,1
57890,-100,6,1,1,70,0,0
59415,-125,6,1,1,70,0,0
71619,-100,6,1,1,70,0,1
81534,-100,6,1,1,70,0,0
82297,-100,6,1,1,80,0,1
83822,-100,6,1,1,40,0,0

[Colours]
Combo1 : 255,0,0
Combo2 : 192,192,192
Combo3 : 128,128,128
Combo4 : 128,255,0
Combo5 : 0,128,64
Combo6 : 255,0,255
Combo7 : 128,0,128
Combo8 : 255,128,192

[HitObjects]
48,52,688,6,0,L|48:160,1,92,2|0,0:2|0:0,0:0:0:0:
48,224,1069,2,0,P|92:240|128:276,1,92,2|0,0:2|0:0,0:0:0:0:
180,328,1450,2,0,L|292:328,2,92,2|2|2,0:2|0:2|0:2,0:0:0:0:
192,172,2213,6,0,L|268:95,1,92,2|0,0:2|0:0,0:0:0:0:
313,50,2594,2,0,P|355:69|406:69,1,92,2|0,0:2|0:0,0:0:0:0:
480,72,2976,2,0,L|480:180,2,92,2|2|2,0:2|0:2|0:2,0:0:0:0:
368,180,3738,102,0,L|291:256,1,92,2|0,0:2|0:0,0:0:0:0:
247,302,4119,2,0,P|204:282|153:282,1,92,2|0,0:2|0:0,0:0:0:0:
80,280,4501,2,0,L|80:171,1,92,2|2,0:2|0:2,0:0:0:0:
172,60,5010,1,2,0:2:0:0:
356,52,5264,6,0,L|356:160,1,92,2|0,0:2|0:0,0:0:0:0:
356,224,5645,2,0,P|312:240|276:276,1,92,2|0,0:2|0:0,0:0:0:0:
224,328,6026,2,0,L|112:328,1,92,6|2,0:2|0:2,0:0:0:0:
4,236,6535,1,2,0:2:0:0:
148,172,6789,6,0,P|187:206|204:251,1,92,14|0,0:0|0:0,0:0:0:0:
256,300,7171,2,0,L|208:327,2,46,2|0|0,0:0|0:0|0:0,0:0:0:0:
309,242,7552,2,0,P|328:201|364:172,1,92,12|12,0:3|0:3,0:0:0:0:
456,296,8060,1,12,0:3:0:0:
363,172,8315,6,0,P|323:137|306:92,1,92,14|0,0:0|0:0,0:0:0:0:
256,40,8696,2,0,L|303:12,2,46,2|0|0,0:0|0:0|0:0,0:0:0:0:
201,101,9077,2,0,P|181:142|146:171,1,92,12|12,0:3|0:3,0:0:0:0:
54,47,9586,1,12,0:3:0:0:
146,171,9840,102,0,L|154:267,1,92,14|0,0:0|0:0,0:0:0:0:
203,323,10221,2,0,L|259:327,2,46,2|0|0,0:0|0:0|0:0,0:0:0:0:
125,339,10603,1,12,0:3:0:0:
239,232,10857,1,12,0:3:0:0:
125,339,11111,1,12,0:3:0:0:
239,232,11365,6,0,L|335:224,1,92,14|0,0:0|0:0,0:0:0:0:
389,172,11747,2,0,L|442:178,2,46,2|0|0,0:0|0:0|0:0,0:0:0:0:
329,121,12128,1,12,0:0:0:0:
183,62,12382,2,0,L|138:62,1,46,12|0,0:3|0:0,0:0:0:0:
86,122,12637,2,0,L|77:179,1,46,12|0,0:3|0:0,0:0:0:0:
148,212,12891,102,0,P|187:178|204:133,1,92,14|0,0:0|0:0,0:0:0:0:
256,80,13273,2,0,L|256:25,2,46,2|0|0,0:0|0:0|0:0,0:0:0:0:
308,140,13654,2,0,P|327:182|363:211,1,92,12|12,0:3|0:3,0:0:0:0:
456,88,14162,1,12,0:3:0:0:
363,212,14417,6,0,P|323:247|306:292,1,92,14|0,0:0|0:0,0:0:0:0:
256,340,14798,2,0,L|256:395,2,46,2|0|0,0:0|0:0|0:0,0:0:0:0:
201,283,15179,2,0,P|181:242|146:213,1,92,12|12,0:3|0:3,0:0:0:0:
54,337,15688,1,12,0:3:0:0:
146,213,15942,102,0,L|154:117,1,92,14|0,0:0|0:0,0:0:0:0:
203,61,16323,2,0,L|259:56,2,46,2|0|0,0:0|0:0|0:0,0:0:0:0:
125,45,16705,1,12,0:3:0:0:
239,152,16959,1,12,0:3:0:0:
125,45,17213,1,12,0:3:0:0:
239,152,17467,6,0,L|335:160,1,92,14|0,0:0|0:0,0:0:0:0:
389,212,17849,2,0,L|393:275,2,46,2|0|0,0:0|0:0|0:0,0:0:0:0:
408,135,18230,1,12,0:0:0:0:
306,257,18484,2,0,L|248:262,1,46,14|0,0:3|0:0,0:0:0:0:
196,307,18739,2,0,L|138:302,1,46,14|0,0:3|0:0,0:0:0:0:
88,256,18993,101,6,0:0:0:0:
88,256,19755,85,14,0:0:0:0:
180,384,20010,2,0,L|192:320,1,46,0|2,0:0|0:0,0:0:0:0:
152,188,20391,1,0,0:0:0:0:
152,188,20518,2,0,P|100:164|56:168,2,92,12|12|12,0:3|0:3|0:3,0:0:0:0:
292,116,21281,5,14,0:0:0:0:
424,32,21535,2,0,L|416:88,1,46,0|2,0:0|0:0,0:0:0:0:
344,216,21916,1,0,0:0:0:0:
344,216,22043,2,0,P|300:224|248:216,2,92,12|12|12,0:3|0:3|0:3,0:0:0:0:
480,292,22806,6,0,B|417:321|417:321|293:315,1,184,12|0,0:0|0:0,0:0:0:0:
166,240,23569,2,0,B|228:212|228:212|352:218,1,184,8|0,0:0|0:0,0:0:0:0:
220,312,24332,2,0,B|157:341|157:341|33:335,1,184,12|0,0:0|0:0,0:0:0:0:
28,180,25094,2,0,B|24:132|24:132|44:80,2,92,12|8|4,0:3|0:0|0:3,0:0:0:0:
180,148,25857,85,14,0:0:0:0:
308,56,26111,2,0,L|300:104,1,46,0|2,0:0|0:0,0:0:0:0:
232,240,26493,1,0,0:0:0:0:
232,240,26620,2,0,P|184:252|136:248,2,92,12|12|12,0:3|0:3|0:3,0:0:0:0:
388,260,27382,5,14,0:0:0:0:
272,368,27637,2,0,L|288:312,1,46,0|0,0:0|0:0,0:0:0:0:
340,180,28018,1,0,0:0:0:0:
340,180,28145,2,0,P|380:172|448:184,2,92,12|12|12,0:3|0:3|0:3,0:0:0:0:
208,264,28908,6,0,P|136:300|40:256,1,184,12|0,0:0|0:0,0:0:0:0:
48,108,29671,2,0,P|120:72|216:116,1,184,8|0,0:0|0:0,0:0:0:0:
320,220,30433,5,12,0:0:0:0:
456,148,30687,1,0,0:0:0:0:
456,148,30815,1,0,0:0:0:0:
448,304,31069,1,0,0:0:0:0:
448,304,31196,101,8,0:0:0:0:
320,220,31450,1,2,0:0:0:0:
251,79,31704,1,2,0:0:0:0:
56,55,31959,22,0,L|86:190,1,115,6|8,0:0|0:0,0:0:0:0:
57,244,32340,2,0,P|113:236|168:252,1,115
220,316,32721,1,10,0:0:0:0:
202,165,32975,1,2,0:0:0:0:
355,215,33230,1,8,0:0:0:0:
384,56,33484,6,0,L|249:86,1,115,2|8,0:0|0:0,0:0:0:0:
197,53,33865,2,0,P|211:111|191:185,1,115,0|10,0:0|0:3,0:0:0:0:
120,161,34247,1,8,0:0:0:0:
274,202,34500,1,2,0:0:0:0:
224,355,34755,1,8,0:0:0:0:
383,328,35009,6,0,L|413:193,1,115,2|8,0:0|0:0,0:0:0:0:
426,136,35391,2,0,B|366:118|366:118|304:118,1,115,2|0,0:0|0:0,0:0:0:0:
234,102,35772,1,10,0:0:0:0:
122,217,36026,2,0,P|97:162|97:99,1,115,2|10,0:0|0:0,0:0:0:0:
162,61,36408,1,8,1:0:0:0:
234,102,36535,6,0,P|258:156|258:219,1,115,2|8,0:0|0:0,0:0:0:0:
195,258,36916,2,0,P|248:290|301:280,1,115,2|8,0:0|0:3,0:0:0:0:
341,213,37297,1,8,0:0:0:0:
481,134,37551,1,2,0:0:0:0:
460,292,37806,1,10,0:0:0:0:
313,384,38060,70,0,L|178:354,1,115,6|8,0:0|0:0,0:0:0:0:
121,377,38441,2,0,P|119:320|95:268,1,115,2|10,0:0|0:3,0:0:0:0:
47,204,38822,1,8,0:0:0:0:
203,238,39077,1,2,0:0:0:0:
153,85,39331,1,8,0:0:0:0:
312,56,39585,6,0,L|282:191,1,115,2|8,0:0|0:0,0:0:0:0:
308,246,39966,1,0,0:0:0:0:
259,309,40094,2,0,P|199:302|128:331,1,115,0|10,0:0|0:0,0:0:0:0:
166,166,40601,1,0,0:0:0:0:
89,191,40730,2,0,L|25:210,1,57.5,8|0,0:0|0:0,0:0:0:0:
40,57,41110,6,0,L|108:41,1,57.5,6|0,0:0|0:0,0:0:0:0:
176,31,41365,2,0,B|185:60|185:60|185:92,1,57.5,8|0,0:0|0:0,0:0:0:0:
166,166,41620,2,0,L|234:181,1,57.5,8|0,0:0|0:0,0:0:0:0:
302,182,41874,2,0,L|370:166,1,57.5,8|0,0:0|0:0,0:0:0:0:
437,180,42128,1,8,0:0:0:0:
353,317,42382,1,10,0:0:0:0:
191,341,42636,6,0,L|143:289,1,57.5,6|0,0:0|0:0,0:0:0:0:
100,236,42891,2,0,B|121:213|121:213|148:197,1,57.5,8|0,0:0|0:0,0:0:0:0:
222,178,43144,2,0,L|201:111,1,57.5,8|0,0:0|0:0,0:0:0:0:
168,52,43400,2,0,L|120:0,1,57.5,8|0,0:0|0:0,0:0:0:0:
49,9,43653,1,10,0:0:0:0:
48,169,43908,1,10,0:0:0:0:
47,329,44162,38,0,L|244:329,1,184
332,248,44925,2,0,L|135:248,1,184
245,163,45687,6,0,P|233:115|237:67,2,92,8|8|8,0:0|0:0|0:0,0:0:0:0:
360,105,46450,1,14,0:0:0:0:
360,105,47213,6,0,P|352:161|356:219,1,115,14|8,0:0|0:0,0:0:0:0:
486,313,47721,1,2,0:0:0:0:
409,339,47848,1,0,0:0:0:0:
329,351,47975,2,0,P|273:339|221:317,1,115,0|2,0:0|0:0,0:0:0:0:
313,185,48484,1,2,0:0:0:0:
152,174,48738,6,0,B|135:234|135:234|136:349,1,172.5,14|0,0:0|0:0,0:0:0:0:
221,317,49247,2,0,L|220:242,1,57.5,2|0,0:0|0:0,0:0:0:0:
234,180,49501,2,0,P|216:123|167:93,1,115,10|8,0:0|0:0,0:0:0:0:
31,172,50009,1,0,0:0:0:0:
148,288,50264,6,0,P|156:217|151:170,1,115,14|10,0:0|0:0,0:0:0:0:
60,41,50772,1,2,0:0:0:0:
140,54,50899,1,0,0:0:0:0:
220,69,51026,2,0,P|276:77|330:98,1,115,0|8,0:0|0:0,0:0:0:0:
239,231,51535,1,2,0:0:0:0:
400,242,51789,6,0,B|417:182|417:182|416:67,1,172.5,14|0,0:0|0:0,0:0:0:0:
331,99,52298,2,0,L|332:174,1,57.5,10|0,0:0|0:0,0:0:0:0:
318,236,52552,2,0,P|336:293|385:323,2,115,14|0|8,0:0|0:0|0:0,0:0:0:0:
201,107,53314,70,0,P|152:134|119:181,1,115,14|10,0:0|0:0,0:0:0:0:
58,331,53823,1,2,0:0:0:0:
131,297,53950,1,0,0:0:0:0:
201,257,54077,2,0,P|253:280|286:327,1,115,0|2,0:0|0:0,0:0:0:0:
425,224,54586,1,2,0:0:0:0:
298,107,54840,2,0,P|202:106|130:157,1,172.5,14|0,0:0|0:0,0:0:0:0:
75,87,55348,2,0,L|108:39,1,57.5,2|0,0:0|0:0,0:0:0:0:
190,22,55603,2,0,L|240:205,1,172.5,10|0,0:0|0:0,0:0:0:0:
193,263,56111,1,2,0:0:0:0:
365,263,56365,6,0,L|482:263,2,115,14|10|2,0:0|0:0|0:0,0:0:0:0:
215,349,57128,2,0,L|98:349,2,115,10|10|10,0:0|0:0|0:0,0:0:0:0:
232,176,57891,5,14,0:0:0:0:
380,264,58145,1,12,0:3:0:0:
230,350,58399,1,8,0:0:0:0:
318,202,58653,2,0,P|369:177|426:187,1,115,8|2,0:0|0:0,0:0:0:0:
427,336,59162,1,10,0:0:0:0:
289,333,59416,54,0,P|229:323|146:348,1,138,6|0,0:0|0:0,0:0:0:0:
76,346,59925,1,2,0:0:0:0:
176,226,60179,1,10,0:0:0:0:
23,191,60433,2,0,L|23:144,1,46,8|0,0:3|0:0,0:0:0:0:
18,66,60687,1,2,0:0:0:0:
166,115,60942,2,0,P|226:105|309:130,1,138,2|0,0:0|0:0,0:0:0:0:
379,127,61449,1,2,0:0:0:0:
279,12,61705,1,10,0:0:0:0:
434,20,61958,2,0,L|434:73,1,46,8|0,0:3|0:0,0:0:0:0:
489,127,62213,1,2,0:0:0:0:
485,255,62466,6,0,P|442:292|358:314,1,138,2|0,0:0|0:0,0:0:0:0:
301,324,62975,2,0,L|301:262,1,46,2|0,0:0|0:0,0:0:0:0:
237,265,63229,2,0,P|170:281|116:323,1,138,2|0,0:0|0:0,0:0:0:0:
55,302,63738,2,0,L|56:238,1,46,2|0,0:0|0:0,0:0:0:0:
105,214,63992,2,0,P|159:195|220:133,1,138,2|0,0:0|0:0,0:0:0:0:
345,133,64628,2,0,P|364:146|381:162,1,46,0|8,0:0|0:0,0:0:0:0:
499,112,65009,1,2,0:0:0:0:
400,29,65264,1,10,0:0:0:0:
272,38,65518,102,0,P|212:48|129:23,1,138,6|0,0:0|0:0,0:0:0:0:
59,26,66027,1,2,0:0:0:0:
159,146,66281,1,8,0:0:0:0:
6,181,66535,2,0,L|6:228,1,46,8|0,0:3|0:0,0:0:0:0:
1,306,66789,1,2,0:0:0:0:
149,257,67044,2,0,P|209:267|292:242,1,138,2|0,0:0|0:0,0:0:0:0:
362,245,67551,1,2,0:0:0:0:
262,360,67805,1,10,0:0:0:0:
417,352,68060,2,0,L|417:299,1,46,8|0,0:3|0:0,0:0:0:0:
472,245,68315,1,2,0:0:0:0:
441,91,68568,6,0,P|398:54|314:32,1,138,2|0,0:0|0:0,0:0:0:0:
256,31,69077,2,0,P|250:53|241:74,1,46,2|0,0:0|0:0,0:0:0:0:
228,137,69331,2,0,P|172:148|88:125,1,138,0|8,0:0|0:3,0:0:0:0:
35,156,69840,2,0,P|29:178|20:199,1,46,2|0,0:0|0:0,0:0:0:0:
12,262,70093,2,0,P|68:251|152:274,1,138,0|8,0:0|0:3,0:0:0:0:
192,315,70603,1,0,0:0:0:0:
274,216,70857,2,0,L|228:137,2,92,8|10|10,0:0|0:0|0:0,0:0:0:0:
360,348,71620,6,0,P|408:308|416:240,1,115,6|8,0:0|0:0,0:0:0:0:
396,164,72001,1,0,0:0:0:0:
396,164,72128,2,0,L|372:92,1,57.5,2|0,0:0|0:0,0:0:0:0:
348,16,72382,2,0,B|408:8|408:8|472:24,2,115,10|0|10,0:0|0:0|0:0,0:0:0:0:
192,136,73145,6,0,P|140:144|68:132,1,115,2|8,0:0|0:0,0:0:0:0:
40,48,73526,1,2,0:0:0:0:
40,48,73653,2,0,L|104:40,1,57.5,0|0,0:0|0:0,0:0:0:0:
196,36,73908,2,0,P|260:60|292:112,1,115,10|0,0:0|0:0,0:0:0:0:
340,284,74416,1,10,0:0:0:0:
398,99,74670,6,0,P|330:87|278:99,1,115,2|8,0:0|0:0,0:0:0:0:
204,152,75052,1,0,0:0:0:0:
204,152,75179,2,0,L|192:208,1,57.5,2|0,0:0|0:0,0:0:0:0:
136,288,75433,2,0,L|12:308,2,115,10|0|10,0:0|0:0|0:0,0:0:0:0:
324,340,76196,6,0,L|392:332,1,57.5,2|0,0:0|0:0,0:0:0:0:
448,264,76450,1,8,0:0:0:0:
448,264,76577,2,0,B|452:196|452:196|440:144,1,115,0|0,0:0|0:0,0:0:0:0:
372,84,76958,2,0,L|304:80,1,57.5,8|0,0:0|0:0,0:0:0:0:
216,72,77213,2,0,L|80:64,1,115,2|10,0:0|0:0,0:0:0:0:
28,244,77721,70,0,P|70:279|128:286,1,115,6|8,0:0|0:0,0:0:0:0:
219,252,78103,1,0,0:0:0:0:
219,252,78230,2,0,P|263:251|283:252,1,57.5,2|0,0:0|0:0,0:0:0:0:
364,292,78484,2,0,P|372:232|344:176,2,115,10|0|10,0:0|0:0|0:0,0:0:0:0:
252,128,79247,5,6,0:0:0:0:
252,128,79374,2,0,L|248:56,2,57.5,8|0|0,0:0|0:0|0:0,0:0:0:0:
344,92,79755,2,0,P|384:92|416:112,1,57.5,2|0,0:0|0:0,0:0:0:0:
464,172,80009,2,0,L|496:288,2,115,10|0|10,0:0|0:0|0:0,0:0:0:0:
508,19,80772,5,6,0:0:0:0:
349,47,81026,1,0,0:0:0:0:
310,203,81281,1,2,0:0:0:0:
161,263,81535,1,8,0:0:0:0:
508,19,82297,6,0,P|477:45|460:55,2,57.5,4|0|8,0:0|0:0|0:0,0:0:0:0:
445,194,82806,1,14,0:0:0:0:
353,96,83060,2,0,P|322:122|305:132,2,57.5,4|0|8,0:0|0:0|0:0,0:0:0:0:
290,271,83569,1,14,0:0:0:0:
