osu file format v14

[General]
AudioFilename: audio.mp3
AudioLeadIn: 0
PreviewTime: 159835
Countdown: 0
SampleSet: Soft
StackLeniency: 0.3
Mode: 0
LetterboxInBreaks: 0
WidescreenStoryboard: 1

[Editor]
Bookmarks: 156034
DistanceSpacing: 1.1
BeatDivisor: 4
GridSize: 32
TimelineZoom: 3.699999

[Metadata]
Title:Imperfect Animals
TitleUnicode:インパーフェクトアニマルズ
Artist:Utsu-P
ArtistUnicode:鬱P
Creator:kuyusu
Version:Yoko's Extra
Source:
Tags:Yoko Japanese Vocaloid rock metal utsup Inpaafekuto Animaruzu GREATEST SHITS ALGORITHM Kagamine Rin 鏡音リン GUMI MY SONG IS SHIT
BeatmapID:2945758
BeatmapSetID:1377324

[Difficulty]
HPDrainRate:5.5
CircleSize:4
OverallDifficulty:8.7
ApproachRate:9.4
SliderMultiplier:2.4
SliderTickRate:1

[Events]
//Background and Video events
0,0,"32132.jpg",0,0
//Break Periods
2,108740,113847
//Storyboard Layer 0 (Background)
//Storyboard Layer 1 (Fail)
//Storyboard Layer 2 (Pass)
//Storyboard Layer 3 (Foreground)
//Storyboard Layer 4 (Overlay)
//Storyboard Sound Samples

[TimingPoints]
1446,352.941176470588,4,2,2,40,1,0
1446,-166.666666666667,4,2,2,40,0,0
3740,-333.333333333334,4,2,2,40,0,0
4269,-166.666666666667,4,2,2,40,0,0
6740,-333.333333333333,4,2,1,40,0,0
7093,-100,4,2,1,60,0,0
11328,-83.3333333333333,4,2,1,60,0,0
11857,-133.333333333333,4,2,1,60,0,0
12740,-90.9090909090909,4,2,1,60,0,0
13269,-100,4,2,1,60,0,0
13622,-90.9090909090909,4,2,1,60,0,0
16975,-71.4285714285714,4,2,1,60,0,0
17504,-83.3333333333333,4,2,1,60,0,0
18034,-1000,4,2,1,60,0,0
18387,-66.6666666666667,4,2,1,65,0,0
18651,-83.3333333333333,4,2,1,65,0,0
22622,-62.5,4,2,1,65,0,0
23151,-1000,4,2,1,65,0,0
23504,-1000,4,2,1,65,0,0
24034,-83.3333333333333,4,2,1,65,0,0
28269,-58.8235294117647,4,2,1,65,0,0
28445,-200,4,2,1,65,0,0
28798,-58.8235294117647,4,2,1,65,0,0
28974,-200,4,2,1,65,0,0
29328,-66.6666666666667,4,2,1,65,0,0
29681,-100,4,2,1,45,0,0
30387,-142.857142857143,4,2,1,45,0,0
35328,-90.9090909090909,4,2,1,50,0,0
35681,-1000,4,2,1,50,0,0
36034,-90.9090909090909,4,2,1,50,0,0
36387,-1000,4,2,1,50,0,0
36740,-90.9090909090909,4,2,1,50,0,0
37093,-1000,4,2,1,50,0,0
37445,-90.9090909090909,4,2,1,50,0,0
37798,-1000,4,2,1,50,0,0
38151,-133.333333333333,4,2,1,50,0,0
38504,-100,4,2,1,50,0,0
38857,-133.333333333333,4,2,1,50,0,0
39210,-66.6666666666667,4,2,1,50,0,0
40269,-200,4,2,1,50,0,0
40975,-66.6666666666667,4,2,1,55,0,0
41857,-100,4,2,1,55,0,0
42563,-66.6666666666667,4,2,1,55,0,0
46269,-500,4,2,1,55,0,0
46622,-200,4,2,1,50,0,0
52269,-142.857142857143,4,2,1,45,0,0
57916,-142.857142857143,4,2,1,50,0,0
60740,-83.3333333333333,4,2,1,50,0,0
61004,-166.666666666667,4,2,1,50,0,0
61269,-66.6666666666667,4,2,1,50,0,0
61710,-133.333333333333,4,2,1,50,0,0
61975,-55.5555555555556,4,2,1,50,0,0
62416,-111.111111111111,4,2,1,50,0,0
62857,-100,4,2,1,50,0,0
63740,-55.5555555555556,4,2,1,50,0,0
64004,-66.6666666666667,4,2,1,50,0,0
64269,-83.3333333333333,4,2,1,50,0,0
64534,-111.111111111111,4,2,1,50,0,0
64798,-83.3333333333333,4,2,1,50,0,0
64975,-1000,4,2,1,50,0,0
65857,-100,4,2,1,50,0,0
66387,-58.8235294117647,4,2,1,70,0,1
66651,-71.4285714285714,4,2,1,70,0,1
72034,-71.4285714285714,4,2,1,70,0,1
72298,-83.3333333333333,4,2,1,70,0,1
72563,-133.333333333333,4,2,1,70,0,1
72740,-62.5,4,2,1,70,0,1
73269,-111.111111111111,4,2,1,70,0,1
73445,-55.5555555555556,4,2,1,70,0,1
73975,-71.4285714285714,4,2,1,70,0,1
74151,-71.4285714285714,4,2,1,70,0,1
76269,-62.5,4,2,1,70,0,0
76622,-66.6666666666667,4,2,1,70,0,0
77681,-55.5555555555556,4,2,1,70,0,1
77945,-71.4285714285714,4,2,1,70,0,1
83328,-71.4285714285714,4,2,1,70,0,1
84034,-62.5,4,2,1,70,0,1
84739,-55.5555555555556,4,2,1,70,0,1
85445,-71.4285714285714,4,2,1,70,0,1
86151,-55.5555555555556,4,2,1,70,0,1
86416,-71.4285714285714,4,2,1,70,0,1
87563,-58.8235294117647,4,2,1,70,0,1
87828,-71.4285714285714,4,2,1,70,0,1
88975,-58.8235294117647,4,2,1,70,0,1
89240,-71.4285714285714,4,2,1,70,0,1
90387,-66.6666666666667,4,2,1,70,0,0
91357,-100,4,2,1,70,0,0
91798,-90.9090909090909,4,2,1,60,0,0
96034,-83.3333333333333,4,2,1,60,0,0
96563,-133.333333333333,4,2,1,60,0,0
97445,-90.9090909090909,4,2,1,60,0,0
101681,-71.4285714285714,4,2,1,60,0,0
102740,-100,4,2,1,60,0,0
108387,-100,4,2,1,30,0,0
114387,-333.333333333333,4,2,1,35,0,0
117210,-166.666666666667,4,2,1,35,0,0
120034,-66.6666666666667,4,2,1,55,0,0
125151,-200,4,2,1,55,0,0
125681,-66.6666666666667,4,2,1,55,0,0
126916,-200,4,2,1,55,0,0
127093,-66.6666666666667,4,2,1,55,0,0
128328,-200,4,2,1,55,0,0
128504,-66.6666666666667,4,2,1,55,0,0
129916,-45.4545454545455,4,2,1,55,0,0
130181,-62.5,4,2,1,55,0,0
131328,-45.4545454545455,4,2,1,40,0,0
136975,-45.4545454545455,4,2,1,45,0,0
142622,-125,4,2,1,50,0,0
142975,-142.857142857143,4,2,1,50,0,0
148269,-125,4,2,1,50,0,0
148622,-125,4,2,1,50,0,0
151093,-83.3333333333333,4,2,1,50,0,0
151357,-166.666666666667,4,2,1,50,0,0
151622,-66.6666666666667,4,2,1,50,0,0
152063,-133.333333333333,4,2,1,50,0,0
152328,-55.5555555555556,4,2,1,50,0,0
152769,-111.111111111111,4,2,1,50,0,0
153210,-100,4,2,1,50,0,0
154093,-55.5555555555556,4,2,1,50,0,0
154357,-66.6666666666667,4,2,1,50,0,0
154622,-83.3333333333333,4,2,1,50,0,0
154887,-111.111111111111,4,2,1,50,0,0
155151,-83.3333333333333,4,2,1,50,0,0
155328,-1000,4,2,1,45,0,0
158151,-100,4,2,1,35,0,0
158504,-100,4,2,1,40,0,0
158857,-100,4,2,1,45,0,0
159210,-100,4,2,1,50,0,0
159563,-100,4,2,1,55,0,0
160975,-58.8235294117647,4,2,1,70,0,1
161239,-71.4285714285714,4,2,1,70,0,1
166622,-71.4285714285714,4,2,1,70,0,1
167151,-133.333333333333,4,2,1,70,0,1
167328,-58.8235294117647,4,2,1,70,0,1
167857,-100,4,2,1,70,0,1
168033,-55.5555555555556,4,2,1,70,0,1
168563,-66.6666666666667,4,2,1,70,0,1
168740,-71.4285714285714,4,2,1,70,0,1
170857,-62.5,4,2,1,70,0,0
171210,-66.6666666666667,4,2,1,70,0,0
172269,-58.8235294117647,4,2,1,70,0,1
172534,-71.4285714285714,4,2,1,70,0,1
177916,-71.4285714285714,4,2,1,70,0,1
178622,-62.5,4,2,1,70,0,1
179327,-55.5555555555556,4,2,1,70,0,1
180033,-71.4285714285714,4,2,1,70,0,1
180740,-58.8235294117647,4,2,1,70,0,1
181004,-71.4285714285714,4,2,1,70,0,1
182151,-58.8235294117647,4,2,1,70,0,1
182415,-71.4285714285714,4,2,1,70,0,1
183563,-58.8235294117647,4,2,1,70,0,1
183827,-71.4285714285714,4,2,1,70,0,1
184887,-66.6666666666667,4,2,1,70,0,0
184975,-66.6666666666667,4,2,1,70,0,1
185240,-66.6666666666667,4,2,1,70,0,0
185328,-66.6666666666667,4,2,1,70,0,1
185593,-33.3333333333333,4,2,1,70,0,0
185681,-66.6666666666667,4,2,1,70,0,1
185945,-33.3333333333333,4,2,1,70,0,0
186034,-66.6666666666667,4,2,1,70,0,1
186387,-58.8235294117647,4,2,1,70,0,1
186651,-71.4285714285714,4,2,1,70,0,1
187798,-58.8235294117647,4,2,1,70,0,1
188062,-71.4285714285714,4,2,1,70,0,1
189210,-58.8235294117647,4,2,1,70,0,1
189474,-71.4285714285714,4,2,1,70,0,1
190622,-66.6666666666667,4,2,1,70,0,0
192034,-52.6315789473684,4,2,1,75,0,0
192298,-62.5,4,2,1,75,0,0
197681,-62.5,4,2,1,75,0,0
198387,-55.5555555555556,4,2,1,75,0,0
199093,-47.6190476190476,4,2,1,75,0,0
199798,-58.8235294117647,4,2,1,75,0,0
200063,-62.5,4,2,1,75,0,0
202975,-166.666666666667,4,2,1,75,0,0
203328,-166.666666666667,4,2,1,75,0,1
206151,-71.4285714285714,4,2,1,75,0,1
207563,-62.5,4,2,1,75,0,1
208975,-47.6190476190476,4,2,1,75,0,0
209240,-58.8235294117647,4,2,1,75,0,0
209681,-55.5555555555556,4,2,1,75,0,0
209945,-66.6666666666667,4,2,1,75,0,0
210387,-71.4285714285714,4,2,1,75,0,0
210651,-76.9230769230769,4,2,1,75,0,0
211093,-58.8235294117647,4,2,1,75,0,0
211357,-55.5555555555556,4,2,1,75,0,0
211798,-58.8235294117647,4,2,1,75,0,0
212062,-62.5,4,2,1,75,0,0
213210,-58.8235294117647,4,2,1,75,0,0
213474,-62.5,4,2,1,75,0,0
214622,-58.8235294117647,4,2,1,75,0,0
214886,-62.5,4,2,1,75,0,0
217445,-76.9230769230769,4,2,1,75,0,0

[Colours]
Combo1 : 62,98,153
Combo2 : 158,31,37
Combo3 : 65,169,177
Combo4 : 67,152,63

[HitObjects]
89,32,1446,6,0,P|23:52|49:115,1,143.999995605469,2|8,1:2|0:0,0:0:0:0:
121,173,1975,2,0,B|166:175|186:142|156:128|191:95|250:109,1,143.999995605469,2|2,1:2|1:2,0:0:0:0:
337,75,2504,1,10,0:0:0:0:
307,171,2681,1,2,1:2:0:0:
426,255,2857,6,0,P|365:318|334:380,1,143.999995605469,2|8,1:2|0:0,0:0:0:0:
253,313,3387,2,0,P|218:284|271:236,1,107.999996704102,2|0,1:2|0:0,0:0:0:0:
242,235,3740,2,0,L|287:246,2,35.9999989013672,2|10|2,1:2|0:0|1:2,0:0:0:0:
280,111,4269,6,0,P|351:114|356:185,1,143.999995605469,2|8,1:2|0:0,0:0:0:0:
278,241,4798,2,0,P|211:192|140:160,1,143.999995605469,2|2,1:2|1:2,0:0:0:0:
43,177,5328,1,10,0:0:0:0:
97,255,5504,1,2,1:2:0:0:
221,180,5681,2,0,B|254:96|163:136|184:44,1,143.999995605469,2|8,1:2|0:0,0:0:0:0:
274,1,6210,2,0,P|318:14|304:85,1,107.999996704102,2|0,1:2|0:0,0:0:0:0:
322,69,6563,1,2,1:2:0:0:
146,125,6740,6,0,B|130:122|116:126|116:126|128:121|145:109,1,53.9999983520508,10|0,0:0|0:0,0:0:0:0:
246,86,7093,6,0,P|226:168|222:231,1,120,14|8,0:0|0:3,0:0:0:0:
325,290,7357,2,0,P|353:233|294:205,1,120,6|0,0:3|1:0,0:0:0:0:
151,284,7622,2,0,P|263:318|314:379,1,180,10|8,0:0|0:3,0:0:0:0:
304,361,7975,5,6,0:3:0:0:
420,292,8151,2,0,P|437:259|411:209,1,60,10|0,0:0|0:0,0:0:0:0:
353,215,8328,2,0,P|335:255|361:298,1,60,2|0,1:2|0:0,0:0:0:0:
509,191,8504,2,0,P|415:166|320:98,2,180,10|6|10,0:0|0:3|0:0,0:0:0:0:
253,92,9298,5,8,0:3:0:0:
253,92,9387,1,6,0:3:0:0:
200,255,9563,2,0,P|183:227|186:195,1,60,10|0,0:0|0:0,0:0:0:0:
272,181,9740,2,0,P|288:207|285:239,1,60,2|0,1:2|0:0,0:0:0:0:
243,358,9916,6,0,P|227:306|153:313,1,120,10|0,0:0|1:0,0:0:0:0:
86,273,10181,1,2,1:2:0:0:
92,244,10269,1,0,1:0:0:0:
100,217,10357,1,0,1:0:0:0:
61,192,10445,2,0,L|95:382,1,180,10|8,0:0|0:3,0:0:0:0:
182,356,10798,6,0,P|193:318|256:302,1,60,6|0,0:3|0:0,0:0:0:0:
246,226,10975,2,0,P|284:226|316:283,1,60,10|0,0:0|0:0,0:0:0:0:
392,229,11151,2,0,P|401:267|354:311,1,60,2|0,1:2|0:0,0:0:0:0:
288,382,11328,6,0,P|297:291|322:220,1,143.999995605469,14|8,0:0|0:3,0:0:0:0:
192,96,11593,2,0,P|128:97|130:198,1,143.999995605469,14|0,0:0|1:0,0:0:0:0:
168,241,11857,2,0,B|226:243|254:200|213:182|259:139|336:162,1,180.000006866455,14|2,0:0|3:2,0:0:0:0:
450,103,12387,5,8,0:0:0:0:
441,151,12475,1,8,0:0:0:0:
433,198,12563,1,8,0:0:0:0:
424,246,12651,1,8,0:0:0:0:
435,265,12740,6,0,P|363:274|300:328,1,132.00000402832,14|8,0:0|0:3,0:0:0:0:
226,336,13004,2,0,B|207:303|207:303|229:257,1,66.0000020141602,6|0,0:3|0:0,0:0:0:0:
299,192,13181,1,0,1:0:0:0:
299,192,13269,2,0,L|337:409,1,180,10|8,0:0|0:3,0:0:0:0:
330,369,13622,6,0,P|375:361|394:312,1,66.0000020141602,6|0,0:3|0:0,0:0:0:0:
270,238,13798,2,0,P|247:277|272:323,1,66.0000020141602,10|0,0:0|0:0,0:0:0:0:
409,254,13975,2,0,P|385:213|332:213,1,66.0000020141602,2|0,1:2|0:0,0:0:0:0:
215,137,14151,2,0,P|312:131|318:35,2,198.000006042481,10|6|10,0:0|0:3|0:0,0:0:0:0:
50,41,14945,5,8,0:3:0:0:
49,40,15034,2,0,B|14:50|14:50|2:83,1,66.0000020141602,6|0,0:3|0:0,0:0:0:0:
154,93,15210,2,0,B|161:58|161:58|140:31,1,66.0000020141602,10|0,0:0|0:0,0:0:0:0:
52,157,15387,2,0,B|77:181|77:181|112:176,1,66.0000020141602,2|0,1:2|0:0,0:0:0:0:
234,129,15563,6,0,P|208:189|184:275,1,132.00000402832,10|0,0:0|1:0,0:0:0:0:
241,331,15828,1,2,1:2:0:0:
269,325,15916,1,0,1:0:0:0:
295,321,16004,1,0,1:0:0:0:
324,340,16093,2,0,P|327:236|208:257,1,198.000006042481,10|8,0:0|0:3,0:0:0:0:
251,217,16445,6,0,P|240:178|284:131,1,66.0000020141602,6|0,0:3|0:0,0:0:0:0:
373,19,16622,2,0,P|399:41|409:77,1,66.0000020141602,10|0,0:0|0:0,0:0:0:0:
230,67,16798,2,0,P|256:47|292:45,1,66.0000020141602,2|0,1:2|0:0,0:0:0:0:
215,196,16975,6,0,B|155:197|125:153|169:133|119:87|38:111,1,167.999994873047,14|8,0:0|0:3,0:0:0:0:
313,126,17240,2,0,P|406:190|355:242,1,167.999994873047,14|0,0:0|1:0,0:0:0:0:
237,351,17504,2,0,L|297:0,1,287.999991210938,14|2,0:0|3:2,0:0:0:0:
285,67,18034,2,0,L|287:85,1,18,0|0,1:0|0:0,0:0:0:0:
365,100,18387,6,2,B|307:99|307:99|278:143|278:143|241:134|241:134|164:166,1,180.000006866455,6|8,1:0|0:0,0:1:0:0:
212,145,18651,1,2,1:2:0:0:
214,170,18740,1,0,1:0:0:0:
228,186,18828,1,0,1:0:0:0:
256,150,18916,5,10,0:0:0:0:
238,109,19004,1,0,1:0:0:0:
196,91,19093,1,0,1:0:0:0:
153,107,19181,1,0,1:0:0:0:
138,148,19269,6,0,L|158:248,1,71.9999978027344,10|0,0:0|1:0,0:0:0:0:
83,294,19445,2,0,P|51:263|61:221,1,71.9999978027344,2|0,1:2|1:0,0:0:0:0:
229,138,19622,2,0,P|259:167|248:209,1,71.9999978027344,10|0,0:0|1:0,0:0:0:0:
233,298,19798,5,2,1:2:0:0:
215,281,19887,1,0,1:0:0:0:
185,276,19975,1,8,0:0:0:0:
157,283,20063,5,2,1:2:0:0:
180,320,20151,1,0,1:0:0:0:
224,331,20240,1,0,1:0:0:0:
260,307,20328,5,10,0:0:0:0:
297,264,20416,1,0,1:0:0:0:
353,259,20504,1,0,1:0:0:0:
400,299,20593,1,0,1:0:0:0:
396,356,20681,6,0,P|335:337|332:305,1,71.9999978027344,10|0,0:0|1:0,0:0:0:0:
240,181,20857,2,0,P|286:136|315:150,1,71.9999978027344,2|0,1:2|1:0,0:0:0:0:
358,240,21034,2,0,L|234:262,1,71.9999978027344,10|0,0:0|1:0,0:0:0:0:
217,324,21210,5,2,1:2:0:0:
193,318,21298,1,0,1:0:0:0:
167,311,21387,1,8,0:0:0:0:
138,328,21475,5,2,1:2:0:0:
98,299,21563,1,0,1:0:0:0:
99,252,21651,1,0,1:0:0:0:
142,218,21740,5,10,0:0:0:0:
186,188,21828,1,0,1:0:0:0:
192,133,21916,1,0,1:0:0:0:
152,96,22004,1,0,1:0:0:0:
98,108,22093,6,0,P|109:171|140:178,1,71.9999978027344,10|0,0:0|1:0,0:0:0:0:
257,285,22269,2,0,P|307:244|297:214,1,71.9999978027344,2|0,1:2|1:0,0:0:0:0:
218,153,22445,2,0,L|180:274,1,71.9999978027344,10|0,0:0|1:0,0:0:0:0:
52,265,22622,6,0,B|102:244|151:291|108:311|138:356|199:353,1,192,4|8,1:2|0:0,0:0:0:0:
331,358,22887,1,8,0:0:0:0:
323,311,22975,1,8,0:0:0:0:
315,264,23063,1,8,0:0:0:0:
306,222,23151,2,0,L|303:203,1,18,8|0,0:0|0:0,0:0:0:0:
227,281,23504,5,2,3:2:0:0:
320,84,23681,1,10,0:0:0:0:
362,56,23769,1,8,0:0:0:0:
415,60,23857,1,10,0:0:0:0:
451,102,23945,1,8,0:0:0:0:
445,150,24034,2,0,L|423:269,1,71.9999978027344,6|0,1:2|1:0,0:0:0:0:
371,349,24210,5,8,0:0:0:0:
359,324,24298,1,2,1:2:0:0:
336,306,24387,1,0,1:0:0:0:
305,303,24475,1,0,1:0:0:0:
274,322,24563,5,10,0:0:0:0:
233,357,24651,1,0,1:0:0:0:
179,345,24740,1,0,1:0:0:0:
155,296,24828,1,0,1:0:0:0:
171,249,24916,6,0,L|264:265,1,71.9999978027344,10|0,0:0|1:0,0:0:0:0:
328,161,25093,2,0,P|272:166|253:206,1,71.9999978027344,2|0,1:2|1:0,0:0:0:0:
256,351,25269,2,0,P|289:378|332:368,1,71.9999978027344,10|0,0:0|1:0,0:0:0:0:
413,290,25445,5,2,1:2:0:0:
418,311,25534,1,0,1:0:0:0:
424,329,25622,1,8,0:0:0:0:
430,347,25710,5,2,1:2:0:0:
475,318,25798,1,0,1:0:0:0:
475,263,25887,1,0,1:0:0:0:
439,225,25975,5,10,0:0:0:0:
384,244,26063,1,0,1:0:0:0:
339,206,26151,1,0,1:0:0:0:
347,146,26240,1,0,1:0:0:0:
397,120,26328,6,0,P|401:170|356:187,1,71.9999978027344,10|0,0:0|1:0,0:0:0:0:
232,255,26504,2,0,P|201:229|205:187,1,71.9999978027344,2|0,1:2|1:0,0:0:0:0:
273,95,26681,2,0,L|295:219,1,71.9999978027344,10|0,0:0|1:0,0:0:0:0:
226,280,26857,5,2,1:2:0:0:
243,265,26945,1,0,1:0:0:0:
263,259,27034,1,8,0:0:0:0:
288,259,27122,5,2,1:2:0:0:
267,308,27210,1,0,1:0:0:0:
217,328,27298,1,0,1:0:0:0:
165,308,27387,5,10,0:0:0:0:
151,248,27475,1,0,1:0:0:0:
101,215,27563,1,0,1:0:0:0:
41,224,27651,1,0,1:0:0:0:
16,274,27740,6,0,L|113:290,1,71.9999978027344,10|0,0:0|1:0,0:0:0:0:
100,134,27916,2,0,B|47:144|43:199,1,71.9999978027344,2|0,1:2|1:0,0:0:0:0:
178,255,28093,2,0,B|217:219|197:174,1,71.9999978027344,10|0,0:0|1:0,0:0:0:0:
171,43,28269,6,0,P|198:81|299:87,1,102.000001945496,10|0,0:0|1:0,0:0:0:0:
317,53,28445,2,0,L|308:5,3,30,0|0|0|0,1:0|1:0|1:0|1:0,0:0:0:0:
458,218,28798,6,0,P|431:256|330:262,1,102.000001945496,10|0,0:0|1:0,0:0:0:0:
312,228,28975,2,0,L|320:180,3,30,0|0|0|0,1:0|1:0|1:0|1:0,0:0:0:0:
467,135,29328,6,0,P|360:167|252:320,1,270.000010299683,10|0,0:0|0:0,0:0:0:0:
260,360,29681,2,0,B|230:371|230:371|201:322,1,60,6|0,1:2|3:0,0:0:0:0:
148,247,29857,5,2,3:2:0:0:
144,260,29945,1,2,3:2:0:0:
141,273,30034,1,2,1:2:0:0:
137,287,30122,1,2,3:2:0:0:
134,300,30210,1,2,3:2:0:0:
130,314,30298,1,2,3:2:0:0:
106,338,30387,2,0,P|98:284|81:223,1,83.9999974365235,2|2,1:2|3:2,0:0:0:0:
168,199,30651,1,2,3:2:0:0:
168,199,30740,2,0,P|175:145|192:84,1,83.9999974365235,2|2,1:2|3:2,0:0:0:0:
301,61,31093,5,2,1:2:0:0:
294,44,31181,1,2,3:2:0:0:
313,39,31269,1,2,3:2:0:0:
339,43,31357,1,2,3:2:0:0:
358,55,31445,1,2,1:2:0:0:
375,79,31534,1,2,3:2:0:0:
396,89,31622,1,2,3:2:0:0:
423,88,31710,1,2,3:2:0:0:
425,69,31798,6,0,P|374:88|345:122,1,83.9999974365235,2|2,1:2|3:2,0:0:0:0:
305,193,32063,1,2,3:2:0:0:
305,193,32151,2,0,P|273:165|233:153,1,83.9999974365235,2|2,1:2|3:2,0:0:0:0:
203,75,32416,1,2,3:2:0:0:
190,68,32504,2,0,P|160:88|158:121,1,41.9999987182618,2|2,1:2|3:2,0:0:0:0:
136,183,32681,1,2,3:2:0:0:
18,283,32857,5,2,1:2:0:0:
35,271,32945,1,2,3:2:0:0:
57,267,33034,2,0,P|83:273|93:309,1,41.9999987182618,2|0,3:2|3:0,0:0:0:0:
117,380,33210,1,2,1:2:0:0:
231,293,33387,5,2,3:2:0:0:
246,306,33475,1,2,3:2:0:0:
256,327,33563,2,0,P|256:355|221:374,1,41.9999987182618,2|0,1:2|3:0,0:0:0:0:
163,251,33740,5,2,3:2:0:0:
161,226,33828,1,2,3:2:0:0:
171,201,33916,1,2,1:2:0:0:
188,184,34004,1,2,3:2:0:0:
211,176,34093,1,2,3:2:0:0:
266,230,34269,2,0,B|283:244|283:244|292:218,1,41.9999987182618,2|0,1:2|3:0,0:0:0:0:
230,148,34445,5,2,3:2:0:0:
232,123,34534,1,2,3:2:0:0:
222,98,34622,1,2,1:2:0:0:
205,81,34710,1,2,3:2:0:0:
182,73,34798,1,2,3:2:0:0:
120,150,34975,6,0,P|131:181|148:254,1,83.9999974365235,2|0,1:2|3:0,0:0:0:0:
152,371,35328,2,0,B|213:362|234:312|188:300|225:244|314:257,1,198.000006042481,6|0,1:2|3:0,0:0:0:0:
289,255,35681,2,0,L|287:274,1,18,2|0,1:2|3:0,0:0:0:0:
490,245,36034,2,0,B|428:236|407:186|453:174|416:118|327:131,1,198.000006042481,2|0,1:2|3:0,0:0:0:0:
352,129,36387,2,0,L|353:148,1,18,2|0,1:2|3:0,0:0:0:0:
149,128,36740,6,0,P|204:228|248:148,1,198.000006042481,2|0,1:2|3:0,0:0:0:0:
241,202,37093,2,0,L|237:180,1,18,2|0,1:2|3:0,0:0:0:0:
318,384,37445,2,0,P|373:283|417:363,1,198.000006042481,2|0,1:2|3:0,0:0:0:0:
409,306,37798,2,0,L|405:328,1,18,2|0,1:2|3:0,0:0:0:0:
341,235,38151,6,0,L|354:149,1,45.0000017166138,6|0,1:2|3:0,0:0:0:0:
415,134,38328,2,0,L|399:48,1,45.0000017166138,2|0,3:2|3:0,0:0:0:0:
301,64,38504,6,0,B|275:92|275:92|288:160,1,60,2|0,1:2|3:0,0:0:0:0:
475,213,38681,2,0,B|501:186|501:186|488:117,1,60,2|0,3:2|3:0,0:0:0:0:
406,89,38857,6,0,L|415:137,1,45.0000017166138,6|0,1:2|3:0,0:0:0:0:
348,190,39034,2,0,L|340:239,1,45.0000017166138,2|0,3:2|3:0,0:0:0:0:
469,366,39210,6,0,P|444:310|393:335,1,90.0000034332277,2|2,1:2|3:2,0:0:0:0:
258,252,39387,2,0,P|219:284|233:332,1,90.0000034332277,2|2,3:2|3:2,0:0:0:0:
345,373,39563,5,6,1:2:0:0:
325,320,39651,1,2,0:0:0:0:
335,271,39740,1,2,3:2:0:0:
365,233,39828,1,2,0:0:0:0:
410,215,39916,5,6,1:2:0:0:
419,182,40004,1,0,0:0:0:0:
411,151,40093,1,2,3:2:0:0:
391,129,40181,1,2,0:0:0:0:
357,118,40269,6,0,L|301:127,3,30,2|0|0|0,1:2|0:0|3:0|0:0,0:0:0:0:
223,28,40622,5,10,0:0:0:0:
236,96,40710,1,8,0:0:0:0:
247,167,40798,1,8,0:0:0:0:
260,238,40887,1,8,0:0:0:0:
279,228,40975,6,2,B|246:212|246:212|206:224|206:224|147:219|147:219|206:269,1,180.000006866455,6|8,1:0|0:0,0:1:0:0:
298,341,41240,2,2,B|320:303|320:303|286:225|286:225|294:167,1,180.000006866455,2|0,1:0|1:0,0:1:0:0:
377,117,41504,2,2,B|393:139|393:139|391:78|391:78|347:54|347:54|305:82,1,180.000006866455,10|0,0:1|1:0,0:1:0:0:
56,60,41857,6,0,P|92:60|122:113,1,60,10|0,0:0|0:0,0:0:0:0:
197,78,42034,2,0,P|206:111|189:143,1,60,2|0,1:2|1:0,0:0:0:0:
207,222,42210,2,0,P|174:239|140:230,1,60,10|0,0:0|0:0,0:0:0:0:
47,232,42387,6,0,B|33:229|33:229|17:230|17:230|37:224|37:224|44:210,1,60,2|0,1:0|0:0,0:0:0:0:
127,172,42563,2,2,B|147:232|147:232|118:262|118:262|139:283|139:283|152:356,1,180.000006866455,10|0,0:1|0:0,0:1:0:0:
258,303,42828,1,0,1:0:0:0:
270,289,42916,2,0,B|270:246|270:246|218:228,1,90.0000034332277,10|0,0:1|0:0,0:0:0:0:
113,183,43093,5,0,1:0:0:0:
120,147,43181,1,0,3:0:0:0:
126,114,43269,1,8,0:0:0:0:
133,76,43357,1,0,3:0:0:0:
163,97,43445,5,0,1:0:0:0:
157,73,43534,1,0,1:0:0:0:
155,52,43622,1,8,0:0:0:0:
150,27,43710,1,0,3:0:0:0:
113,5,43798,5,0,1:0:0:0:
104,188,43975,6,0,B|160:206|160:206|133:266,1,90.0000034332277,10|0,0:1|1:0,0:0:0:0:
3,300,44151,2,0,B|-8:242|-8:242|21:238,1,90.0000034332277,2|0,0:1|1:0,0:0:0:0:
149,342,44328,2,0,B|104:381|104:381|86:356,1,90.0000034332277,10|0,0:1|0:0,0:0:0:0:
116,168,44504,6,0,B|132:200|132:200|118:213|118:213|125:264,1,90.0000034332277,2|0,1:0|0:0,0:0:0:0:
251,320,44681,2,0,B|254:268|254:268|200:243,1,90.0000034332277,10|0,0:1|0:0,0:0:0:0:
116,168,44857,1,2,1:0:0:0:
120,135,44945,1,0,1:0:0:0:
137,102,45034,1,10,0:1:0:0:
373,68,45210,6,2,B|330:89|330:89|272:36|272:36|214:44,1,180.000006866455,2|8,1:0|0:0,0:1:0:0:
155,172,45475,1,0,1:0:0:0:
155,172,45563,2,0,B|199:180|199:180|237:105,1,90.0000034332277,0|0,0:0|1:0,0:0:0:0:
174,296,45740,1,12,0:0:0:0:
174,296,46269,6,2,B|213:304,1,36,2|0,0:1|0:0,0:1:0:0:
268,250,46622,1,6,1:0:0:0:
343,281,46798,1,0,1:0:0:0:
343,281,46887,1,0,1:0:0:0:
369,357,47063,1,0,1:0:0:0:
369,357,47151,1,0,1:0:0:0:
434,305,47328,2,0,L|425:253,3,30,8|0|0|0,0:0|3:0|3:0|3:0,0:0:0:0:
485,220,47681,2,0,L|493:168,3,30,2|0|2|0,3:1|3:0|3:1|3:0,0:0:0:0:
439,126,48034,5,2,1:0:0:0:
389,186,48210,1,2,1:0:0:0:
389,186,48298,1,0,1:0:0:0:
311,184,48475,1,0,1:0:0:0:
311,184,48563,1,2,1:0:0:0:
268,112,48740,2,2,L|282:29,1,60,10|2,0:1|0:1,0:1:0:0:
223,195,49093,1,2,1:0:0:0:
181,124,49269,1,8,0:0:0:0:
203,281,49445,5,0,1:0:0:0:
131,323,49622,1,0,1:0:0:0:
131,323,49710,1,0,1:0:0:0:
58,288,49887,1,0,1:0:0:0:
58,288,49975,1,0,1:0:0:0:
49,205,50151,2,0,L|58:153,3,30,10|0|0|0,0:1|3:0|3:0|3:0,0:0:0:0:
113,101,50504,2,0,L|122:153,3,30,2|0|0|0,3:1|3:0|3:0|3:0,0:0:0:0:
165,200,50857,5,2,1:0:0:0:
211,136,51034,1,0,1:0:0:0:
211,136,51122,1,0,1:0:0:0:
169,70,51298,1,0,1:0:0:0:
169,70,51387,1,2,1:0:0:0:
207,3,51563,1,10,0:1:0:0:
230,365,52269,6,0,P|238:297|265:236,2,125.999996154785,6|2|2,1:2|0:0|3:2,0:0:0:0:
185,180,52975,2,0,P|127:173|110:243,1,125.999996154785,2|0,1:2|0:0,0:0:0:0:
103,227,53328,1,0,1:0:0:0:
144,326,53504,5,2,3:2:0:0:
144,326,53681,2,0,B|184:323|207:296|177:283|211:251|269:259,2,125.999996154785,2|2|2,1:2|0:0|3:2,0:0:0:0:
56,381,54387,2,0,P|48:313|20:252,1,125.999996154785,2|0,1:2|0:0,0:0:0:0:
25,260,54740,1,0,1:0:0:0:
116,174,54916,5,2,3:2:0:0:
116,174,55093,2,0,B|80:141|80:141|-6:178,2,125.999996154785,2|2|2,1:2|0:0|3:2,0:0:0:0:
156,266,55798,2,0,P|204:230|258:244,1,83.9999974365235,2|2,1:2|3:2,0:0:0:0:
273,140,56063,1,2,0:0:0:0:
273,140,56151,2,0,P|322:176|376:162,1,83.9999974365235,2|2,1:2|3:2,0:0:0:0:
433,224,56504,6,0,B|460:168|460:168|428:105,2,125.999996154785,2|2|2,1:2|0:0|3:2,0:0:0:0:
375,294,57210,1,2,1:2:0:0:
301,235,57387,1,8,0:0:0:0:
239,318,57563,1,0,1:0:0:0:
233,338,57651,1,8,0:0:0:0:
242,358,57740,1,10,0:0:0:0:
261,373,57828,1,8,0:0:0:0:
278,372,57916,6,0,L|298:254,1,83.9999974365235,6|10,1:2|0:0,0:0:0:0:
300,250,58181,1,2,1:2:0:0:
210,165,58357,1,2,1:2:0:0:
217,197,58445,1,10,0:0:0:0:
143,348,58622,5,2,1:2:0:0:
110,261,58798,1,8,0:0:0:0:
204,283,58975,1,0,1:0:0:0:
204,283,59063,1,0,1:0:0:0:
204,283,59151,1,10,0:0:0:0:
213,163,59328,5,2,1:2:0:0:
281,100,59504,1,10,0:0:0:0:
314,107,59593,1,2,1:2:0:0:
380,173,59769,1,0,1:0:0:0:
413,166,59857,1,10,0:0:0:0:
484,6,60034,5,2,1:2:0:0:
409,69,60210,1,8,0:0:0:0:
495,111,60387,1,0,1:0:0:0:
495,111,60475,1,0,1:0:0:0:
495,111,60563,1,10,0:0:0:0:
401,207,60740,6,0,P|318:218|351:302,1,143.999995605469,6|0,1:2|0:0,0:0:0:0:
311,265,61004,2,0,P|358:274|382:238,1,71.9999978027344,0|0,1:0|0:0,0:0:0:0:
169,185,61269,5,10,0:0:0:0:
169,185,61357,1,8,0:0:0:0:
169,185,61445,2,0,L|208:397,1,180.000006866455,6|0,1:2|0:0,0:0:0:0:
201,362,61710,2,0,L|218:267,1,90.0000034332277,0|0,1:0|0:0,0:0:0:0:
363,149,61975,5,10,0:0:0:0:
363,149,62063,1,8,0:0:0:0:
363,149,62151,2,0,B|284:150|252:97|301:75|242:20|153:52,1,215.999993408203,6|0,1:2|0:0,0:0:0:0:
193,43,62416,2,0,P|180:74|212:94,1,53.9999983520508,0|0,1:0|0:0,0:0:0:0:
429,86,62681,5,8,0:3:0:0:
429,86,62857,2,0,P|487:94|472:187,1,120,10|0,0:0|1:0,0:0:0:0:
404,237,63122,2,0,P|345:227|359:135,1,120,10|0,0:0|1:0,0:0:0:0:
419,166,63387,2,0,L|449:346,1,180,10|0,0:0|0:0,0:0:0:0:
296,199,63740,6,0,B|163:151|89:254,1,215.999993408203,4|0,1:2|0:0,0:0:0:0:
99,240,64004,2,0,B|120:353|225:364,1,180.000006866455,0|0,1:0|0:0,0:0:0:0:
213,362,64269,2,0,B|283:299|250:222,1,143.999995605469,0|0,1:0|0:0,0:0:0:0:
254,233,64534,2,0,B|173:203|129:265,1,107.999996704102,0|0,1:0|0:0,0:0:0:0:
151,241,64798,2,0,B|159:287|202:290,1,71.9999978027344,0|0,1:0|0:0,0:0:0:0:
196,289,64975,6,0,B|221:264|208:236,1,54,4|0,1:2|0:0,0:0:0:0:
197,231,65857,5,8,0:0:0:0:
190,209,65945,1,8,0:0:0:0:
210,173,66034,1,10,0:0:0:0:
261,168,66122,1,8,0:0:0:0:
304,209,66210,1,8,0:0:0:0:
354,234,66298,1,8,0:0:0:0:
405,221,66387,6,0,P|280:240|166:317,1,204.000003890991,6|8,1:2|0:0,0:0:0:0:
118,230,66651,1,2,1:2:0:0:
106,206,66740,2,0,P|134:158|195:195,1,83.9999974365235,0|0,0:0|1:0,0:0:0:0:
229,330,66916,2,0,P|240:234|263:140,1,167.999994873047,10|0,0:0|1:0,0:0:0:0:
264,75,67181,1,0,0:0:0:0:
249,54,67269,2,0,P|202:59|185:102,1,83.9999974365235,10|0,0:0|0:0,0:0:0:0:
336,155,67445,2,0,P|360:115|338:76,1,83.9999974365235,2|0,1:2|1:0,0:0:0:0:
189,184,67622,2,0,P|236:191|276:216,1,83.9999974365235,10|0,0:0|0:0,0:0:0:0:
263,363,67798,6,0,P|290:315|457:307,1,167.999994873047,2|8,1:2|0:0,0:0:0:0:
489,229,68063,2,0,P|477:178|428:182,1,83.9999974365235,2|0,1:2|0:0,0:0:0:0:
348,154,68240,1,0,1:0:0:0:
348,154,68328,2,0,B|332:273|429:199|389:355,1,167.999994873047,10|0,0:0|1:0,0:0:0:0:
316,382,68593,1,0,0:0:0:0:
316,382,68681,2,0,P|290:348|214:333,1,83.9999974365235,10|0,0:0|0:0,0:0:0:0:
157,260,68857,1,2,1:2:0:0:
157,260,68945,1,0,1:0:0:0:
157,260,69034,2,0,P|131:293|55:308,1,83.9999974365235,10|0,0:0|0:0,0:0:0:0:
186,382,69210,6,0,P|198:287|220:192,1,167.999994873047,2|8,1:2|0:0,0:0:0:0:
170,111,69475,2,0,P|83:105|101:192,1,167.999994873047,2|0,1:2|1:0,0:0:0:0:
146,263,69740,1,10,0:0:0:0:
146,263,69828,1,0,0:0:0:0:
146,263,69916,2,0,B|197:265|222:227|186:211|227:172|293:194,1,167.999994873047,2|8,1:2|0:0,0:0:0:0:
383,172,70181,1,2,0:0:0:0:
383,172,70269,2,0,P|380:125|339:103,1,83.9999974365235,0|0,1:0|1:0,0:0:0:0:
277,9,70445,2,0,P|266:60|258:127,1,83.9999974365235,10|0,0:0|0:0,0:0:0:0:
165,165,70622,6,0,P|279:202|353:291,1,167.999994873047,2|8,1:2|0:0,0:0:0:0:
314,232,70887,1,0,1:0:0:0:
173,356,71063,1,0,1:0:0:0:
173,356,71151,1,8,0:0:0:0:
165,165,71328,1,0,1:0:0:0:
286,317,71504,6,0,B|306:279|306:279|277:223,1,83.9999974365235,10|0,0:0|0:0,0:0:0:0:
210,152,71681,1,2,1:2:0:0:
210,152,71769,1,0,1:0:0:0:
210,152,71857,2,0,B|190:114|190:114|219:58,1,83.9999974365235,10|0,0:0|0:0,0:0:0:0:
340,172,72034,6,0,P|263:188|158:264,1,167.999994873047,6|8,1:2|0:0,0:0:0:0:
132,124,72298,2,0,P|113:54|38:73,1,143.999995605469,2|0,1:2|1:0,0:0:0:0:
52,56,72563,2,0,L|63:121,1,45.0000017166138,10|0,0:0|0:0,0:0:0:0:
165,168,72740,6,0,P|264:190|401:289,1,192,6|8,1:2|0:0,0:0:0:0:
396,141,73004,2,0,P|411:62|501:84,1,192,2|0,0:0|1:0,0:0:0:0:
500,82,73269,2,0,L|487:157,1,53.9999983520508,10|0,0:0|0:0,0:0:0:0:
347,164,73445,6,0,P|248:186|111:285,1,215.999993408203,6|8,1:2|0:0,0:0:0:0:
118,147,73710,2,0,P|104:54|6:94,1,215.999993408203,2|0,1:2|1:0,0:0:0:0:
10,80,73975,2,0,L|26:176,1,83.9999974365235,10|0,0:0|0:0,0:0:0:0:
67,384,74151,6,0,P|130:341|259:321,1,167.999994873047,2|8,1:2|0:0,0:0:0:0:
321,340,74416,2,0,B|336:299|336:299|291:237,1,83.9999974365235,2|0,0:0|1:0,0:0:0:0:
233,205,74593,1,0,1:0:0:0:
233,205,74681,2,0,P|220:308|218:412,1,167.999994873047,8|0,0:0|1:0,0:0:0:0:
145,179,74945,1,0,0:0:0:0:
145,179,75034,2,0,P|168:116|233:149,1,83.9999974365235,10|0,0:0|1:0,0:0:0:0:
333,185,75210,1,2,0:0:0:0:
333,185,75298,1,2,1:2:0:0:
333,185,75387,2,0,P|310:247|244:214,1,83.9999974365235,10|0,0:0|0:0,0:0:0:0:
116,278,75563,6,0,P|210:299|191:391,1,167.999994873047,2|8,1:2|0:0,0:0:0:0:
40,368,75828,1,2,0:0:0:0:
40,368,75916,2,0,P|32:307|13:243,1,83.9999974365235,0|0,1:0|1:0,0:0:0:0:
90,197,76093,2,0,P|98:137|117:73,1,83.9999974365235,10|0,0:0|0:0,0:0:0:0:
317,72,76269,6,0,P|217:8|238:124,1,288,6|0,1:2|1:0,0:0:0:0:
246,114,76622,5,10,0:0:0:0:
267,118,76710,1,0,1:0:0:0:
286,130,76798,1,0,1:0:0:0:
295,154,76887,1,0,1:0:0:0:
287,178,76975,1,10,0:0:0:0:
258,197,77063,1,0,1:0:0:0:
234,235,77151,1,2,1:2:0:0:
236,278,77240,1,0,1:0:0:0:
281,313,77328,1,10,0:0:0:0:
337,306,77416,1,0,1:0:0:0:
373,255,77504,1,0,1:0:0:0:
437,244,77593,1,0,1:0:0:0:
488,278,77681,6,0,L|224:229,1,215.999993408203,6|8,1:2|0:0,0:0:0:0:
180,261,77945,2,0,P|172:215|236:179,1,83.9999974365235,2|0,1:2|0:0,0:0:0:0:
319,160,78122,1,0,1:0:0:0:
319,160,78210,2,0,P|293:62|224:96,1,167.999994873047,10|0,0:0|1:0,0:0:0:0:
137,32,78475,1,0,0:0:0:0:
137,32,78563,2,0,P|150:85|154:139,1,83.9999974365235,10|0,0:0|0:0,0:0:0:0:
236,195,78740,1,2,1:2:0:0:
236,195,78828,1,0,1:0:0:0:
236,195,78916,2,0,P|223:249|219:302,1,83.9999974365235,10|0,0:0|0:0,0:0:0:0:
114,204,79093,6,0,P|176:164|327:121,1,167.999994873047,2|10,1:2|0:0,0:0:0:0:
330,59,79357,2,0,P|399:77|349:160,1,167.999994873047,2|0,1:2|1:0,0:0:0:0:
420,294,79622,2,0,P|357:254|206:211,1,167.999994873047,10|0,0:0|1:0,0:0:0:0:
190,162,79887,1,0,0:0:0:0:
190,162,79975,2,0,P|144:209|202:255,1,83.9999974365235,10|0,0:0|0:0,0:0:0:0:
115,353,80151,1,2,1:2:0:0:
115,353,80240,1,0,1:0:0:0:
115,353,80328,2,0,P|161:313|239:307,1,83.9999974365235,10|2,0:0|0:0,0:0:0:0:
360,280,80504,6,0,P|290:288|315:177,1,167.999994873047,2|10,1:2|0:0,0:0:0:0:
475,217,80769,2,0,P|449:305|430:447,1,167.999994873047,2|2,1:2|1:2,0:0:0:0:
375,185,81034,2,0,B|368:140|368:140|413:105,1,83.9999974365235,10|0,0:0|0:0,0:0:0:0:
512,50,81210,2,0,P|404:27|284:-19,1,167.999994873047,2|8,1:2|0:0,0:0:0:0:
239,34,81475,1,2,0:0:0:0:
239,34,81563,2,0,P|228:85|313:101,1,83.9999974365235,0|0,1:0|1:0,0:0:0:0:
345,149,81740,2,0,P|335:190|322:274,1,83.9999974365235,10|0,0:0|0:0,0:0:0:0:
287,343,81916,6,0,B|229:340|203:298|243:278|198:238|120:248,1,167.999994873047,2|8,1:2|0:0,0:0:0:0:
161,248,82181,1,0,1:0:0:0:
309,382,82357,1,0,1:0:0:0:
309,382,82445,1,8,0:0:0:0:
361,194,82622,1,0,1:0:0:0:
190,99,82798,5,10,0:0:0:0:
235,142,82887,1,8,0:0:0:0:
287,138,82975,1,10,0:3:0:0:
310,101,83063,1,8,0:3:0:0:
294,70,83151,1,6,0:3:0:0:
269,63,83240,1,4,0:3:0:0:
249,78,83328,6,0,L|271:290,1,167.999994873047,6|0,1:2|3:0,0:0:0:0:
96,280,83593,2,0,P|154:186|183:226,1,167.999994873047,10|0,0:0|0:0,0:0:0:0:
155,187,83857,1,10,0:0:0:0:
269,63,84034,6,0,L|241:319,1,192,6|0,1:2|3:0,0:0:0:0:
429,292,84298,2,0,P|363:186|330:231,1,192,10|0,0:0|0:0,0:0:0:0:
358,188,84563,1,10,0:0:0:0:
241,56,84740,6,0,L|268:312,1,215.999993408203,6|0,1:2|3:0,0:0:0:0:
65,289,85004,2,0,P|135:176|170:224,1,215.999993408203,10|0,0:0|0:0,0:0:0:0:
148,185,85269,1,10,0:0:0:0:
116,377,85445,2,0,P|181:332|240:322,1,83.9999974365235,2|0,1:2|0:0,0:0:0:0:
312,343,85622,5,8,0:0:0:0:
341,292,85710,1,10,0:0:0:0:
318,239,85798,1,8,0:0:0:0:
274,198,85887,1,8,0:0:0:0:
252,145,85975,1,8,0:0:0:0:
285,98,86063,1,8,0:0:0:0:
342,99,86151,6,0,P|306:202|283:359,1,215.999993408203,4|10,1:2|0:0,0:0:0:0:
391,312,86416,1,0,1:0:0:0:
408,298,86504,2,0,P|392:230|349:233,1,83.9999974365235,2|0,0:0|1:0,0:0:0:0:
232,170,86681,2,0,P|194:197|200:242,1,83.9999974365235,10|0,0:0|0:0,0:0:0:0:
290,311,86857,2,0,P|223:312|108:410,1,167.999994873047,2|8,1:2|0:0,0:0:0:0:
53,320,87122,2,0,B|37:280|37:280|84:215,1,83.9999974365235,2|0,0:0|1:0,0:0:0:0:
217,183,87298,1,0,1:0:0:0:
217,183,87387,2,0,B|232:143|232:143|185:78,1,83.9999974365235,10|0,0:0|0:0,0:0:0:0:
43,159,87563,6,0,B|100:148|154:198|106:220|138:271|208:268,1,204.000003890991,4|10,1:2|0:0,0:0:0:0:
287,292,87828,1,0,1:0:0:0:
287,292,87916,2,0,P|272:338|258:409,1,83.9999974365235,2|0,0:0|1:0,0:0:0:0:
369,235,88093,2,0,P|371:205|290:197,1,83.9999974365235,10|0,0:0|0:0,0:0:0:0:
276,274,88269,2,0,P|253:179|221:88,1,167.999994873047,2|8,1:2|0:0,0:0:0:0:
299,31,88534,1,2,0:0:0:0:
299,31,88622,2,0,P|324:104|286:119,1,83.9999974365235,0|0,1:0|1:0,0:0:0:0:
208,208,88798,2,0,P|135:232|120:195,1,83.9999974365235,10|0,0:0|0:0,0:0:0:0:
156,107,88975,6,0,P|243:140|357:272,1,204.000003890991,4|10,1:2|0:0,0:0:0:0:
324,213,89240,1,2,1:2:0:0:
352,221,89328,1,2,0:0:0:0:
374,213,89416,1,2,1:2:0:0:
388,197,89504,2,0,P|379:136|326:133,1,83.9999974365235,10|0,0:0|0:0,0:0:0:0:
257,104,89681,2,0,B|241:209|324:164|276:299,1,167.999994873047,2|8,1:2|0:0,0:0:0:0:
230,378,89945,2,0,P|212:328|166:308,1,83.9999974365235,2|0,0:0|1:0,0:0:0:0:
173,326,90122,5,0,1:0:0:0:
227,336,90210,1,10,0:0:0:0:
280,344,90298,1,0,0:0:0:0:
336,352,90387,1,6,1:2:0:0:
128,251,91093,6,2,P|27:234|10:323,1,180.000006866455,10|0,0:1|0:0,0:1:0:0:
0,290,91357,2,2,P|38:330|101:295,1,120,10|0,0:1|0:0,0:1:0:0:
93,310,91622,2,0,P|88:278|51:263,1,60,10|0,0:1|0:0,0:0:0:0:
6,155,91798,6,2,B|29:157|29:157|74:113|74:113|76:103|76:103|137:93,1,132.00000402832,14|8,0:1|0:3,0:1:0:0:
211,121,92063,2,0,B|229:89|229:89|208:43,1,66.0000020141602,6|0,0:3|0:0,0:0:0:0:
115,12,92240,1,0,1:0:0:0:
115,12,92328,2,0,L|156:249,1,198.000006042481,10|8,0:0|0:3,0:0:0:0:
148,207,92681,6,0,P|158:170|221:154,1,66.0000020141602,6|0,0:3|0:0,0:0:0:0:
211,77,92857,2,0,P|244:74|274:92,1,66.0000020141602,10|0,0:0|0:0,0:0:0:0:
357,80,93034,2,0,P|367:113|355:148,1,66.0000020141602,2|0,1:2|0:0,0:0:0:0:
288,227,93210,2,0,P|299:140|346:-8,2,198.000006042481,10|6|10,0:0|0:3|0:0,0:0:0:0:
266,358,94004,5,8,0:3:0:0:
266,358,94093,2,0,P|232:361|205:339,1,66.0000020141602,6|0,0:3|0:0,0:0:0:0:
148,218,94269,2,0,P|164:188|198:182,1,66.0000020141602,10|0,0:0|0:0,0:0:0:0:
292,251,94445,2,0,L|222:263,1,66.0000020141602,2|0,1:2|0:0,0:0:0:0:
130,358,94622,6,0,B|80:347|80:347|57:306|57:306|-7:295,1,132.00000402832,10|0,0:0|1:0,0:0:0:0:
34,221,94887,1,2,1:2:0:0:
42,189,94975,1,0,1:0:0:0:
52,160,95063,1,0,1:0:0:0:
29,144,95151,2,0,P|133:141|110:243,1,198.000006042481,10|8,0:0|0:3,0:0:0:0:
140,214,95504,6,0,P|178:224|225:180,1,66.0000020141602,6|0,0:3|0:0,0:0:0:0:
347,106,95681,2,0,P|324:79|290:70,1,66.0000020141602,10|0,0:0|0:0,0:0:0:0:
282,228,95857,2,0,P|292:189|248:142,1,66.0000020141602,2|0,1:2|0:0,0:0:0:0:
156,131,96034,6,0,B|207:133|232:95|195:78|237:40|304:61,1,143.999995605469,14|8,0:0|0:3,0:0:0:0:
382,1,96298,2,0,P|438:5|435:92,1,143.999995605469,14|0,0:0|1:0,0:0:0:0:
311,277,96563,2,0,P|323:188|347:102,1,180.000006866455,14|2,0:0|3:2,0:0:0:0:
268,23,97093,5,8,0:0:0:0:
217,37,97181,1,8,0:0:0:0:
200,86,97269,1,8,0:0:0:0:
227,132,97357,1,8,0:0:0:0:
243,126,97445,6,0,P|171:135|108:190,1,132.00000402832,14|8,0:0|0:3,0:0:0:0:
43,220,97710,2,0,P|16:193|52:146,1,66.0000020141602,6|0,0:3|0:0,0:0:0:0:
96,48,97887,1,0,1:0:0:0:
96,48,97975,2,0,P|121:148|138:267,1,198.000006042481,10|8,0:0|0:3,0:0:0:0:
135,241,98328,6,0,B|169:249|169:249|231:196,1,66.0000020141602,6|0,0:3|0:0,0:0:0:0:
87,118,98504,2,0,B|62:144|62:144|77:223,1,66.0000020141602,10|0,0:0|0:0,0:0:0:0:
220,135,98681,2,0,B|209:100|209:100|133:74,1,66.0000020141602,2|0,1:2|0:0,0:0:0:0:
157,377,98857,2,0,P|218:328|385:314,2,198.000006042481,10|6|10,0:0|0:3|0:0,0:0:0:0:
120,136,99651,5,8,0:3:0:0:
120,136,99740,2,0,P|156:149|157:203,1,66.0000020141602,6|0,0:3|0:0,0:0:0:0:
2,106,99916,2,0,P|-4:70|21:43,1,66.0000020141602,10|0,0:0|0:0,0:0:0:0:
156,45,100093,2,0,P|120:36|91:61,1,66.0000020141602,2|0,1:2|0:0,0:0:0:0:
62,181,100269,6,0,P|116:143|211:118,1,132.00000402832,10|0,0:0|1:0,0:0:0:0:
294,132,100534,1,2,1:2:0:0:
288,103,100622,1,0,1:0:0:0:
280,77,100710,1,0,1:0:0:0:
313,55,100798,2,0,B|338:174|232:130|283:274,1,198.000006042481,10|8,0:0|0:3,0:0:0:0:
272,239,101151,6,0,P|296:204|369:222,1,66.0000020141602,6|0,0:3|0:0,0:0:0:0:
352,115,101328,2,0,P|392:129|393:204,1,66.0000020141602,10|0,0:0|0:0,0:0:0:0:
498,144,101504,2,0,P|498:186|426:207,1,66.0000020141602,2|0,1:2|0:0,0:0:0:0:
407,327,101681,6,0,P|367:279|216:241,1,167.999994873047,14|8,0:0|0:3,0:0:0:0:
41,272,101945,2,0,P|38:193|141:242,1,167.999994873047,14|0,0:0|1:0,0:0:0:0:
156,382,102210,2,0,B|115:234|231:277|200:116,1,251.999992309571,14|0,0:0|0:0,0:0:0:0:
204,144,102563,1,0,1:0:0:0:
374,325,102740,6,0,P|392:286|365:242,1,60,14|0,0:0|0:0,0:0:0:0:
308,252,102916,2,0,P|290:292|317:335,1,60,0|0,1:0|0:0,0:0:0:0:
322,384,103093,5,4,1:2:0:0:
256,192,103181,12,2,108387,0:0:0:0:
2,136,114387,6,0,P|3:108|48:85,3,71.9999978027344,2|0|2|0,3:2|3:0|3:2|3:0,0:0:0:0:
86,9,115798,2,0,P|113:2|148:39,3,71.9999978027344,2|0|2|0,3:2|3:0|3:2|3:0,0:0:0:0:
128,112,117210,6,0,P|119:163|115:215,1,71.9999978027344,2|0,3:2|3:0,0:0:0:0:
31,226,117563,2,0,P|40:277|44:329,1,71.9999978027344,0|0,3:0|3:0,0:0:0:0:
142,109,117916,6,0,P|133:160|129:212,1,71.9999978027344,0|2,3:0|3:2,0:0:0:0:
45,223,118269,2,0,P|54:274|57:326,1,71.9999978027344,0|0,3:0|3:0,0:0:0:0:
180,379,118622,6,0,P|175:340|168:301,1,71.9999978027344,2|0,3:2|3:0,0:0:0:0:
254,265,118975,2,0,P|257:226|264:188,1,71.9999978027344,0|0,3:0|3:0,0:0:0:0:
166,382,119328,6,0,P|161:343|155:304,1,71.9999978027344,0|0,3:0|3:0,0:0:0:0:
240,268,119681,2,0,P|244:229|251:191,1,71.9999978027344,0|0,3:0|3:0,0:0:0:0:
198,102,120034,6,2,B|266:93|266:93|335:156|335:156|426:109,1,180.000006866455,6|0,1:0|0:0,0:1:0:0:
509,46,120298,2,2,B|467:-3|467:-3|354:48,1,180.000006866455,10|0,0:1|0:0,0:1:0:0:
468,199,120563,2,0,B|483:153|483:153|405:59,1,90.0000034332277,10|0,0:1|0:0,0:0:0:0:
356,154,120740,6,2,B|378:175|378:175|269:222|269:222|314:252,1,180.000006866455,6|0,1:0|0:0,0:1:0:0:
451,351,121004,2,2,B|495:278|495:278|427:302|427:302|378:291,1,180.000006866455,10|0,0:1|0:0,0:1:0:0:
336,381,121269,2,0,B|296:343|296:343|201:355,1,90.0000034332277,10|0,0:1|0:0,0:0:0:0:
193,271,121445,2,0,B|154:308|154:308|58:296,1,90.0000034332277,6|0,1:0|0:0,0:0:0:0:
10,370,121622,5,2,0:1:0:0:
10,370,121710,2,2,B|35:321|35:321|19:214|19:214|77:256,1,180.000006866455,10|0,0:1|0:0,0:1:0:0:
131,203,121975,2,0,B|156:165|156:165|72:121,1,90.0000034332277,10|0,0:1|0:0,0:0:0:0:
2,93,122151,2,2,B|-22:55|-22:55|90:11|90:11|72:56,1,180.000006866455,6|2,1:0|0:1,0:1:0:0:
156,160,122416,2,2,B|128:104|128:104|225:123|225:123|250:102,1,180.000006866455,10|0,0:1|0:0,0:1:0:0:
314,14,122681,2,0,B|358:60|358:60|336:171,1,90.0000034332277,10|0,0:1|0:0,0:0:0:0:
412,202,122857,6,2,B|361:172|361:172|272:223|272:223|313:239,1,180.000006866455,6|0,1:0|0:0,0:1:0:0:
452,362,123122,2,2,B|472:286|472:286|403:322|403:322|320:301,1,180.000006866455,10|0,0:1|0:0,0:1:0:0:
218,317,123387,2,0,B|264:322|264:322|291:365,1,90.0000034332277,10|0,0:1|0:0,0:0:0:0:
116,359,123563,2,2,B|79:379|79:379|50:304|50:304|100:262,1,180.000006866455,6|0,1:0|0:0,0:1:0:0:
201,236,123828,2,2,B|232:214|232:214|107:178|107:178|96:131,1,180.000006866455,10|0,0:1|0:0,0:1:0:0:
41,76,124093,2,0,B|76:27|76:27|105:58,1,90.0000034332277,10|0,0:1|0:0,0:0:0:0:
212,102,124269,6,2,B|274:114|274:114|203:-2,1,180.000006866455,6|0,1:0|0:0,0:1:0:0:
132,141,124534,2,2,B|140:214|140:214|117:240|117:240|159:298|159:298|147:331,1,180.000006866455,10|0,0:1|0:0,0:1:0:0:
211,382,124798,2,0,B|244:338|244:338|331:347,1,90.0000034332277,10|0,0:1|0:0,0:0:0:0:
385,382,124975,5,10,0:1:0:0:
415,346,125063,1,8,0:0:0:0:
399,298,125151,2,0,L|343:308,1,30,2|0,1:0|0:0,0:0:0:0:
267,234,125328,5,10,0:1:0:0:
238,198,125416,1,8,0:0:0:0:
255,155,125504,2,0,L|286:160,1,30,2|0,1:0|0:0,0:0:0:0:
371,96,125681,6,2,B|376:144|376:144|350:197|350:197|392:224|392:224|369:282|369:282|385:384,2,270.000010299683,6|0|0,1:0|1:0|1:0,0:1:0:0:
436,42,126387,1,10,0:1:0:0:
446,43,126475,1,0,1:0:0:0:
456,45,126563,1,0,1:0:0:0:
467,47,126651,1,0,1:0:0:0:
478,49,126740,1,0,1:0:0:0:
489,51,126828,1,0,1:0:0:0:
499,53,126916,2,0,L|489:95,1,30,0|0,1:0|1:0,0:0:0:0:
371,96,127093,6,2,B|365:144|365:144|391:197|391:197|349:224|349:224|372:282|372:282|356:384,2,270.000010299683,2|0|0,1:0|1:0|1:0,0:1:0:0:
268,96,127798,1,10,0:1:0:0:
267,87,127887,1,0,1:0:0:0:
265,76,127975,1,0,1:0:0:0:
263,65,128063,1,0,1:0:0:0:
261,54,128151,1,0,1:0:0:0:
259,43,128240,1,0,1:0:0:0:
258,32,128328,2,0,L|302:26,1,30,0|0,1:0|1:0,0:0:0:0:
371,96,128504,6,2,B|376:144|376:144|350:197|350:197|392:224|392:224|369:282|369:282|385:384,2,270.000010299683,2|0|0,1:0|1:0|1:0,0:1:0:0:
248,135,129210,1,8,0:0:0:0:
238,134,129298,1,0,1:0:0:0:
227,132,129387,1,0,1:0:0:0:
216,130,129475,1,2,1:0:0:0:
205,128,129563,1,0,1:0:0:0:
194,126,129651,1,0,1:0:0:0:
183,125,129740,1,2,1:0:0:0:
171,122,129828,1,0,1:0:0:0:
162,120,129916,6,2,B|131:166|131:166|300:207|300:207|258:146,1,264.000008056641,6|0,1:0|0:0,0:1:0:0:
281,179,130181,2,0,B|265:148|265:148|185:207|185:207|233:285,1,192,8|0,0:0|0:0,0:0:0:0:
215,256,130445,1,8,0:0:0:0:
281,179,130622,5,8,0:0:0:0:
283,21,131328,5,6,1:2:0:0:
283,21,132740,1,6,1:2:0:0:
283,21,134151,1,6,1:2:0:0:
283,21,135563,1,6,1:2:0:0:
283,21,136445,5,0,1:0:0:0:
241,92,136622,1,8,0:0:0:0:
275,164,136798,1,2,1:2:0:0:
193,271,136975,5,6,1:2:0:0:
190,287,137328,1,0,1:0:0:0:
187,302,137681,1,2,1:2:0:0:
184,318,138034,1,0,1:0:0:0:
316,231,138387,5,6,1:2:0:0:
311,207,138740,1,0,1:0:0:0:
307,184,139093,1,2,1:2:0:0:
302,160,139445,1,0,1:0:0:0:
193,19,139798,5,6,1:2:0:0:
187,46,140151,1,0,1:0:0:0:
182,73,140504,1,2,1:2:0:0:
177,99,140857,1,0,1:0:0:0:
316,231,141210,5,6,1:2:0:0:
316,231,141916,1,10,0:0:0:0:
255,207,142004,1,8,0:0:0:0:
192,186,142093,1,0,1:0:0:0:
288,194,142269,5,8,0:0:0:0:
256,207,142357,1,8,0:0:0:0:
226,219,142445,1,2,1:2:0:0:
171,354,142622,6,0,P|143:288|52:302,1,144,6|2,1:2|0:0,0:0:0:0:
77,281,142975,2,0,P|46:253|76:211,2,83.9999974365235,8|2|2,0:0|3:2|1:2,0:0:0:0:
62,119,143504,1,0,3:0:0:0:
62,119,143681,2,0,P|143:163|181:217,1,125.999996154785,8|0,0:0|0:0,0:0:0:0:
205,270,144034,2,0,P|255:232|251:204,1,83.9999974365235,2|2,1:2|3:2,0:0:0:0:
291,132,144298,1,2,0:0:0:0:
291,132,144387,2,0,P|241:94|257:44,2,83.9999974365235,8|2|2,0:0|3:2|1:2,0:0:0:0:
403,50,144916,5,0,3:0:0:0:
403,50,145093,2,0,P|388:115|375:207,1,125.999996154785,8|0,0:0|0:0,0:0:0:0:
378,173,145445,2,0,B|334:188|334:188|274:148,1,83.9999974365235,2|0,1:2|3:0,0:0:0:0:
287,88,145798,1,8,0:0:0:0:
184,175,145975,5,2,3:2:0:0:
184,175,146151,2,0,P|199:222|206:283,1,83.9999974365235,2|2,1:2|3:2,0:0:0:0:
285,294,146416,1,2,0:0:0:0:
285,294,146504,2,0,P|270:342|263:402,1,83.9999974365235,10|2,0:0|3:2,0:0:0:0:
298,196,146857,6,0,P|366:208|368:272,1,125.999996154785,2|2,1:2|0:0,0:0:0:0:
375,255,147210,1,8,0:0:0:0:
441,327,147387,1,2,3:2:0:0:
365,377,147563,2,0,P|326:342|278:341,1,83.9999974365235,2|8,1:2|0:0,0:0:0:0:
245,247,147916,2,0,P|206:282|158:283,1,83.9999974365235,0|10,1:0|0:0,0:0:0:0:
88,325,148269,2,0,P|56:256|135:241,1,144,6|2,1:2|0:0,0:0:0:0:
102,227,148622,2,0,L|80:106,2,96,8|2|2,0:0|3:2|1:2,0:0:0:0:
198,255,149151,5,0,3:0:0:0:
198,255,149328,2,0,B|236:246|270:280|239:293|266:325|315:324,1,144,8|0,0:0|0:0,0:0:0:0:
406,354,149681,2,0,B|424:302|424:302|378:235,1,96,2|0,1:2|3:0,0:0:0:0:
316,222,149945,1,2,0:0:0:0:
316,222,150034,2,0,B|298:171|298:171|343:103,2,96,10|2|2,0:0|3:2|1:2,0:0:0:0:
408,107,150563,1,0,3:0:0:0:
408,107,150740,2,0,P|393:44|305:66,1,144,8|0,0:0|0:0,0:0:0:0:
233,106,151093,6,0,P|150:117|183:201,1,143.999995605469,6|0,1:2|0:0,0:0:0:0:
143,164,151357,2,0,P|191:173|215:137,1,71.9999978027344,2|0,1:2|0:0,0:0:0:0:
359,42,151622,5,10,0:0:0:0:
359,42,151710,1,10,0:0:0:0:
359,42,151798,2,0,L|398:255,1,180.000006866455,6|0,1:2|0:0,0:0:0:0:
391,219,152063,2,0,L|408:124,1,90.0000034332277,2|0,1:2|0:0,0:0:0:0:
270,269,152328,5,10,0:0:0:0:
270,269,152416,1,8,0:0:0:0:
270,269,152504,2,0,B|184:263|158:320|208:343|149:397|59:366,1,215.999993408203,6|0,1:2|0:0,0:0:0:0:
102,374,152769,2,0,P|89:340|115:309,1,53.9999983520508,2|0,1:2|0:0,0:0:0:0:
191,31,153034,5,8,0:3:0:0:
191,31,153210,2,0,B|245:68|245:68|226:167,1,120,10|2,0:0|1:2,0:0:0:0:
117,175,153475,2,0,B|63:138|63:138|82:39,1,120,10|0,0:0|1:0,0:0:0:0:
157,110,153740,2,0,L|180:248,1,120,10|2,0:0|0:0,0:0:0:0:
159,377,154093,6,0,P|242:303|357:293,1,215.999993408203,4|0,1:2|0:0,0:0:0:0:
342,290,154357,2,0,P|247:258|191:176,1,180.000006866455,0|0,1:0|0:0,0:0:0:0:
198,197,154622,2,0,P|213:275|177:350,1,143.999995605469,0|0,1:0|0:0,0:0:0:0:
190,333,154887,2,0,P|237:291|301:287,1,107.999996704102,0|0,1:0|0:0,0:0:0:0:
279,283,155151,2,0,P|232:271|195:239,1,71.9999978027344,0|0,1:0|0:0,0:0:0:0:
212,258,155328,6,0,P|215:277|212:296,1,36,4|0,1:2|0:0,0:0:0:0:
405,200,156034,5,0,1:0:0:0:
405,200,156298,1,0,1:0:0:0:
405,200,156563,1,0,1:0:0:0:
405,200,157445,5,0,1:0:0:0:
405,200,157709,1,0,1:0:0:0:
405,200,157974,1,0,1:0:0:0:
405,200,158151,5,4,1:2:0:0:
408,215,158240,1,0,1:0:0:0:
423,226,158328,1,0,1:0:0:0:
445,232,158416,1,0,1:0:0:0:
475,225,158504,1,8,0:0:0:0:
489,196,158593,1,0,1:0:0:0:
478,156,158681,1,0,1:0:0:0:
440,130,158769,1,0,1:0:0:0:
388,128,158857,1,8,0:0:0:0:
336,159,158945,1,0,1:0:0:0:
281,144,159034,1,0,1:0:0:0:
249,91,159122,1,0,1:0:0:0:
264,32,159210,1,8,0:0:0:0:
317,3,159298,1,0,1:0:0:0:
374,19,159387,1,0,1:0:0:0:
404,71,159475,1,0,1:0:0:0:
388,128,159563,5,8,0:0:0:0:
47,339,159916,5,6,1:2:0:0:
47,339,160269,1,6,1:2:0:0:
47,339,160622,5,10,0:0:0:0:
59,271,160710,1,8,0:0:0:0:
70,200,160798,1,8,0:0:0:0:
83,131,160887,1,8,0:0:0:0:
15,155,160975,6,0,B|72:132|127:184|79:205|114:261|189:248,1,204.000003890991,6|8,1:2|0:0,0:0:0:0:
251,131,161240,1,2,1:2:0:0:
242,112,161328,2,0,P|213:108|203:180,1,83.9999974365235,0|0,0:0|1:0,0:0:0:0:
247,364,161504,2,0,P|285:210|313:157,1,167.999994873047,10|0,0:0|1:0,0:0:0:0:
379,201,161769,1,0,0:0:0:0:
392,197,161857,2,0,B|398:158|398:158|351:128,1,83.9999974365235,10|0,0:0|0:0,0:0:0:0:
211,57,162034,2,0,B|173:81|173:81|179:120,1,83.9999974365235,2|0,1:2|1:0,0:0:0:0:
264,205,162210,2,0,L|286:80,1,83.9999974365235,10|0,0:0|0:0,0:0:0:0:
95,15,162387,6,0,P|36:27|107:108,1,167.999994873047,2|8,1:2|0:0,0:0:0:0:
153,117,162651,2,0,P|134:167|127:256,1,83.9999974365235,2|0,1:2|0:0,0:0:0:0:
25,268,162828,1,0,1:0:0:0:
25,268,162916,2,0,B|70:258|111:296|74:313|99:352|152:349,1,167.999994873047,10|0,0:0|1:0,0:0:0:0:
258,382,163181,5,0,0:0:0:0:
258,382,163269,2,0,B|280:345|280:345|245:302,1,83.9999974365235,10|0,0:0|0:0,0:0:0:0:
180,231,163445,1,2,1:2:0:0:
180,231,163534,1,0,1:0:0:0:
180,231,163622,2,0,B|157:194|157:194|192:151,1,83.9999974365235,10|0,0:0|0:0,0:0:0:0:
292,239,163798,6,0,P|237:256|91:335,1,167.999994873047,2|8,1:2|0:0,0:0:0:0:
42,248,164063,2,0,P|61:150|125:203,1,167.999994873047,2|2,1:2|1:2,0:0:0:0:
218,72,164328,1,10,0:0:0:0:
218,72,164416,1,0,0:0:0:0:
218,72,164504,2,0,L|179:290,1,167.999994873047,2|8,1:2|0:0,0:0:0:0:
75,280,164769,2,0,P|75:234|114:208,1,83.9999974365235,2|0,0:0|1:0,0:0:0:0:
291,162,164945,1,0,1:0:0:0:
291,162,165034,2,0,P|320:190|319:230,1,83.9999974365235,10|0,0:0|0:0,0:0:0:0:
332,375,165210,6,0,P|253:318|160:295,1,167.999994873047,2|8,1:2|0:0,0:0:0:0:
187,298,165475,1,0,1:0:0:0:
77,170,165651,1,0,1:0:0:0:
77,170,165740,1,8,0:0:0:0:
203,59,165916,1,0,1:0:0:0:
285,193,166093,6,0,B|325:201|325:201|366:159,1,83.9999974365235,10|0,0:0|0:0,0:0:0:0:
464,148,166269,1,2,1:2:0:0:
464,148,166357,1,0,1:0:0:0:
464,148,166445,2,0,B|472:107|472:107|430:66,1,83.9999974365235,10|0,0:0|0:0,0:0:0:0:
239,89,166622,6,0,L|279:320,1,167.999994873047,6|8,1:2|0:0,0:0:0:0:
149,261,166887,2,0,P|136:193|52:260,1,167.999994873047,2|0,1:2|1:0,0:0:0:0:
55,204,167151,2,0,L|66:273,1,45.0000017166138,10|0,0:0|0:0,0:0:0:0:
241,278,167328,6,0,L|288:7,1,204.000003890991,6|8,1:2|0:0,0:0:0:0:
370,121,167593,2,0,P|384:199|480:122,1,204.000003890991,2|0,0:0|1:0,0:0:0:0:
482,175,167857,2,0,L|469:95,1,60,10|0,0:0|0:0,0:0:0:0:
241,69,168034,6,0,L|278:310,1,215.999993408203,6|8,1:2|0:0,0:0:0:0:
159,267,168298,2,0,P|144:183|41:266,1,215.999993408203,2|0,1:2|1:0,0:0:0:0:
39,206,168563,2,0,L|54:302,1,90.0000034332277,10|0,0:0|0:0,0:0:0:0:
273,282,168740,6,0,P|283:203|315:77,1,167.999994873047,2|8,1:2|0:0,0:0:0:0:
230,38,169004,2,0,P|191:84|257:110,1,83.9999974365235,2|0,0:0|1:0,0:0:0:0:
209,115,169181,1,0,1:0:0:0:
225,123,169269,2,0,B|273:113|315:154|278:171|302:211|359:209,1,167.999994873047,8|0,0:0|1:0,0:0:0:0:
464,123,169534,5,0,0:0:0:0:
464,123,169622,2,0,P|402:123|356:110,1,83.9999974365235,10|0,0:0|1:0,0:0:0:0:
211,205,169798,2,0,P|195:230|231:281,1,83.9999974365235,2|0,0:0|1:0,0:0:0:0:
285,360,169975,2,0,P|328:375|361:343,1,83.9999974365235,10|0,0:0|0:0,0:0:0:0:
326,280,170151,6,0,P|258:312|121:412,1,167.999994873047,2|8,1:2|0:0,0:0:0:0:
84,322,170416,1,2,0:0:0:0:
84,322,170504,2,0,P|83:266|123:254,1,83.9999974365235,0|0,1:0|1:0,0:0:0:0:
204,143,170681,2,0,L|187:238,1,83.9999974365235,10|0,0:0|0:0,0:0:0:0:
349,383,170857,6,0,P|348:257|247:331,1,288,6|0,1:2|1:0,0:0:0:0:
253,320,171210,5,10,0:0:0:0:
269,320,171298,1,0,1:0:0:0:
286,305,171387,1,0,1:0:0:0:
296,274,171475,1,0,1:0:0:0:
275,235,171563,1,10,0:0:0:0:
222,228,171651,1,0,1:0:0:0:
174,197,171740,1,0,1:0:0:0:
149,143,171828,1,0,1:0:0:0:
162,82,171916,1,10,0:0:0:0:
214,52,172004,1,0,1:0:0:0:
273,63,172093,1,0,1:0:0:0:
296,117,172181,1,0,1:0:0:0:
273,169,172269,6,0,P|225:128|2:54,1,204.000003890991,6|8,1:2|0:0,0:0:0:0:
41,201,172534,2,0,P|89:195|91:112,1,83.9999974365235,2|0,1:2|0:0,0:0:0:0:
183,8,172710,1,0,1:0:0:0:
202,1,172798,2,0,B|249:-8|290:31|253:48|278:87|333:85,1,167.999994873047,10|0,0:0|1:0,0:0:0:0:
464,49,173063,1,0,0:0:0:0:
464,49,173151,2,0,P|420:40|363:17,1,83.9999974365235,10|0,0:0|0:0,0:0:0:0:
261,79,173328,2,0,P|226:110|279:183,1,83.9999974365235,2|0,1:2|1:0,0:0:0:0:
377,221,173504,2,0,P|413:190|359:117,1,83.9999974365235,10|0,0:0|0:0,0:0:0:0:
318,162,173681,6,0,P|271:232|244:376,1,167.999994873047,2|10,1:2|0:0,0:0:0:0:
157,368,173945,2,0,P|128:263|207:271,1,167.999994873047,2|0,1:2|1:0,0:0:0:0:
296,383,174210,2,0,B|340:391|374:351|337:336|367:293|424:288,1,167.999994873047,10|0,0:0|1:0,0:0:0:0:
505,211,174475,1,0,0:0:0:0:
505,211,174563,2,0,P|457:202|401:161,1,83.9999974365235,10|0,0:0|0:0,0:0:0:0:
333,97,174740,1,2,1:2:0:0:
333,97,174828,1,0,1:0:0:0:
333,97,174916,2,0,P|292:121|244:129,1,83.9999974365235,10|2,0:0|0:0,0:0:0:0:
351,244,175093,6,0,P|375:145|429:20,1,167.999994873047,2|10,1:2|0:0,0:0:0:0:
309,25,175357,2,0,P|224:43|276:145,1,167.999994873047,2|2,1:2|1:2,0:0:0:0:
183,233,175622,2,0,P|146:186|100:222,1,83.9999974365235,10|0,0:0|0:0,0:0:0:0:
55,299,175798,2,0,P|133:309|199:365,1,167.999994873047,2|8,1:2|0:0,0:0:0:0:
266,281,176063,2,0,P|275:225|308:168,1,83.9999974365235,2|0,0:0|1:0,0:0:0:0:
211,127,176240,1,0,1:0:0:0:
211,127,176328,2,0,P|202:72|169:14,1,83.9999974365235,10|0,0:0|0:0,0:0:0:0:
285,1,176504,2,0,P|361:23|329:110,1,167.999994873047,2|8,1:2|0:0,0:0:0:0:
350,97,176769,5,0,1:0:0:0:
191,20,176945,1,0,1:0:0:0:
191,20,177034,1,8,0:0:0:0:
121,188,177210,1,0,1:0:0:0:
339,244,177387,5,10,0:0:0:0:
309,192,177475,1,8,0:0:0:0:
256,196,177563,1,10,0:3:0:0:
233,237,177651,1,8,0:3:0:0:
238,262,177740,1,6,0:3:0:0:
254,274,177828,1,4,0:3:0:0:
266,270,177916,6,0,B|283:164|214:223|241:96,1,167.999994873047,6|0,1:2|3:0,0:0:0:0:
357,154,178181,2,0,P|444:179|394:257,1,167.999994873047,10|0,0:0|0:0,0:0:0:0:
433,238,178445,1,10,0:0:0:0:
239,277,178622,6,0,B|215:163|298:217|266:96,1,192,6|0,1:2|3:0,0:0:0:0:
149,154,178887,2,0,P|57:178|105:261,1,192,10|0,0:0|0:0,0:0:0:0:
78,250,179151,1,10,0:0:0:0:
272,288,179328,6,0,B|299:155|205:216|242:78,1,215.999993408203,6|0,1:2|3:0,0:0:0:0:
356,147,179593,2,0,P|452:172|402:258,1,215.999993408203,10|0,0:0|0:0,0:0:0:0:
415,254,179857,1,10,0:0:0:0:
340,367,180034,2,0,P|289:333|230:328,1,83.9999974365235,2|0,1:2|0:0,0:0:0:0:
160,368,180210,5,10,0:0:0:0:
131,317,180298,1,10,0:0:0:0:
154,264,180387,1,8,0:0:0:0:
198,223,180475,1,8,0:0:0:0:
220,170,180563,1,8,0:0:0:0:
187,123,180651,1,8,0:0:0:0:
140,115,180740,6,0,P|172:190|221:351,1,204.000003890991,4|10,1:2|0:0,0:0:0:0:
305,263,181004,1,0,1:0:0:0:
305,263,181093,2,0,P|310:203|259:191,1,83.9999974365235,2|0,0:0|1:0,0:0:0:0:
122,128,181269,2,0,P|91:162|106:205,1,83.9999974365235,10|0,0:0|0:0,0:0:0:0:
186,277,181445,6,0,P|201:179|250:53,1,167.999994873047,2|8,1:2|0:0,0:0:0:0:
296,42,181710,1,2,0:0:0:0:
296,42,181798,2,0,P|337:84|297:133,1,83.9999974365235,0|0,1:0|1:0,0:0:0:0:
325,205,181975,2,0,P|369:188|418:182,1,83.9999974365235,10|0,0:0|0:0,0:0:0:0:
329,379,182151,6,0,B|271:385|228:332|275:312|237:255|165:266,1,204.000003890991,4|10,1:2|0:0,0:0:0:0:
83,316,182416,1,0,1:0:0:0:
83,316,182504,2,0,B|59:284|59:284|82:228,1,83.9999974365235,2|0,0:0|1:0,0:0:0:0:
207,173,182681,2,0,P|142:163|89:145,1,83.9999974365235,10|0,0:0|0:0,0:0:0:0:
256,82,182857,6,0,P|334:144|280:192,1,167.999994873047,2|8,1:2|0:0,0:0:0:0:
175,242,183122,1,2,0:0:0:0:
175,242,183210,2,0,P|239:263|273:318,1,83.9999974365235,0|0,1:0|1:0,0:0:0:0:
331,341,183387,2,0,P|366:309|413:300,1,83.9999974365235,10|0,0:0|0:0,0:0:0:0:
272,381,183563,6,0,P|284:276|323:154,1,204.000003890991,4|10,1:2|0:0,0:0:0:0:
275,76,183828,1,0,1:0:0:0:
275,76,183916,2,0,P|215:86|225:151,1,83.9999974365235,2|0,0:0|1:0,0:0:0:0:
263,218,184093,2,0,P|287:257|333:255,1,83.9999974365235,10|0,0:0|0:0,0:0:0:0:
308,145,184269,6,0,P|229:174|117:291,1,167.999994873047,2|8,1:2|0:0,0:0:0:0:
82,190,184534,1,2,0:0:0:0:
82,190,184622,2,0,B|63:149|63:149|103:91,1,83.9999974365235,0|0,1:0|1:0,0:0:0:0:
167,15,184798,2,0,L|189:140,1,83.9999974365235,10|0,0:0|0:0,0:0:0:0:
179,212,184975,6,2,B|229:218|229:218|277:162|277:162|371:206,1,180.000006866455,6|8,1:0|0:0,0:1:0:0:
459,263,185240,1,0,1:0:0:0:
459,263,185328,2,2,B|419:327|419:327|375:276|375:276|305:251,1,180.000006866455,2|8,0:1|0:0,0:1:0:0:
463,105,185593,1,0,0:0:0:0:
463,105,185681,2,0,B|453:133|453:133|423:154|423:154|436:223,1,90.0000034332277,2|0,1:0|0:0,0:0:0:0:
315,379,185857,2,0,B|296:341|296:341|189:339,1,90.0000034332277,8|0,0:0|0:0,0:0:0:0:
141,382,186034,5,2,1:0:0:0:
155,306,186122,1,8,0:0:0:0:
166,233,186210,1,8,0:0:0:0:
180,161,186298,1,8,0:0:0:0:
110,107,186387,6,0,L|148:322,1,204.000003890991,4|10,1:2|0:0,0:0:0:0:
226,382,186651,1,0,1:0:0:0:
226,382,186740,2,0,P|236:330|290:321,1,83.9999974365235,2|0,0:0|1:0,0:0:0:0:
354,247,186916,2,0,P|396:266|401:311,1,83.9999974365235,10|0,0:0|0:0,0:0:0:0:
339,380,187093,6,0,P|293:263|234:167,1,167.999994873047,2|8,1:2|0:0,0:0:0:0:
161,193,187357,1,2,0:0:0:0:
161,193,187445,2,0,B|157:235|157:235|215:274,1,83.9999974365235,0|0,1:0|1:0,0:0:0:0:
354,183,187622,2,0,B|357:140|357:140|299:101,1,83.9999974365235,10|0,0:0|0:0,0:0:0:0:
123,111,187798,6,0,B|186:121|230:69|182:49|221:-7|292:2,1,204.000003890991,4|10,1:2|0:0,0:0:0:0:
300,11,188063,1,0,1:0:0:0:
315,28,188151,2,0,P|314:82|242:87,1,83.9999974365235,2|0,0:0|1:0,0:0:0:0:
203,180,188328,2,0,P|161:184|131:154,1,83.9999974365235,10|0,0:0|0:0,0:0:0:0:
214,35,188504,6,0,P|236:112|250:269,1,167.999994873047,2|8,1:2|0:0,0:0:0:0:
257,317,188769,2,0,B|286:284|286:284|354:300,1,83.9999974365235,2|0,0:0|1:0,0:0:0:0:
402,225,188945,1,0,1:0:0:0:
402,225,189034,2,0,B|431:257|431:257|499:241,1,83.9999974365235,10|0,0:0|0:0,0:0:0:0:
379,376,189210,6,0,B|407:254|311:318|345:157,1,204.000003890991,4|10,1:2|0:0,0:0:0:0:
391,93,189475,1,0,1:0:0:0:
391,93,189563,2,0,P|436:127|394:187,1,83.9999974365235,2|0,0:0|1:0,0:0:0:0:
275,254,189740,2,0,P|230:221|272:161,1,83.9999974365235,10|0,0:0|0:0,0:0:0:0:
391,235,189916,2,0,L|368:360,1,83.9999974365235,2|0,1:2|0:0,0:0:0:0:
322,382,190093,5,8,0:0:0:0:
291,326,190181,1,10,0:0:0:0:
231,302,190269,1,8,0:0:0:0:
173,329,190357,1,8,0:0:0:0:
140,384,190445,1,10,0:0:0:0:
75,379,190534,1,8,0:0:0:0:
46,322,190622,5,6,1:2:0:0:
88,69,191328,5,10,0:0:0:0:
88,69,191593,1,10,0:0:0:0:
88,69,191857,1,10,0:0:0:0:
88,69,192034,6,0,P|213:91|192:136,1,227.999993911743,6|8,1:2|0:0,0:0:0:0:
111,165,192298,1,0,1:0:0:0:
111,165,192387,2,0,P|81:216|69:296,1,96,0|0,3:0|1:0,0:0:0:0:
110,350,192563,2,0,B|164:358|202:311|161:294|194:245|256:254,1,192,10|0,0:0|1:0,0:0:0:0:
359,309,192828,1,0,0:0:0:0:
359,309,192916,2,0,P|365:261|399:172,1,96,8|0,0:0|0:0,0:0:0:0:
301,153,193093,1,2,1:2:0:0:
301,153,193181,1,0,1:0:0:0:
301,153,193269,2,0,P|295:104|261:15,1,96,8|0,0:0|0:0,0:0:0:0:
379,18,193445,6,0,P|431:17|446:75,1,96,0|0,1:0|0:0,0:0:0:0:
509,151,193622,1,10,0:0:0:0:
509,151,193710,2,0,P|455:163|298:269,1,192,0|0,1:0|1:0,0:0:0:0:
255,174,193975,2,0,P|223:120|279:90,1,96,8|0,0:0|0:0,0:0:0:0:
340,32,194151,2,0,B|332:156|419:85|369:247,1,192,2|8,1:2|0:0,0:0:0:0:
337,340,194416,2,0,P|324:300|237:300,1,96,2|0,0:0|1:0,0:0:0:0:
169,217,194593,1,0,1:0:0:0:
169,217,194681,2,0,P|117:226|95:275,1,96,10|0,0:0|0:0,0:0:0:0:
183,348,194857,1,0,1:0:0:0:
51,29,195034,5,10,0:0:0:0:
38,42,195122,1,0,1:0:0:0:
32,61,195210,1,2,0:0:0:0:
38,79,195298,2,0,P|100:98|141:45,1,96,2|8,1:2|0:0,0:0:0:0:
281,48,195475,2,2,B|234:61|234:61|211:148|211:148|145:173,1,192,2|0,0:1|0:0,0:1:0:0:
68,186,195740,2,0,P|55:211|138:245,1,96,10|0,0:0|0:0,0:0:0:0:
247,341,195916,2,0,P|289:311|277:261,1,96,2|0,1:2|1:0,0:0:0:0:
200,181,196093,2,0,L|177:305,1,96,10|0,0:0|0:0,0:0:0:0:
242,368,196269,6,0,B|298:377|338:329|295:311|330:260|394:269,1,192,2|8,1:2|0:0,0:0:0:0:
471,213,196534,2,0,P|457:173|369:218,1,96,2|0,1:2|0:0,0:0:0:0:
317,87,196710,1,2,1:2:0:0:
317,87,196798,2,0,P|264:100|245:150,1,96,10|0,0:0|0:0,0:0:0:0:
333,235,196975,2,0,P|367:111|420:-13,1,192,2|8,1:2|0:0,0:0:0:0:
407,302,197328,1,0,1:0:0:0:
407,302,197416,1,0,1:0:0:0:
407,302,197504,2,0,P|396:367|312:345,1,96,8|0,0:0|0:0,0:0:0:0:
242,299,197681,6,0,P|255:177|274:56,1,192,6|8,1:2|0:0,0:0:0:0:
334,29,197945,2,0,P|390:60|357:122,1,96,2|0,1:2|0:0,0:0:0:0:
454,157,198122,1,0,1:0:0:0:
454,157,198210,2,0,P|424:212|361:180,1,96,10|0,0:0|0:0,0:0:0:0:
262,310,198387,6,0,P|247:177|225:47,1,215.999993408203,6|8,1:2|0:0,0:0:0:0:
163,27,198651,2,0,P|107:58|140:120,1,107.999996704102,2|0,0:0|1:0,0:0:0:0:
35,174,198828,1,0,1:0:0:0:
35,174,198916,2,0,P|66:229|128:196,1,107.999996704102,10|0,0:0|0:0,0:0:0:0:
226,328,199093,6,0,P|243:197|264:67,1,251.999992309571,6|8,1:2|0:0,0:0:0:0:
350,27,199357,2,0,P|405:58|372:120,1,125.999996154785,2|0,1:2|0:0,0:0:0:0:
468,186,199534,1,0,1:0:0:0:
468,186,199622,2,0,P|437:241|374:209,1,125.999996154785,10|0,0:0|0:0,0:0:0:0:
314,304,199798,6,0,P|239:319|108:406,1,204.000003890991,2|8,1:2|0:0,0:0:0:0:
69,314,200063,2,0,P|53:270|115:254,1,96,2|0,0:0|1:0,0:0:0:0:
107,250,200240,1,0,1:0:0:0:
124,261,200328,2,0,P|110:120|87:-18,1,192,10|0,0:0|1:0,0:0:0:0:
263,151,200681,5,10,0:0:0:0:
263,151,200769,2,0,P|346:169|323:291,1,192,0|0,1:0|1:0,0:0:0:0:
230,317,201034,2,0,P|230:257|312:240,1,96,10|0,0:0|0:0,0:0:0:0:
439,158,201210,2,0,P|483:213|474:244,1,96,2|0,1:2|0:0,0:0:0:0:
348,377,201387,1,8,0:0:0:0:
348,377,201475,2,0,P|356:289|384:109,1,192,2|0,0:0|1:0,0:0:0:0:
308,101,201740,2,0,P|256:120|288:184,1,96,10|0,0:0|0:0,0:0:0:0:
365,255,201916,5,6,1:2:0:0:
368,244,202004,1,0,1:0:0:0:
369,232,202093,1,0,1:0:0:0:
363,218,202181,1,0,1:0:0:0:
348,205,202269,1,8,0:0:0:0:
317,200,202357,1,0,1:0:0:0:
283,222,202445,1,0,1:0:0:0:
270,265,202534,1,0,1:0:0:0:
226,304,202622,1,8,0:0:0:0:
165,304,202710,1,0,1:0:0:0:
128,257,202798,1,0,1:0:0:0:
139,202,202887,1,0,1:0:0:0:
187,179,202975,6,0,L|193:140,3,35.9999989013672,10|2|2|2,0:0|1:2|1:2|1:2,0:0:0:0:
199,38,203328,5,6,1:2:0:0:
228,42,203416,1,0,3:0:0:0:
256,48,203504,1,8,0:0:0:0:
285,52,203593,1,0,1:0:0:0:
319,97,203681,5,2,3:2:0:0:
348,93,203769,1,0,1:0:0:0:
376,88,203857,1,8,0:0:0:0:
405,84,203945,1,0,3:0:0:0:
449,51,204034,5,2,1:2:0:0:
477,74,204122,1,0,3:0:0:0:
484,111,204210,1,8,0:0:0:0:
467,146,204298,1,0,3:0:0:0:
413,163,204387,5,2,1:2:0:0:
396,197,204475,1,0,1:0:0:0:
403,235,204563,1,8,0:0:0:0:
432,258,204651,1,0,3:0:0:0:
474,261,204740,6,0,L|461:324,3,35.9999989013672,2|0|8|0,1:2|3:0|0:0|1:0,0:0:0:0:
396,361,205093,5,2,3:2:0:0:
362,356,205181,1,0,1:0:0:0:
329,349,205269,1,8,0:0:0:0:
296,344,205357,1,0,3:0:0:0:
263,301,205445,5,2,1:2:0:0:
230,306,205534,1,0,3:0:0:0:
197,313,205622,1,8,0:0:0:0:
163,317,205710,1,0,3:0:0:0:
120,354,205798,5,2,1:2:0:0:
72,330,205887,1,0,1:0:0:0:
65,278,205975,1,8,0:0:0:0:
99,235,206063,1,0,3:0:0:0:
150,232,206151,6,0,L|165:139,1,83.9999974365235,2|0,1:2|3:0,0:0:0:0:
247,105,206328,2,0,L|232:12,1,83.9999974365235,10|0,0:0|1:0,0:0:0:0:
108,54,206504,6,0,B|82:80|82:80|95:147,1,83.9999974365235,2|0,3:2|1:0,0:0:0:0:
298,223,206681,2,0,B|321:196|321:196|309:128,1,83.9999974365235,10|0,0:0|3:0,0:0:0:0:
233,22,206857,6,0,L|247:105,1,83.9999974365235,2|0,1:2|3:0,0:0:0:0:
163,149,207034,2,0,L|150:232,1,83.9999974365235,10|0,0:0|3:0,0:0:0:0:
61,299,207210,6,0,P|47:255|102:204,1,83.9999974365235,2|0,1:2|1:0,0:0:0:0:
241,240,207387,2,0,P|255:284|200:335,1,83.9999974365235,10|0,0:0|3:0,0:0:0:0:
145,178,207563,6,0,B|200:180|233:138|188:121|234:78|310:84,1,192,2|8,1:2|0:0,0:0:0:0:
431,196,207828,2,0,P|519:135|471:86,1,192,2|0,1:2|1:0,0:0:0:0:
376,15,208093,2,0,L|403:171,1,96,10|0,0:0|0:0,0:0:0:0:
345,192,208269,2,2,B|300:204|300:204|277:291|277:291|212:316,1,192,2|8,1:0|0:0,0:1:0:0:
157,289,208534,5,8,0:0:0:0:
113,247,208622,1,8,0:3:0:0:
126,191,208710,1,8,0:3:0:0:
162,174,208798,1,4,0:3:0:0:
182,179,208887,1,4,0:3:0:0:
194,193,208975,6,0,P|282:131|301:238,1,251.999992309571,6|0,1:2|3:0,0:0:0:0:
257,362,209240,2,0,P|155:296|35:256,1,204.000003890991,10|0,0:0|0:0,0:0:0:0:
78,266,209504,2,0,P|60:336|117:382,1,102.000001945496,10|0,0:0|0:0,0:0:0:0:
311,194,209681,6,0,P|233:140|217:233,1,215.999993408203,6|0,1:2|3:0,0:0:0:0:
257,362,209945,2,0,P|358:297|478:256,1,180.000006866455,10|0,0:0|0:0,0:0:0:0:
412,274,210210,2,0,P|430:344|371:390,1,90.0000034332277,10|0,0:0|0:0,0:0:0:0:
209,175,210387,6,0,P|271:146|294:227,1,167.999994873047,6|0,1:2|3:0,0:0:0:0:
257,357,210651,2,0,P|163:297|53:260,1,155.999992858887,10|0,0:0|0:0,0:0:0:0:
122,279,210916,2,0,P|104:349|162:395,1,77.9999964294435,10|0,0:0|0:0,0:0:0:0:
257,357,211093,6,0,P|273:206|318:63,1,204.000003890991,2|8,1:2|0:0,0:0:0:0:
263,135,211357,1,10,0:0:0:0:
236,186,211445,1,8,0:0:0:0:
253,241,211534,1,8,0:0:0:0:
308,259,211622,1,10,0:0:0:0:
335,310,211710,1,8,0:0:0:0:
317,356,211798,6,0,P|183:297|74:268,1,204.000003890991,4|10,1:2|0:0,0:0:0:0:
41,200,212063,1,0,1:0:0:0:
30,173,212151,2,0,P|61:119|117:174,1,96,2|0,0:0|1:0,0:0:0:0:
188,66,212328,2,0,P|242:97|188:153,1,96,10|0,0:0|0:0,0:0:0:0:
141,203,212504,6,0,B|197:193|241:236|198:253|229:294|296:292,1,192,2|8,1:2|0:0,0:0:0:0:
408,309,212769,2,0,P|417:280|352:241,1,96,2|0,0:0|1:0,0:0:0:0:
231,184,212945,1,0,1:0:0:0:
231,184,213034,2,0,P|194:210|200:256,1,96,10|0,0:0|0:0,0:0:0:0:
268,379,213210,6,0,P|296:243|336:107,1,204.000003890991,4|10,1:2|0:0,0:0:0:0:
272,67,213475,1,0,1:0:0:0:
272,67,213563,2,0,B|230:92|230:92|247:153,1,96,2|0,0:0|1:0,0:0:0:0:
391,195,213740,2,0,B|432:169|432:169|415:108,1,96,10|0,0:0|0:0,0:0:0:0:
332,141,213916,6,0,P|283:213|216:351,1,192,2|8,1:2|0:0,0:0:0:0:
149,267,214181,2,0,P|119:223|193:169,1,96,2|0,0:0|1:0,0:0:0:0:
232,122,214357,1,0,1:0:0:0:
232,122,214445,2,0,P|262:77|189:24,1,96,10|0,0:0|0:0,0:0:0:0:
88,80,214622,6,0,B|146:109|146:109|163:174|163:174|184:186|233:209,1,204.000003890991,4|10,1:2|0:0,0:0:0:0:
337,208,214887,1,0,1:0:0:0:
337,208,214975,2,0,P|331:145|252:170,1,96,2|0,0:0|1:0,0:0:0:0:
166,320,215151,2,0,P|219:355|248:278,1,96,10|0,0:0|0:0,0:0:0:0:
159,181,215328,2,0,P|130:271|103:420,1,192,2|8,1:2|0:0,0:0:0:0:
251,185,215593,2,0,B|266:141|266:141|218:90,1,96,2|0,0:0|1:0,0:0:0:0:
233,105,215769,5,8,0:0:0:0:
306,121,215857,1,10,0:0:0:0:
375,137,215945,1,8,0:0:0:0:
443,153,216034,1,6,1:2:0:0:
195,38,216740,5,8,0:0:0:0:
312,154,217004,5,8,0:0:0:0:
223,254,217269,5,8,0:0:0:0:
269,345,217445,6,0,L|263:415,1,38.9999982147218,12|0,0:0|0:0,0:0:0:0:
