osu file format v14

[General]
AudioFilename: audio.mp3
AudioLeadIn: 0
PreviewTime: 159835
Countdown: 0
SampleSet: Soft
StackLeniency: 0.3
Mode: 0
LetterboxInBreaks: 0
WidescreenStoryboard: 1

[Editor]
DistanceSpacing: 0.6
BeatDivisor: 4
GridSize: 32
TimelineZoom: 5.199997

[Metadata]
Title:Imperfect Animals
TitleUnicode:インパーフェクトアニマルズ
Artist:Utsu-P
ArtistUnicode:鬱P
Creator:kuyusu
Version:Insane
Source:
Tags:Yoko Japanese Vocaloid rock metal utsup Inpaafekuto Animaruzu GREATEST SHITS ALGORITHM Kagamine Rin 鏡音リン GUMI MY SONG IS SHIT
BeatmapID:2861696
BeatmapSetID:1377324

[Difficulty]
HPDrainRate:5
CircleSize:4
OverallDifficulty:8.2
ApproachRate:9
SliderMultiplier:2
SliderTickRate:1

[Events]
//Background and Video events
0,0,"32132.jpg",0,0
//Break Periods
2,108740,113758
//Storyboard Layer 0 (Background)
//Storyboard Layer 1 (Fail)
//Storyboard Layer 2 (Pass)
//Storyboard Layer 3 (Foreground)
//Storyboard Layer 4 (Overlay)
//Storyboard Sound Samples

[TimingPoints]
1446,352.941176470588,4,2,2,40,1,0
1446,-200,4,2,2,40,0,0
6740,-1000,4,2,1,40,0,0
7093,-100,4,2,1,60,0,0
11328,-83.3333333333333,4,2,1,60,0,0
12740,-83.3333333333333,4,2,1,60,0,0
16975,-71.4285714285714,4,2,1,60,0,0
18034,-1000,4,2,1,60,0,0
18387,-76.9230769230769,4,2,1,65,0,0
29328,-66.6666666666667,4,2,1,65,0,0
29681,-142.857142857143,4,2,1,45,0,0
35328,-125,4,2,1,50,0,0
39563,-100,4,2,1,50,0,0
40975,-90.9090909090909,4,2,1,55,0,0
46269,-1000,4,2,1,55,0,0
46622,-111.111111111111,4,2,1,50,0,0
52269,-142.857142857143,4,2,1,45,0,0
57916,-125,4,2,1,50,0,0
60740,-111.111111111111,4,2,1,50,0,0
61445,-90.9090909090909,4,2,1,50,0,0
62151,-76.9230769230769,4,2,1,50,0,0
62857,-90.9090909090909,4,2,1,50,0,0
63740,-76.9230769230769,4,2,1,50,0,0
64004,-90.9090909090909,4,2,1,50,0,0
64269,-111.111111111111,4,2,1,50,0,0
64534,-142.857142857143,4,2,1,50,0,0
64975,-200,4,2,1,50,0,0
66387,-71.4285714285714,4,2,1,70,0,1
72034,-66.6666666666667,4,2,1,70,0,1
72740,-62.5,4,2,1,70,0,1
73445,-58.8235294117647,4,2,1,70,0,1
74151,-71.4285714285714,4,2,1,70,0,1
83328,-66.6666666666667,4,2,1,70,0,1
84034,-62.5,4,2,1,70,0,1
84740,-58.8235294117647,4,2,1,70,0,1
85445,-71.4285714285714,4,2,1,70,0,1
90387,-71.4285714285714,4,2,1,70,0,0
91798,-83.3333333333333,4,2,1,60,0,0
96034,-71.4285714285714,4,2,1,60,0,0
97445,-83.3333333333333,4,2,1,60,0,0
101681,-71.4285714285714,4,2,1,60,0,0
108387,-71.4285714285714,4,2,1,30,0,0
114387,-500,4,2,1,35,0,0
117210,-250,4,2,1,35,0,0
120034,-90.9090909090909,4,2,1,55,0,0
127093,-100,4,2,1,55,0,0
128504,-111.111111111111,4,2,1,55,0,0
129916,-90.9090909090908,4,2,1,55,0,0
131328,-90.9090909090908,4,2,1,40,0,0
136975,-90.9090909090908,4,2,1,45,0,0
141916,-125,4,2,1,45,0,0
142622,-125,4,2,1,50,0,0
151093,-111.111111111111,4,2,1,50,0,0
151798,-90.9090909090909,4,2,1,50,0,0
152504,-76.9230769230769,4,2,1,50,0,0
153210,-90.9090909090909,4,2,1,50,0,0
154093,-76.9230769230769,4,2,1,50,0,0
154357,-90.9090909090909,4,2,1,50,0,0
154622,-111.111111111111,4,2,1,50,0,0
154887,-142.857142857143,4,2,1,50,0,0
155328,-200,4,2,1,45,0,0
158151,-200,4,2,1,35,0,0
158504,-200,4,2,1,40,0,0
158857,-200,4,2,1,45,0,0
159210,-200,4,2,1,50,0,0
159563,-200,4,2,1,55,0,0
160975,-71.4285714285714,4,2,1,70,0,1
166622,-66.6666666666667,4,2,1,70,0,1
167328,-62.5,4,2,1,70,0,1
168033,-58.8235294117647,4,2,1,70,0,1
168739,-71.4285714285714,4,2,1,70,0,1
177916,-66.6666666666667,4,2,1,70,0,1
178622,-62.5,4,2,1,70,0,1
179328,-58.8235294117647,4,2,1,70,0,1
180033,-71.4285714285714,4,2,1,70,0,1
184887,-71.4285714285714,4,2,1,70,0,0
184975,-66.6666666666667,4,2,1,70,0,1
185240,-66.6666666666667,4,2,1,70,0,0
185328,-66.6666666666667,4,2,1,70,0,1
185593,-66.6666666666667,4,2,1,70,0,0
185681,-66.6666666666667,4,2,1,70,0,1
185945,-66.6666666666667,4,2,1,70,0,0
186034,-66.6666666666667,4,2,1,70,0,1
186387,-71.4285714285714,4,2,1,70,0,1
190622,-71.4285714285714,4,2,1,70,0,0
191328,-142.857142857143,4,2,1,70,0,0
192034,-71.4285714285715,4,2,1,75,0,0
197681,-66.6666666666667,4,2,1,75,0,0
198387,-62.5,4,2,1,75,0,0
199093,-58.8235294117647,4,2,1,75,0,0
199798,-71.4285714285714,4,2,1,75,0,0
201916,-100,4,2,1,75,0,0
203328,-83.3333333333333,4,2,1,75,0,1
204740,-71.4285714285714,4,2,1,75,0,1
206857,-66.6666666666667,4,2,1,75,0,1
207563,-71.4285714285714,4,2,1,75,0,1
208975,-71.4285714285714,4,2,1,75,0,0
209681,-76.9230769230769,4,2,1,75,0,0
210387,-83.3333333333333,4,2,1,75,0,0
211093,-71.4285714285714,4,2,1,75,0,0
216740,-100,4,2,1,75,0,0

[Colours]
Combo1 : 62,98,153
Combo2 : 158,31,37
Combo3 : 65,169,177
Combo4 : 67,152,63

[HitObjects]
16,56,1446,6,0,P|29:100|41:156,1,100,2|8,1:2|0:0,0:0:0:0:
109,82,1975,2,0,P|152:69|183:113,1,100,2|2,1:2|1:2,0:0:0:0:
125,163,2504,2,0,P|117:186|112:213,1,50,10|2,0:0|1:2,0:0:0:0:
124,313,2857,6,0,P|93:291|58:278,2,75,2|2|2,1:2|0:0|1:2,0:0:0:0:
306,384,3740,1,2,1:2:0:0:
306,384,3916,2,0,P|324:370|354:361,1,50,10|2,0:0|1:2,0:0:0:0:
427,382,4269,6,0,P|466:354|460:307,1,100,2|8,1:2|0:0,0:0:0:0:
383,287,4798,2,0,P|393:234|401:188,1,100,2|2,1:2|1:2,0:0:0:0:
460,132,5328,2,0,P|455:109|451:82,1,50,10|2,0:0|1:2,0:0:0:0:
369,27,5681,6,0,P|406:19|440:5,2,75,2|2|2,1:2|0:0|1:2,0:0:0:0:
173,37,6563,1,2,1:2:0:0:
173,37,6740,6,0,L|156:42,1,15,10|0,0:0|0:0,0:0:0:0:
236,86,7093,6,0,B|212:46|212:46|246:6,1,100,14|8,0:0|0:3,0:0:0:0:
246,5,7357,1,6,0:3:0:0:
326,104,7534,1,0,1:0:0:0:
326,104,7622,2,0,P|268:116|156:153,1,150,10|8,0:0|0:3,0:0:0:0:
181,142,7975,1,6,0:3:0:0:
58,21,8151,2,0,P|28:56|52:100,1,100,10|2,0:0|1:2,0:0:0:0:
148,63,8504,6,0,P|129:135|110:224,2,150,10|6|10,0:0|0:3|0:0,0:0:0:0:
36,191,9387,5,6,0:3:0:0:
184,237,9563,2,0,P|165:281|118:288,1,100,10|2,0:0|1:2,0:0:0:0:
155,141,9916,6,0,P|202:156|250:169,1,100,10|0,0:0|1:0,0:0:0:0:
256,188,10181,1,2,1:2:0:0:
260,207,10269,1,0,1:0:0:0:
265,226,10357,1,0,1:0:0:0:
269,245,10445,2,0,P|348:202|333:130,1,150,10|8,0:0|0:3,0:0:0:0:
346,151,10798,1,6,0:3:0:0:
413,262,10975,2,0,P|459:243|507:228,1,100,10|2,0:0|1:2,0:0:0:0:
505,96,11328,6,0,P|462:57|406:70,1,119.999996337891,14|8,0:0|0:3,0:0:0:0:
406,69,11593,2,0,P|392:124|432:166,1,119.999996337891,14|0,0:0|1:0,0:0:0:0:
432,166,11857,2,0,P|329:118|200:81,1,239.999992675781,14|2,0:0|3:2,0:0:0:0:
30,45,12387,5,8,0:0:0:0:
40,93,12475,1,8,0:0:0:0:
50,141,12563,1,8,0:0:0:0:
65,193,12651,1,8,0:0:0:0:
65,193,12740,6,0,P|86:143|147:138,1,119.999996337891,14|8,0:0|0:3,0:0:0:0:
145,137,13004,2,0,P|156:165|175:189,1,59.9999981689454,6|0,0:3|0:0,0:0:0:0:
139,264,13181,1,0,1:0:0:0:
139,264,13269,2,0,P|219:227|336:199,1,179.999994506836,10|8,0:0|0:3,0:0:0:0:
307,203,13622,1,6,0:3:0:0:
403,87,13798,2,0,P|458:117|451:175,1,119.999996337891,10|2,0:0|1:2,0:0:0:0:
340,280,14151,6,0,P|353:191|370:102,2,179.999994506836,10|6|10,0:0|0:3|0:0,0:0:0:0:
306,44,15034,6,0,P|278:47|247:85,1,59.9999981689454,6|0,0:3|0:0,0:0:0:0:
190,115,15210,2,0,P|195:176|257:197,1,119.999996337891,10|2,0:0|1:2,0:0:0:0:
381,96,15563,6,0,P|438:93|472:141,1,119.999996337891,10|0,0:0|1:0,0:0:0:0:
469,160,15828,1,2,1:2:0:0:
462,176,15916,1,0,1:0:0:0:
449,188,16004,1,0,1:0:0:0:
433,196,16093,2,0,B|388:165|334:189|366:221|309:245|261:199,1,179.999994506836,10|8,0:0|0:3,0:0:0:0:
270,206,16445,2,0,P|272:174|248:152,1,59.9999981689454,6|0,0:3|0:0,0:0:0:0:
191,217,16622,2,0,P|165:271|152:335,1,119.999996337891,10|2,0:0|1:2,0:0:0:0:
85,196,16975,6,0,P|111:135|178:131,1,139.999995727539,14|8,0:0|0:3,0:0:0:0:
177,130,17240,2,0,P|203:190|270:194,1,139.999995727539,14|0,0:0|1:0,0:0:0:0:
270,193,17504,2,0,P|137:148|0:118,1,279.999991455078,14|2,0:0|3:2,0:0:0:0:
243,76,18034,6,0,L|261:70,1,15,0|0,1:0|0:0,0:0:0:0:
254,51,18387,6,2,B|294:70|294:70|325:62|325:62|359:110,1,129.999994049073,6|8,1:0|0:0,0:1:0:0:
356,105,18651,2,0,P|406:70|466:104,1,129.999994049073,2|0,1:2|1:0,0:0:0:0:
462,97,18916,2,0,P|466:158|406:193,1,129.999994049073,10|0,0:0|1:0,0:0:0:0:
293,173,19269,6,0,P|264:189|255:218,1,64.9999970245363,10|0,0:0|1:0,0:0:0:0:
326,247,19445,2,0,P|338:277|327:307,1,64.9999970245363,2|0,1:2|1:0,0:0:0:0:
266,362,19622,1,10,0:0:0:0:
190,261,19798,6,0,P|128:282|65:299,1,129.999994049073,2|8,1:2|0:0,0:0:0:0:
33,298,20063,1,2,1:2:0:0:
7,277,20151,1,0,1:0:0:0:
2,244,20240,1,0,1:0:0:0:
17,215,20328,2,0,P|72:201|119:251,1,129.999994049073,10|0,0:0|1:0,0:0:0:0:
195,361,20681,6,0,P|225:350|242:324,1,64.9999970245363,10|0,0:0|1:0,0:0:0:0:
317,288,20857,2,0,P|323:256|309:228,1,64.9999970245363,2|0,1:2|1:0,0:0:0:0:
234,199,21034,1,10,0:0:0:0:
317,306,21210,6,0,P|376:274|436:251,1,129.999994049073,2|8,1:2|0:0,0:0:0:0:
477,320,21475,1,2,1:2:0:0:
477,320,21563,2,0,P|509:297|505:255,1,64.9999970245363,0|0,1:0|1:0,0:0:0:0:
489,195,21740,2,0,P|500:138|511:53,1,129.999994049073,10|0,0:0|1:0,0:0:0:0:
408,178,22093,6,0,P|380:164|340:153,1,64.9999970245363,10|0,0:0|1:0,0:0:0:0:
372,76,22269,2,0,P|403:66|432:52,1,64.9999970245363,2|0,1:2|1:0,0:0:0:0:
321,15,22445,1,10,0:0:0:0:
193,110,22622,6,0,P|156:64|82:72,1,129.999994049073,4|8,1:2|0:0,0:0:0:0:
63,104,22887,1,8,0:0:0:0:
64,149,22975,1,8,0:0:0:0:
96,181,23063,1,8,0:0:0:0:
140,189,23151,2,0,P|220:157|339:152,1,194.999991073609,8|0,0:0|0:0,0:0:0:0:
327,150,23504,1,2,3:2:0:0:
374,37,23681,5,10,0:0:0:0:
416,21,23769,1,8,0:0:0:0:
457,38,23857,1,10,0:0:0:0:
475,79,23945,1,8,0:0:0:0:
464,123,24034,6,0,P|415:182|394:239,1,129.999994049073,6|8,1:2|0:0,0:0:0:0:
395,231,24298,2,0,P|377:293|429:338,1,129.999994049073,2|0,1:2|1:0,0:0:0:0:
418,335,24563,2,0,P|480:318|493:251,1,129.999994049073,10|0,0:0|1:0,0:0:0:0:
373,221,24916,6,0,P|351:200|319:200,1,64.9999970245363,10|0,0:0|1:0,0:0:0:0:
309,280,25093,2,0,P|284:301|253:303,1,64.9999970245363,2|0,1:2|1:0,0:0:0:0:
187,260,25269,1,10,0:0:0:0:
299,205,25445,6,0,P|287:141|269:78,1,129.999994049073,2|8,1:2|0:0,0:0:0:0:
258,47,25710,1,2,1:2:0:0:
268,16,25798,1,0,1:0:0:0:
299,6,25887,1,0,1:0:0:0:
329,15,25975,2,0,P|361:79|306:126,1,129.999994049073,10|0,0:0|1:0,0:0:0:0:
194,117,26328,6,0,P|162:101|110:86,1,64.9999970245363,10|0,0:0|1:0,0:0:0:0:
80,29,26504,2,0,P|49:39|20:54,1,64.9999970245363,2|0,1:2|1:0,0:0:0:0:
15,129,26681,1,10,0:0:0:0:
102,207,26857,6,0,P|41:208|23:266,1,129.999994049073,2|8,1:2|0:0,0:0:0:0:
40,347,27122,1,2,1:2:0:0:
40,347,27210,2,0,P|70:336|102:328,1,64.9999970245363,0|0,1:0|1:0,0:0:0:0:
153,261,27387,2,0,B|192:243|227:279|204:293|231:322|274:311,1,129.999994049073,10|0,0:0|1:0,0:0:0:0:
456,325,27740,6,0,P|468:294|435:253,1,64.9999970245363,10|0,0:0|1:0,0:0:0:0:
381,233,27916,2,0,P|349:243|339:294,1,64.9999970245363,2|0,1:2|1:0,0:0:0:0:
375,344,28093,1,10,0:0:0:0:
275,208,28269,6,0,P|242:210|213:223,1,64.9999970245363,10|0,0:0|1:0,0:0:0:0:
133,243,28445,2,0,P|113:212|136:180,3,64.9999970245363,0|0|0|0,1:0|1:0|1:0|1:0,0:0:0:0:
8,120,28798,6,0,P|40:122|69:135,1,64.9999970245363,10|0,0:0|1:0,0:0:0:0:
142,170,28975,2,0,P|161:139|138:107,3,64.9999970245363,0|0|0|0,1:0|1:0|1:0|1:0,0:0:0:0:
101,34,29328,6,0,P|125:146|143:257,1,225.000008583069,10|0,0:0|0:0,0:0:0:0:
142,255,29681,5,6,1:2:0:0:
221,214,30034,1,2,1:2:0:0:
262,294,30387,1,2,1:2:0:0:
183,334,30740,1,2,1:2:0:0:
127,206,31092,5,2,1:2:0:0:
48,165,31445,1,2,1:2:0:0:
7,245,31798,1,2,1:2:0:0:
86,285,32151,1,2,1:2:0:0:
158,126,32504,5,2,1:2:0:0:
218,67,32857,1,2,1:2:0:0:
300,82,33210,1,2,1:2:0:0:
338,156,33563,1,2,1:2:0:0:
505,204,33916,5,2,1:2:0:0:
467,278,34269,1,2,1:2:0:0:
385,293,34622,1,2,1:2:0:0:
325,234,34975,1,2,1:2:0:0:
237,290,35328,6,0,P|248:211|323:220,3,160,6|2|2|2,1:2|1:2|1:2|1:2,0:0:0:0:
142,227,36740,2,0,P|131:148|56:157,3,160,2|2|2|2,1:2|1:2|1:2|1:2,0:0:0:0:
314,211,38151,6,0,P|266:202|234:226,1,80,6|2,1:2|3:2,0:0:0:0:
236,290,38504,2,0,P|226:241|250:209,1,80,2|2,1:2|3:2,0:0:0:0:
64,147,38857,6,0,P|101:136|136:152,1,80,6|2,1:2|3:2,0:0:0:0:
142,225,39210,2,0,P|153:188|136:152,1,80,2|2,1:2|3:2,0:0:0:0:
156,64,39563,6,0,P|221:36|260:96,1,150,6|2,1:2|0:0,0:0:0:0:
260,91,39916,2,0,P|325:118|364:58,1,150,6|2,1:2|0:0,0:0:0:0:
364,61,40269,1,2,1:2:0:0:
475,165,40622,5,10,0:0:0:0:
469,216,40711,1,8,0:0:0:0:
464,266,40799,1,8,0:0:0:0:
459,317,40887,1,8,0:0:0:0:
453,368,40975,6,2,B|505:319|505:319|429:244|429:244|409:264|409:264|387:274,1,220.000006713867,6|0,1:0|0:0,0:1:0:0:
232,330,41504,2,2,B|194:312|194:312|190:288|190:288|138:295,1,110.000003356934,10|0,0:1|1:0,0:1:0:0:
325,225,41857,5,10,0:0:0:0:
313,302,42034,1,2,1:2:0:0:
301,379,42210,1,10,0:0:0:0:
239,212,42387,6,0,B|231:185|231:185|265:158,1,55.0000016784668,2|0,1:0|0:0,0:0:0:0:
324,133,42563,2,2,B|343:115|343:115|302:70|302:70|238:76|238:76|241:90,1,165.000005035401,10|0,0:1|1:0,0:1:0:0:
240,89,42916,1,10,0:1:0:0:
157,228,43093,5,0,1:0:0:0:
116,202,43181,1,0,3:0:0:0:
98,159,43269,1,8,0:0:0:0:
106,112,43357,1,0,3:0:0:0:
122,107,43445,5,0,1:0:0:0:
137,74,43534,1,0,1:0:0:0:
124,41,43622,1,8,0:0:0:0:
90,30,43710,1,0,3:0:0:0:
77,41,43798,5,0,1:0:0:0:
26,197,43975,6,2,B|3:237|3:237|37:264|37:264|48:316,1,110.000003356934,10|2,0:1|0:1,0:1:0:0:
178,364,44328,2,2,B|161:338|161:338|186:323|186:323|199:266,1,110.000003356934,10|2,0:1|1:0,0:1:0:0:
113,204,44681,6,0,B|126:216|126:216|179:192,1,55.0000016784668,10|0,0:1|0:0,0:0:0:0:
221,151,44857,2,2,B|249:145|249:145|272:186|272:186|329:219,1,110.000003356934,2|10,1:0|0:1,0:1:0:0:
447,177,45210,5,2,1:0:0:0:
387,235,45387,1,8,0:0:0:0:
387,235,45475,1,0,1:0:0:0:
372,150,45651,1,0,1:0:0:0:
372,150,45740,1,12,0:0:0:0:
372,150,46269,6,2,L|376:164,1,15,2|0,0:1|0:0,0:1:0:0:
316,219,46622,6,2,B|371:199|371:199|371:207|371:207|456:207,2,134.999995880127,6|0|0,1:0|1:0|1:0,0:1:0:0:
201,292,47328,2,0,B|195:315|195:315|211:331,3,44.999998626709,8|0|0|0,0:0|3:0|3:0|3:0,0:0:0:0:
279,291,47681,2,0,B|295:307|295:307|316:301,3,44.999998626709,2|0|2|0,3:1|3:0|3:1|3:0,0:0:0:0:
235,214,48034,6,2,B|221:194|221:194|253:130,1,89.9999972534181,2|2,1:0|1:0,0:1:0:0:
250,135,48298,2,0,B|264:115|264:115|232:51,1,89.9999972534181,0|0,1:0|1:0,0:0:0:0:
234,56,48563,1,2,1:0:0:0:
150,7,48740,5,10,0:1:0:0:
70,21,48916,1,2,0:1:0:0:
26,89,49093,1,2,1:0:0:0:
55,164,49269,1,8,0:0:0:0:
198,243,49445,6,0,B|193:290|193:290|148:320|148:320|163:371,2,134.999995880127,0|0|0,1:0|1:0|1:0,0:0:0:0:
68,170,50151,2,0,B|49:184|49:184|51:205,3,44.999998626709,10|0|0|0,0:1|3:0|3:0|3:0,0:0:0:0:
32,283,50504,2,0,B|45:302|45:302|67:299,3,44.999998626709,2|0|0|0,3:1|3:0|3:0|3:0,0:0:0:0:
147,182,50857,6,2,B|154:159|154:159|239:138,1,89.9999972534181,2|0,1:0|1:0,0:1:0:0:
218,143,51122,2,0,B|225:166|225:166|310:187,1,89.9999972534181,0|0,1:0|1:0,0:0:0:0:
289,181,51387,1,2,1:0:0:0:
425,124,51563,1,10,0:1:0:0:
425,124,52269,6,0,P|380:144|380:195,2,104.999996795654,6|2|2,1:2|0:0|3:2,0:0:0:0:
490,167,52975,1,2,1:2:0:0:
490,167,53328,1,0,1:0:0:0:
388,214,53681,6,0,P|438:230|482:258,2,104.999996795654,2|2|2,1:2|0:0|3:2,0:0:0:0:
315,246,54387,1,2,1:2:0:0:
315,246,54740,1,0,1:0:0:0:
288,91,55093,6,0,B|301:113|287:149|269:133|256:166|266:193,2,104.999996795654,2|2|2,1:2|0:0|3:2,0:0:0:0:
233,32,55798,1,2,1:2:0:0:
164,64,55975,1,2,3:2:0:0:
164,64,56063,1,2,0:0:0:0:
164,64,56151,2,0,P|129:46|94:37,1,69.9999978637696,2|2,1:2|3:2,0:0:0:0:
52,97,56504,6,0,P|63:60|5:0,2,104.999996795654,2|2|2,1:2|0:0|3:2,0:0:0:0:
0,162,57210,1,2,1:2:0:0:
80,238,57387,1,8,0:0:0:0:
0,321,57563,1,0,1:0:0:0:
0,321,57651,1,8,0:0:0:0:
0,321,57740,2,0,P|9:342|11:355,1,34.9999989318848,10|8,0:0|0:0,0:0:0:0:
91,335,57916,6,0,P|120:307|159:296,1,80,6|10,1:2|0:0,0:0:0:0:
157,296,58181,2,0,P|173:334|211:348,1,80,2|2,1:2|1:2,0:0:0:0:
207,347,58445,1,10,0:0:0:0:
259,288,58622,1,2,1:2:0:0:
220,219,58798,2,0,P|223:179|245:146,1,80,8|0,0:0|1:0,0:0:0:0:
244,146,59063,1,0,1:0:0:0:
244,146,59151,1,10,0:0:0:0:
306,82,59328,6,0,P|340:101|389:118,1,80,2|10,1:2|0:0,0:0:0:0:
378,115,59593,2,0,P|390:151|374:187,1,80,2|0,1:2|1:0,0:0:0:0:
373,187,59857,1,10,0:0:0:0:
348,263,60034,1,2,1:2:0:0:
419,300,60210,2,0,P|453:281|502:264,1,80,8|0,0:0|1:0,0:0:0:0:
491,266,60475,1,0,1:0:0:0:
491,266,60563,1,10,0:0:0:0:
512,160,60740,6,0,P|468:151|413:129,1,89.9999972534181,6|0,1:2|0:0,0:0:0:0:
425,135,61004,1,0,1:0:0:0:
330,255,61269,5,10,0:0:0:0:
330,255,61357,1,8,0:0:0:0:
330,255,61445,2,0,P|276:265|209:292,1,110.000003356934,6|0,1:2|0:0,0:0:0:0:
224,284,61709,1,0,1:0:0:0:
161,128,61975,5,10,0:0:0:0:
161,128,62063,1,8,0:0:0:0:
161,128,62151,2,0,P|103:116|31:87,1,129.999994049073,6|0,1:2|0:0,0:0:0:0:
37,90,62415,1,0,1:0:0:0:
120,281,62681,5,8,0:3:0:0:
120,281,62857,2,0,P|196:269|207:192,2,165.000005035401,10|10|10,0:0|0:0|0:0,0:0:0:0:
120,281,63740,6,0,P|85:228|112:171,1,129.999994049073,4|0,1:2|0:0,0:0:0:0:
110,172,64004,2,0,P|132:124|184:114,1,110.000003356934,0|0,1:0|0:0,0:0:0:0:
184,114,64269,2,0,P|227:109|258:139,1,89.9999972534181,0|0,1:0|0:0,0:0:0:0:
258,139,64534,2,0,P|278:166|270:199,1,69.9999978637696,0|0,1:0|0:0,0:0:0:0:
269,199,64798,1,0,1:0:0:0:
216,262,64975,6,0,P|244:359|342:334,1,225,4|0,1:2|0:0,0:0:0:0:
342,332,65857,5,8,0:0:0:0:
341,301,65945,1,8,0:0:0:0:
360,270,66033,1,10,0:0:0:0:
394,256,66121,1,8,0:0:0:0:
430,264,66209,1,8,0:0:0:0:
453,293,66298,1,8,0:0:0:0:
455,330,66387,6,0,P|421:218|447:115,2,209.999993591309,6|2|10,1:2|1:2|0:0,0:0:0:0:
342,160,67093,1,0,1:0:0:0:
486,59,67269,6,0,B|464:32|464:32|429:37,1,69.9999978637696,10|0,0:0|0:0,0:0:0:0:
347,81,67445,2,0,B|312:86|312:86|290:59,1,69.9999978637696,2|0,1:2|1:0,0:0:0:0:
355,2,67622,1,10,0:0:0:0:
334,165,67798,6,0,P|383:120|445:144,1,139.999995727539,2|8,1:2|0:0,0:0:0:0:
482,216,68063,2,0,P|458:282|382:282,1,139.999995727539,2|0,1:2|1:0,0:0:0:0:
329,248,68328,2,0,B|283:246|256:283|283:292|260:337|203:327,1,139.999995727539,10|0,0:0|1:0,0:0:0:0:
86,268,68681,6,0,P|63:240|24:244,1,69.9999978637696,10|0,0:0|0:0,0:0:0:0:
98,355,68857,1,2,1:2:0:0:
98,355,68945,1,0,1:0:0:0:
98,355,69034,2,0,P|133:349|149:313,1,69.9999978637696,10|0,0:0|0:0,0:0:0:0:
199,247,69210,6,0,P|185:178|177:108,1,139.999995727539,2|8,1:2|0:0,0:0:0:0:
166,104,69475,2,0,P|174:173|187:242,1,139.999995727539,2|0,1:2|1:0,0:0:0:0:
263,156,69740,2,0,P|276:124|252:94,1,69.9999978637696,10|0,0:0|0:0,0:0:0:0:
186,23,69916,6,0,B|151:23|122:64|151:70|125:116|70:116,1,139.999995727539,2|8,1:2|0:0,0:0:0:0:
26,73,70181,1,2,0:0:0:0:
99,197,70357,1,0,1:0:0:0:
99,197,70445,2,0,P|85:229|75:269,1,69.9999978637696,10|0,0:0|0:0,0:0:0:0:
8,313,70622,6,0,P|74:304|115:357,1,139.999995727539,2|8,1:2|0:0,0:0:0:0:
115,357,70887,1,0,1:0:0:0:
240,245,71063,1,0,1:0:0:0:
240,245,71151,1,8,0:0:0:0:
401,309,71328,1,0,1:0:0:0:
281,383,71504,6,0,P|289:351|304:306,1,69.9999978637696,10|0,0:0|0:0,0:0:0:0:
341,242,71681,1,2,1:2:0:0:
341,242,71769,1,0,1:0:0:0:
341,242,71857,2,0,P|333:210|318:165,1,69.9999978637696,10|0,0:0|0:0,0:0:0:0:
276,22,72034,6,0,P|344:29|343:98,1,150.000005722046,6|8,1:2|0:0,0:0:0:0:
264,120,72298,2,0,P|227:129|192:142,1,75.0000028610231,2|0,1:2|0:0,0:0:0:0:
201,52,72476,1,0,1:0:0:0:
201,52,72564,1,10,0:0:0:0:
287,12,72740,6,0,P|359:26|352:100,1,160,6|8,1:2|0:0,0:0:0:0:
258,130,73004,2,0,P|219:143|183:160,1,80,2|0,0:0|1:0,0:0:0:0:
208,46,73182,1,0,1:0:0:0:
208,46,73270,1,10,0:0:0:0:
300,7,73445,6,0,P|375:29|360:106,1,170.000003242493,6|8,1:2|0:0,0:0:0:0:
253,138,73709,2,0,P|214:155|177:176,1,85.0000016212464,2|0,1:2|0:0,0:0:0:0:
214,40,73887,1,0,1:0:0:0:
214,40,73975,1,10,0:0:0:0:
315,5,74151,6,0,P|301:60|284:144,1,139.999995727539,2|8,1:2|0:0,0:0:0:0:
245,222,74416,2,0,P|258:255|268:291,1,69.9999978637696,2|0,0:0|1:0,0:0:0:0:
351,268,74593,1,0,1:0:0:0:
351,268,74681,2,0,B|379:234|430:259|406:275|454:299|494:267,1,139.999995727539,8|0,0:0|1:0,0:0:0:0:
361,170,75034,5,10,0:0:0:0:
268,307,75210,1,2,0:0:0:0:
259,300,75298,1,2,1:2:0:0:
268,295,75387,1,10,0:0:0:0:
104,218,75563,6,0,P|45:258|65:322,1,139.999995727539,2|8,1:2|0:0,0:0:0:0:
180,262,75828,2,0,P|187:229|202:176,1,69.9999978637696,2|0,0:0|1:0,0:0:0:0:
128,139,76004,1,0,1:0:0:0:
128,139,76093,1,10,0:0:0:0:
174,21,76269,6,0,B|229:10|271:77|213:86|254:162|311:156,1,209.999993591309,6|0,1:2|1:0,0:0:0:0:
365,101,76622,5,10,0:0:0:0:
377,94,76710,1,0,1:0:0:0:
390,90,76798,1,0,1:0:0:0:
404,89,76887,1,0,1:0:0:0:
417,90,76975,5,10,0:0:0:0:
425,123,77063,1,0,1:0:0:0:
418,157,77151,1,2,1:2:0:0:
398,186,77240,1,0,1:0:0:0:
370,207,77328,5,10,0:0:0:0:
322,177,77416,1,0,1:0:0:0:
266,178,77504,1,0,1:0:0:0:
227,219,77593,1,0,1:0:0:0:
223,274,77681,6,0,P|333:290|428:333,2,209.999993591309,6|2|10,1:2|1:2|0:0,0:0:0:0:
384,222,78387,1,0,1:0:0:0:
504,306,78563,6,0,P|494:273|463:258,1,69.9999978637696,10|0,0:0|0:0,0:0:0:0:
344,318,78740,2,0,P|335:349|354:377,1,69.9999978637696,2|0,1:2|1:0,0:0:0:0:
384,242,78916,1,10,0:0:0:0:
276,184,79093,5,2,1:2:0:0:
124,255,79269,1,10,0:0:0:0:
124,255,79357,2,0,P|132:320|197:332,1,139.999995727539,2|0,1:2|1:0,0:0:0:0:
210,248,79622,2,0,P|195:184|185:102,1,139.999995727539,10|0,0:0|1:0,0:0:0:0:
42,42,79975,6,0,P|11:56|5:102,1,69.9999978637696,10|0,0:0|0:0,0:0:0:0:
45,153,80151,2,0,P|78:156|103:133,1,69.9999978637696,2|0,1:2|1:0,0:0:0:0:
121,38,80328,5,10,0:0:0:0:
123,53,80416,1,2,0:0:0:0:
131,47,80504,2,0,P|184:18|250:62,1,139.999995727539,2|10,1:2|0:0,0:0:0:0:
298,112,80769,2,0,P|336:103|388:85,1,69.9999978637696,2|0,1:2|0:0,0:0:0:0:
457,90,80946,1,2,1:2:0:0:
457,90,81034,2,0,P|486:63|522:21,1,69.9999978637696,10|0,0:0|0:0,0:0:0:0:
389,11,81210,6,0,P|403:79|411:149,1,139.999995727539,2|8,1:2|0:0,0:0:0:0:
357,203,81475,1,2,0:0:0:0:
487,303,81651,1,0,1:0:0:0:
487,303,81740,2,0,P|497:268|517:225,1,69.9999978637696,10|0,0:0|0:0,0:0:0:0:
431,224,81916,6,0,B|392:220|370:258|390:266|366:310|331:308,1,139.999995727539,2|8,1:2|0:0,0:0:0:0:
332,308,82181,1,0,1:0:0:0:
208,212,82357,1,0,1:0:0:0:
208,212,82445,1,8,0:0:0:0:
275,61,82622,1,0,1:0:0:0:
345,192,82798,5,10,0:0:0:0:
316,170,82887,1,8,0:0:0:0:
284,154,82975,1,10,0:3:0:0:
251,140,83063,1,8,0:3:0:0:
217,132,83151,1,6,0:3:0:0:
181,126,83240,1,4,0:3:0:0:
144,125,83328,6,0,P|99:182|19:219,1,150.000005722046,6|0,1:2|3:0,0:0:0:0:
9,293,83593,2,0,P|59:340|126:304,1,150.000005722046,10|0,0:0|0:0,0:0:0:0:
158,234,83857,1,10,0:0:0:0:
150,116,84034,6,0,P|97:169|11:200,1,160,6|0,1:2|3:0,0:0:0:0:
2,299,84298,2,0,P|53:353|121:320,1,160,10|0,0:0|0:0,0:0:0:0:
164,228,84563,1,10,0:0:0:0:
150,105,84740,6,0,P|89:156|-3:181,1,170.000003242493,6|0,1:2|3:0,0:0:0:0:
0,310,85004,2,0,P|61:363|132:322,1,170.000003242493,10|0,0:0|0:0,0:0:0:0:
171,222,85269,1,10,0:0:0:0:
143,98,85445,6,0,P|162:54|170:23,1,69.9999978637696,2|0,1:2|0:0,0:0:0:0:
243,8,85622,5,8,0:0:0:0:
277,11,85710,1,10,0:0:0:0:
306,30,85798,1,8,0:0:0:0:
323,60,85887,1,8,0:0:0:0:
340,90,85975,1,8,0:0:0:0:
369,109,86063,1,8,0:0:0:0:
403,112,86151,6,0,P|425:50|492:56,1,139.999995727539,4|10,1:2|0:0,0:0:0:0:
483,135,86416,1,0,1:0:0:0:
483,135,86504,2,0,P|493:163|503:209,1,69.9999978637696,2|0,0:0|1:0,0:0:0:0:
475,276,86681,1,10,0:0:0:0:
383,190,86857,6,0,P|322:215|322:282,1,139.999995727539,2|8,1:2|0:0,0:0:0:0:
346,378,87122,2,0,P|275:348|209:332,1,139.999995727539,2|0,0:0|1:0,0:0:0:0:
135,349,87387,1,10,0:0:0:0:
68,188,87563,6,0,P|-4:208|1:274,1,139.999995727539,4|10,1:2|0:0,0:0:0:0:
43,353,87828,1,0,1:0:0:0:
43,353,87916,2,0,P|56:317|83:265,1,69.9999978637696,2|0,0:0|1:0,0:0:0:0:
136,232,88093,1,10,0:0:0:0:
69,91,88269,6,0,P|132:119|200:138,1,139.999995727539,2|8,1:2|0:0,0:0:0:0:
249,76,88534,2,0,P|312:78|326:150,1,139.999995727539,2|0,0:0|1:0,0:0:0:0:
274,200,88798,1,10,0:0:0:0:
385,354,88975,6,0,B|401:321|379:280|357:302|336:258|358:228,1,139.999995727539,4|10,1:2|0:0,0:0:0:0:
374,215,89240,1,2,1:2:0:0:
394,209,89328,1,2,0:0:0:0:
415,210,89416,1,2,1:2:0:0:
434,220,89504,1,10,0:0:0:0:
303,342,89681,6,0,P|244:315|173:289,1,139.999995727539,2|8,1:2|0:0,0:0:0:0:
113,344,89945,2,0,P|86:363|52:357,1,69.9999978637696,2|0,0:0|1:0,0:0:0:0:
5,294,90122,5,0,1:0:0:0:
24,249,90210,1,10,0:0:0:0:
39,202,90298,1,0,0:0:0:0:
46,153,90387,1,6,1:2:0:0:
46,153,91093,6,2,B|23:194|23:194|63:239|63:239|53:312|53:312|36:286,2,209.999993591309,10|10|10,0:1|0:1|0:1,0:1:0:0:
16,57,91798,6,0,B|68:44|68:44|109:74|109:74|93:108,1,119.999996337891,14|8,0:1|0:3,0:0:0:0:
102,88,92063,2,0,P|133:64|168:64,1,59.9999981689454,6|0,0:3|0:0,0:0:0:0:
223,7,92240,1,0,1:0:0:0:
223,7,92328,2,0,P|201:73|181:197,1,179.999994506836,10|8,0:0|0:3,0:0:0:0:
182,181,92681,1,6,0:3:0:0:
269,290,92857,2,0,P|227:321|180:267,1,119.999996337891,10|2,0:0|1:2,0:0:0:0:
264,195,93210,6,0,B|217:180|174:220|210:242|144:288|99:250,2,179.999994506836,10|6|10,0:0|0:3|0:0,0:0:0:0:
427,354,94093,6,0,P|442:333|426:292,1,59.9999981689454,6|0,0:3|0:0,0:0:0:0:
355,318,94269,2,0,P|352:258|342:198,1,119.999996337891,10|2,0:0|1:2,0:0:0:0:
448,65,94622,6,0,P|494:98|486:154,1,119.999996337891,10|0,0:0|1:0,0:0:0:0:
470,165,94887,1,2,1:2:0:0:
452,165,94975,1,0,1:0:0:0:
434,159,95063,1,0,1:0:0:0:
419,148,95151,2,0,P|344:163|246:202,1,179.999994506836,10|8,0:0|0:3,0:0:0:0:
247,200,95504,2,0,P|217:203|196:183,1,59.9999981689454,6|0,0:3|0:0,0:0:0:0:
242,117,95681,2,0,P|221:61|214:2,1,119.999996337891,10|2,0:0|1:2,0:0:0:0:
143,113,96034,6,0,P|85:150|32:114,1,139.999995727539,14|8,0:0|0:3,0:0:0:0:
32,114,96298,2,0,P|40:45|101:28,1,139.999995727539,14|0,0:0|1:0,0:0:0:0:
100,27,96563,2,0,P|61:183|42:317,1,279.999991455078,14|2,0:0|3:2,0:0:0:0:
142,199,97093,5,8,0:0:0:0:
184,202,97181,1,8,0:0:0:0:
219,227,97269,1,8,0:0:0:0:
229,268,97357,1,8,0:0:0:0:
216,307,97445,6,0,P|244:357|304:354,1,119.999996337891,14|8,0:0|0:3,0:0:0:0:
300,355,97710,2,0,P|308:327|330:308,1,59.9999981689454,6|0,0:3|0:0,0:0:0:0:
392,371,97887,1,0,1:0:0:0:
392,371,97975,2,0,P|367:284|360:194,1,179.999994506836,10|8,0:0|0:3,0:0:0:0:
359,195,98328,1,6,0:3:0:0:
335,90,98504,2,0,P|390:67|432:105,1,119.999996337891,10|2,0:0|1:2,0:0:0:0:
286,167,98857,6,0,P|375:174|464:188,2,179.999994506836,10|6|10,0:0|0:3|0:0,0:0:0:0:
164,31,99740,6,0,P|139:33|122:81,1,59.9999981689454,6|0,0:3|0:0,0:0:0:0:
61,114,99916,2,0,P|69:170|126:195,1,119.999996337891,10|2,0:0|1:2,0:0:0:0:
217,92,100269,6,0,P|206:157|195:242,1,119.999996337891,10|0,0:0|1:0,0:0:0:0:
211,222,100534,1,2,1:2:0:0:
220,237,100622,1,0,1:0:0:0:
225,254,100710,1,0,1:0:0:0:
226,271,100798,2,0,P|151:317|80:249,1,179.999994506836,10|8,0:0|0:3,0:0:0:0:
84,268,101151,2,0,P|113:242|114:194,1,59.9999981689454,6|0,0:3|0:0,0:0:0:0:
41,200,101328,2,0,P|33:144|16:77,1,119.999996337891,10|2,0:0|1:2,0:0:0:0:
138,143,101681,6,0,P|182:91|250:83,1,139.999995727539,14|8,0:0|0:3,0:0:0:0:
250,83,101945,2,0,P|294:134|362:142,1,139.999995727539,14|0,0:0|1:0,0:0:0:0:
363,141,102210,2,0,B|294:87|213:160|277:188|205:266|123:225,1,279.999991455078,14|0,0:0|1:0,0:0:0:0:
316,227,102740,6,0,P|391:246|481:279,1,139.999995727539,14|0,0:0|1:0,0:0:0:0:
512,332,103093,1,4,1:2:0:0:
256,192,103269,12,2,108387,0:0:0:0:
79,148,114387,6,0,P|91:132|109:125,3,40,2|0|2|0,3:2|3:0|3:2|3:0,0:0:0:0:
165,62,115798,2,0,P|184:65|200:77,3,40,2|0|2|0,3:2|3:0|3:2|3:0,0:0:0:0:
281,70,117210,6,0,P|290:96|286:123,1,40,2|0,3:2|3:0,0:0:0:0:
288,62,117563,2,0,P|297:88|293:115,1,40,0|0,3:0|3:0,0:0:0:0:
231,166,117916,6,0,P|222:184|221:203,1,40,0|2,3:0|3:2,0:0:0:0:
224,158,118269,2,0,P|215:176|214:195,1,40,0|0,3:0|3:0,0:0:0:0:
276,267,118622,6,0,P|292:250|320:239,1,40,2|0,3:2|3:0,0:0:0:0:
343,172,118975,2,0,P|365:177|389:196,1,40,0|0,3:0|3:0,0:0:0:0:
263,260,119328,6,0,P|279:243|307:232,1,40,0|0,3:0|3:0,0:0:0:0:
346,163,119681,2,0,P|368:168|392:187,1,40,0|0,3:0|3:0,0:0:0:0:
432,245,120034,6,2,B|411:236|411:236|402:193|402:193|440:168|440:168|472:87,2,165.000005035401,6|10|10,1:0|0:1|0:1,0:1:0:0:
385,91,120740,6,2,B|349:56|349:56|312:75|312:75|271:70,1,110.000003356934,6|0,1:0|0:0,0:1:0:0:
293,72,121004,2,2,B|265:57|265:57|226:73|226:73|185:59,1,110.000003356934,10|0,0:1|0:0,0:1:0:0:
191,61,121269,1,10,0:1:0:0:
37,15,121445,6,0,B|15:35|15:35|45:65,1,55.0000016784668,6|0,1:0|0:0,0:0:0:0:
113,45,121622,1,2,0:1:0:0:
113,45,121710,2,2,B|119:98|119:98|83:116|83:116|66:148,1,110.000003356934,10|0,0:1|0:0,0:1:0:0:
75,130,121975,1,10,0:1:0:0:
137,283,122151,6,0,B|132:312|132:312|88:317,1,55.0000016784668,6|0,1:0|0:0,0:0:0:0:
71,241,122328,1,2,0:1:0:0:
71,241,122416,2,2,B|80:216|80:216|145:196|145:196|188:215,1,110.000003356934,10|0,0:1|0:0,0:1:0:0:
159,202,122681,1,10,0:1:0:0:
283,218,122857,6,2,B|272:241|272:241|220:266|220:266|235:299,1,110.000003356934,6|0,1:0|0:0,0:1:0:0:
231,290,123122,2,2,B|317:309|317:309|282:338,1,110.000003356934,10|0,0:1|0:0,0:1:0:0:
300,322,123387,1,10,0:1:0:0:
429,382,123563,6,2,B|440:366|440:366|394:339|394:339|403:298,1,110.000003356934,6|0,1:0|0:0,0:1:0:0:
401,302,123828,2,2,B|393:283|393:283|425:230|425:230|405:190,1,110.000003356934,10|0,0:1|0:0,0:1:0:0:
412,205,124093,1,10,0:1:0:0:
370,62,124269,6,2,B|414:31|414:31|461:99,1,110.000003356934,6|0,1:0|0:0,0:1:0:0:
445,77,124534,2,2,B|451:111|451:111|425:130|425:130|406:125|406:125|364:146,1,110.000003356934,10|0,0:1|0:0,0:1:0:0:
384,135,124798,1,10,0:1:0:0:
290,34,124975,5,10,0:1:0:0:
273,36,125063,1,8,0:0:0:0:
256,38,125151,2,0,B|242:55|242:55|238:73|238:73|209:87,1,55.0000016784668,2|0,1:0|0:0,0:0:0:0:
159,128,125328,5,10,0:1:0:0:
142,126,125416,1,8,0:0:0:0:
125,124,125504,2,0,B|113:101|113:101|75:111,1,55.0000016784668,2|0,1:0|0:0,0:0:0:0:
27,54,125681,6,2,B|31:42|31:42|59:74|59:74|9:140|9:140|2:175,2,165.000005035401,6|0|0,1:0|1:0|1:0,0:1:0:0:
59,231,126387,2,0,B|67:214|67:214|104:202,3,55.0000016784668,10|0|0|0,0:1|1:0|1:0|1:0,0:0:0:0:
146,137,126740,2,0,B|164:135|164:135|193:161,3,55.0000016784668,0|0|0|0,1:0|1:0|1:0|1:0,0:0:0:0:
249,242,127093,6,2,B|271:222|271:222|229:169|229:169|266:115,2,150,2|0|0,1:0|1:0|1:0,0:1:0:0:
310,60,127798,2,0,B|323:84|323:84|367:81,3,50,10|0|0|0,0:1|1:0|1:0|1:0,0:0:0:0:
403,140,128151,2,0,B|416:116|416:116|460:119,3,50,0|0|0|0,1:0|1:0|1:0|1:0,0:0:0:0:
504,59,128504,6,2,B|470:94|470:94|498:200,2,134.999995880127,2|0|0,1:0|1:0|1:0,0:1:0:0:
425,218,129210,2,0,L|409:280,3,44.999998626709,8|0|0|2,0:0|1:0|1:0|1:0,0:0:0:0:
480,306,129563,2,0,L|488:360,3,44.999998626709,0|0|2|0,1:0|1:0|1:0|1:0,0:0:0:0:
400,342,129916,6,2,B|406:361|406:361|305:334,1,110.000003356934,6|0,1:0|0:0,0:1:0:0:
318,337,130181,2,0,B|292:317|292:317|241:322|241:322|214:357,1,110.000003356934,8|0,0:0|0:0,0:0:0:0:
225,342,130445,1,8,0:0:0:0:
338,250,130622,1,8,0:0:0:0:
174,134,131328,5,6,1:2:0:0:
174,134,132740,1,6,1:2:0:0:
174,134,134151,1,6,1:2:0:0:
174,134,135563,1,6,1:2:0:0:
174,134,136445,5,0,1:0:0:0:
181,210,136622,1,8,0:0:0:0:
188,286,136798,1,2,1:2:0:0:
66,228,136975,5,6,1:2:0:0:
76,230,137328,1,0,1:0:0:0:
86,232,137681,1,2,1:2:0:0:
96,234,138034,1,0,1:0:0:0:
167,155,138387,5,6,1:2:0:0:
187,151,138740,1,0,1:0:0:0:
207,147,139093,1,2,1:2:0:0:
227,143,139446,1,0,1:0:0:0:
293,245,139798,5,6,1:2:0:0:
323,251,140151,1,0,1:0:0:0:
353,256,140504,1,2,1:2:0:0:
383,262,140857,1,0,1:0:0:0:
512,192,141210,5,6,1:2:0:0:
511,192,141916,6,0,P|493:199|482:220,2,40,10|8|0,0:0|0:0|1:0,0:0:0:0:
339,158,142269,2,0,P|336:177|348:197,2,40,8|8|2,0:0|0:0|1:2,0:0:0:0:
441,281,142622,6,0,P|431:206|409:150,2,120,6|2|2,1:2|0:0|3:2,0:0:0:0:
399,349,143328,2,0,P|365:356|326:331,1,80,2|0,1:2|3:0,0:0:0:0:
297,259,143681,1,8,0:0:0:0:
338,135,143857,5,2,3:2:0:0:
337,135,144034,2,0,P|298:136|272:165,1,80,2|2,1:2|3:2,0:0:0:0:
272,164,144298,2,0,P|246:193|207:194,1,80,2|0,0:0|3:0,0:0:0:0:
207,194,144563,1,2,3:2:0:0:
143,145,144740,2,0,P|107:158|45:176,1,80,2|0,1:2|3:0,0:0:0:0:
5,221,145093,1,8,0:0:0:0:
58,346,145269,5,2,3:2:0:0:
58,346,145445,2,0,P|65:294|107:239,2,120,2|2|2,1:2|0:0|3:2,0:0:0:0:
131,378,146151,1,2,1:2:0:0:
188,322,146328,1,2,3:2:0:0:
188,322,146416,1,2,0:0:0:0:
188,322,146504,2,0,P|226:314|263:328,1,80,10|2,0:0|3:2,0:0:0:0:
389,373,146857,6,0,P|443:355|459:300,2,120,2|2|2,1:2|0:0|3:2,0:0:0:0:
340,309,147563,1,2,1:2:0:0:
381,174,147740,5,8,0:0:0:0:
319,230,147916,1,0,1:0:0:0:
396,251,148093,1,10,0:0:0:0:
304,152,148269,6,0,B|265:145|240:174|263:180|235:220|191:209,2,120,6|2|2,1:2|0:0|3:2,0:0:0:0:
354,88,148975,2,0,P|345:50|298:38,1,80,2|0,1:2|3:0,0:0:0:0:
243,79,149328,1,8,0:0:0:0:
134,24,149504,5,2,3:2:0:0:
134,24,149681,2,0,P|164:72|136:124,2,120,2|2|2,1:2|0:0|3:2,0:0:0:0:
55,9,150387,2,0,P|30:40|-5:70,1,80,2|0,1:2|3:0,0:0:0:0:
22,143,150740,1,8,0:0:0:0:
0,265,150916,5,2,3:2:0:0:
0,264,151093,2,0,P|40:244|83:230,1,89.9999972534181,6|0,1:2|0:0,0:0:0:0:
82,230,151357,1,2,1:2:0:0:
176,114,151622,5,10,0:0:0:0:
176,114,151710,1,10,0:0:0:0:
176,114,151798,2,0,P|226:138|279:155,1,110.000003356934,6|0,1:2|0:0,0:0:0:0:
277,154,152062,1,2,1:2:0:0:
357,262,152328,5,10,0:0:0:0:
357,262,152416,1,8,0:0:0:0:
357,262,152504,2,0,P|418:232|484:211,1,129.999994049073,6|0,1:2|0:0,0:0:0:0:
476,212,152768,1,2,1:2:0:0:
350,104,153034,5,8,0:3:0:0:
350,104,153210,2,0,B|304:112|287:164|324:161|303:223|251:229,2,165.000005035401,10|10|10,0:0|0:0|0:0,0:0:0:0:
350,104,154093,6,0,P|306:59|245:72,1,129.999994049073,4|0,1:2|0:0,0:0:0:0:
245,71,154357,2,0,P|191:84|174:137,1,110.000003356934,0|0,1:0|0:0,0:0:0:0:
173,130,154622,2,0,P|161:171|190:204,1,89.9999972534181,0|0,1:0|0:0,0:0:0:0:
189,203,154887,2,0,P|212:226|245:219,1,69.9999978637696,0|0,1:0|0:0,0:0:0:0:
245,218,155151,1,0,1:0:0:0:
309,178,155328,6,0,P|370:193|362:285,1,150,4|0,1:2|0:0,0:0:0:0:
320,369,156034,6,0,P|311:332|300:296,2,75,0|0|0,1:0|1:0|1:0,0:0:0:0:
320,369,157445,2,0,P|311:332|300:296,2,75,0|0|0,1:0|1:0|1:0,0:0:0:0:
234,252,158151,6,0,P|223:260|205:269,3,25,4|0|0|0,1:2|1:0|1:0|1:0,0:0:0:0:
288,191,158504,2,0,P|299:199|317:208,3,25,8|0|0|0,0:0|1:0|1:0|1:0,0:0:0:0:
233,130,158857,5,8,0:0:0:0:
232,104,158945,1,0,1:0:0:0:
242,80,159034,1,0,1:0:0:0:
262,64,159122,1,0,1:0:0:0:
287,61,159210,5,8,0:0:0:0:
301,96,159298,1,0,1:0:0:0:
333,118,159387,1,0,1:0:0:0:
370,116,159475,1,0,1:0:0:0:
396,89,159563,5,8,0:0:0:0:
494,249,159916,5,6,1:2:0:0:
494,249,160269,1,6,1:2:0:0:
494,249,160622,5,10,0:0:0:0:
479,214,160710,1,8,0:0:0:0:
446,195,160798,1,8,0:0:0:0:
408,199,160887,1,8,0:0:0:0:
384,228,160975,6,0,P|472:204|452:95,2,209.999993591309,6|2|10,1:2|1:2|0:0,0:0:0:0:
243,165,161681,1,0,1:0:0:0:
347,114,161857,6,0,P|332:150|320:179,1,69.9999978637696,10|0,0:0|0:0,0:0:0:0:
253,245,162034,2,0,P|268:281|279:310,1,69.9999978637696,2|0,1:2|1:0,0:0:0:0:
324,375,162210,1,10,0:0:0:0:
155,292,162387,6,0,P|100:311|115:380,1,139.999995727539,2|8,1:2|0:0,0:0:0:0:
201,350,162651,2,0,P|187:293|174:180,1,139.999995727539,2|0,1:2|1:0,0:0:0:0:
112,163,162916,2,0,B|110:123|148:95|158:120|198:96|197:36,1,139.999995727539,10|0,0:0|1:0,0:0:0:0:
0,39,163269,6,0,P|33:45|51:74,1,69.9999978637696,10|0,0:0|0:0,0:0:0:0:
20,159,163445,1,2,1:2:0:0:
20,159,163534,1,0,1:0:0:0:
20,159,163622,2,0,P|20:193|45:215,1,69.9999978637696,10|0,0:0|0:0,0:0:0:0:
131,268,163798,6,0,P|65:290|3:322,1,139.999995727539,2|8,1:2|0:0,0:0:0:0:
3,336,164063,2,0,P|36:317|67:306,1,69.9999978637696,2|0,1:2|0:0,0:0:0:0:
138,355,164240,1,2,1:2:0:0:
138,355,164328,2,0,P|171:374|202:385,1,69.9999978637696,10|0,0:0|0:0,0:0:0:0:
271,290,164504,6,0,P|336:287|358:348,1,139.999995727539,2|8,1:2|0:0,0:0:0:0:
279,370,164769,1,2,0:0:0:0:
209,233,164945,1,0,1:0:0:0:
209,233,165034,2,0,P|221:198|236:142,1,69.9999978637696,10|0,0:0|0:0,0:0:0:0:
277,62,165210,6,0,B|324:59|344:102|314:109|336:156|405:154,1,139.999995727539,2|8,1:2|0:0,0:0:0:0:
371,149,165475,1,0,1:0:0:0:
202,90,165651,1,0,1:0:0:0:
202,90,165740,1,8,0:0:0:0:
363,2,165916,1,0,1:0:0:0:
442,102,166093,6,0,P|473:86|506:76,1,69.9999978637696,10|0,0:0|0:0,0:0:0:0:
455,195,166269,1,2,1:2:0:0:
455,195,166357,1,0,1:0:0:0:
455,195,166445,2,0,P|443:227|412:240,1,69.9999978637696,10|0,0:0|0:0,0:0:0:0:
308,192,166622,6,0,P|329:265|342:341,1,150.000005722046,6|8,1:2|0:0,0:0:0:0:
262,367,166887,2,0,P|223:341|219:304,1,75.0000028610231,2|0,1:2|0:0,0:0:0:0:
235,235,167063,1,0,1:0:0:0:
235,235,167151,1,10,0:0:0:0:
318,187,167328,6,0,P|333:265|340:347,1,160,6|8,1:2|0:0,0:0:0:0:
248,373,167593,2,0,P|211:343|210:305,1,80,2|0,0:0|1:0,0:0:0:0:
237,226,167769,1,0,1:0:0:0:
237,226,167857,1,10,0:0:0:0:
329,183,168034,6,0,P|338:267|337:354,1,170.000003242493,6|8,1:2|0:0,0:0:0:0:
234,377,168298,2,0,P|199:344|202:306,1,85.0000016212464,2|0,1:2|0:0,0:0:0:0:
241,217,168475,1,0,1:0:0:0:
241,217,168563,1,10,0:0:0:0:
334,173,168740,6,0,B|371:162|408:199|375:207|404:252|472:239,1,139.999995727539,2|8,1:2|0:0,0:0:0:0:
511,197,169004,2,0,P|503:160|467:146,1,69.9999978637696,2|0,0:0|1:0,0:0:0:0:
461,63,169181,1,0,1:0:0:0:
461,63,169269,2,0,P|392:34|341:88,1,139.999995727539,8|0,0:0|1:0,0:0:0:0:
184,35,169622,5,10,0:0:0:0:
273,12,169798,1,2,0:0:0:0:
251,101,169975,1,10,0:0:0:0:
97,13,170151,6,0,P|37:43|51:108,1,139.999995727539,2|8,1:2|0:0,0:0:0:0:
139,109,170416,2,0,P|125:141|114:174,1,69.9999978637696,2|0,0:0|1:0,0:0:0:0:
60,232,170593,1,0,1:0:0:0:
60,232,170681,1,10,0:0:0:0:
103,377,170857,6,0,P|191:338|170:244,1,209.999993591309,6|0,1:2|1:0,0:0:0:0:
201,166,171210,5,10,0:0:0:0:
214,161,171298,1,0,1:0:0:0:
228,163,171387,1,0,1:0:0:0:
240,170,171475,1,0,1:0:0:0:
248,181,171563,5,10,0:0:0:0:
274,203,171651,1,0,1:0:0:0:
309,201,171740,1,0,1:0:0:0:
335,178,171828,1,0,1:0:0:0:
343,144,171916,5,10,0:0:0:0:
313,96,172004,1,0,1:0:0:0:
333,43,172093,1,0,1:0:0:0:
386,28,172181,1,0,1:0:0:0:
433,57,172269,6,0,P|349:59|205:84,2,209.999993591309,6|2|10,1:2|1:2|0:0,0:0:0:0:
493,235,172975,1,0,1:0:0:0:
511,115,173151,6,0,P|477:123|465:156,1,69.9999978637696,10|0,0:0|0:0,0:0:0:0:
412,222,173328,2,0,P|403:255|425:281,1,69.9999978637696,2|0,1:2|1:0,0:0:0:0:
497,322,173504,1,10,0:0:0:0:
462,164,173681,5,2,1:2:0:0:
320,250,173857,1,10,0:0:0:0:
320,250,173945,2,0,P|255:223|176:201,1,139.999995727539,2|0,1:2|1:0,0:0:0:0:
127,257,174210,2,0,P|62:244|52:179,1,139.999995727539,10|0,0:0|1:0,0:0:0:0:
168,57,174563,6,0,B|162:20|162:20|131:9,1,69.9999978637696,10|0,0:0|0:0,0:0:0:0:
59,42,174740,2,0,B|45:76|45:76|67:101,1,69.9999978637696,2|0,1:2|1:0,0:0:0:0:
147,142,174916,5,10,0:0:0:0:
136,146,175004,1,2,0:0:0:0:
138,134,175093,2,0,P|202:91|277:73,1,139.999995727539,2|10,1:2|0:0,0:0:0:0:
361,47,175357,2,0,P|347:76|341:131,1,69.9999978637696,2|0,1:2|0:0,0:0:0:0:
270,161,175534,1,2,1:2:0:0:
270,161,175622,2,0,P|272:193|294:243,1,69.9999978637696,10|0,0:0|0:0,0:0:0:0:
355,274,175798,6,0,P|352:344|279:351,1,139.999995727539,2|8,1:2|0:0,0:0:0:0:
239,299,176063,1,2,0:0:0:0:
355,193,176240,1,0,1:0:0:0:
355,193,176328,2,0,P|388:188|414:210,1,69.9999978637696,10|0,0:0|0:0,0:0:0:0:
507,216,176504,6,0,P|485:282|478:362,1,139.999995727539,2|8,1:2|0:0,0:0:0:0:
477,351,176769,1,0,1:0:0:0:
361,273,176945,1,0,1:0:0:0:
361,273,177034,1,8,0:0:0:0:
217,314,177210,1,0,1:0:0:0:
256,140,177387,5,10,0:0:0:0:
274,167,177475,1,8,0:0:0:0:
267,202,177563,1,10,0:3:0:0:
246,229,177651,1,8,0:3:0:0:
211,238,177740,1,6,0:3:0:0:
178,226,177828,1,4,0:3:0:0:
157,197,177916,6,0,P|170:127|178:19,1,150.000005722046,6|0,1:2|3:0,0:0:0:0:
99,16,178181,2,0,P|35:51|25:123,1,150.000005722046,10|0,0:0|0:0,0:0:0:0:
75,189,178445,1,10,0:0:0:0:
149,202,178622,6,0,P|168:133|185:26,1,160,6|0,1:2|3:0,0:0:0:0:
89,12,178887,2,0,P|23:55|19:134,1,160,10|0,0:0|0:0,0:0:0:0:
69,198,179151,1,10,0:0:0:0:
146,208,179328,6,0,P|170:141|197:36,1,170.000003242493,6|0,1:2|3:0,0:0:0:0:
79,13,179593,2,0,P|13:65|16:149,1,170.000003242493,10|0,0:0|0:0,0:0:0:0:
64,206,179857,1,10,0:0:0:0:
156,220,180034,6,0,P|187:204|243:191,1,69.9999978637696,2|0,1:2|0:0,0:0:0:0:
272,131,180210,5,10,0:0:0:0:
306,137,180298,1,10,0:0:0:0:
334,158,180387,1,8,0:0:0:0:
349,189,180475,1,8,0:0:0:0:
364,220,180563,1,8,0:0:0:0:
392,241,180652,1,8,0:0:0:0:
426,247,180740,6,0,P|471:217|445:136,1,139.999995727539,4|10,1:2|0:0,0:0:0:0:
469,61,181004,1,0,1:0:0:0:
469,61,181093,2,0,P|449:33|411:30,1,69.9999978637696,2|0,0:0|1:0,0:0:0:0:
345,67,181269,1,10,0:0:0:0:
186,128,181445,6,0,P|140:81|189:16,1,139.999995727539,2|8,1:2|0:0,0:0:0:0:
247,35,181710,2,0,P|263:103|273:172,1,139.999995727539,2|0,0:0|1:0,0:0:0:0:
250,248,181975,1,10,0:0:0:0:
117,182,182151,6,0,B|72:174|36:211|72:224|39:267|-21:256,1,139.999995727539,4|10,1:2|0:0,0:0:0:0:
4,334,182416,1,0,1:0:0:0:
4,334,182504,2,0,P|25:358|70:351,1,69.9999978637696,2|0,0:0|1:0,0:0:0:0:
106,291,182681,1,10,0:0:0:0:
243,378,182857,6,0,P|281:323|255:261,1,139.999995727539,2|8,1:2|0:0,0:0:0:0:
176,251,183122,2,0,P|202:180|218:94,1,139.999995727539,2|0,0:0|1:0,0:0:0:0:
215,38,183387,1,10,0:0:0:0:
288,189,183563,6,0,P|355:165|360:104,1,139.999995727539,4|10,1:2|0:0,0:0:0:0:
317,42,183828,1,0,1:0:0:0:
317,42,183916,2,0,P|340:19|391:22,1,69.9999978637696,2|0,0:0|1:0,0:0:0:0:
438,70,184093,1,10,0:0:0:0:
417,214,184269,6,0,P|438:280|455:348,1,139.999995727539,2|8,1:2|0:0,0:0:0:0:
354,288,184534,2,0,B|323:282|290:323|318:329|287:369|247:365,1,139.999995727539,2|0,0:0|1:0,0:0:0:0:
185,321,184798,1,10,0:0:0:0:
30,234,184975,6,2,B|-5:270|-5:270|24:324|24:324|13:361,1,150.000005722046,6|8,1:0|0:0,0:1:0:0:
108,376,185240,1,0,1:0:0:0:
108,376,185328,2,2,B|97:280|97:280|130:254|130:254|141:232,1,150.000005722046,2|8,0:1|0:0,0:1:0:0:
110,87,185681,2,2,B|4:120|4:120|26:153,1,150.000005722046,2|8,1:0|0:0,0:1:0:0:
178,176,186034,5,2,1:0:0:0:
183,138,186122,1,8,0:0:0:0:
188,100,186210,1,8,0:0:0:0:
193,63,186298,1,8,0:0:0:0:
199,25,186387,6,0,B|247:18|270:51|240:61|269:108|322:91,1,139.999995727539,4|10,1:2|0:0,0:0:0:0:
359,38,186651,1,0,1:0:0:0:
359,38,186740,2,0,P|392:49|406:90,1,69.9999978637696,2|0,0:0|1:0,0:0:0:0:
365,146,186916,1,10,0:0:0:0:
453,280,187093,6,0,P|515:244|502:182,1,139.999995727539,2|8,1:2|0:0,0:0:0:0:
426,200,187357,2,0,P|383:227|283:272,1,139.999995727539,2|0,0:0|1:0,0:0:0:0:
226,256,187622,1,10,0:0:0:0:
86,356,187798,5,4,1:2:0:0:
180,345,187975,1,10,0:0:0:0:
180,333,188063,1,0,1:0:0:0:
188,338,188151,1,2,0:0:0:0:
32,286,188328,1,10,0:0:0:0:
146,154,188504,6,0,P|200:171|198:250,1,139.999995727539,2|8,1:2|0:0,0:0:0:0:
119,277,188769,2,0,B|131:242|100:206|77:235|41:193|61:141,1,139.999995727539,2|0,0:0|1:0,0:0:0:0:
95,91,189034,1,10,0:0:0:0:
244,101,189210,6,0,P|302:77|373:38,1,139.999995727539,4|10,1:2|0:0,0:0:0:0:
442,3,189475,1,0,1:0:0:0:
442,3,189563,2,0,P|468:22|471:77,1,69.9999978637696,2|0,0:0|1:0,0:0:0:0:
432,128,189740,1,10,0:0:0:0:
474,288,189916,1,2,1:2:0:0:
512,214,190093,5,8,0:0:0:0:
478,204,190181,1,10,0:0:0:0:
443,207,190269,1,8,0:0:0:0:
415,228,190357,1,8,0:0:0:0:
381,238,190446,1,10,0:0:0:0:
346,235,190534,1,8,0:0:0:0:
318,214,190622,5,6,1:2:0:0:
318,214,191328,6,0,P|364:199|400:239,2,104.999996795654,10|10|10,0:0|0:0|0:0,0:0:0:0:
305,368,192034,6,0,P|289:228|269:90,1,279.999991455078,6|0,1:2|3:0,0:0:0:0:
198,37,192475,1,0,1:0:0:0:
198,37,192563,2,0,P|189:78|176:107,1,69.9999978637696,10|0,0:0|0:0,0:0:0:0:
204,179,192740,2,0,P|162:230|94:215,1,139.999995727539,0|8,1:0|0:0,0:0:0:0:
95,94,193093,1,2,1:2:0:0:
95,94,193181,1,0,1:0:0:0:
95,94,193269,2,0,B|56:90|35:137|59:139|37:183|-3:178,1,139.999995727539,8|0,0:0|1:0,0:0:0:0:
0,361,193622,5,10,0:0:0:0:
0,361,193710,2,0,P|22:307|113:315,1,139.999995727539,0|0,1:0|1:0,0:0:0:0:
134,374,193975,1,8,0:0:0:0:
256,226,194151,6,0,P|318:264|403:277,1,139.999995727539,2|8,1:2|0:0,0:0:0:0:
283,345,194416,2,0,P|216:343|190:282,1,139.999995727539,2|0,0:0|1:0,0:0:0:0:
129,225,194681,2,0,P|130:158|191:132,1,139.999995727539,10|0,0:0|1:0,0:0:0:0:
297,14,195034,6,0,P|326:29|329:63,1,69.9999978637696,10|0,0:0|1:0,0:0:0:0:
391,119,195210,1,2,0:0:0:0:
391,119,195298,2,0,P|393:152|365:172,1,69.9999978637696,2|8,1:2|0:0,0:0:0:0:
268,121,195475,2,2,P|291:193|303:265,1,139.999995727539,2|0,0:1|0:0,0:1:0:0:
339,326,195740,5,10,0:0:0:0:
481,238,195916,1,2,1:2:0:0:
491,228,196004,1,0,1:0:0:0:
477,227,196093,1,10,0:0:0:0:
437,376,196269,6,0,P|414:304|402:232,1,139.999995727539,2|8,1:2|0:0,0:0:0:0:
359,179,196534,2,0,P|362:144|387:121,1,69.9999978637696,2|0,1:2|0:0,0:0:0:0:
464,149,196710,1,2,1:2:0:0:
464,149,196798,1,10,0:0:0:0:
399,21,196975,6,0,B|325:-3|269:70|323:101|262:194|156:139,1,279.999991455078,2|0,1:2|1:0,0:0:0:0:
131,92,197416,1,0,1:0:0:0:
131,92,197504,1,8,0:0:0:0:
14,200,197681,6,0,P|37:272|61:353,1,150.000005722046,6|8,1:2|0:0,0:0:0:0:
128,295,197945,2,0,P|134:259|148:221,1,75.0000028610231,2|0,1:2|0:0,0:0:0:0:
88,164,198122,1,0,1:0:0:0:
88,164,198210,1,10,0:0:0:0:
7,211,198387,6,0,P|23:284|40:367,1,160,6|8,1:2|0:0,0:0:0:0:
134,300,198651,2,0,P|143:261|160:224,1,80,2|0,0:0|1:0,0:0:0:0:
86,178,198828,1,0,1:0:0:0:
86,178,198916,1,10,0:0:0:0:
0,216,199093,6,0,P|11:300|21:384,1,170.000003242493,6|8,1:2|0:0,0:0:0:0:
138,309,199357,2,0,P|152:267|174:229,1,85.0000016212464,2|0,1:2|0:0,0:0:0:0:
87,190,199534,1,0,1:0:0:0:
87,190,199622,1,10,0:0:0:0:
0,227,199798,6,0,P|5:158|6:88,1,139.999995727539,2|8,1:2|0:0,0:0:0:0:
21,11,200063,2,0,P|60:6|87:51,1,69.9999978637696,2|0,0:0|1:0,0:0:0:0:
93,110,200240,1,0,1:0:0:0:
93,110,200328,2,0,P|152:77|239:72,1,139.999995727539,10|0,0:0|1:0,0:0:0:0:
383,144,200681,5,10,0:0:0:0:
383,144,200769,2,0,P|390:78|333:45,1,139.999995727539,0|0,1:0|1:0,0:0:0:0:
293,116,201034,2,0,P|301:154|309:205,1,69.9999978637696,10|0,0:0|0:0,0:0:0:0:
375,224,201210,2,0,P|359:292|349:361,1,139.999995727539,2|8,1:2|0:0,0:0:0:0:
278,282,201475,2,0,P|224:238|153:255,1,139.999995727539,2|0,0:0|1:0,0:0:0:0:
120,318,201740,1,10,0:0:0:0:
65,194,201916,6,0,P|41:201|20:215,3,50,6|0|0|0,1:2|1:0|1:0|1:0,0:0:0:0:
142,241,202269,2,0,P|147:216|146:191,3,50,8|0|0|0,0:0|1:0|1:0|1:0,0:0:0:0:
61,283,202622,2,0,P|79:299|101:311,3,50,8|0|0|0,0:0|1:0|1:0|1:0,0:0:0:0:
68,183,202975,6,0,P|75:155|80:121,1,50,10|2,0:0|1:2,0:0:0:0:
15,86,203151,2,0,P|7:58|-5:26,1,50,2|2,1:2|1:2,0:0:0:0:
76,13,203328,5,6,1:2:0:0:
111,7,203416,1,0,3:0:0:0:
145,17,203504,1,8,0:0:0:0:
171,42,203593,1,0,1:0:0:0:
180,76,203681,2,0,P|164:104|155:136,3,59.9999981689454,2|0|8|0,3:2|1:0|0:0|3:0,0:0:0:0:
276,181,204034,5,2,1:2:0:0:
307,164,204122,1,0,3:0:0:0:
326,135,204210,1,8,0:0:0:0:
330,99,204299,1,0,3:0:0:0:
315,67,204387,2,0,P|280:71|255:69,3,59.9999981689454,2|0|8|0,1:2|1:0|0:0|3:0,0:0:0:0:
192,193,204740,5,2,1:2:0:0:
165,160,204828,1,0,3:0:0:0:
123,151,204916,1,8,0:0:0:0:
84,167,205004,1,0,1:0:0:0:
69,206,205093,2,0,P|100:223|142:255,1,69.9999978637696,2|0,3:2|1:0,0:0:0:0:
134,333,205269,2,0,P|165:317|198:306,1,69.9999978637696,8|0,0:0|3:0,0:0:0:0:
276,199,205445,5,2,1:2:0:0:
260,239,205533,1,0,3:0:0:0:
274,280,205622,1,8,0:0:0:0:
307,306,205709,1,0,3:0:0:0:
348,298,205798,2,0,P|349:258|358:214,1,69.9999978637696,2|0,1:2|1:0,0:0:0:0:
427,315,205975,2,0,P|427:349|433:384,1,69.9999978637696,8|0,0:0|3:0,0:0:0:0:
504,285,206151,6,0,B|514:250|514:250|488:226,1,69.9999978637696,2|0,1:2|3:0,0:0:0:0:
424,181,206328,2,0,B|413:146|413:146|439:122,1,69.9999978637696,10|0,0:0|1:0,0:0:0:0:
507,59,206504,1,2,3:2:0:0:
507,59,206593,1,0,1:0:0:0:
507,59,206681,2,0,L|439:42,1,69.9999978637696,10|0,0:0|3:0,0:0:0:0:
333,132,206857,6,0,B|310:99|310:99|258:110,1,75.0000028610231,2|0,1:2|3:0,0:0:0:0:
236,24,207034,2,0,B|213:57|213:57|161:46,1,75.0000028610231,10|0,0:0|3:0,0:0:0:0:
112,110,207210,1,2,1:2:0:0:
112,110,207298,1,0,1:0:0:0:
112,110,207387,2,0,L|92:17,1,75.0000028610231,10|0,0:0|3:0,0:0:0:0:
25,98,207563,6,0,P|13:170|90:204,1,139.999995727539,2|8,1:2|0:0,0:0:0:0:
83,280,207828,2,0,P|147:294|191:244,1,139.999995727539,2|0,1:2|1:0,0:0:0:0:
160,174,208093,1,10,0:0:0:0:
249,94,208269,6,0,P|278:108|324:122,1,69.9999978637696,2|0,1:0|0:0,0:0:0:0:
280,194,208445,5,8,0:0:0:0:
273,228,208534,1,8,0:0:0:0:
280,262,208622,1,8,0:3:0:0:
302,289,208710,1,8,0:3:0:0:
332,305,208798,1,4,0:3:0:0:
367,307,208887,1,4,0:3:0:0:
399,297,208975,6,0,P|364:235|385:165,1,139.999995727539,6|0,1:2|3:0,0:0:0:0:
381,95,209240,2,0,P|449:94|499:141,1,139.999995727539,10|0,0:0|0:0,0:0:0:0:
478,221,209504,1,10,0:0:0:0:
415,292,209681,6,0,P|375:233|389:161,1,129.999994049073,6|0,1:2|3:0,0:0:0:0:
387,102,209945,2,0,P|455:107|500:158,1,129.999994049073,10|0,0:0|0:0,0:0:0:0:
484,228,210210,1,10,0:0:0:0:
431,287,210387,6,0,P|390:244|384:185,1,119.999996337891,6|0,1:2|3:0,0:0:0:0:
392,109,210651,2,0,P|450:115|492:157,1,119.999996337891,10|0,0:0|0:0,0:0:0:0:
488,238,210916,1,10,0:0:0:0:
410,297,211093,6,0,P|379:280|344:268,1,69.9999978637696,2|0,1:2|0:0,0:0:0:0:
279,309,211269,5,8,0:0:0:0:
251,331,211357,1,10,0:0:0:0:
219,347,211445,1,8,0:0:0:0:
185,358,211534,1,8,0:0:0:0:
150,362,211622,1,10,0:0:0:0:
115,361,211710,1,8,0:0:0:0:
80,355,211798,6,0,P|64:286|123:248,1,139.999995727539,4|10,1:2|0:0,0:0:0:0:
138,176,212063,1,0,1:0:0:0:
138,176,212151,2,0,P|174:168|209:201,1,69.9999978637696,2|0,0:0|1:0,0:0:0:0:
215,262,212328,1,10,0:0:0:0:
256,122,212504,6,0,B|294:109|329:141|300:157|337:195|380:177,1,139.999995727539,2|8,1:2|0:0,0:0:0:0:
431,232,212769,2,0,P|481:197|479:120,1,139.999995727539,2|0,0:0|1:0,0:0:0:0:
427,68,213034,1,10,0:0:0:0:
363,193,213210,6,0,P|391:258|405:326,1,139.999995727539,4|10,1:2|0:0,0:0:0:0:
339,374,213475,1,0,1:0:0:0:
339,374,213563,2,0,P|305:370|289:340,1,69.9999978637696,2|0,0:0|1:0,0:0:0:0:
302,262,213740,1,10,0:0:0:0:
201,169,213916,6,0,P|140:202|72:219,1,139.999995727539,2|8,1:2|0:0,0:0:0:0:
66,298,214181,2,0,P|112:343|184:325,1,139.999995727539,2|0,0:0|1:0,0:0:0:0:
219,258,214445,1,10,0:0:0:0:
144,105,214622,6,0,P|171:46|245:39,1,139.999995727539,4|10,1:2|0:0,0:0:0:0:
262,116,214887,1,0,1:0:0:0:
262,116,214975,2,0,P|295:130|356:123,1,69.9999978637696,2|0,0:0|1:0,0:0:0:0:
391,87,215151,1,10,0:0:0:0:
506,185,215328,6,0,P|510:249|447:267,1,139.999995727539,2|8,1:2|0:0,0:0:0:0:
402,333,215593,2,0,P|368:328|346:301,1,69.9999978637696,2|0,0:0|1:0,0:0:0:0:
356,207,215769,5,8,0:0:0:0:
313,230,215857,1,10,0:0:0:0:
267,248,215945,1,8,0:0:0:0:
218,259,216034,1,6,1:2:0:0:
218,259,216740,6,0,P|287:274|375:310,2,150,8|8|8,0:0|0:0|0:0,0:0:0:0:
419,244,217445,1,12,0:0:0:0:
