osu file format v14

[General]
AudioFilename: audio.mp3
AudioLeadIn: 0
PreviewTime: 159835
Countdown: 0
SampleSet: Soft
StackLeniency: 0.7
Mode: 0
LetterboxInBreaks: 0
WidescreenStoryboard: 1

[Editor]
DistanceSpacing: 1.1
BeatDivisor: 4
GridSize: 32
TimelineZoom: 2.3

[Metadata]
Title:Imperfect Animals
TitleUnicode:インパーフェクトアニマルズ
Artist:Utsu-P
ArtistUnicode:鬱P
Creator:kuyusu
Version:Hard
Source:
Tags:Yoko Japanese Vocaloid rock metal utsup Inpaafekuto Animaruzu GREATEST SHITS ALGORITHM Kagamine Rin 鏡音リン GUMI MY SONG IS SHIT
BeatmapID:2927617
BeatmapSetID:1377324

[Difficulty]
HPDrainRate:4
CircleSize:3.6
OverallDifficulty:7
ApproachRate:8
SliderMultiplier:1.4
SliderTickRate:1

[Events]
//Background and Video events
0,0,"32132.jpg",0,0
//Break Periods
2,108740,113637
//Storyboard Layer 0 (Background)
//Storyboard Layer 1 (Fail)
//Storyboard Layer 2 (Pass)
//Storyboard Layer 3 (Foreground)
//Storyboard Layer 4 (Overlay)
//Storyboard Sound Samples

[TimingPoints]
1446,352.941176470588,4,2,2,40,1,0
1446,-125,4,2,2,40,0,0
6740,-125,4,2,1,40,0,0
7093,-90.9090909090909,4,2,1,60,0,0
18387,-86.9565217391304,4,2,1,65,0,0
29681,-125,4,2,1,45,0,0
35328,-125,4,2,1,50,0,0
40975,-100,4,2,1,55,0,0
46622,-125,4,2,1,50,0,0
52269,-111.111111111111,4,2,1,45,0,0
57916,-100,4,2,1,50,0,0
66387,-83.3333333333333,4,2,1,70,0,1
90387,-83.3333333333333,4,2,1,70,0,0
91798,-90.9090909090909,4,2,1,60,0,0
108387,-90.9090909090909,4,2,1,30,0,0
114387,-125,4,2,1,35,0,0
120034,-100,4,2,1,55,0,0
131328,-125,4,2,1,40,0,0
136975,-125,4,2,1,45,0,0
142622,-111.111111111111,4,2,1,50,0,0
151093,-100,4,2,1,50,0,0
155328,-100,4,2,1,45,0,0
156034,-125,4,2,1,45,0,0
158151,-100,4,2,1,35,0,0
158504,-100,4,2,1,40,0,0
158857,-100,4,2,1,45,0,0
159210,-100,4,2,1,50,0,0
159563,-100,4,2,1,55,0,0
160975,-83.3333333333333,4,2,1,70,0,1
184887,-83.3333333333333,4,2,1,70,0,0
184975,-83.3333333333333,4,2,1,70,0,1
185240,-83.3333333333333,4,2,1,70,0,0
185328,-83.3333333333333,4,2,1,70,0,1
185593,-83.3333333333333,4,2,1,70,0,0
185681,-83.3333333333333,4,2,1,70,0,1
185945,-83.3333333333333,4,2,1,70,0,0
186034,-83.3333333333333,4,2,1,70,0,1
190622,-125,4,2,1,70,0,0
192034,-83.3333333333333,4,2,1,75,0,0
203328,-83.3333333333333,4,2,1,75,0,1
208975,-83.3333333333333,4,2,1,75,0,0
216740,-125,4,2,1,75,0,0

[Colours]
Combo1 : 62,98,153
Combo2 : 158,31,37
Combo3 : 65,169,177
Combo4 : 67,152,63

[HitObjects]
45,284,1446,6,0,P|-2:258|0:204,1,112,2|8,1:2|0:0,0:0:0:0:
60,156,1975,1,2,1:2:0:0:
179,265,2328,1,2,1:2:0:0:
179,265,2504,2,0,P|204:246|236:244,1,56,10|2,0:0|1:2,0:0:0:0:
303,221,2857,2,0,P|335:255|326:308,2,84,2|2|2,1:2|0:0|1:2,0:0:0:0:
192,116,3740,1,2,1:2:0:0:
192,116,3916,2,0,P|201:82|208:40,1,56,10|2,0:0|1:2,0:0:0:0:
271,19,4269,6,0,B|299:15|330:38|305:51|329:81|373:67,1,112,2|8,1:2|0:0,0:0:0:0:
432,36,4798,1,2,1:2:0:0:
492,186,5151,1,2,1:2:0:0:
492,186,5328,2,0,P|479:220|473:262,1,56,10|2,0:0|1:2,0:0:0:0:
428,302,5681,2,0,P|464:331|510:321,2,84,2|2|2,1:2|0:0|1:2,0:0:0:0:
362,159,6563,1,2,1:2:0:0:
308,214,6740,6,0,L|199:234,1,84,10|0,0:0|0:0,0:0:0:0:
185,213,7093,5,14,0:0:0:0:
116,260,7269,1,8,0:3:0:0:
116,260,7357,2,0,P|77:241|65:200,1,77.0000023498536,6|0,0:3|1:0,0:0:0:0:
42,175,7622,2,0,P|76:106|153:123,1,154.000004699707,10|6,0:0|0:3,0:0:0:0:
225,139,8151,2,0,P|266:120|320:106,1,77.0000023498536,10|2,0:0|1:2,0:0:0:0:
395,82,8504,6,0,P|373:123|386:163,1,77.0000023498536,10|8,0:0|0:3,0:0:0:0:
417,169,8769,2,0,P|438:206|427:247,1,77.0000023498536,6|0,0:3|1:0,0:0:0:0:
411,275,9034,1,10,0:0:0:0:
273,373,9387,1,6,0:3:0:0:
226,302,9563,2,0,P|235:260|243:205,1,77.0000023498536,10|2,0:0|1:2,0:0:0:0:
299,165,9916,6,0,P|317:122|298:78,1,77.0000023498536,10|0,0:0|1:0,0:0:0:0:
281,69,10181,1,2,1:2:0:0:
281,69,10269,1,0,1:0:0:0:
201,96,10445,2,0,P|120:63|36:39,1,154.000004699707,10|6,0:0|0:3,0:0:0:0:
6,112,10975,2,0,P|27:152|49:204,1,77.0000023498536,10|2,0:0|1:2,0:0:0:0:
113,223,11328,6,0,P|49:229|13:282,2,115.50000352478,14|14|14,0:0|0:0|0:0,0:0:0:0:
273,276,12210,1,2,3:2:0:0:
205,327,12387,2,0,L|151:321,3,38.5000011749268,8|8|8|8,0:0|0:0|0:0|0:0,0:0:0:0:
179,286,12740,5,14,0:0:0:0:
213,211,12916,1,8,0:3:0:0:
213,211,13004,2,0,P|200:169|189:103,1,77.0000023498536,6|0,0:3|1:0,0:0:0:0:
213,99,13269,2,0,B|248:86|280:110|254:123|287:150|334:125,1,115.50000352478,10|8,0:0|0:3,0:0:0:0:
346,104,13622,1,6,0:3:0:0:
420,143,13798,2,0,P|406:189|397:240,1,77.0000023498536,10|2,0:0|1:2,0:0:0:0:
414,315,14151,6,0,P|376:294|314:270,1,77.0000023498536,10|8,0:0|0:3,0:0:0:0:
305,264,14416,2,0,P|264:280|225:302,1,77.0000023498536,6|0,0:3|1:0,0:0:0:0:
211,331,14681,2,0,P|128:332|104:255,1,154.000004699707,10|6,0:0|0:3,0:0:0:0:
163,219,15210,2,0,P|155:177|146:113,1,77.0000023498536,10|2,0:0|1:2,0:0:0:0:
105,70,15563,5,10,0:0:0:0:
180,26,15740,1,0,1:0:0:0:
180,26,15828,1,2,1:2:0:0:
180,26,15916,2,0,P|202:40|230:49,1,38.5000011749268,0|0,1:0|1:0,0:0:0:0:
254,33,16093,2,0,P|317:37|345:93,1,115.50000352478,10|8,0:0|0:3,0:0:0:0:
341,119,16445,1,6,0:3:0:0:
339,203,16622,2,0,P|359:240|400:251,1,77.0000023498536,10|2,0:0|1:2,0:0:0:0:
472,229,16975,6,0,P|463:171|456:84,2,115.50000352478,14|14|14,0:0|0:0|0:0,0:0:0:0:
389,376,17857,1,2,3:2:0:0:
329,315,18034,2,0,L|194:346,1,115.50000352478,0|0,1:0|0:0,0:0:0:0:
183,370,18387,6,2,B|162:328|162:328|116:314|116:314|139:243,1,161.000003070831,6|0,1:0|1:0,0:1:0:0:
178,231,18828,1,0,1:0:0:0:
178,231,18916,2,0,P|162:186|150:120,1,80.5000015354157,10|0,0:0|1:0,0:0:0:0:
84,99,19269,1,10,0:0:0:0:
124,20,19445,1,2,1:2:0:0:
209,42,19622,1,10,0:0:0:0:
294,20,19798,6,0,P|331:36|395:56,1,80.5000015354157,2|8,1:2|0:0,0:0:0:0:
410,31,20063,2,0,P|450:50|466:92,1,80.5000015354157,2|0,1:2|1:0,0:0:0:0:
434,113,20328,2,0,P|409:175|435:237,1,120.750002303124,10|0,0:0|1:0,0:0:0:0:
461,249,20681,1,10,0:0:0:0:
415,324,20857,2,0,P|372:307|327:296,1,80.5000015354157,2|10,1:2|0:0,0:0:0:0:
266,247,21210,6,0,P|222:235|186:262,1,80.5000015354157,2|8,1:2|0:0,0:0:0:0:
188,298,21475,1,2,1:2:0:0:
188,298,21563,1,0,1:0:0:0:
117,352,21740,2,0,P|54:336|40:272,1,120.750002303124,10|0,0:0|1:0,0:0:0:0:
68,257,22093,1,10,0:0:0:0:
112,180,22269,1,2,1:2:0:0:
59,109,22445,1,10,0:0:0:0:
98,29,22622,5,4,1:2:0:0:
174,73,22798,2,0,L|237:59,3,40.2500007677078,8|8|8|8,0:0|0:0|0:0|0:0,0:0:0:0:
246,34,23151,2,0,L|402:60,1,120.750002303124,8|0,0:0|0:0,0:0:0:0:
403,76,23504,1,2,3:2:0:0:
376,165,23681,1,10,0:0:0:0:
376,165,23769,1,8,0:0:0:0:
376,165,23857,2,0,L|313:181,1,40.2500007677078,10|8,0:0|0:0,0:0:0:0:
294,160,24034,6,0,P|249:166|221:201,1,80.5000015354157,6|8,1:2|0:0,0:0:0:0:
196,223,24298,1,2,1:2:0:0:
243,304,24475,1,0,1:0:0:0:
243,304,24563,2,0,P|290:284|352:271,1,80.5000015354157,10|0,0:0|1:0,0:0:0:0:
389,329,24916,1,10,0:0:0:0:
473,302,25093,1,2,1:2:0:0:
484,214,25269,1,10,0:0:0:0:
409,167,25445,6,0,P|421:125|429:77,1,80.5000015354157,2|8,1:2|0:0,0:0:0:0:
445,47,25710,2,0,P|413:14|369:16,1,80.5000015354157,2|0,1:2|1:0,0:0:0:0:
345,40,25975,2,0,P|285:71|221:51,1,120.750002303124,10|0,0:0|1:0,0:0:0:0:
205,27,26328,1,10,0:0:0:0:
116,21,26504,2,0,P|86:54|95:102,1,80.5000015354157,2|10,1:2|0:0,0:0:0:0:
132,163,26857,6,0,P|110:204|93:252,1,80.5000015354157,2|8,1:2|0:0,0:0:0:0:
72,273,27122,1,2,1:2:0:0:
72,273,27210,1,0,1:0:0:0:
105,355,27387,2,0,P|165:326|249:305,1,120.750002303124,10|0,0:0|1:0,0:0:0:0:
258,326,27740,1,10,0:0:0:0:
343,304,27916,1,2,1:2:0:0:
359,216,28093,1,10,0:0:0:0:
273,238,28269,5,10,0:0:0:0:
189,208,28445,2,0,L|179:163,3,40.2500007677078,0|0|0|0,1:0|1:0|1:0|1:0,0:0:0:0:
213,138,28798,1,10,0:0:0:0:
296,106,28975,2,0,L|306:61,3,40.2500007677078,0|0|0|0,1:0|1:0|1:0|1:0,0:0:0:0:
272,35,29328,2,0,P|207:14|147:44,1,120.750002303124,10|0,0:0|0:0,0:0:0:0:
151,58,29681,5,6,1:2:0:0:
46,23,30034,1,2,1:2:0:0:
61,136,30387,1,2,1:2:0:0:
171,170,30740,1,2,1:2:0:0:
276,130,31093,5,2,1:2:0:0:
385,96,31446,1,2,1:2:0:0:
366,208,31799,1,2,1:2:0:0:
256,242,32152,1,2,1:2:0:0:
169,167,32504,5,2,1:2:0:0:
150,280,32857,1,2,1:2:0:0:
236,355,33210,1,2,1:2:0:0:
256,242,33563,1,2,1:2:0:0:
354,187,33916,5,2,1:2:0:0:
334,74,34269,1,2,1:2:0:0:
421,1,34622,1,2,1:2:0:0:
441,112,34975,1,2,1:2:0:0:
369,198,35328,6,0,P|394:260|417:327,2,112,6|2|2,1:2|1:2|1:2,0:0:0:0:
283,125,36387,1,2,1:2:0:0:
190,187,36740,6,0,P|138:152|137:91,2,112,2|2|2,1:2|1:2|1:2,0:0:0:0:
257,276,37798,1,2,1:2:0:0:
171,348,38151,6,0,P|125:315|74:292,1,112,6|2,1:2|1:2,0:0:0:0:
165,226,38857,2,0,P|214:191|274:165,1,112,6|2,1:2|1:2,0:0:0:0:
161,98,39563,6,0,P|168:66|175:35,1,56,6|2,1:2|3:2,0:0:0:0:
95,23,39916,2,0,P|87:54|80:85,1,56,6|2,1:2|3:2,0:0:0:0:
101,153,40269,1,2,1:2:0:0:
242,86,40622,2,0,L|289:100,3,28,10|8|8|8,0:0|0:0|0:0|0:0,0:0:0:0:
303,76,40975,6,2,B|322:64|322:64|334:78|334:78|423:63,2,105,6|2|10,1:0|1:0|0:1,0:1:0:0:
269,149,41681,1,0,1:0:0:0:
344,189,41857,1,10,0:0:0:0:
344,189,42034,2,0,P|358:232|365:284,1,70,2|10,1:2|0:0,0:0:0:0:
407,323,42387,5,2,1:0:0:0:
340,368,42563,2,2,B|310:358|310:358|283:323|283:323|247:332,1,105,10|0,0:1|1:0,0:1:0:0:
219,351,42916,1,10,0:1:0:0:
146,314,43093,2,0,L|85:333,3,35,0|0|8|0,1:0|3:0|0:0|3:0,0:0:0:0:
80,348,43445,2,0,L|41:336,3,35,0|0|8|0,1:0|1:0|0:0|3:0,0:0:0:0:
22,305,43798,5,0,1:0:0:0:
75,244,43975,2,2,B|84:228|84:228|53:157,1,70,10|2,0:1|0:1,0:1:0:0:
11,120,44328,2,2,B|44:79|44:79|80:86,1,70,10|2,0:1|1:0,0:1:0:0:
125,131,44681,1,10,0:1:0:0:
193,88,44857,2,2,B|207:83|207:83|232:113|232:113|258:111,1,70,2|10,1:0|0:1,0:1:0:0:
343,79,45210,6,2,B|330:85|330:85|321:156,1,70,2|8,1:0|0:0,0:1:0:0:
323,180,45475,2,0,B|310:215|310:215|262:207,1,70,0|0,1:0|1:0,0:0:0:0:
243,191,45740,1,12,0:0:0:0:
243,191,46269,6,2,B|255:242|255:242|248:246|248:246|240:302,1,105,2|0,0:1|0:0,0:1:0:0:
222,321,46622,6,2,B|186:299|186:299|166:304|166:304|135:300,2,84,6|0|0,1:0|1:0|1:0,0:1:0:0:
278,371,47328,2,0,L|326:353,3,28,8|0|0|0,0:0|3:0|3:0|3:0,0:0:0:0:
334,338,47681,2,0,L|363:349,3,28,2|0|2|0,3:1|3:0|3:1|3:0,0:0:0:0:
395,363,48034,6,2,B|418:331|418:331|414:309,1,56,2|2,1:0|1:0,0:1:0:0:
397,282,48298,2,0,B|393:259|393:259|418:226,1,56,0|0,1:0|1:0,0:0:0:0:
448,220,48563,1,2,1:0:0:0:
443,144,48740,6,2,B|399:133|399:133|385:117,1,56,10|2,0:1|0:1,0:1:0:0:
332,171,49093,2,2,B|288:181|288:181|274:197,1,56,2|8,1:0|0:0,0:1:0:0:
237,128,49445,6,0,B|253:91|253:91|284:93|284:93|302:117,2,84,0|0|0,1:0|1:0|1:0,0:0:0:0:
205,196,50151,2,0,L|171:213,3,28,10|0|0|0,0:1|3:0|3:0|3:0,0:0:0:0:
150,232,50504,2,0,L|118:211,3,28,2|0|0|0,3:1|3:0|3:0|3:0,0:0:0:0:
100,188,50857,6,2,B|60:201|60:201|52:232,1,56,2|0,1:0|1:0,0:1:0:0:
21,230,51122,2,0,B|11:270|11:270|34:293,1,56,0|0,1:0|1:0,0:0:0:0:
53,301,51387,1,2,1:0:0:0:
29,372,51563,1,10,0:1:0:0:
29,372,52269,6,0,P|-2:330|9:278,2,94.499997116089,6|2|2,1:2|0:0|3:2,0:0:0:0:
97,339,52975,1,2,1:2:0:0:
244,372,53328,1,0,1:0:0:0:
288,312,53504,1,2,3:2:0:0:
288,312,53681,6,0,P|249:272|196:297,2,94.499997116089,2|2|2,1:2|0:0|3:2,0:0:0:0:
345,361,54387,1,2,1:2:0:0:
423,231,54740,1,0,1:0:0:0:
394,166,54916,1,2,3:2:0:0:
394,166,55093,6,0,P|361:155|308:145,1,62.9999980773926,2|0,1:2|3:0,0:0:0:0:
301,167,55357,2,0,P|266:178|231:185,1,62.9999980773926,2|0,0:0|0:0,0:0:0:0:
203,173,55622,1,2,3:2:0:0:
153,230,55798,2,0,P|118:226|93:196,1,62.9999980773926,2|2,1:2|3:2,0:0:0:0:
106,173,56063,1,2,0:0:0:0:
106,173,56151,2,0,P|96:131|79:84,1,62.9999980773926,2|2,1:2|3:2,0:0:0:0:
112,39,56504,6,0,P|65:26|-1:17,2,94.499997116089,2|2|2,1:2|0:0|3:2,0:0:0:0:
171,86,57210,1,2,1:2:0:0:
235,46,57387,1,8,0:0:0:0:
298,86,57563,2,0,L|288:132,3,31.4999990386963,0|8|10|8,1:0|0:0|0:0|0:0,0:0:0:0:
318,149,57916,6,0,P|379:131|438:120,2,105,6|2|10,1:2|1:2|0:0,0:0:0:0:
272,215,58622,1,2,1:2:0:0:
337,261,58798,2,0,P|355:296|340:336,1,70,8|0,0:0|1:0,0:0:0:0:
319,351,59063,1,0,1:0:0:0:
319,351,59151,1,10,0:0:0:0:
241,327,59328,6,0,P|198:347|114:371,2,105,2|2|10,1:2|1:2|0:0,0:0:0:0:
257,247,60034,1,2,1:2:0:0:
208,183,60210,2,0,P|218:144|226:105,1,70,8|0,0:0|1:0,0:0:0:0:
214,80,60475,1,0,1:0:0:0:
214,80,60563,1,10,0:0:0:0:
271,23,60740,6,0,P|325:47|390:60,1,105,6|0,1:2|1:0,0:0:0:0:
328,176,61269,1,10,0:0:0:0:
328,176,61357,1,8,0:0:0:0:
328,176,61445,2,0,P|274:152|209:139,1,105,6|0,1:2|1:0,0:0:0:0:
271,23,61975,1,10,0:0:0:0:
271,23,62063,1,8,0:0:0:0:
271,23,62151,2,0,P|325:47|390:60,1,105,6|0,1:2|1:0,0:0:0:0:
461,136,62681,1,8,0:3:0:0:
435,211,62857,6,0,P|452:253|466:306,1,70,10|0,0:0|1:0,0:0:0:0:
473,314,63122,2,0,P|447:340|403:340,1,70,10|0,0:0|1:0,0:0:0:0:
376,330,63387,1,10,0:0:0:0:
231,259,63740,6,0,P|181:288|111:295,2,105,4|0|0,1:2|1:0|1:0,0:0:0:0:
351,259,64534,2,0,P|337:221|334:181,1,70,0|0,1:0|0:0,0:0:0:0:
353,157,64798,1,0,1:0:0:0:
325,81,64975,1,4,1:2:0:0:
325,81,65857,5,8,0:0:0:0:
315,60,65945,1,8,0:0:0:0:
305,39,66034,2,0,L|257:33,3,35,10|8|8|8,0:0|0:0|0:0|0:0,0:0:0:0:
232,54,66387,6,0,P|253:110|277:212,2,125.999996154785,6|2|10,1:2|1:2|0:0,0:0:0:0:
148,12,67093,1,0,1:0:0:0:
80,74,67269,2,0,P|51:41|3:17,2,83.9999974365235,10|2|10,0:0|1:2|0:0,0:0:0:0:
126,154,67798,6,0,P|107:193|88:245,1,83.9999974365235,2|8,1:2|0:0,0:0:0:0:
101,276,68063,2,0,P|145:286|175:251,1,83.9999974365235,2|0,1:2|1:0,0:0:0:0:
209,235,68328,2,0,P|269:253|355:274,1,125.999996154785,10|0,0:0|0:0,0:0:0:0:
368,295,68681,1,10,0:0:0:0:
458,277,68857,1,2,1:2:0:0:
433,187,69034,1,10,0:0:0:0:
499,122,69210,6,0,P|479:78|472:16,1,83.9999974365235,2|8,1:2|0:0,0:0:0:0:
434,16,69475,2,0,P|389:27|370:69,1,83.9999974365235,2|0,1:2|1:0,0:0:0:0:
380,103,69740,1,10,0:0:0:0:
324,176,69916,2,0,P|276:155|217:136,1,83.9999974365235,2|8,1:2|0:0,0:0:0:0:
228,101,70181,2,0,P|158:96|126:156,1,125.999996154785,2|10,0:0|0:0,0:0:0:0:
53,207,70622,6,0,P|33:141|5:89,2,125.999996154785,2|0|8,1:2|1:0|0:0,0:0:0:0:
44,299,71328,1,0,1:0:0:0:
129,263,71504,5,10,0:0:0:0:
203,317,71681,1,2,1:2:0:0:
221,311,71769,1,0,1:0:0:0:
239,305,71857,1,10,0:0:0:0:
302,237,72034,6,0,P|348:242|384:273,1,83.9999974365235,6|8,1:2|0:0,0:0:0:0:
422,272,72298,2,0,P|440:228|431:181,1,83.9999974365235,2|0,1:2|1:0,0:0:0:0:
400,162,72563,1,10,0:0:0:0:
445,80,72740,6,0,P|405:74|351:57,1,83.9999974365235,6|8,1:2|0:0,0:0:0:0:
333,26,73004,2,0,P|301:62|276:103,1,83.9999974365235,2|0,0:0|1:0,0:0:0:0:
281,138,73269,1,10,0:0:0:0:
209,195,73445,6,0,P|207:240|247:262,1,83.9999974365235,6|8,1:2|0:0,0:0:0:0:
273,288,73710,2,0,P|274:333|234:355,1,83.9999974365235,2|0,1:2|1:0,0:0:0:0:
199,346,73975,1,10,0:0:0:0:
113,379,74151,5,2,1:2:0:0:
35,328,74328,1,8,0:0:0:0:
35,328,74416,2,0,P|65:279|86:202,1,125.999996154785,2|8,0:0|0:0,0:0:0:0:
8,160,74857,1,0,1:0:0:0:
58,82,75034,6,0,P|105:100|159:117,1,83.9999974365235,10|2,0:0|0:0,0:0:0:0:
184,98,75298,1,2,1:2:0:0:
184,98,75387,1,10,0:0:0:0:
241,25,75563,2,0,P|287:23|319:57,1,83.9999974365235,2|8,1:2|0:0,0:0:0:0:
351,74,75828,2,0,P|352:120|318:152,1,83.9999974365235,2|0,0:0|1:0,0:0:0:0:
309,189,76093,1,10,0:0:0:0:
367,261,76269,6,0,P|441:263|475:201,1,125.999996154785,6|0,1:2|1:0,0:0:0:0:
481,181,76622,2,0,L|423:198,3,41.9999987182618,10|0|0|0,0:0|1:0|1:0|1:0,0:0:0:0:
404,163,76975,2,0,L|346:180,3,41.9999987182618,10|0|2|0,0:0|1:0|1:2|1:0,0:0:0:0:
327,145,77328,2,0,L|269:162,3,41.9999987182618,10|0|0|0,0:0|1:0|1:0|1:0,0:0:0:0:
247,182,77681,6,0,P|190:142|189:73,2,125.999996154785,6|2|10,1:2|1:2|0:0,0:0:0:0:
312,248,78387,1,0,1:0:0:0:
278,334,78563,2,0,P|307:361|367:342,2,83.9999974365235,10|2|10,0:0|1:2|0:0,0:0:0:0:
200,282,79093,5,2,1:2:0:0:
131,342,79269,1,10,0:0:0:0:
131,342,79357,2,0,P|84:334|60:281,1,83.9999974365235,2|0,1:2|1:0,0:0:0:0:
82,264,79622,2,0,P|99:195|104:103,1,125.999996154785,10|0,0:0|0:0,0:0:0:0:
83,98,79975,1,10,0:0:0:0:
137,23,80151,1,2,1:2:0:0:
229,67,80328,1,10,0:0:0:0:
229,67,80416,1,2,0:0:0:0:
229,67,80504,6,0,P|277:56|325:39,1,83.9999974365235,2|10,1:2|0:0,0:0:0:0:
345,15,80769,2,0,P|390:25|412:66,1,83.9999974365235,2|2,1:2|1:2,0:0:0:0:
401,100,81034,1,10,0:0:0:0:
317,139,81210,2,0,P|329:185|339:232,1,83.9999974365235,2|8,1:2|0:0,0:0:0:0:
304,254,81475,2,0,P|339:315|402:301,1,125.999996154785,2|10,0:0|0:0,0:0:0:0:
467,240,81916,6,0,P|474:302|490:363,2,125.999996154785,2|0|8,1:2|1:0|0:0,0:0:0:0:
493,151,82622,1,0,1:0:0:0:
427,103,82798,5,10,0:0:0:0:
427,103,82887,1,8,0:0:0:0:
427,103,82975,2,0,L|366:85,3,41.9999987182618,10|8|6|4,0:3|0:3|0:3|0:3,0:0:0:0:
351,122,83328,6,0,P|307:90|320:3,2,125.999996154785,6|10|10,1:2|0:0|0:0,0:0:0:0:
387,207,84034,2,0,P|456:172|527:147,2,125.999996154785,6|10|10,1:2|0:0|0:0,0:0:0:0:
314,264,84740,2,0,B|309:298|344:319|350:291|390:318|384:368,2,125.999996154785,6|10|10,1:2|0:0|0:0,0:0:0:0:
230,224,85445,1,2,1:2:0:0:
168,293,85622,1,8,0:0:0:0:
168,293,85710,1,10,0:0:0:0:
168,293,85798,2,0,L|111:312,3,41.9999987182618,8|8|8|8,0:0|0:0|0:0|0:0,0:0:0:0:
84,290,86151,5,4,1:2:0:0:
118,204,86328,2,0,P|102:159|56:141,1,83.9999974365235,10|2,0:0|0:0,0:0:0:0:
39,117,86593,1,0,1:0:0:0:
39,117,86681,1,10,0:0:0:0:
73,31,86857,2,0,P|119:45|188:56,1,83.9999974365235,2|8,1:2|0:0,0:0:0:0:
188,85,87122,2,0,P|234:71|303:60,1,83.9999974365235,2|0,0:0|1:0,0:0:0:0:
312,47,87387,1,10,0:0:0:0:
386,101,87563,5,4,1:2:0:0:
480,76,87740,1,10,0:0:0:0:
480,76,87828,1,0,1:0:0:0:
480,76,87916,2,0,P|500:123|479:187,1,83.9999974365235,2|10,0:0|0:0,0:0:0:0:
501,254,88269,2,0,P|454:232|401:217,1,83.9999974365235,2|8,1:2|0:0,0:0:0:0:
382,200,88534,2,0,P|336:214|292:234,1,83.9999974365235,2|0,0:0|1:0,0:0:0:0:
280,268,88798,1,10,0:0:0:0:
241,352,88975,5,4,1:2:0:0:
159,337,89151,1,10,0:0:0:0:
159,337,89240,1,2,1:2:0:0:
159,337,89328,2,0,L|103:353,2,41.9999987182618,2|2|10,0:0|1:2|0:0,0:0:0:0:
185,248,89681,2,0,P|170:202|161:155,1,83.9999974365235,2|8,1:2|0:0,0:0:0:0:
180,124,89945,1,2,0:0:0:0:
128,47,90122,2,0,L|57:33,2,41.9999987182618,0|10|0,1:0|0:0|0:0,0:0:0:0:
160,13,90387,5,6,1:2:0:0:
160,12,91093,6,2,B|146:24|146:24|197:40|197:40|234:19|234:19|260:33,2,125.999996154785,10|10|10,0:1|0:1|0:1,0:1:0:0:
67,5,91798,6,2,B|55:45|55:45|104:101|104:101|56:133,1,154.000004699707,14|0,0:1|0:0,0:1:0:0:
44,153,92240,1,0,1:0:0:0:
44,153,92328,2,0,P|38:207|107:251,1,115.50000352478,10|8,0:0|0:3,0:0:0:0:
121,250,92681,1,6,0:3:0:0:
162,323,92857,2,0,P|201:306|265:289,1,77.0000023498536,10|2,0:0|1:2,0:0:0:0:
294,235,93210,6,0,P|331:241|352:273,1,77.0000023498536,10|8,0:0|0:3,0:0:0:0:
381,302,93475,2,0,P|418:294|439:262,1,77.0000023498536,6|0,0:3|1:0,0:0:0:0:
428,222,93740,2,0,P|403:160|392:55,1,154.000004699707,10|6,0:0|0:3,0:0:0:0:
336,9,94269,2,0,P|291:22|272:79,1,77.0000023498536,10|2,0:0|1:2,0:0:0:0:
307,123,94622,5,10,0:0:0:0:
266,200,94798,1,0,1:0:0:0:
266,200,94887,1,2,1:2:0:0:
266,200,94975,2,0,P|240:193|199:189,1,38.5000011749268,0|0,1:0|1:0,0:0:0:0:
198,161,95151,2,0,P|129:178|55:190,1,115.50000352478,10|8,0:0|0:3,0:0:0:0:
47,206,95504,1,6,0:3:0:0:
15,284,95681,2,0,P|34:323|78:327,1,77.0000023498536,10|2,0:0|1:2,0:0:0:0:
156,365,96034,6,0,P|144:320|131:231,2,115.50000352478,14|14|14,0:0|0:0|0:0,0:0:0:0:
324,380,96916,1,2,3:2:0:0:
389,325,97093,2,0,L|443:332,3,38.5000011749268,8|8|8|8,0:0|0:0|0:0|0:0,0:0:0:0:
463,351,97445,5,14,0:0:0:0:
504,278,97622,1,8,0:3:0:0:
504,278,97710,2,0,P|485:242|472:180,1,77.0000023498536,6|0,0:3|1:0,0:0:0:0:
487,166,97975,2,0,P|457:119|384:126,1,115.50000352478,10|8,0:0|0:3,0:0:0:0:
371,145,98328,1,6,0:3:0:0:
384,228,98504,2,0,P|368:271|358:328,1,77.0000023498536,10|2,0:0|1:2,0:0:0:0:
296,356,98857,6,0,P|256:333|206:314,1,77.0000023498536,10|8,0:0|0:3,0:0:0:0:
196,291,99122,2,0,P|147:292|124:329,1,77.0000023498536,6|0,0:3|1:0,0:0:0:0:
102,343,99387,2,0,P|24:305|50:220,1,154.000004699707,10|6,0:0|0:3,0:0:0:0:
98,204,99916,2,0,P|83:161|74:112,1,77.0000023498536,10|2,0:0|1:2,0:0:0:0:
34,56,100269,5,10,0:0:0:0:
114,20,100445,1,0,1:0:0:0:
114,20,100534,1,2,1:2:0:0:
114,20,100622,2,0,P|143:31|184:37,1,38.5000011749268,0|0,1:0|1:0,0:0:0:0:
177,65,100798,2,0,P|237:45|320:28,1,115.50000352478,10|8,0:0|0:3,0:0:0:0:
329,42,101151,1,6,0:3:0:0:
410,19,101328,2,0,P|447:38|458:80,1,77.0000023498536,10|2,0:0|1:2,0:0:0:0:
415,142,101681,6,0,B|385:130|358:159|378:166|351:201|317:192,2,115.50000352478,14|14|14,0:0|0:0|0:0,0:0:0:0:
485,295,102563,1,0,1:0:0:0:
436,364,102740,2,0,P|403:342|342:320,1,77.0000023498536,14|0,0:0|1:0,0:0:0:0:
290,359,103093,1,4,1:2:0:0:
256,192,103269,12,2,108387,0:0:0:0:
163,72,114387,6,0,B|136:57|99:76|125:90|80:112|45:82,2,112,2|0|2,3:2|3:0|3:2,0:0:0:0:
245,163,115445,1,0,3:0:0:0:
170,261,115798,6,0,B|143:275|106:256|132:242|87:220|52:250,2,112,2|0|2,3:2|3:0|3:2,0:0:0:0:
245,163,116856,1,0,3:0:0:0:
256,192,117210,12,0,119681,3:0:0:0:
330,44,120034,6,2,B|277:61|277:61|270:48|270:48|228:37,2,105,6|10|10,1:0|0:1|0:1,0:1:0:0:
406,9,120740,2,2,B|437:14|437:14|464:75,1,70,6|0,1:0|0:0,0:1:0:0:
433,86,121004,2,2,B|405:108|405:108|424:164,1,70,10|0,0:1|0:0,0:1:0:0:
446,170,121269,1,10,0:1:0:0:
420,249,121445,5,6,1:0:0:0:
348,215,121622,1,2,0:1:0:0:
348,215,121710,2,2,B|322:212|322:212|292:264|292:264|303:280,1,105,10|10,0:1|0:1,0:1:0:0:
325,362,122151,1,6,1:0:0:0:
244,369,122328,1,2,0:1:0:0:
244,369,122416,2,2,B|184:345|184:345|174:358|174:358|149:369,1,105,10|10,0:1|0:1,0:1:0:0:
67,362,122857,6,2,B|41:324|41:324|65:297,1,70,6|0,1:0|0:0,0:1:0:0:
67,264,123122,2,2,L|150:246,1,70,10|0,0:1|0:0,0:1:0:0:
174,264,123387,1,10,0:1:0:0:
227,199,123563,2,2,B|238:173|238:173|203:128,1,70,6|0,1:0|0:0,0:1:0:0:
171,132,123828,2,2,B|154:124|154:124|166:68,1,70,10|0,0:1|0:0,0:1:0:0:
187,38,124093,1,10,0:1:0:0:
267,61,124269,6,2,B|302:38|302:38|332:45,1,70,6|0,1:0|0:0,0:1:0:0:
348,82,124534,2,2,B|363:96|363:96|410:76,1,70,10|0,0:1|0:0,0:1:0:0:
443,54,124798,1,10,0:1:0:0:
499,116,124975,2,0,L|491:150,2,35,10|8|2,0:1|0:0|1:0,0:0:0:0:
424,201,125328,2,0,L|431:235,2,35,10|8|2,0:1|0:0|1:0,0:0:0:0:
490,294,125681,6,2,B|494:324|494:324|456:350|456:350|411:331,2,105,6|0|0,1:0|1:0|1:0,0:1:0:0:
415,256,126387,2,0,L|359:272,3,35,10|0|0|0,0:1|1:0|1:0|1:0,0:0:0:0:
347,290,126740,2,0,L|308:279,3,35,0|0|0|0,1:0|1:0|1:0|1:0,0:0:0:0:
273,265,127093,6,2,B|233:293|233:293|257:349,2,105,2|0|0,1:0|1:0|1:0,0:1:0:0:
305,187,127798,2,0,L|275:138,3,35,10|0|0|0,0:1|1:0|1:0|1:0,0:0:0:0:
240,146,128151,2,0,L|230:88,3,35,0|0|0|0,1:0|1:0|1:0|1:0,0:0:0:0:
216,72,128504,6,2,L|352:47,2,105,2|0|0,1:0|1:0|1:0,0:1:0:0:
143,28,129210,2,0,L|101:58,3,35,8|0|0|2,0:0|1:0|1:0|1:0,0:0:0:0:
67,61,129563,2,0,L|57:111,3,35,0|0|2|0,1:0|1:0|1:0|1:0,0:0:0:0:
70,136,129916,6,2,B|38:155|38:155|50:201|50:201|27:224,2,105,6|8|8,1:0|0:0|0:0,0:1:0:0:
136,188,130622,1,8,0:0:0:0:
136,188,131328,5,6,1:2:0:0:
136,188,132740,1,6,1:2:0:0:
136,188,134151,1,6,1:2:0:0:
136,188,135563,1,6,1:2:0:0:
136,188,136445,6,0,L|122:254,2,56,0|8|2,1:0|0:0|1:2,0:0:0:0:
109,115,136975,6,0,P|132:66|198:65,1,112,6|0,1:2|1:0,0:0:0:0:
303,21,137681,2,0,P|332:65|301:122,1,112,2|0,1:2|1:0,0:0:0:0:
229,207,138387,6,0,P|234:268|289:295,1,112,6|0,1:2|1:0,0:0:0:0:
388,338,139093,2,0,P|437:302|434:241,1,112,2|0,1:2|1:0,0:0:0:0:
353,167,139798,5,6,1:2:0:0:
266,253,140151,1,0,1:0:0:0:
224,138,140504,1,2,1:2:0:0:
310,50,140857,1,0,1:0:0:0:
353,167,141210,5,6,1:2:0:0:
353,167,141916,2,0,L|305:179,2,28,10|8|0,0:0|0:0|1:0,0:0:0:0:
425,196,142269,2,0,L|473:208,2,28,8|8|2,0:0|0:0|1:2,0:0:0:0:
362,247,142622,6,0,P|387:294|409:347,2,94.499997116089,6|2|2,1:2|0:0|3:2,0:0:0:0:
299,203,143328,2,0,B|268:194|242:224|267:232|243:266|190:256,1,125.999996154785,2|8,1:2|0:0,0:0:0:0:
126,231,143857,1,2,3:2:0:0:
62,272,144034,5,2,1:2:0:0:
11,218,144210,1,2,3:2:0:0:
11,218,144298,2,0,P|16:183|42:156,1,62.9999980773926,2|0,0:0|3:0,0:0:0:0:
70,156,144563,1,2,3:2:0:0:
121,100,144740,2,0,P|178:124|259:140,1,125.999996154785,2|8,1:2|0:0,0:0:0:0:
310,179,145269,1,2,3:2:0:0:
310,179,145445,6,0,P|333:147|373:120,1,62.9999980773926,2|0,1:2|3:0,0:0:0:0:
374,102,145710,2,0,P|413:105|456:127,1,62.9999980773926,2|0,0:0|3:0,0:0:0:0:
464,137,145975,1,2,3:2:0:0:
454,211,146151,2,0,P|471:246|482:289,1,62.9999980773926,2|2,1:2|3:2,0:0:0:0:
477,310,146416,1,2,0:0:0:0:
477,310,146504,2,0,P|447:327|415:313,1,62.9999980773926,10|2,0:0|3:2,0:0:0:0:
362,271,146857,6,0,P|373:223|383:150,2,94.499997116089,2|2|2,1:2|0:0|3:2,0:0:0:0:
310,326,147563,2,0,P|282:313|238:295,1,62.9999980773926,2|8,1:2|0:0,0:0:0:0:
190,345,147916,2,0,P|162:332|118:314,1,62.9999980773926,0|10,1:0|0:0,0:0:0:0:
80,264,148269,6,0,P|34:293|20:347,2,94.499997116089,6|2|2,1:2|0:0|3:2,0:0:0:0:
153,246,148975,2,0,P|181:183|139:130,1,125.999996154785,2|8,1:2|0:0,0:0:0:0:
81,97,149504,1,2,3:2:0:0:
81,97,149681,6,0,P|72:158|48:211,2,94.499997116089,2|2|2,1:2|0:0|3:2,0:0:0:0:
126,36,150387,2,0,B|163:26|195:53|167:71|192:100|247:91,1,125.999996154785,2|8,1:2|0:0,0:0:0:0:
285,45,150916,1,2,3:2:0:0:
361,70,151093,6,0,P|380:128|415:196,1,105,6|2,1:2|1:2,0:0:0:0:
275,212,151622,1,10,0:0:0:0:
275,212,151710,1,10,0:0:0:0:
275,212,151798,2,0,P|256:154|221:86,1,105,6|2,1:2|1:2,0:0:0:0:
361,70,152328,1,10,0:0:0:0:
361,70,152416,1,8,0:0:0:0:
361,70,152504,2,0,P|380:128|415:196,1,105,6|2,1:2|1:2,0:0:0:0:
426,291,153034,1,8,0:3:0:0:
344,273,153210,6,0,P|302:284|274:321,1,70,10|2,0:0|1:2,0:0:0:0:
260,337,153475,2,0,P|232:308|194:299,1,70,10|0,0:0|1:0,0:0:0:0:
166,318,153740,1,10,0:0:0:0:
40,206,154093,6,0,P|26:152|61:106,2,105,4|0|0,1:2|1:0|1:0,0:0:0:0:
163,234,154887,2,0,P|196:198|243:175,1,70,0|0,1:0|0:0,0:0:0:0:
255,185,155151,1,0,1:0:0:0:
331,222,155328,1,4,1:2:0:0:
331,222,156034,6,0,L|317:332,2,84,0|0|0,1:0|1:0|1:0,0:0:0:0:
331,222,157445,2,0,L|317:332,2,84,0|0|0,1:0|1:0|1:0,0:0:0:0:
283,155,158151,6,0,P|264:154|246:163,3,35,4|0|0|0,1:2|1:0|1:0|1:0,0:0:0:0:
208,152,158504,2,0,P|193:165|187:184,3,35,8|0|0|0,0:0|1:0|1:0|1:0,0:0:0:0:
151,200,158857,2,0,P|149:219|158:237,3,35,8|0|0|0,0:0|1:0|1:0|1:0,0:0:0:0:
145,274,159210,2,0,P|157:288|176:295,3,35,8|0|0|0,0:0|1:0|1:0|1:0,0:0:0:0:
213,285,159563,1,8,0:0:0:0:
308,154,159916,6,0,B|342:144|378:184|348:191|374:230|415:220,1,140,6|6,1:2|1:2,0:0:0:0:
506,89,160622,1,10,0:0:0:0:
498,66,160710,1,8,0:0:0:0:
488,43,160798,2,0,L|433:29,1,35,8|8,0:0|0:0,0:0:0:0:
413,57,160975,6,0,P|430:119|451:211,2,125.999996154785,6|2|10,1:2|1:2|0:0,0:0:0:0:
326,24,161681,1,0,1:0:0:0:
245,69,161857,2,0,P|201:56|181:14,2,83.9999974365235,10|2|10,0:0|1:2|0:0,0:0:0:0:
319,124,162387,6,0,P|304:169|289:240,1,83.9999974365235,2|8,1:2|0:0,0:0:0:0:
322,241,162651,2,0,P|337:282|304:327,1,83.9999974365235,2|0,1:2|1:0,0:0:0:0:
291,353,162916,2,0,P|227:327|137:309,1,125.999996154785,10|0,0:0|0:0,0:0:0:0:
129,333,163269,1,10,0:0:0:0:
42,302,163445,1,2,1:2:0:0:
57,210,163622,1,10,0:0:0:0:
149,211,163798,6,0,P|176:174|172:127,1,83.9999974365235,2|8,1:2|0:0,0:0:0:0:
136,112,164063,2,0,P|108:74|112:27,1,83.9999974365235,2|2,1:2|1:2,0:0:0:0:
142,7,164328,1,10,0:0:0:0:
224,47,164504,2,0,P|264:21|309:5,1,83.9999974365235,2|8,1:2|0:0,0:0:0:0:
342,19,164769,2,0,P|328:85|385:122,1,125.999996154785,2|10,0:0|0:0,0:0:0:0:
441,192,165210,6,0,P|455:130|476:71,2,125.999996154785,2|0|8,1:2|1:0|0:0,0:0:0:0:
444,284,165916,1,0,1:0:0:0:
353,263,166093,5,10,0:0:0:0:
287,328,166269,1,2,1:2:0:0:
268,323,166357,1,0,1:0:0:0:
249,318,166445,1,10,0:0:0:0:
166,278,166622,6,0,P|122:291|107:334,1,83.9999974365235,6|8,1:2|0:0,0:0:0:0:
72,354,166887,2,0,P|27:341|12:298,1,83.9999974365235,2|0,1:2|1:0,0:0:0:0:
25,265,167151,1,10,0:0:0:0:
3,174,167328,6,0,P|27:120|33:77,1,83.9999974365235,6|8,1:2|0:0,0:0:0:0:
52,54,167593,2,0,P|104:50|132:98,1,83.9999974365235,2|0,0:0|1:0,0:0:0:0:
126,115,167857,1,10,0:0:0:0:
168,197,168034,6,0,P|215:173|279:147,1,83.9999974365235,6|8,1:2|0:0,0:0:0:0:
276,127,168298,2,0,P|295:171|316:213,1,83.9999974365235,2|0,1:2|1:0,0:0:0:0:
298,248,168563,1,10,0:0:0:0:
324,336,168740,5,2,1:2:0:0:
418,324,168916,1,8,0:0:0:0:
418,324,169004,2,0,B|432:294|421:256|394:278|379:235|408:196,1,125.999996154785,2|8,0:0|0:0,0:0:0:0:
478,158,169445,1,0,1:0:0:0:
497,67,169622,6,0,P|468:29|421:22,1,83.9999974365235,10|2,0:0|0:0,0:0:0:0:
402,51,169887,1,0,1:0:0:0:
402,51,169975,1,10,0:0:0:0:
317,13,170151,2,0,P|274:32|227:43,1,83.9999974365235,2|8,1:2|0:0,0:0:0:0:
210,78,170416,2,0,P|166:58|119:47,1,83.9999974365235,2|0,0:0|1:0,0:0:0:0:
85,40,170681,1,10,0:0:0:0:
20,105,170857,6,0,B|11:138|47:166|57:139|91:172|73:226,1,125.999996154785,6|0,1:2|1:0,0:0:0:0:
49,243,171210,2,0,L|120:257,3,41.9999987182618,10|0|0|0,0:0|1:0|1:0|1:0,0:0:0:0:
130,228,171563,2,0,L|201:242,3,41.9999987182618,10|0|0|0,0:0|1:0|1:0|1:0,0:0:0:0:
212,214,171916,2,0,L|283:228,3,41.9999987182618,10|0|0|0,0:0|1:0|1:0|1:0,0:0:0:0:
295,241,172269,6,0,P|308:175|235:129,2,125.999996154785,6|2|10,1:2|1:2|0:0,0:0:0:0:
332,325,172975,1,0,1:0:0:0:
424,320,173151,2,0,P|464:344|495:381,2,83.9999974365235,10|2|10,0:0|1:2|0:0,0:0:0:0:
433,227,173681,5,2,1:2:0:0:
497,161,173857,1,10,0:0:0:0:
497,161,173945,2,0,P|507:117|484:59,1,83.9999974365235,2|0,1:2|1:0,0:0:0:0:
497,33,174210,2,0,P|434:68|364:81,1,125.999996154785,10|0,0:0|0:0,0:0:0:0:
338,61,174563,1,10,0:0:0:0:
253,21,174740,1,2,1:2:0:0:
190,88,174916,1,10,0:0:0:0:
190,88,175004,1,2,0:0:0:0:
190,88,175093,6,0,P|210:129|229:190,1,83.9999974365235,2|10,1:2|0:0,0:0:0:0:
255,197,175357,2,0,P|235:238|216:299,1,83.9999974365235,2|2,1:2|1:2,0:0:0:0:
226,320,175622,1,10,0:0:0:0:
146,366,175798,2,0,P|96:357|77:312,1,83.9999974365235,2|8,1:2|0:0,0:0:0:0:
96,288,176063,2,0,P|107:207|94:134,1,125.999996154785,2|10,0:0|0:0,0:0:0:0:
138,60,176504,6,0,P|76:84|3:102,2,125.999996154785,2|0|8,1:2|1:0|0:0,0:0:0:0:
207,121,177210,1,0,1:0:0:0:
301,96,177387,5,10,0:0:0:0:
301,96,177475,1,8,0:0:0:0:
301,96,177563,2,0,L|356:80,3,41.9999987182618,10|8|6|4,0:3|0:3|0:3|0:3,0:0:0:0:
384,101,177916,6,0,P|445:72|440:4,2,125.999996154785,6|10|10,1:2|0:0|0:0,0:0:0:0:
333,178,178622,2,0,B|297:186|268:146|298:134|267:100|236:107,2,125.999996154785,6|10|10,1:2|0:0|0:0,0:0:0:0:
407,232,179328,2,0,P|388:305|372:384,2,125.999996154785,6|10|10,1:2|0:0|0:0,0:0:0:0:
487,186,180034,1,2,1:2:0:0:
451,112,180210,1,10,0:0:0:0:
451,112,180298,1,10,0:0:0:0:
451,112,180387,2,0,L|402:122,3,41.9999987182618,8|8|8|8,0:0|0:0|0:0|0:0,0:0:0:0:
371,94,180740,5,4,1:2:0:0:
298,151,180916,2,0,P|248:135|233:84,1,83.9999974365235,10|2,0:0|0:0,0:0:0:0:
242,67,181181,1,0,1:0:0:0:
242,67,181269,1,10,0:0:0:0:
163,19,181445,2,0,P|118:27|100:75,1,83.9999974365235,2|8,1:2|0:0,0:0:0:0:
69,92,181710,2,0,P|85:142|94:208,1,83.9999974365235,2|0,0:0|1:0,0:0:0:0:
107,216,181975,1,10,0:0:0:0:
54,292,182151,5,4,1:2:0:0:
123,368,182328,1,10,0:0:0:0:
123,368,182416,1,0,1:0:0:0:
123,368,182504,2,0,P|168:345|232:325,1,83.9999974365235,2|10,0:0|0:0,0:0:0:0:
269,272,182857,2,0,P|313:284|332:327,1,83.9999974365235,2|8,1:2|0:0,0:0:0:0:
358,353,183122,2,0,P|402:341|421:298,1,83.9999974365235,2|0,0:0|1:0,0:0:0:0:
409,264,183387,1,10,0:0:0:0:
461,188,183563,5,4,1:2:0:0:
427,101,183740,2,0,P|387:118|332:130,1,83.9999974365235,10|2,0:0|0:0,0:0:0:0:
311,154,184004,1,0,1:0:0:0:
311,154,184093,1,10,0:0:0:0:
232,105,184269,2,0,P|195:133|192:179,1,83.9999974365235,2|8,1:2|0:0,0:0:0:0:
222,200,184534,2,0,P|247:239|234:283,1,83.9999974365235,2|0,0:0|1:0,0:0:0:0:
211,309,184798,1,10,0:0:0:0:
134,361,184975,6,2,B|87:337|87:337|113:296|113:296|94:261,1,125.999996154785,6|0,1:0|1:0,0:1:0:0:
60,253,185328,2,2,B|36:231|36:231|66:182|66:182|62:134,1,125.999996154785,2|0,0:1|0:0,0:1:0:0:
35,108,185681,2,2,L|138:136,1,83.9999974365235,2|8,1:0|0:0,0:1:0:0:
174,215,186034,1,2,1:0:0:0:
174,215,186122,1,8,0:0:0:0:
174,215,186210,2,0,L|232:196,1,41.9999987182618,8|8,0:0|0:0,0:0:0:0:
240,163,186387,5,4,1:2:0:0:
337,192,186563,1,10,0:0:0:0:
337,192,186651,1,0,1:0:0:0:
337,192,186740,2,0,P|371:161|362:116,1,83.9999974365235,2|10,0:0|0:0,0:0:0:0:
376,33,187093,2,0,P|421:20|461:43,1,83.9999974365235,2|8,1:2|0:0,0:0:0:0:
489,63,187357,2,0,P|472:106|464:163,1,83.9999974365235,2|0,0:0|1:0,0:0:0:0:
495,178,187622,1,10,0:0:0:0:
477,268,187798,5,4,1:2:0:0:
385,253,187975,2,0,P|342:281|290:304,1,83.9999974365235,10|2,0:0|0:0,0:0:0:0:
275,276,188240,1,0,1:0:0:0:
275,276,188328,1,10,0:0:0:0:
206,337,188504,2,0,P|164:337|126:283,1,83.9999974365235,2|8,1:2|0:0,0:0:0:0:
87,309,188769,2,0,P|65:273|93:212,1,83.9999974365235,2|0,0:0|1:0,0:0:0:0:
102,198,189034,1,10,0:0:0:0:
73,110,189210,5,4,1:2:0:0:
132,40,189387,1,10,0:0:0:0:
132,40,189475,1,0,1:0:0:0:
132,40,189563,2,0,P|177:37|216:86,1,83.9999974365235,2|10,0:0|0:0,0:0:0:0:
229,149,189916,1,2,1:2:0:0:
312,188,190093,5,8,0:0:0:0:
329,181,190181,1,10,0:0:0:0:
346,174,190269,2,0,L|413:196,3,41.9999987182618,8|8|10|8,0:0|0:0|0:0|0:0,0:0:0:0:
416,182,190622,5,6,1:2:0:0:
416,182,191328,6,0,P|412:224|457:257,2,84,10|10|10,0:0|0:0|0:0,0:0:0:0:
487,123,192034,6,0,P|444:40|352:47,1,167.999994873047,6|0,1:2|3:0,0:0:0:0:
351,73,192475,1,0,1:0:0:0:
351,73,192563,2,0,B|317:46|266:78|298:107|252:135|202:116,1,167.999994873047,10|8,0:0|0:0,0:0:0:0:
132,79,193093,1,2,1:2:0:0:
132,79,193181,1,0,1:0:0:0:
132,79,193269,2,0,P|84:84|49:124,1,83.9999974365235,8|0,0:0|1:0,0:0:0:0:
12,189,193622,5,10,0:0:0:0:
12,189,193710,2,0,P|55:242|93:331,1,125.999996154785,0|8,1:0|0:0,0:0:0:0:
146,359,194151,1,2,1:2:0:0:
227,311,194328,1,8,0:0:0:0:
227,311,194416,2,0,P|267:325|326:340,1,83.9999974365235,2|0,0:0|1:0,0:0:0:0:
342,366,194681,2,0,P|382:352|441:337,1,83.9999974365235,10|0,0:0|1:0,0:0:0:0:
486,274,195034,6,0,P|478:228|415:205,1,83.9999974365235,10|2,0:0|0:0,0:0:0:0:
405,219,195298,1,2,1:2:0:0:
334,159,195475,2,2,P|349:114|356:49,1,83.9999974365235,2|0,0:1|0:0,0:1:0:0:
359,31,195740,2,0,P|400:35|440:80,2,83.9999974365235,10|2|10,0:0|1:2|0:0,0:0:0:0:
271,60,196269,6,0,P|230:45|180:32,1,83.9999974365235,2|8,1:2|0:0,0:0:0:0:
146,20,196534,2,0,P|110:50|111:96,1,83.9999974365235,2|2,1:2|1:2,0:0:0:0:
133,122,196798,1,10,0:0:0:0:
224,134,196975,2,0,P|199:206|182:317,1,167.999994873047,2|0,1:2|1:0,0:0:0:0:
157,335,197416,1,0,1:0:0:0:
157,335,197504,1,8,0:0:0:0:
64,334,197681,6,0,P|30:301|36:254,1,83.9999974365235,6|8,1:2|0:0,0:0:0:0:
69,243,197945,2,0,P|102:211|98:164,1,83.9999974365235,2|0,1:2|1:0,0:0:0:0:
70,141,198210,1,10,0:0:0:0:
86,49,198387,6,0,P|127:67|188:82,1,83.9999974365235,6|8,1:2|0:0,0:0:0:0:
210,76,198651,2,0,P|179:111|189:156,1,83.9999974365235,2|0,0:0|1:0,0:0:0:0:
225,162,198916,1,10,0:0:0:0:
310,126,199093,6,0,P|311:78|321:31,1,83.9999974365235,6|8,1:2|0:0,0:0:0:0:
354,14,199357,2,0,P|397:30|424:90,1,83.9999974365235,2|0,1:2|1:0,0:0:0:0:
416,106,199622,1,10,0:0:0:0:
484,167,199798,6,0,P|469:218|456:274,1,83.9999974365235,2|8,1:2|0:0,0:0:0:0:
470,293,200063,2,0,P|422:321|363:256,1,125.999996154785,2|10,0:0|0:0,0:0:0:0:
386,195,200504,1,0,1:0:0:0:
313,145,200681,5,10,0:0:0:0:
313,145,200769,2,0,P|270:173|214:191,1,83.9999974365235,0|0,1:0|1:0,0:0:0:0:
193,184,201034,1,10,0:0:0:0:
163,271,201210,2,0,P|132:301|75:282,1,83.9999974365235,2|8,1:2|0:0,0:0:0:0:
46,298,201475,2,0,P|14:264|25:219,1,83.9999974365235,2|0,0:0|1:0,0:0:0:0:
54,199,201740,1,10,0:0:0:0:
7,119,201916,6,0,P|31:100|61:88,3,41.9999987182618,6|0|0|0,1:2|1:0|1:0|1:0,0:0:0:0:
68,57,202269,2,0,P|91:60|114:67,3,41.9999987182618,8|0|0|0,0:0|1:0|1:0|1:0,0:0:0:0:
154,54,202622,2,0,P|169:72|180:93,3,41.9999987182618,8|0|0|0,0:0|1:0|1:0|1:0,0:0:0:0:
219,110,202975,2,0,P|216:133|209:156,3,41.9999987182618,10|2|2|2,0:0|1:2|1:2|1:2,0:0:0:0:
187,191,203328,6,0,P|204:258|274:273,1,125.999996154785,6|0,1:2|1:0,0:0:0:0:
297,265,203681,2,0,L|281:206,2,41.9999987182618,2|0|8,3:2|1:0|0:0,0:0:0:0:
352,338,204034,1,2,1:2:0:0:
438,305,204210,1,8,0:0:0:0:
439,212,204387,2,0,L|389:207,2,41.9999987182618,2|0|8,1:2|1:0|0:0,0:0:0:0:
499,142,204740,6,0,P|502:71|441:33,1,125.999996154785,2|0,1:2|1:0,0:0:0:0:
420,56,205093,1,2,3:2:0:0:
334,21,205269,1,8,0:0:0:0:
272,89,205445,2,0,P|227:101|188:76,1,83.9999974365235,2|8,1:2|0:0,0:0:0:0:
118,33,205798,1,2,1:2:0:0:
100,37,205886,1,0,1:0:0:0:
81,40,205975,1,8,0:0:0:0:
26,114,206151,6,0,P|47:154|73:221,1,83.9999974365235,2|10,1:2|0:0,0:0:0:0:
51,237,206416,1,0,1:0:0:0:
51,237,206504,2,0,P|55:281|112:305,1,83.9999974365235,2|10,3:2|0:0,0:0:0:0:
170,269,206857,5,2,1:2:0:0:
239,330,207034,1,10,0:0:0:0:
317,282,207210,1,2,1:2:0:0:
335,287,207298,1,0,1:0:0:0:
353,292,207387,1,10,0:0:0:0:
439,324,207563,6,0,P|478:298|479:252,1,83.9999974365235,2|8,1:2|0:0,0:0:0:0:
500,220,207828,2,0,P|474:180|428:179,1,83.9999974365235,2|0,1:2|1:0,0:0:0:0:
400,197,208093,1,10,0:0:0:0:
320,151,208269,1,2,1:0:0:0:
250,209,208445,1,8,0:0:0:0:
250,209,208534,1,8,0:0:0:0:
250,209,208622,2,0,L|262:266,3,41.9999987182618,8|8|4|4,0:3|0:3|0:3|0:3,0:0:0:0:
284,288,208975,6,0,B|250:278|216:306|244:320|218:355|163:340,2,125.999996154785,6|10|10,1:2|0:0|0:0,0:0:0:0:
368,248,209681,2,0,P|436:286|422:353,2,125.999996154785,6|10|10,1:2|0:0|0:0,0:0:0:0:
321,167,210387,2,0,P|343:109|357:28,2,125.999996154785,6|10|10,1:2|0:0|0:0,0:0:0:0:
244,219,211093,1,2,1:2:0:0:
177,167,211269,1,8,0:0:0:0:
177,167,211357,1,10,0:0:0:0:
177,167,211445,2,0,L|104:184,3,41.9999987182618,8|8|10|8,0:0|0:0|0:0|0:0,0:0:0:0:
100,206,211798,5,4,1:2:0:0:
16,166,211975,2,0,P|4:122|28:82,1,83.9999974365235,10|2,0:0|0:0,0:0:0:0:
67,76,212240,1,0,1:0:0:0:
67,76,212328,1,10,0:0:0:0:
143,24,212504,2,0,P|187:44|248:57,1,83.9999974365235,2|8,1:2|0:0,0:0:0:0:
258,81,212769,2,0,P|302:61|363:48,1,83.9999974365235,2|0,0:0|1:0,0:0:0:0:
382,50,213034,1,10,0:0:0:0:
468,80,213210,5,4,1:2:0:0:
401,143,213387,1,10,0:0:0:0:
401,143,213475,1,0,1:0:0:0:
401,143,213563,2,0,P|389:188|410:229,1,83.9999974365235,2|10,0:0|0:0,0:0:0:0:
461,293,213916,2,0,P|447:336|402:348,1,83.9999974365235,2|8,1:2|0:0,0:0:0:0:
373,324,214181,2,0,P|327:309|279:304,1,83.9999974365235,2|0,0:0|1:0,0:0:0:0:
251,327,214445,1,10,0:0:0:0:
163,295,214622,5,4,1:2:0:0:
159,202,214798,2,0,P|193:171|238:180,1,83.9999974365235,10|2,0:0|0:0,0:0:0:0:
267,208,215063,1,0,1:0:0:0:
267,208,215151,1,10,0:0:0:0:
331,141,215328,2,0,P|348:97|327:56,1,83.9999974365235,2|8,1:2|0:0,0:0:0:0:
299,35,215593,1,2,0:0:0:0:
209,58,215769,2,0,L|198:11,2,41.9999987182618,8|10|8,0:0|0:0|0:0,0:0:0:0:
239,93,216034,5,6,1:2:0:0:
239,93,216740,6,0,P|275:75|272:21,2,84,8|8|8,0:0|0:0|0:0,0:0:0:0:
164,66,217445,1,12,0:0:0:0:
