osu file format v14

[General]
AudioFilename: audio.mp3
AudioLeadIn: 0
PreviewTime: 159835
Countdown: 0
SampleSet: Soft
StackLeniency: 0.3
Mode: 0
LetterboxInBreaks: 0
WidescreenStoryboard: 0

[Editor]
DistanceSpacing: 1
BeatDivisor: 4
GridSize: 32
TimelineZoom: 3.699999

[Metadata]
Title:Imperfect Animals
TitleUnicode:インパーフェクトアニマルズ
Artist:Utsu-P
ArtistUnicode:鬱P
Creator:kuyusu
Version:Expert
Source:
Tags:Yoko Japanese Vocaloid rock metal utsup Inpaafekuto Animaruzu GREATEST SHITS ALGORITHM Kagamine Rin 鏡音リン GUMI MY SONG IS SHIT
BeatmapID:2846548
BeatmapSetID:1377324

[Difficulty]
HPDrainRate:6
CircleSize:4
OverallDifficulty:9
ApproachRate:9.6
SliderMultiplier:2.6
SliderTickRate:1

[Events]
//Background and Video events
0,0,"32132.jpg",0,0
//Break Periods
2,108740,113878
//Storyboard Layer 0 (Background)
//Storyboard Layer 1 (Fail)
//Storyboard Layer 2 (Pass)
//Storyboard Layer 3 (Foreground)
//Storyboard Layer 4 (Overlay)
//Storyboard Sound Samples

[TimingPoints]
1446,352.941176470588,4,2,2,40,1,0
1446,-166.666666666667,4,2,2,40,0,0
3740,-333.333333333334,4,2,2,40,0,0
4269,-166.666666666667,4,2,2,40,0,0
6740,-333.333333333333,4,2,1,40,0,0
7093,-100,4,2,1,60,0,0
11328,-76.9230769230769,4,2,1,60,0,0
12740,-83.3333333333333,4,2,1,60,0,0
16975,-66.6666666666667,4,2,1,60,0,0
18034,-1000,4,2,1,60,0,0
18387,-58.8235294117647,4,2,1,65,0,0
18651,-71.4285714285714,4,2,1,65,0,0
22622,-52.6315789473684,4,2,1,65,0,0
23151,-58.8235294117647,4,2,1,65,0,0
23504,-1000,4,2,1,65,0,0
24034,-58.8235294117647,4,2,1,65,0,0
24298,-71.4285714285714,4,2,1,65,0,0
28269,-52.6315789473684,4,2,1,65,0,0
28445,-200,4,2,1,65,0,0
28798,-52.6315789473684,4,2,1,65,0,0
28974,-200,4,2,1,65,0,0
29328,-58.8235294117647,4,2,1,65,0,0
29681,-100,4,2,1,45,0,0
35328,-76.9230769230769,4,2,1,50,0,0
35681,-1000,4,2,1,50,0,0
36034,-76.9230769230769,4,2,1,50,0,0
36387,-1000,4,2,1,50,0,0
36740,-76.9230769230769,4,2,1,50,0,0
37093,-1000,4,2,1,50,0,0
37445,-76.9230769230769,4,2,1,50,0,0
37798,-1000,4,2,1,50,0,0
38151,-200,4,2,1,50,0,0
38504,-100,4,2,1,50,0,0
38857,-66.6666666666667,4,2,1,50,0,0
39210,-50,4,2,1,50,0,0
40269,-200,4,2,1,50,0,0
40975,-58.8235294117647,4,2,1,55,0,0
41857,-83.3333333333333,4,2,1,55,0,0
42387,-200,4,2,1,55,0,0
42563,-58.8235294117647,4,2,1,55,0,0
46269,-500,4,2,1,55,0,0
46622,-200,4,2,1,50,0,0
52269,-142.857142857143,4,2,1,45,0,0
57916,-142.857142857143,4,2,1,50,0,0
60740,-83.3333333333333,4,2,1,50,0,0
61269,-66.6666666666667,4,2,1,50,0,0
61975,-55.5555555555556,4,2,1,50,0,0
62857,-66.6666666666667,4,2,1,50,0,0
63740,-55.5555555555556,4,2,1,50,0,0
64004,-66.6666666666667,4,2,1,50,0,0
64269,-83.3333333333333,4,2,1,50,0,0
64534,-111.111111111111,4,2,1,50,0,0
64798,-83.3333333333333,4,2,1,50,0,0
64975,-1000,4,2,1,50,0,0
65857,-100,4,2,1,50,0,0
66387,-55.5555555555556,4,2,1,70,0,1
66651,-66.6666666666667,4,2,1,70,0,1
72034,-52.6315789473684,4,2,1,70,0,1
72298,-66.6666666666667,4,2,1,70,0,1
72740,-43.4782608695652,4,2,1,70,0,1
73004,-58.8235294117647,4,2,1,70,0,1
73445,-37.037037037037,4,2,1,70,0,1
73710,-52.6315789473684,4,2,1,70,0,1
74151,-66.6666666666667,4,2,1,70,0,1
76269,-55.5555555555556,4,2,1,70,0,0
76622,-66.6666666666667,4,2,1,70,0,0
77681,-55.5555555555556,4,2,1,70,0,1
77945,-66.6666666666667,4,2,1,70,0,1
83328,-52.6315789473684,4,2,1,70,0,1
83592,-66.6666666666667,4,2,1,70,0,1
84034,-43.4782608695652,4,2,1,70,0,1
84298,-58.8235294117647,4,2,1,70,0,1
84739,-37.037037037037,4,2,1,70,0,1
85004,-52.6315789473684,4,2,1,70,0,1
85445,-66.6666666666667,4,2,1,70,0,1
86151,-55.5555555555556,4,2,1,70,0,1
86416,-66.6666666666667,4,2,1,70,0,1
87563,-55.5555555555556,4,2,1,70,0,1
87828,-66.6666666666667,4,2,1,70,0,1
88975,-55.5555555555556,4,2,1,70,0,1
89240,-66.6666666666667,4,2,1,70,0,1
90387,-66.6666666666667,4,2,1,70,0,0
91357,-100,4,2,1,70,0,0
91798,-83.3333333333333,4,2,1,60,0,0
96034,-66.6666666666667,4,2,1,60,0,0
97445,-83.3333333333333,4,2,1,60,0,0
101681,-66.6666666666667,4,2,1,60,0,0
102740,-100,4,2,1,60,0,0
108387,-100,4,2,1,30,0,0
114387,-333.333333333333,4,2,1,35,0,0
117210,-166.666666666667,4,2,1,35,0,0
120034,-58.8235294117647,4,2,1,55,0,0
125151,-200,4,2,1,55,0,0
125681,-58.8235294117647,4,2,1,55,0,0
126916,-200,4,2,1,55,0,0
127093,-66.6666666666667,4,2,1,55,0,0
128328,-200,4,2,1,55,0,0
128504,-76.9230769230769,4,2,1,55,0,0
129916,-40,4,2,1,55,0,0
130181,-45.4545454545455,4,2,1,55,0,0
131328,-45.4545454545455,4,2,1,40,0,0
136975,-45.4545454545455,4,2,1,45,0,0
142622,-83.3333333333333,4,2,1,50,0,0
142975,-125,4,2,1,50,0,0
148269,-83.3333333333333,4,2,1,50,0,0
148622,-125,4,2,1,50,0,0
151093,-83.3333333333333,4,2,1,50,0,0
151622,-66.6666666666667,4,2,1,50,0,0
152328,-55.5555555555556,4,2,1,50,0,0
153210,-66.6666666666667,4,2,1,50,0,0
154093,-55.5555555555556,4,2,1,50,0,0
154357,-66.6666666666667,4,2,1,50,0,0
154622,-83.3333333333333,4,2,1,50,0,0
154887,-111.111111111111,4,2,1,50,0,0
155151,-83.3333333333333,4,2,1,50,0,0
155328,-1000,4,2,1,45,0,0
158151,-100,4,2,1,35,0,0
158504,-100,4,2,1,40,0,0
158857,-100,4,2,1,45,0,0
159210,-100,4,2,1,50,0,0
159563,-100,4,2,1,55,0,0
160975,-55.5555555555556,4,2,1,70,0,1
161239,-66.6666666666667,4,2,1,70,0,1
166622,-52.6315789473684,4,2,1,70,0,1
166886,-66.6666666666667,4,2,1,70,0,1
167328,-43.4782608695652,4,2,1,70,0,1
167592,-58.8235294117647,4,2,1,70,0,1
168033,-37.037037037037,4,2,1,70,0,1
168298,-52.6315789473684,4,2,1,70,0,1
168740,-66.6666666666667,4,2,1,70,0,1
170857,-55.5555555555556,4,2,1,70,0,0
171210,-66.6666666666667,4,2,1,70,0,0
172269,-55.5555555555556,4,2,1,70,0,1
172534,-66.6666666666667,4,2,1,70,0,1
177916,-52.6315789473684,4,2,1,70,0,1
178180,-66.6666666666667,4,2,1,70,0,1
178622,-43.4782608695652,4,2,1,70,0,1
178886,-58.8235294117647,4,2,1,70,0,1
179327,-37.037037037037,4,2,1,70,0,1
179592,-52.6315789473684,4,2,1,70,0,1
180033,-66.6666666666667,4,2,1,70,0,1
180740,-55.5555555555556,4,2,1,70,0,1
181004,-66.6666666666667,4,2,1,70,0,1
182151,-55.5555555555556,4,2,1,70,0,1
182415,-66.6666666666667,4,2,1,70,0,1
183563,-55.5555555555556,4,2,1,70,0,1
183827,-66.6666666666667,4,2,1,70,0,1
184887,-66.6666666666667,4,2,1,70,0,0
184975,-33.3333333333333,4,2,1,70,0,1
185240,-33.3333333333333,4,2,1,70,0,0
185328,-33.3333333333333,4,2,1,70,0,1
185593,-33.3333333333333,4,2,1,70,0,0
185681,-33.3333333333333,4,2,1,70,0,1
185945,-33.3333333333333,4,2,1,70,0,0
186034,-33.3333333333333,4,2,1,70,0,1
186387,-55.5555555555556,4,2,1,70,0,1
186651,-66.6666666666667,4,2,1,70,0,1
187798,-55.5555555555556,4,2,1,70,0,1
188062,-66.6666666666667,4,2,1,70,0,1
189210,-55.5555555555556,4,2,1,70,0,1
189474,-66.6666666666667,4,2,1,70,0,1
190622,-66.6666666666667,4,2,1,70,0,0
192034,-47.6190476190476,4,2,1,75,0,0
192387,-55.5555555555556,4,2,1,75,0,0
197681,-45.4545454545455,4,2,1,75,0,0
197945,-55.5555555555556,4,2,1,75,0,0
198387,-38.4615384615385,4,2,1,75,0,0
198651,-50,4,2,1,75,0,0
199093,-33.3333333333333,4,2,1,75,0,0
199357,-45.4545454545455,4,2,1,75,0,0
199798,-55.5555555555556,4,2,1,75,0,0
202975,-166.666666666667,4,2,1,75,0,0
203328,-166.666666666667,4,2,1,75,0,1
206151,-55.5555555555556,4,2,1,75,0,1
206857,-45.4545454545455,4,2,1,75,0,1
207563,-55.5555555555556,4,2,1,75,0,1
208975,-43.4782608695652,4,2,1,75,0,0
209240,-55.5555555555556,4,2,1,75,0,0
209681,-52.6315789473684,4,2,1,75,0,0
209945,-62.5,4,2,1,75,0,0
210387,-66.6666666666667,4,2,1,75,0,0
210651,-71.4285714285714,4,2,1,75,0,0
211093,-47.6190476190476,4,2,1,75,0,0
211357,-55.5555555555556,4,2,1,75,0,0
211798,-47.6190476190476,4,2,1,75,0,0
212062,-55.5555555555556,4,2,1,75,0,0
213210,-47.6190476190476,4,2,1,75,0,0
213474,-55.5555555555556,4,2,1,75,0,0
214622,-47.6190476190476,4,2,1,75,0,0
214886,-55.5555555555556,4,2,1,75,0,0
217445,-76.9230769230769,4,2,1,75,0,0

[Colours]
Combo1 : 62,98,153
Combo2 : 158,31,37
Combo3 : 65,169,177
Combo4 : 67,152,63

[HitObjects]
422,64,1446,6,0,P|488:72|459:141,1,155.999995239258,2|8,1:2|0:0,0:0:0:0:
382,140,1975,2,0,P|333:105|281:81,1,116.999996429443,2|0,1:2|0:0,0:0:0:0:
281,81,2328,5,2,1:2:0:0:
222,132,2504,1,10,0:0:0:0:
144,143,2681,1,2,1:2:0:0:
78,42,2857,6,0,P|32:47|47:145,1,155.999995239258,2|8,1:2|0:0,0:0:0:0:
128,151,3387,2,0,P|92:196|60:276,1,116.999996429443,2|0,1:2|0:0,0:0:0:0:
68,250,3740,2,0,P|64:230|45:211,2,38.9999988098145,2|10|2,1:2|0:0|1:2,0:0:0:0:
1,371,4269,6,0,P|77:335|153:307,1,155.999995239258,2|8,1:2|0:0,0:0:0:0:
197,248,4798,2,0,P|233:254|242:324,1,116.999996429443,2|0,1:2|0:0,0:0:0:0:
242,323,5151,5,2,1:2:0:0:
296,384,5328,1,10,0:0:0:0:
366,358,5504,1,2,1:2:0:0:
277,247,5681,6,0,B|273:198|310:169|330:204|367:166|351:99,1,155.999995239258,2|8,1:2|0:0,0:0:0:0:
379,32,6210,2,0,P|322:53|255:71,1,116.999996429443,2|0,1:2|0:0,0:0:0:0:
267,68,6563,1,2,1:2:0:0:
154,0,6740,6,0,P|180:10|210:14,1,58.4999982147217,10|0,0:0|0:0,0:0:0:0:
210,14,7093,6,0,B|235:71|235:71|173:113,1,130,14|8,0:0|0:3,0:0:0:0:
144,183,7357,2,0,B|111:191|111:191|87:169,1,65,6|0,0:3|0:0,0:0:0:0:
94,91,7534,1,0,1:0:0:0:
106,85,7622,2,0,B|142:95|142:95|177:202|177:202|221:215,1,195,10|8,0:0|0:3,0:0:0:0:
220,214,7975,6,0,P|235:181|264:168,1,65,6|0,0:3|0:0,0:0:0:0:
287,98,8151,2,0,P|322:93|348:113,1,65,10|0,0:0|0:0,0:0:0:0:
422,97,8328,2,0,P|443:125|439:158,1,65,2|0,1:2|0:0,0:0:0:0:
401,227,8504,6,0,L|373:20,2,195,10|6|10,0:0|0:3|0:0,0:0:0:0:
152,295,9298,5,8,0:3:0:0:
138,292,9387,2,0,B|128:324|128:324|163:348,1,65,6|0,0:3|0:0,0:0:0:0:
233,326,9563,2,0,B|265:318|265:318|269:275,1,65,10|0,0:0|0:0,0:0:0:0:
207,223,9740,2,0,B|183:198|183:198|145:216,1,65,2|0,1:2|0:0,0:0:0:0:
282,272,9916,6,0,B|338:264|338:264|353:251|353:251|422:242,1,130,10|0,0:0|1:0,0:0:0:0:
406,244,10181,1,2,1:2:0:0:
400,280,10269,1,0,1:0:0:0:
391,312,10357,1,0,1:0:0:0:
382,343,10445,2,0,L|352:92,1,195,10|8,0:0|0:3,0:0:0:0:
358,149,10798,6,0,P|348:184|308:197,1,65,6|0,0:3|0:0,0:0:0:0:
282,272,10975,2,0,P|246:280|215:252,1,65,10|0,0:0|0:0,0:0:0:0:
139,269,11151,2,0,P|113:242|122:201,1,65,2|0,1:2|0:0,0:0:0:0:
238,79,11328,6,0,P|256:151|176:166,1,168.999992263794,14|8,0:0|0:3,0:0:0:0:
52,10,11593,2,0,P|125:-10|146:62,1,168.999992263794,14|0,0:0|1:0,0:0:0:0:
13,121,11857,2,0,P|188:72|361:36,1,337.999984527589,14|2,0:0|3:2,0:0:0:0:
226,76,12387,5,8,0:0:0:0:
233,36,12475,1,8,0:0:0:0:
232,81,12563,1,8,0:0:0:0:
239,44,12651,1,8,0:0:0:0:
167,0,12740,6,0,P|194:82|213:155,1,155.999995239258,14|8,0:0|0:3,0:0:0:0:
280,196,13004,2,0,P|278:233|245:250,1,77.999997619629,6|0,0:3|0:0,0:0:0:0:
162,219,13181,1,0,1:0:0:0:
153,207,13269,2,0,B|198:155|280:176|239:218|321:250|381:181,1,233.999992858887,10|8,0:0|0:3,0:0:0:0:
365,196,13622,6,0,P|353:161|374:130,1,77.999997619629,6|0,0:3|0:0,0:0:0:0:
503,157,13798,2,0,P|478:185|441:183,1,77.999997619629,10|0,0:0|0:0,0:0:0:0:
386,52,13975,2,0,P|421:38|452:59,1,77.999997619629,2|0,1:2|0:0,0:0:0:0:
512,140,14151,6,0,P|408:96|272:65,2,233.999992858887,10|6|10,0:0|0:3|0:0,0:0:0:0:
321,240,14945,5,8,0:3:0:0:
332,227,15034,2,0,B|354:236|354:236|362:319,1,77.999997619629,6|0,0:3|0:0,0:0:0:0:
237,124,15210,2,0,B|234:100|234:100|303:51,1,77.999997619629,10|0,0:0|0:0,0:0:0:0:
318,150,15387,2,0,B|336:135|336:135|413:169,1,77.999997619629,2|0,1:2|0:0,0:0:0:0:
172,188,15563,6,0,P|93:164|21:151,1,155.999995239258,10|0,0:0|1:0,0:0:0:0:
20,150,15828,1,2,1:2:0:0:
11,96,15916,1,0,1:0:0:0:
55,64,16004,1,0,1:0:0:0:
109,81,16093,2,0,P|74:156|31:318,1,233.999992858887,10|8,0:0|0:3,0:0:0:0:
33,301,16445,6,0,P|11:269|22:233,1,77.999997619629,6|0,0:3|0:0,0:0:0:0:
93,190,16622,2,0,P|129:200|145:234,1,77.999997619629,10|0,0:0|0:0,0:0:0:0:
98,351,16798,2,0,P|128:324|168:310,1,77.999997619629,2|0,1:2|0:0,0:0:0:0:
315,181,16975,6,0,P|411:194|507:234,1,195.00000743866,14|8,0:0|0:3,0:0:0:0:
262,246,17240,2,0,P|180:211|218:120,1,195.00000743866,14|0,0:0|1:0,0:0:0:0:
332,2,17504,2,0,P|287:174|246:391,1,390.00001487732,14|2,0:0|3:2,0:0:0:0:
233,45,18034,6,0,P|230:36|225:25,1,19.5,0|0,1:0|0:0,0:0:0:0:
148,63,18387,6,2,B|198:47|198:47|243:108|243:108|332:131,1,221.000004215241,6|8,1:0|0:0,0:1:0:0:
333,132,18651,5,2,1:2:0:0:
363,111,18740,1,0,1:0:0:0:
399,111,18828,1,0,1:0:0:0:
475,80,18916,5,10,0:0:0:0:
505,125,19004,1,0,1:0:0:0:
483,174,19093,1,0,1:0:0:0:
430,188,19181,1,0,1:0:0:0:
335,165,19269,6,0,P|352:206|365:259,1,90.9999972229005,10|0,0:0|1:0,0:0:0:0:
491,328,19445,2,0,P|487:287|423:275,1,90.9999972229005,2|0,1:2|1:0,0:0:0:0:
263,205,19622,2,0,P|228:231|232:274,1,90.9999972229005,10|0,0:0|1:0,0:0:0:0:
354,382,19798,5,2,1:2:0:0:
359,327,19887,1,0,1:0:0:0:
364,272,19975,1,8,0:0:0:0:
260,287,20063,5,2,1:2:0:0:
266,322,20151,1,0,1:0:0:0:
272,358,20240,1,0,1:0:0:0:
190,352,20328,5,10,0:0:0:0:
177,338,20416,1,0,1:0:0:0:
159,333,20504,1,0,1:0:0:0:
141,338,20593,1,0,1:0:0:0:
73,378,20681,6,0,P|35:355|34:311,1,90.9999972229005,10|0,0:0|1:0,0:0:0:0:
151,107,20857,2,0,P|188:129|189:173,1,90.9999972229005,2|0,1:2|1:0,0:0:0:0:
0,231,21034,2,0,P|22:193|66:191,1,90.9999972229005,10|0,0:0|1:0,0:0:0:0:
170,253,21210,5,2,1:2:0:0:
186,256,21298,1,0,1:0:0:0:
204,259,21387,1,8,0:0:0:0:
266,203,21475,5,2,1:2:0:0:
302,199,21563,1,0,1:0:0:0:
338,195,21651,1,0,1:0:0:0:
396,253,21739,5,10,0:0:0:0:
446,231,21827,1,0,1:0:0:0:
465,179,21916,1,0,1:0:0:0:
445,128,22004,1,0,1:0:0:0:
365,113,22093,6,0,B|336:79|336:79|350:34,1,90.9999972229005,10|0,0:0|1:0,0:0:0:0:
512,23,22269,2,0,P|469:39|415:55,1,90.9999972229005,2|0,1:2|1:0,0:0:0:0:
260,32,22445,2,0,P|217:16|163:0,1,90.9999972229005,10|0,0:0|1:0,0:0:0:0:
17,71,22622,6,0,P|11:129|66:141,1,123.499996702194,4|0,1:2|0:0,0:0:0:0:
127,76,22798,5,8,0:0:0:0:
179,88,22887,1,8,0:0:0:0:
130,85,22975,1,8,0:0:0:0:
182,97,23064,1,8,0:0:0:0:
81,0,23151,6,0,L|122:337,1,331.500006322861,8|0,0:0|0:0,0:0:0:0:
123,322,23504,2,0,L|127:311,1,6.5,2|0,3:2|0:0,0:0:0:0:
191,260,23681,5,10,0:0:0:0:
128,218,23769,1,8,0:0:0:0:
69,217,23857,1,10,0:0:0:0:
31,241,23945,1,8,0:0:0:0:
29,257,24034,6,0,P|115:271|260:336,1,221.000004215241,6|8,1:2|0:0,0:0:0:0:
238,322,24298,5,2,1:2:0:0:
257,353,24387,1,0,1:0:0:0:
290,365,24475,1,0,1:0:0:0:
366,384,24563,5,10,0:0:0:0:
414,359,24651,1,0,1:0:0:0:
425,305,24740,1,0,1:0:0:0:
395,259,24828,1,0,1:0:0:0:
290,204,24916,6,0,P|305:247|317:290,1,90.9999972229005,10|0,0:0|1:0,0:0:0:0:
399,121,25093,2,0,P|359:103|324:129,1,90.9999972229005,2|0,1:2|1:0,0:0:0:0:
218,240,25269,2,0,P|178:257|143:231,1,90.9999972229005,10|0,0:0|1:0,0:0:0:0:
32,94,25445,5,2,1:2:0:0:
64,49,25534,1,0,1:0:0:0:
118,41,25622,1,8,0:0:0:0:
172,96,25710,5,2,1:2:0:0:
203,77,25798,1,0,1:0:0:0:
239,80,25887,1,0,1:0:0:0:
316,137,25975,5,10,0:0:0:0:
317,118,26063,1,0,1:0:0:0:
318,99,26151,1,0,1:0:0:0:
320,80,26240,1,0,1:0:0:0:
358,9,26328,6,0,B|391:19|391:19|408:96,1,90.9999972229005,10|0,0:0|1:0,0:0:0:0:
478,216,26505,2,0,B|452:239|452:239|377:215,1,90.9999972229005,2|0,1:2|1:0,0:0:0:0:
478,78,26681,2,0,B|485:111|485:111|427:164,1,90.9999972229005,10|0,0:0|1:0,0:0:0:0:
317,229,26857,5,2,1:2:0:0:
307,244,26945,1,0,1:0:0:0:
301,261,27034,1,8,0:0:0:0:
350,328,27122,5,2,1:2:0:0:
363,361,27210,1,0,1:0:0:0:
394,379,27298,1,0,1:0:0:0:
420,293,27387,5,10,0:0:0:0:
365,300,27475,1,0,1:0:0:0:
310,307,27563,1,0,1:0:0:0:
255,313,27651,1,0,1:0:0:0:
198,372,27740,6,0,L|88:351,1,90.9999972229005,10|0,0:0|1:0,0:0:0:0:
126,223,27916,2,0,B|171:232|171:232|175:278,1,90.9999972229005,2|0,1:2|1:0,0:0:0:0:
27,346,28093,2,0,B|-7:315|-7:315|11:274,1,90.9999972229005,10|0,0:0|1:0,0:0:0:0:
82,100,28269,6,0,P|26:79|0:130,1,123.499996702194,10|0,0:0|1:0,0:0:0:0:
47,206,28445,2,0,P|53:186|60:168,3,32.5,0|0|0|0,1:0|1:0|1:0|1:0,0:0:0:0:
147,44,28798,6,0,P|197:14|232:59,1,123.499996702194,10|0,0:0|1:0,0:0:0:0:
199,142,28975,2,0,P|189:123|179:106,3,32.5,0|0|0|0,1:0|1:0|1:0|1:0,0:0:0:0:
0,28,29328,6,0,P|161:64|321:108,1,331.500006322861,10|0,0:0|0:0,0:0:0:0:
321,108,29681,6,0,P|303:84|309:48,1,65,6|0,1:2|3:0,0:0:0:0:
372,12,29857,1,2,3:2:0:0:
382,28,29945,1,2,3:2:0:0:
401,32,30034,1,2,1:2:0:0:
420,31,30122,1,2,3:2:0:0:
438,24,30210,1,2,3:2:0:0:
454,12,30298,1,2,3:2:0:0:
472,17,30387,6,0,P|464:54|459:91,1,65,2|0,1:2|3:0,0:0:0:0:
422,174,30563,1,2,3:2:0:0:
416,155,30651,1,2,3:2:0:0:
399,144,30740,2,0,P|407:181|412:218,1,65,2|0,1:2|3:0,0:0:0:0:
460,269,30916,1,2,3:2:0:0:
470,259,31004,1,2,3:2:0:0:
484,264,31093,5,2,1:2:0:0:
476,282,31181,1,2,3:2:0:0:
461,294,31269,1,2,3:2:0:0:
441,295,31357,1,2,3:2:0:0:
422,289,31445,1,2,1:2:0:0:
402,287,31534,1,2,3:2:0:0:
383,292,31622,1,2,3:2:0:0:
369,305,31710,1,2,3:2:0:0:
361,323,31798,6,0,P|373:355|381:384,1,65,2|0,1:2|3:0,0:0:0:0:
270,338,31975,1,2,3:2:0:0:
270,318,32063,1,2,3:2:0:0:
282,304,32151,2,0,P|269:275|224:268,1,65,2|0,1:2|3:0,0:0:0:0:
176,327,32328,1,2,3:2:0:0:
167,337,32416,1,2,3:2:0:0:
176,348,32504,5,2,1:2:0:0:
171,328,32593,1,2,3:2:0:0:
165,309,32681,1,2,3:2:0:0:
158,290,32769,1,2,3:2:0:0:
150,272,32857,1,2,1:2:0:0:
141,254,32945,1,2,3:2:0:0:
130,237,33034,2,0,P|136:197|148:152,1,65,2|0,3:2|3:0,0:0:0:0:
36,166,33210,5,2,1:2:0:0:
48,150,33298,1,2,3:2:0:0:
60,134,33386,1,2,3:2:0:0:
71,117,33474,1,2,3:2:0:0:
80,99,33563,2,0,P|117:84|162:72,1,65,2|0,1:2|3:0,0:0:0:0:
171,3,33740,1,2,3:2:0:0:
183,8,33828,1,2,3:2:0:0:
198,6,33916,5,2,1:2:0:0:
208,22,34004,1,2,3:2:0:0:
218,38,34093,1,2,3:2:0:0:
222,57,34181,1,2,3:2:0:0:
222,76,34269,2,0,P|237:104|266:115,1,65,2|0,1:2|3:0,0:0:0:0:
389,47,34445,1,2,3:2:0:0:
400,40,34534,1,2,3:2:0:0:
399,27,34622,5,2,1:2:0:0:
385,12,34710,1,2,3:2:0:0:
366,7,34798,2,0,P|342:25|302:44,1,65,2|0,3:2|3:0,0:0:0:0:
346,134,34975,2,0,P|334:195|321:279,1,130,2|0,1:2|3:0,0:0:0:0:
93,384,35328,6,0,P|77:265|45:113,1,253.499988395691,6|0,1:2|3:0,0:0:0:0:
50,134,35681,2,0,L|72:141,1,19.5,2|0,1:2|3:0,0:0:0:0:
170,259,36034,6,0,P|186:140|218:-12,1,253.499988395691,2|0,1:2|3:0,0:0:0:0:
212,9,36387,2,0,L|189:16,1,19.5,2|0,1:2|3:0,0:0:0:0:
103,4,36740,6,0,P|64:112|174:139,1,253.499988395691,2|0,1:2|3:0,0:0:0:0:
170,140,37093,2,0,P|179:128|187:122,1,19.5,2|0,1:2|3:0,0:0:0:0:
244,24,37445,6,0,P|357:44|326:153,1,253.499988395691,2|0,1:2|3:0,0:0:0:0:
328,151,37798,2,0,P|322:158|318:167,1,19.5,2|0,1:2|3:0,0:0:0:0:
455,260,38151,6,0,P|471:255|497:250,1,32.5,6|0,1:2|3:0,0:0:0:0:
490,265,38328,2,0,P|474:270|448:275,1,32.5,2|0,3:2|3:0,0:0:0:0:
340,281,38504,6,0,P|346:250|376:245,1,65,2|0,1:2|3:0,0:0:0:0:
423,346,38681,2,0,P|400:367|371:355,1,65,2|0,3:2|3:0,0:0:0:0:
163,213,38857,6,0,P|210:218|269:232,1,97.50000371933,6|0,1:2|3:0,0:0:0:0:
255,252,39034,2,0,P|208:247|149:233,1,97.50000371933,2|0,3:2|3:0,0:0:0:0:
19,305,39210,6,0,P|22:243|79:221,1,130,2|2,1:2|3:2,0:0:0:0:
155,322,39387,2,0,P|124:376|64:370,1,130,2|2,3:2|3:2,0:0:0:0:
78,143,39563,5,6,1:2:0:0:
106,99,39651,1,2,0:0:0:0:
108,46,39740,1,2,3:2:0:0:
71,10,39828,1,2,0:0:0:0:
18,7,39916,5,6,1:2:0:0:
58,39,40004,1,0,0:0:0:0:
107,18,40093,1,2,3:2:0:0:
154,0,40181,1,2,0:0:0:0:
204,14,40269,6,0,L|221:59,3,32.5,2|0|0|0,1:2|0:0|3:0|0:0,0:0:0:0:
189,123,40622,5,10,0:0:0:0:
271,103,40710,1,8,0:0:0:0:
331,44,40798,1,8,0:0:0:0:
413,64,40886,1,8,0:0:0:0:
480,114,40975,6,2,B|432:92|432:92|342:107|342:107|310:76|310:76|272:82,1,221.000004215241,6|8,1:0|0:0,0:1:0:0:
97,48,41240,2,2,B|48:15|48:15|-3:43|-3:43|-5:114|-5:114|20:79,1,221.000004215241,2|0,1:0|1:0,0:1:0:0:
202,131,41504,2,2,B|176:85|176:85|216:16|216:16|160:-5|160:-5|177:17,1,221.000004215241,10|0,0:1|0:0,0:1:0:0:
0,230,41857,6,0,P|14:195|50:184,1,77.999997619629,10|0,0:0|0:0,0:0:0:0:
223,288,42034,2,0,P|210:324|174:335,1,77.999997619629,2|0,1:2|1:0,0:0:0:0:
118,131,42210,2,0,P|156:125|183:151,1,77.999997619629,10|0,0:0|0:0,0:0:0:0:
77,325,42387,6,0,B|60:327|60:327|54:312,1,32.5,2|0,1:0|0:0,0:0:0:0:
112,254,42563,6,2,B|156:228|156:228|248:267|248:267|341:254,1,221.000004215241,10|0,0:1|0:0,0:1:0:0:
356,162,42828,5,0,1:0:0:0:
364,144,42916,2,0,B|312:125|312:125|289:176,1,110.50000210762,10|0,0:1|0:0,0:0:0:0:
444,364,43093,5,0,1:0:0:0:
402,294,43182,1,0,3:0:0:0:
470,253,43269,1,8,0:0:0:0:
512,322,43357,1,0,3:0:0:0:
493,332,43445,5,0,1:0:0:0:
475,273,43534,1,0,1:0:0:0:
418,290,43622,1,8,0:0:0:0:
435,349,43710,1,0,3:0:0:0:
456,316,43798,5,0,1:0:0:0:
371,119,43975,6,0,B|347:106|347:106|314:150|314:150|278:161,1,110.50000210762,10|0,0:1|1:0,0:0:0:0:
135,258,44151,6,0,B|101:250|101:250|81:218|81:218|3:229,1,110.50000210762,2|0,0:1|1:0,0:0:0:0:
173,69,44328,6,0,B|252:77|252:77|224:93,1,110.50000210762,10|0,0:1|0:0,0:0:0:0:
299,242,44504,6,0,B|221:259|221:259|230:212,1,110.50000210762,2|0,1:0|0:0,0:0:0:0:
94,371,44681,6,0,B|100:345|100:345|48:330|48:330|27:283,1,110.50000210762,10|0,0:1|0:0,0:0:0:0:
78,127,44857,6,0,B|101:113|101:113|132:154|132:154|185:162,1,110.50000210762,2|0,1:0|1:0,0:0:0:0:
200,379,45034,6,0,B|185:343|185:343|297:343,1,110.50000210762,10|0,0:1|0:0,0:0:0:0:
415,276,45210,6,0,B|443:244|443:244|527:268,1,110.50000210762,2|0,1:0|0:0,0:0:0:0:
376,360,45387,1,8,0:0:0:0:
347,351,45475,2,0,L|323:227,1,110.50000210762,0|0,1:0|0:0,0:0:0:0:
480,51,45651,1,0,1:0:0:0:
508,38,45739,2,0,L|488:147,1,110.50000210762,12|0,0:0|0:0,0:0:0:0:
488,146,46269,6,2,B|494:129|494:129|486:118|486:118|482:103,1,39,2|0,0:1|0:0,0:1:0:0:
407,138,46622,5,6,1:0:0:0:
355,87,46798,1,0,1:0:0:0:
355,87,46887,1,0,1:0:0:0:
281,102,47063,1,0,1:0:0:0:
281,102,47151,1,0,1:0:0:0:
203,174,47328,6,0,L|168:153,3,32.5,8|0|0|0,0:0|3:0|3:0|3:0,0:0:0:0:
135,94,47681,2,0,L|90:90,3,32.5,2|0|2|0,3:1|3:0|3:1|3:0,0:0:0:0:
33,131,48034,5,2,1:0:0:0:
77,200,48210,1,2,1:0:0:0:
77,200,48298,1,0,1:0:0:0:
43,272,48475,1,0,1:0:0:0:
43,272,48563,1,2,1:0:0:0:
206,346,48740,6,0,L|250:333,1,32.5,10|0,0:1|0:0,0:0:0:0:
211,354,48916,2,0,L|243:345,1,32.5,2|0,0:1|0:0,0:0:0:0:
159,273,49093,6,0,L|115:260,1,32.5,2|0,1:0|0:0,0:0:0:0:
122,272,49269,2,0,L|153:281,1,32.5,8|0,0:0|0:0,0:0:0:0:
236,240,49445,5,0,1:0:0:0:
289,183,49622,1,0,1:0:0:0:
289,183,49710,1,0,1:0:0:0:
369,203,49887,1,0,1:0:0:0:
369,203,49975,1,0,1:0:0:0:
464,329,50151,6,0,L|452:367,3,32.5,10|0|0|0,0:1|3:0|3:0|3:0,0:0:0:0:
375,342,50504,2,0,L|338:373,3,32.5,2|0|0|0,3:1|3:0|3:0|3:0,0:0:0:0:
273,326,50857,5,2,1:0:0:0:
312,251,51034,1,0,1:0:0:0:
312,251,51122,1,0,1:0:0:0:
243,171,51298,1,0,1:0:0:0:
243,171,51386,1,2,1:0:0:0:
306,48,51563,1,10,0:1:0:0:
306,48,52269,6,0,P|374:57|386:117,2,136.499995834351,6|2|2,1:2|0:0|3:2,0:0:0:0:
303,132,52975,2,0,P|319:174|333:224,1,90.9999972229005,2|0,1:2|3:0,0:0:0:0:
432,267,53328,2,0,P|416:309|402:359,1,90.9999972229005,0|2,1:0|3:2,0:0:0:0:
406,187,53681,6,0,B|438:181|477:210|442:229|475:256|514:254,2,136.499995834351,2|2|2,1:2|0:0|3:2,0:0:0:0:
340,136,54387,2,0,P|295:143|272:194,1,90.9999972229005,2|0,1:2|3:0,0:0:0:0:
200,212,54740,2,0,P|183:254|216:299,1,90.9999972229005,0|2,1:0|3:2,0:0:0:0:
261,371,55093,6,0,P|279:318|322:241,2,136.499995834351,2|2|2,1:2|0:0|3:2,0:0:0:0:
193,310,55798,2,0,P|156:297|90:282,1,90.9999972229005,2|2,1:2|3:2,0:0:0:0:
171,219,56063,1,2,0:0:0:0:
180,205,56151,2,0,P|222:190|267:179,1,90.9999972229005,2|2,1:2|3:2,0:0:0:0:
137,136,56504,6,0,P|125:62|108:-1,2,136.499995834351,2|2|2,1:2|0:0|3:2,0:0:0:0:
85,198,57210,1,2,1:2:0:0:
17,163,57387,1,8,0:0:0:0:
24,87,57563,1,0,1:0:0:0:
32,85,57651,1,8,0:0:0:0:
41,83,57740,1,10,0:0:0:0:
49,81,57828,1,8,0:0:0:0:
57,79,57916,5,6,1:2:0:0:
137,136,58093,1,10,0:0:0:0:
139,100,58181,1,2,1:2:0:0:
211,40,58357,1,2,1:2:0:0:
222,74,58445,1,10,0:0:0:0:
378,102,58622,5,2,1:2:0:0:
456,48,58798,1,8,0:0:0:0:
469,140,58975,1,0,1:0:0:0:
462,148,59063,1,0,1:0:0:0:
459,139,59151,1,10,0:0:0:0:
396,242,59328,5,2,1:2:0:0:
414,322,59504,1,10,0:0:0:0:
392,351,59593,1,2,1:2:0:0:
312,339,59769,1,0,1:0:0:0:
277,350,59857,1,10,0:0:0:0:
180,215,60034,5,2,1:2:0:0:
101,194,60210,1,8,0:0:0:0:
42,255,60387,1,0,1:0:0:0:
45,267,60475,1,0,1:0:0:0:
48,259,60563,1,10,0:0:0:0:
174,372,60740,6,0,P|187:295|205:219,1,155.999995239258,6|0,1:2|0:0,0:0:0:0:
162,367,61004,2,0,P|168:328|176:290,1,77.999997619629,0|0,1:0|0:0,0:0:0:0:
341,310,61269,5,10,0:0:0:0:
341,310,61357,1,8,0:0:0:0:
341,310,61445,2,0,P|322:198|295:87,1,195.00000743866,6|0,1:2|0:0,0:0:0:0:
357,301,61709,2,0,P|347:245|335:189,1,97.50000371933,0|0,1:0|0:0,0:0:0:0:
158,250,61975,5,10,0:0:0:0:
158,250,62063,1,8,0:0:0:0:
158,250,62151,2,0,P|178:127|207:7,1,233.999992858887,6|0,1:2|0:0,0:0:0:0:
140,240,62415,2,0,P|150:178|163:118,1,116.999996429443,0|0,1:0|0:0,0:0:0:0:
463,40,62681,5,8,0:3:0:0:
463,40,62857,6,0,B|494:134|494:134|426:203,1,195.00000743866,10|0,0:0|1:0,0:0:0:0:
278,3,63122,2,0,B|210:72|210:72|241:166,1,195.00000743866,10|0,0:0|1:0,0:0:0:0:
402,113,63387,2,0,L|308:91,1,97.50000371933,10|0,0:0|0:0,0:0:0:0:
307,90,63740,6,0,P|283:208|336:321,1,233.999992858887,4|0,1:2|0:0,0:0:0:0:
325,309,64004,2,0,P|245:239|137:230,1,195.00000743866,0|0,1:0|0:0,0:0:0:0:
159,226,64269,2,0,P|240:198|291:125,1,155.999995239258,0|0,1:0|0:0,0:0:0:0:
283,145,64534,2,0,P|269:211|299:274,1,116.999996429443,0|0,1:0|0:0,0:0:0:0:
284,256,64798,2,0,P|257:228|220:215,1,77.999997619629,0|0,1:0|0:0,0:0:0:0:
220,215,64975,6,0,P|248:207|271:187,1,58.5,4|0,1:2|0:0,0:0:0:0:
270,188,65857,5,8,0:0:0:0:
263,166,65945,1,8,0:0:0:0:
283,129,66034,1,10,0:0:0:0:
335,124,66122,1,8,0:0:0:0:
389,169,66210,1,8,0:0:0:0:
464,160,66298,1,8,0:0:0:0:
480,84,66387,6,0,P|419:220|387:315,1,233.999992858887,6|8,1:2|0:0,0:0:0:0:
512,384,66651,2,0,P|511:333|468:304,1,97.50000371933,2|0,1:2|0:0,0:0:0:0:
310,304,66828,1,0,1:0:0:0:
289,288,66916,2,0,P|191:310|74:353,1,195.00000743866,10|0,0:0|1:0,0:0:0:0:
182,144,67181,5,0,0:0:0:0:
182,144,67269,2,0,P|224:168|208:217,1,97.50000371933,10|0,0:0|0:0,0:0:0:0:
8,345,67445,2,0,P|1:299|42:278,1,97.50000371933,2|0,1:2|1:0,0:0:0:0:
194,339,67622,2,0,P|240:352|286:369,1,97.50000371933,10|0,0:0|0:0,0:0:0:0:
119,259,67798,6,0,P|98:163|71:70,1,195.00000743866,2|8,1:2|0:0,0:0:0:0:
237,67,68063,2,0,P|230:113|188:133,1,97.50000371933,2|0,1:2|0:0,0:0:0:0:
22,198,68240,1,0,1:0:0:0:
18,177,68328,2,0,B|72:137|124:173|97:203|151:249|221:206,1,195.00000743866,10|0,0:0|1:0,0:0:0:0:
324,53,68593,5,0,0:0:0:0:
324,53,68681,2,0,B|365:78|365:78|349:138,1,97.50000371933,10|0,0:0|0:0,0:0:0:0:
272,251,68857,1,2,1:2:0:0:
272,251,68945,1,0,1:0:0:0:
272,251,69034,2,0,B|263:299|263:299|306:321,1,97.50000371933,10|0,0:0|0:0,0:0:0:0:
483,135,69210,6,0,B|442:143|442:143|387:248|387:248|353:254,1,195.00000743866,2|8,1:2|0:0,0:0:0:0:
426,57,69475,2,0,P|379:60|361:103,1,97.50000371933,2|0,1:2|0:0,0:0:0:0:
467,267,69651,1,0,1:0:0:0:
469,286,69740,2,0,P|450:328|404:332,1,97.50000371933,10|0,0:0|0:0,0:0:0:0:
215,178,69916,6,0,P|122:146|29:119,1,195.00000743866,2|8,1:2|0:0,0:0:0:0:
56,264,70181,2,0,P|98:281|130:247,1,97.50000371933,2|0,0:0|1:0,0:0:0:0:
226,97,70357,1,0,1:0:0:0:
239,87,70445,2,0,P|232:41|188:30,1,97.50000371933,10|0,0:0|0:0,0:0:0:0:
144,234,70622,6,0,P|124:138|96:45,1,195.00000743866,2|8,1:2|0:0,0:0:0:0:
96,45,70887,1,0,1:0:0:0:
387,156,71063,1,0,1:0:0:0:
387,156,71151,1,8,0:0:0:0:
139,355,71328,1,0,1:0:0:0:
185,27,71504,6,0,P|200:71|214:142,1,97.50000371933,10|0,0:0|0:0,0:0:0:0:
276,199,71681,1,2,1:2:0:0:
276,199,71769,1,0,1:0:0:0:
276,199,71857,2,0,P|266:244|243:313,1,97.50000371933,10|0,0:0|0:0,0:0:0:0:
135,150,72034,6,0,B|200:119|258:180|221:193|276:252|362:216,1,246.999993404389,6|8,1:2|0:0,0:0:0:0:
459,113,72298,2,0,P|409:109|388:165,1,97.50000371933,2|0,1:2|0:0,0:0:0:0:
365,297,72475,1,0,1:0:0:0:
354,308,72563,2,0,P|375:353|434:343,1,97.50000371933,10|0,0:0|0:0,0:0:0:0:
375,140,72740,6,0,B|295:102|224:176|269:193|202:266|97:221,1,299.000005702973,6|8,1:2|0:0,0:0:0:0:
11,99,73004,2,0,P|65:95|87:155,1,110.50000210762,2|0,0:0|1:0,0:0:0:0:
115,309,73181,1,0,1:0:0:0:
125,321,73269,2,0,P|101:369|37:359,1,110.50000210762,10|0,0:0|0:0,0:0:0:0:
102,130,73445,6,0,B|195:86|279:173|225:192|304:278|428:225,1,351.000001338959,6|8,1:2|0:0,0:0:0:0:
487,97,73710,2,0,P|432:93|409:153,1,123.499996702194,2|0,1:2|0:0,0:0:0:0:
394,316,73887,1,0,1:0:0:0:
381,327,73975,2,0,P|404:375|468:365,1,123.499996702194,10|0,0:0|0:0,0:0:0:0:
316,129,74151,6,0,P|231:159|127:225,1,195.00000743866,2|8,1:2|0:0,0:0:0:0:
52,226,74416,2,0,P|42:271|79:298,1,97.50000371933,2|0,0:0|1:0,0:0:0:0:
88,294,74593,1,0,1:0:0:0:
96,290,74681,2,0,L|116:74,1,195.00000743866,8|0,0:0|1:0,0:0:0:0:
179,311,74945,5,0,0:0:0:0:
179,311,75034,2,0,B|171:359|171:359|107:379,1,97.50000371933,10|0,0:0|1:0,0:0:0:0:
1,272,75210,1,2,0:0:0:0:
8,274,75298,1,2,1:2:0:0:
3,280,75387,2,0,B|10:231|10:231|74:211,1,97.50000371933,10|0,0:0|0:0,0:0:0:0:
164,35,75563,6,0,B|218:7|273:56|233:70|287:124|360:87,1,195.00000743866,2|8,1:2|0:0,0:0:0:0:
490,15,75828,2,0,P|445:23|381:39,1,97.50000371933,2|0,0:0|1:0,0:0:0:0:
331,184,76004,1,0,1:0:0:0:
309,191,76093,2,0,P|261:179|213:170,1,97.50000371933,10|0,0:0|0:0,0:0:0:0:
0,89,76269,6,0,P|117:15|91:151,1,350.99998928833,6|0,1:2|1:0,0:0:0:0:
90,151,76622,5,10,0:0:0:0:
80,148,76710,1,0,1:0:0:0:
59,149,76798,1,0,1:0:0:0:
34,165,76887,1,0,1:0:0:0:
27,203,76975,1,10,0:0:0:0:
52,244,77063,1,0,1:0:0:0:
108,256,77151,1,2,1:2:0:0:
160,211,77240,1,0,1:0:0:0:
189,139,77328,1,10,0:0:0:0:
262,90,77416,1,0,1:0:0:0:
347,106,77504,1,0,1:0:0:0:
405,172,77593,1,0,1:0:0:0:
347,264,77681,6,0,P|369:149|401:36,1,233.999992858887,6|8,1:2|0:0,0:0:0:0:
425,293,77945,2,0,P|408:337|363:341,1,97.50000371933,2|0,1:2|0:0,0:0:0:0:
277,201,78122,1,0,1:0:0:0:
275,185,78210,2,0,P|186:188|182:291,1,195.00000743866,10|0,0:0|1:0,0:0:0:0:
262,288,78475,5,0,0:0:0:0:
262,288,78563,2,0,P|269:333|230:356,1,97.50000371933,10|0,0:0|0:0,0:0:0:0:
61,255,78740,2,0,P|73:210|119:206,1,97.50000371933,2|0,1:2|1:0,0:0:0:0:
154,382,78916,2,0,P|118:350|72:336,1,97.50000371933,10|0,0:0|0:0,0:0:0:0:
261,202,79093,6,0,P|307:188|343:155,1,97.50000371933,2|0,1:2|0:0,0:0:0:0:
465,232,79269,1,10,0:0:0:0:
472,244,79357,2,0,P|500:205|512:157,1,97.50000371933,2|0,1:2|0:0,0:0:0:0:
364,32,79534,1,0,1:0:0:0:
355,53,79622,2,0,P|373:142|387:250,1,195.00000743866,10|0,0:0|1:0,0:0:0:0:
324,364,79887,5,0,0:0:0:0:
324,364,79975,2,0,B|291:326|291:326|329:276,1,97.50000371933,10|0,0:0|0:0,0:0:0:0:
429,310,80151,2,0,B|444:357|444:357|389:388,1,97.50000371933,2|0,1:2|1:0,0:0:0:0:
314,188,80328,5,10,0:0:0:0:
324,177,80416,1,2,0:0:0:0:
326,190,80504,2,0,P|304:147|247:145,1,97.50000371933,2|0,1:2|0:0,0:0:0:0:
56,126,80681,1,10,0:0:0:0:
45,117,80769,2,0,P|19:157|45:206,1,97.50000371933,2|0,1:2|0:0,0:0:0:0:
200,87,80946,1,2,1:2:0:0:
208,73,81034,2,0,P|160:70|130:118,1,97.50000371933,10|0,0:0|0:0,0:0:0:0:
184,378,81210,6,0,P|157:287|111:177,1,195.00000743866,2|8,1:2|0:0,0:0:0:0:
0,382,81475,2,0,P|43:359|88:342,1,97.50000371933,2|0,0:0|1:0,0:0:0:0:
217,217,81651,1,0,1:0:0:0:
225,205,81740,2,0,P|273:207|321:215,1,97.50000371933,10|0,0:0|0:0,0:0:0:0:
461,354,81916,6,0,P|488:270|404:244,1,195.00000743866,2|8,1:2|0:0,0:0:0:0:
404,243,82181,1,0,1:0:0:0:
168,383,82357,1,0,1:0:0:0:
168,383,82445,1,8,0:0:0:0:
7,155,82622,1,0,1:0:0:0:
368,74,82798,5,10,0:0:0:0:
304,135,82887,1,8,0:0:0:0:
230,129,82975,1,10,0:3:0:0:
199,77,83063,1,8,0:3:0:0:
220,33,83151,1,6,0:3:0:0:
255,23,83240,1,4,0:3:0:0:
273,41,83328,6,0,P|252:172|239:289,1,246.999993404389,6|0,1:2|3:0,0:0:0:0:
168,370,83593,2,0,P|119:289|20:321,1,195.00000743866,10|0,0:0|0:0,0:0:0:0:
32,305,83857,2,0,P|37:351|78:374,1,97.50000371933,10|0,0:0|0:0,0:0:0:0:
274,336,84034,6,0,P|257:187|233:39,1,299.000005702973,6|0,1:2|3:0,0:0:0:0:
347,121,84298,2,0,P|447:157|512:55,1,221.000004215241,10|0,0:0|0:0,0:0:0:0:
512,79,84562,2,0,P|472:42|420:52,1,110.50000210762,10|0,0:0|0:0,0:0:0:0:
282,17,84740,6,0,P|255:190|235:364,1,351.000001338959,6|0,1:2|3:0,0:0:0:0:
169,177,85004,2,0,P|49:165|12:304,1,246.999993404389,10|0,0:0|0:0,0:0:0:0:
0,264,85268,2,0,P|53:292|109:265,1,123.499996702194,10|0,0:0|0:0,0:0:0:0:
338,195,85445,2,0,P|384:208|400:255,1,97.50000371933,2|0,1:2|0:0,0:0:0:0:
270,371,85622,5,8,0:0:0:0:
245,297,85710,1,10,0:0:0:0:
245,219,85798,1,8,0:0:0:0:
263,142,85887,1,8,0:0:0:0:
234,69,85975,1,8,0:0:0:0:
161,42,86063,1,8,0:0:0:0:
96,93,86151,6,0,P|136:215|164:339,1,233.999992858887,4|10,1:2|0:0,0:0:0:0:
31,353,86416,1,0,1:0:0:0:
15,344,86504,2,0,P|18:302|78:281,1,97.50000371933,2|0,0:0|1:0,0:0:0:0:
247,317,86681,2,0,P|289:317|315:259,1,97.50000371933,10|0,0:0|0:0,0:0:0:0:
262,104,86857,6,0,B|230:95|230:95|136:185|136:185|106:177,1,195.00000743866,2|8,1:2|0:0,0:0:0:0:
18,57,87122,2,0,P|62:76|112:90,1,97.50000371933,2|0,0:0|1:0,0:0:0:0:
239,215,87298,1,0,1:0:0:0:
249,204,87387,2,0,P|293:184|343:171,1,97.50000371933,10|0,0:0|0:0,0:0:0:0:
501,32,87563,6,0,P|413:1|436:120,1,233.999992858887,4|10,1:2|0:0,0:0:0:0:
471,245,87828,1,0,1:0:0:0:
489,240,87916,2,0,P|471:198|424:194,1,97.50000371933,2|0,0:0|1:0,0:0:0:0:
305,90,88093,2,0,P|260:83|233:122,1,97.50000371933,10|0,0:0|0:0,0:0:0:0:
359,303,88269,6,0,P|373:210|394:100,1,195.00000743866,2|8,1:2|0:0,0:0:0:0:
440,323,88534,2,0,B|434:371|434:371|365:389,1,97.50000371933,2|0,0:0|1:0,0:0:0:0:
245,269,88710,1,0,1:0:0:0:
237,258,88798,2,0,B|242:209|242:209|311:191,1,97.50000371933,10|0,0:0|0:0,0:0:0:0:
309,382,88975,6,0,P|186:333|76:295,1,233.999992858887,4|10,1:2|0:0,0:0:0:0:
90,299,89240,1,2,1:2:0:0:
70,299,89328,1,2,0:0:0:0:
52,307,89416,1,2,1:2:0:0:
44,323,89504,2,0,P|45:369|93:380,1,97.50000371933,10|0,0:0|0:0,0:0:0:0:
150,223,89681,6,0,B|165:171|138:125|117:153|85:91|119:30,1,195.00000743866,2|8,1:2|0:0,0:0:0:0:
314,80,89945,2,0,P|270:102|225:119,1,97.50000371933,2|0,0:0|1:0,0:0:0:0:
224,119,90122,5,0,1:0:0:0:
302,126,90210,1,10,0:0:0:0:
377,144,90298,1,0,0:0:0:0:
448,175,90387,1,6,1:2:0:0:
448,175,91093,6,2,B|356:147|356:147|316:238,1,195.00000743866,10|0,0:1|0:0,0:1:0:0:
316,237,91357,2,2,B|331:303|331:303|401:295,1,130,10|0,0:1|0:0,0:1:0:0:
392,295,91622,2,0,B|416:271|416:271|396:241,1,65,10|0,0:1|0:0,0:0:0:0:
254,170,91798,6,2,B|169:185|169:185|150:207|150:207|101:199,1,155.999995239258,14|8,0:1|0:3,0:1:0:0:
26,217,92063,2,0,P|30:256|67:267,1,77.999997619629,6|0,0:3|0:0,0:0:0:0:
60,115,92240,1,0,1:0:0:0:
38,132,92328,2,0,P|68:213|119:370,1,233.999992858887,10|8,0:0|0:3,0:0:0:0:
113,353,92681,6,0,P|124:314|154:293,1,77.999997619629,6|0,0:3|0:0,0:0:0:0:
322,307,92857,2,0,P|359:323|394:313,1,77.999997619629,10|0,0:0|0:0,0:0:0:0:
269,245,93034,2,0,P|239:268|239:306,1,77.999997619629,2|0,1:2|0:0,0:0:0:0:
295,380,93210,6,0,P|284:278|265:133,2,233.999992858887,10|6|10,0:0|0:3|0:0,0:0:0:0:
451,107,94005,5,8,0:3:0:0:
463,96,94093,2,0,B|488:118|488:118|464:179,1,77.999997619629,6|0,0:3|0:0,0:0:0:0:
356,222,94270,2,0,B|345:190|345:190|380:162,1,77.999997619629,10|0,0:0|0:0,0:0:0:0:
436,237,94446,2,0,L|512:251,1,77.999997619629,2|0,1:2|0:0,0:0:0:0:
373,86,94622,6,0,B|346:78|346:78|266:147|266:147|232:137,1,155.999995239258,10|0,0:0|1:0,0:0:0:0:
244,140,94887,1,2,1:2:0:0:
206,102,94975,1,0,1:0:0:0:
223,50,95063,1,0,1:0:0:0:
276,38,95151,2,0,L|290:281,1,233.999992858887,10|8,0:0|0:3,0:0:0:0:
289,271,95504,6,0,P|269:238|226:240,1,77.999997619629,6|0,0:3|0:0,0:0:0:0:
159,371,95681,2,0,P|121:367|102:335,1,77.999997619629,10|0,0:0|0:0,0:0:0:0:
139,205,95857,2,0,P|153:243|162:284,1,77.999997619629,2|0,1:2|0:0,0:0:0:0:
336,175,96034,6,0,B|383:130|440:158|415:187|475:217|520:177,1,195.00000743866,14|8,0:0|0:3,0:0:0:0:
313,66,96298,2,0,P|211:94|280:170,1,195.00000743866,14|0,0:0|1:0,0:0:0:0:
385,2,96563,2,0,P|298:233|261:382,1,390.00001487732,14|2,0:0|3:2,0:0:0:0:
310,252,97093,5,8,0:0:0:0:
283,207,97181,1,8,0:0:0:0:
305,259,97269,1,8,0:0:0:0:
279,215,97357,1,8,0:0:0:0:
368,206,97445,6,0,P|293:227|221:257,1,155.999995239258,14|8,0:0|0:3,0:0:0:0:
138,208,97710,2,0,P|101:217|91:258,1,77.999997619629,6|0,0:3|0:0,0:0:0:0:
175,371,97887,1,0,1:0:0:0:
188,355,97975,2,0,P|178:250|171:73,1,233.999992858887,10|8,0:0|0:3,0:0:0:0:
171,121,98328,6,0,P|207:134|208:189,1,77.999997619629,6|0,0:3|0:0,0:0:0:0:
38,67,98504,2,0,P|31:30|57:3,1,77.999997619629,10|0,0:0|0:0,0:0:0:0:
185,40,98681,2,0,P|149:31|120:56,1,77.999997619629,2|0,1:2|0:0,0:0:0:0:
48,156,98857,6,0,P|176:83|283:65,2,233.999992858887,10|6|10,0:0|0:3|0:0,0:0:0:0:
352,46,99651,5,8,0:3:0:0:
343,33,99740,2,0,B|370:26|370:26|409:74,1,77.999997619629,6|0,0:3|0:0,0:0:0:0:
329,188,99916,2,0,B|309:167|309:167|327:121,1,77.999997619629,10|0,0:0|0:0,0:0:0:0:
463,114,100093,2,0,B|455:140|455:140|405:148,1,77.999997619629,2|0,1:2|0:0,0:0:0:0:
272,258,100269,6,0,L|116:233,1,155.999995239258,10|0,0:0|1:0,0:0:0:0:
117,233,100534,1,2,1:2:0:0:
81,273,100622,1,0,1:0:0:0:
100,323,100710,1,0,1:0:0:0:
153,334,100798,2,0,B|213:307|218:216|172:227|167:148|245:116,1,233.999992858887,10|8,0:0|0:3,0:0:0:0:
221,129,101151,6,0,P|241:163|298:172,1,77.999997619629,6|0,0:3|0:0,0:0:0:0:
292,257,101328,2,0,P|331:257|367:212,1,77.999997619629,10|0,0:0|0:0,0:0:0:0:
437,259,101504,2,0,P|456:225|435:171,1,77.999997619629,2|0,1:2|0:0,0:0:0:0:
316,105,101681,6,0,P|324:13|407:52,1,195.00000743866,14|8,0:0|0:3,0:0:0:0:
367,225,101945,2,0,P|284:263|275:171,1,195.00000743866,14|0,0:0|1:0,0:0:0:0:
495,102,102210,2,0,P|304:144|117:197,1,390.00001487732,14|0,0:0|1:0,0:0:0:0:
433,281,102740,6,0,P|465:277|488:303,1,65,14|0,0:0|0:0,0:0:0:0:
482,309,102916,2,0,P|451:314|428:288,1,65,0|0,1:0|0:0,0:0:0:0:
413,88,103093,5,4,1:2:0:0:
256,192,103181,12,2,108387,0:0:0:0:
359,134,114387,6,0,P|377:104|417:105,3,77.999997619629,2|0|2|0,3:2|3:0|3:2|3:0,0:0:0:0:
311,199,115798,2,0,P|273:201|253:169,3,77.999997619629,2|0|2|0,3:2|3:0|3:2|3:0,0:0:0:0:
416,104,117210,6,0,P|404:141|393:184,1,77.999997619629,2|0,3:2|3:0,0:0:0:0:
343,64,117563,2,0,P|331:101|320:144,1,77.999997619629,0|0,3:0|3:0,0:0:0:0:
159,192,117916,6,0,P|171:229|182:272,1,77.999997619629,0|2,3:0|3:2,0:0:0:0:
232,152,118269,2,0,P|244:189|255:232,1,77.999997619629,0|0,3:0|3:0,0:0:0:0:
324,363,118622,6,0,P|336:325|345:288,1,77.999997619629,2|0,3:2|3:0,0:0:0:0:
251,323,118975,2,0,P|263:285|272:248,1,77.999997619629,0|0,3:0|3:0,0:0:0:0:
333,358,119328,2,0,P|345:320|354:283,1,77.999997619629,0|0,3:0|3:0,0:0:0:0:
244,316,119681,2,0,P|256:278|265:241,1,77.999997619629,0|0,3:0|3:0,0:0:0:0:
351,275,120034,6,2,B|298:260|298:260|242:338|242:338|147:356,1,221.000004215241,6|0,1:0|0:0,0:1:0:0:
42,209,120298,2,2,B|71:191|71:191|85:153|85:153|192:260,1,221.000004215241,10|0,0:1|0:0,0:1:0:0:
94,363,120563,2,0,B|61:326|61:326|89:286|89:286|94:255,1,110.50000210762,10|0,0:1|0:0,0:0:0:0:
301,92,120740,6,2,B|232:11|232:11|120:53,1,221.000004215241,6|0,1:0|0:0,0:1:0:0:
48,189,121004,2,2,B|102:193|102:193|45:81|45:81|-5:151,1,221.000004215241,10|0,0:1|0:0,0:1:0:0:
165,122,121269,2,0,B|178:141|178:141|205:138|205:138|277:173,1,110.50000210762,10|0,0:1|0:0,0:0:0:0:
477,111,121445,6,0,B|515:73|515:73|507:25|507:25|489:34,1,110.50000210762,6|0,1:0|0:0,0:0:0:0:
394,7,121622,1,2,0:1:0:0:
378,33,121710,2,2,B|399:171|399:171|436:196|436:196|432:233,1,221.000004215241,10|0,0:1|0:0,0:1:0:0:
300,291,121975,2,0,B|272:271|272:271|329:218,1,110.50000210762,10|0,0:1|0:0,0:0:0:0:
479,327,122151,6,0,B|390:310|390:310|375:324,1,110.50000210762,6|0,1:0|0:0,0:0:0:0:
321,384,122328,1,2,0:1:0:0:
302,372,122416,2,2,B|191:332|191:332|116:358|116:358|160:305,1,221.000004215241,10|0,0:1|0:0,0:1:0:0:
0,286,122681,2,0,B|19:367|19:367|47:322,1,110.50000210762,10|0,0:1|0:0,0:0:0:0:
213,251,122857,6,2,B|240:143|240:143|286:130|286:130|225:57,1,221.000004215241,6|0,1:0|0:0,0:1:0:0:
38,116,123122,2,2,B|27:141|27:141|68:238|68:238|134:242|134:242|117:263,1,221.000004215241,10|0,0:1|0:0,0:1:0:0:
167,65,123387,2,0,B|155:74|155:74|139:145|139:145|105:169,1,110.50000210762,10|0,0:1|0:0,0:0:0:0:
310,224,123563,6,2,B|350:196|350:196|467:248|467:248|541:242,1,221.000004215241,6|0,1:0|0:0,0:1:0:0:
453,42,123828,2,2,B|382:86|382:86|470:159|470:159|492:96,1,221.000004215241,10|0,0:1|0:0,0:1:0:0:
296,68,124093,2,0,B|303:125|303:125|257:157,1,110.50000210762,10|0,0:1|0:0,0:0:0:0:
210,324,124269,6,2,B|198:291|198:291|332:314|332:314|362:345|362:345|369:344,1,221.000004215241,6|0,1:0|0:0,0:1:0:0:
130,238,124534,2,2,B|53:305|53:305|118:316|118:316|118:374,1,221.000004215241,10|0,0:1|0:0,0:1:0:0:
208,212,124798,2,0,B|234:167|234:167|161:173,1,110.50000210762,10|0,0:1|0:0,0:0:0:0:
7,158,124975,5,10,0:1:0:0:
29,84,125063,1,8,0:0:0:0:
105,94,125151,2,0,B|112:103|112:103|129:104|129:104|138:123,1,32.5,2|0,1:0|0:0,0:0:0:0:
200,227,125328,5,10,0:1:0:0:
270,255,125416,1,8,0:0:0:0:
311,190,125504,2,0,B|310:162|310:162|291:169,1,32.5,2|0,0:1|0:0,0:0:0:0:
257,47,125681,6,2,B|255:84|264:105|264:105|243:146|243:146|271:187|294:231|294:231|254:291|254:291|267:321|285:356,2,331.500006322861,6|0|0,1:0|1:0|1:0,0:1:0:0:
373,291,126387,5,10,0:1:0:0:
374,301,126475,1,0,1:0:0:0:
376,312,126563,1,0,1:0:0:0:
378,323,126651,1,0,1:0:0:0:
380,334,126739,1,0,1:0:0:0:
382,345,126828,1,0,1:0:0:0:
383,356,126916,2,0,L|339:362,1,32.5,0|0,1:0|1:0,0:0:0:0:
259,333,127093,6,2,B|269:281|247:245|247:245|291:159|291:159|264:85|264:85|280:68|281:46,2,292.50001115799,2|0|0,1:0|1:0|1:0,0:1:0:0:
136,106,127798,5,10,0:1:0:0:
138,96,127886,1,0,1:0:0:0:
140,85,127974,1,0,1:0:0:0:
142,74,128062,1,0,1:0:0:0:
144,63,128150,1,0,1:0:0:0:
146,52,128239,1,0,1:0:0:0:
148,41,128328,2,0,L|191:50,1,32.5,0|0,1:0|1:0,0:0:0:0:
267,88,128504,6,2,B|256:125|230:153|230:153|269:259|269:259|247:292|239:335,2,253.499988395691,2|0|0,1:0|1:0|1:0,0:1:0:0:
363,256,129210,5,8,0:0:0:0:
364,266,129298,1,0,1:0:0:0:
366,277,129386,1,0,1:0:0:0:
368,288,129474,1,2,1:0:0:0:
370,299,129562,1,0,1:0:0:0:
372,310,129651,1,0,1:0:0:0:
374,321,129739,1,2,1:0:0:0:
376,332,129827,1,0,1:0:0:0:
378,343,129916,6,2,B|284:285|284:285|417:201|417:201|404:270,1,325,6|0,1:0|0:0,0:1:0:0:
406,257,130181,2,0,B|230:269|230:269|233:236|233:236|162:203,1,286.000008728028,8|0,0:0|0:0,0:0:0:0:
163,203,130445,2,0,B|126:286|126:286|161:328,1,143.000004364014,8|0,0:0|0:0,0:0:0:0:
159,326,130622,1,8,0:0:0:0:
353,58,131328,5,6,1:2:0:0:
353,58,132740,1,6,1:2:0:0:
353,58,134151,1,6,1:2:0:0:
353,58,135563,1,6,1:2:0:0:
353,58,136445,5,0,1:0:0:0:
423,98,136622,1,8,0:0:0:0:
354,138,136798,1,2,1:2:0:0:
185,45,136975,5,6,1:2:0:0:
182,61,137328,1,0,1:0:0:0:
179,77,137681,1,2,1:2:0:0:
176,93,138034,1,0,1:0:0:0:
331,134,138387,5,6,1:2:0:0:
335,158,138740,1,0,1:0:0:0:
340,182,139093,1,2,1:2:0:0:
344,206,139446,1,0,1:0:0:0:
180,239,139798,5,6,1:2:0:0:
174,275,140151,1,0,1:0:0:0:
166,311,140504,1,2,1:2:0:0:
160,347,140857,1,0,1:0:0:0:
353,58,141210,5,6,1:2:0:0:
353,58,141916,5,10,0:0:0:0:
423,98,142004,1,8,0:0:0:0:
354,138,142093,1,0,1:0:0:0:
358,83,142269,5,8,0:0:0:0:
398,90,142357,1,8,0:0:0:0:
372,120,142446,1,2,1:2:0:0:
377,102,142622,6,0,B|330:48|260:84|286:129|216:160|164:107,1,233.999992858887,6|2,1:2|0:0,0:0:0:0:
170,112,142975,2,0,P|168:60|221:50,2,104,8|2|2,0:0|3:2|1:2,0:0:0:0:
218,182,143504,1,0,3:0:0:0:
218,182,143681,2,0,P|228:241|186:286,1,104,8|2,0:0|3:2,0:0:0:0:
183,371,144034,6,0,P|148:335|98:339,1,104,2|2,1:2|3:2,0:0:0:0:
99,343,144298,1,2,0:0:0:0:
99,348,144387,2,0,P|64:384|14:380,2,104,8|2|2,0:0|3:2|1:2,0:0:0:0:
77,261,144916,1,0,3:0:0:0:
77,261,145093,2,0,P|65:215|55:149,1,104,8|2,0:0|3:2,0:0:0:0:
71,79,145445,6,0,P|120:71|152:109,1,104,2|0,1:2|3:0,0:0:0:0:
152,109,145710,2,0,P|201:117|233:79,1,104,2|0,0:0|3:0,0:0:0:0:
233,78,145975,1,2,3:2:0:0:
300,28,146151,1,2,1:2:0:0:
375,76,146328,1,2,3:2:0:0:
375,76,146416,1,2,0:0:0:0:
375,76,146504,2,0,P|362:125|351:181,1,104,10|2,0:0|3:2,0:0:0:0:
290,230,146857,6,0,P|296:279|343:295,1,104,2|0,1:2|3:0,0:0:0:0:
342,295,147122,2,0,P|383:254|450:232,1,104,2|0,0:0|3:0,0:0:0:0:
424,235,147387,1,2,3:2:0:0:
500,280,147563,1,2,1:2:0:0:
471,172,147740,6,0,L|487:50,1,104,8|0,0:0|1:0,0:0:0:0:
420,22,148093,1,10,0:0:0:0:
420,22,148269,6,0,P|326:22|326:144,1,233.999992858887,6|2,1:2|0:0,0:0:0:0:
320,138,148622,2,0,P|367:146|389:103,2,104,8|2|2,0:0|3:2|1:2,0:0:0:0:
269,75,149151,1,0,3:0:0:0:
268,74,149328,2,0,P|219:59|167:54,1,104,8|2,0:0|3:2,0:0:0:0:
71,22,149681,6,0,P|86:71|99:121,1,104,2|0,1:2|3:0,0:0:0:0:
99,122,149945,2,0,P|145:146|149:199,1,104,2|0,0:0|3:0,0:0:0:0:
150,193,150210,1,2,3:2:0:0:
87,237,150387,2,0,P|59:279|82:327,1,104,2|0,1:2|3:0,0:0:0:0:
136,378,150740,2,0,P|184:361|257:339,1,104,8|2,0:0|3:2,0:0:0:0:
349,364,151093,6,0,P|357:290|288:267,1,155.999995239258,6|0,1:2|0:0,0:0:0:0:
360,376,151357,2,0,P|380:342|381:303,1,77.999997619629,2|0,1:2|0:0,0:0:0:0:
150,288,151622,5,10,0:0:0:0:
150,288,151710,1,10,0:0:0:0:
150,288,151798,2,0,P|139:193|228:162,1,195.00000743866,6|0,1:2|0:0,0:0:0:0:
134,303,152062,2,0,P|109:259|108:209,1,97.50000371933,2|0,1:2|0:0,0:0:0:0:
356,184,152328,5,10,0:0:0:0:
356,184,152416,1,8,0:0:0:0:
356,184,152504,2,0,P|368:71|262:35,1,233.999992858887,6|0,1:2|0:0,0:0:0:0:
374,201,152768,2,0,P|403:149|404:90,1,116.999996429443,2|0,1:2|0:0,0:0:0:0:
98,12,153034,5,8,0:3:0:0:
98,12,153210,6,0,P|21:58|36:154,1,195.00000743866,10|2,0:0|1:2,0:0:0:0:
182,22,153475,2,0,P|243:88|205:173,1,195.00000743866,10|0,0:0|1:0,0:0:0:0:
68,221,153740,2,0,P|112:205|150:232,1,97.50000371933,10|0,0:0|0:0,0:0:0:0:
151,233,154093,6,0,B|173:110|173:110|285:99,1,233.999992858887,4|0,1:2|0:0,0:0:0:0:
281,99,154357,2,0,B|359:166|359:166|321:251,1,195.00000743866,0|0,1:0|0:0,0:0:0:0:
321,250,154622,2,0,B|243:277|243:277|199:217,1,155.999995239258,0|0,1:0|0:0,0:0:0:0:
199,217,154887,2,0,B|210:155|210:155|266:149,1,116.999996429443,0|0,1:0|0:0,0:0:0:0:
263,149,155151,2,0,B|295:176|295:176|279:212,1,77.999997619629,0|0,1:0|0:0,0:0:0:0:
280,209,155328,6,0,B|259:216|259:216|248:200,1,39,4|0,1:2|0:0,0:0:0:0:
345,104,156034,5,0,1:0:0:0:
345,104,156298,1,0,1:0:0:0:
345,104,156563,1,0,1:0:0:0:
345,104,157445,5,0,1:0:0:0:
345,104,157709,1,0,1:0:0:0:
345,104,157974,1,0,1:0:0:0:
345,104,158151,5,4,1:2:0:0:
342,109,158240,1,0,1:0:0:0:
338,121,158328,1,0,1:0:0:0:
342,140,158416,1,0,1:0:0:0:
357,161,158504,1,8,0:0:0:0:
383,179,158593,1,0,1:0:0:0:
398,214,158681,1,0,1:0:0:0:
393,259,158769,1,0,1:0:0:0:
362,300,158857,1,8,0:0:0:0:
303,304,158945,1,0,1:0:0:0:
249,265,159034,1,0,1:0:0:0:
234,195,159122,1,0,1:0:0:0:
251,119,159210,1,8,0:0:0:0:
230,37,159298,1,0,1:0:0:0:
140,16,159387,1,0,1:0:0:0:
63,76,159475,1,0,1:0:0:0:
72,179,159563,5,8,0:0:0:0:
342,109,159916,5,6,1:2:0:0:
342,109,160269,1,6,1:2:0:0:
342,109,160622,5,10,0:0:0:0:
332,186,160710,1,8,0:0:0:0:
322,263,160798,1,8,0:0:0:0:
312,340,160887,1,8,0:0:0:0:
423,276,160975,6,0,B|380:226|299:255|339:303|262:337|212:282,1,233.999992858887,6|8,1:2|0:0,0:0:0:0:
113,177,161240,2,0,P|159:169|189:204,1,97.50000371933,2|0,1:2|0:0,0:0:0:0:
152,351,161416,1,0,1:0:0:0:
138,374,161504,2,0,P|119:278|98:183,1,195.00000743866,10|0,0:0|1:0,0:0:0:0:
194,44,161769,5,0,0:0:0:0:
194,44,161857,2,0,P|195:90|141:106,1,97.50000371933,10|0,0:0|0:0,0:0:0:0:
14,13,162034,2,0,P|62:30|131:41,1,97.50000371933,2|0,1:2|1:0,0:0:0:0:
257,150,162210,2,0,P|307:140|372:115,1,97.50000371933,10|0,0:0|0:0,0:0:0:0:
512,8,162387,6,0,P|427:32|470:118,1,195.00000743866,2|8,1:2|0:0,0:0:0:0:
466,249,162651,2,0,P|506:226|508:179,1,97.50000371933,2|0,1:2|0:0,0:0:0:0:
346,99,162828,1,0,1:0:0:0:
340,121,162916,2,0,P|271:141|140:169,1,195.00000743866,10|0,0:0|1:0,0:0:0:0:
124,33,163181,5,0,0:0:0:0:
124,33,163269,2,0,P|171:31|201:67,1,97.50000371933,10|0,0:0|0:0,0:0:0:0:
278,239,163445,1,2,1:2:0:0:
278,239,163534,1,0,1:0:0:0:
278,239,163622,2,0,P|256:280|209:289,1,97.50000371933,10|0,0:0|0:0,0:0:0:0:
230,151,163798,6,0,B|277:137|317:192|274:211|308:267|373:260,1,195.00000743866,2|8,1:2|0:0,0:0:0:0:
496,167,164063,2,0,B|448:153|448:153|419:191,1,97.50000371933,2|0,1:2|0:0,0:0:0:0:
428,308,164240,1,2,1:2:0:0:
421,321,164328,2,0,B|450:356|450:356|497:340,1,97.50000371933,10|0,0:0|0:0,0:0:0:0:
416,205,164504,6,0,P|394:103|371:8,1,195.00000743866,2|8,1:2|0:0,0:0:0:0:
295,203,164769,2,0,P|301:247|346:264,1,97.50000371933,2|0,0:0|1:0,0:0:0:0:
240,122,164945,1,0,1:0:0:0:
231,113,165034,2,0,P|195:140|203:187,1,97.50000371933,10|0,0:0|0:0,0:0:0:0:
421,218,165210,6,0,B|392:224|392:224|319:333|319:333|269:342,1,195.00000743866,2|8,1:2|0:0,0:0:0:0:
285,339,165475,1,0,1:0:0:0:
32,191,165651,1,0,1:0:0:0:
32,191,165740,1,8,0:0:0:0:
282,46,165916,1,0,1:0:0:0:
89,325,166093,6,0,P|80:278|111:243,1,97.50000371933,10|0,0:0|0:0,0:0:0:0:
113,154,166269,1,2,1:2:0:0:
113,154,166357,1,0,1:0:0:0:
113,154,166445,2,0,P|148:123|194:133,1,97.50000371933,10|0,0:0|0:0,0:0:0:0:
295,244,166622,6,0,P|270:143|201:219,1,246.999993404389,6|8,1:2|0:0,0:0:0:0:
267,359,166887,2,0,P|307:332|354:309,1,97.50000371933,2|0,1:2|0:0,0:0:0:0:
480,236,167063,1,0,1:0:0:0:
486,222,167151,2,0,P|463:182|415:183,1,97.50000371933,10|0,0:0|0:0,0:0:0:0:
207,252,167328,6,0,P|237:124|326:220,1,299.000005702973,6|8,1:2|0:0,0:0:0:0:
241,374,167593,2,0,P|195:344|143:317,1,110.50000210762,2|0,0:0|1:0,0:0:0:0:
11,216,167769,1,0,1:0:0:0:
4,200,167857,2,0,P|28:156|83:156,1,110.50000210762,10|0,0:0|0:0,0:0:0:0:
311,256,168034,6,0,P|275:109|174:219,1,351.000001338959,6|8,1:2|0:0,0:0:0:0:
269,384,168298,2,0,P|322:349|382:318,1,123.499996702194,2|0,1:2|0:0,0:0:0:0:
488,184,168474,1,0,1:0:0:0:
496,166,168562,2,0,P|467:114|403:115,1,123.499996702194,10|0,0:0|0:0,0:0:0:0:
300,268,168740,6,0,P|287:168|262:62,1,195.00000743866,2|8,1:2|0:0,0:0:0:0:
174,95,169004,2,0,P|160:138|196:167,1,97.50000371933,2|0,0:0|1:0,0:0:0:0:
204,161,169181,1,0,1:0:0:0:
211,154,169269,2,0,B|256:119|316:162|285:190|332:227|398:194,1,195.00000743866,8|0,0:0|1:0,0:0:0:0:
206,265,169534,5,0,0:0:0:0:
205,265,169622,2,0,P|161:243|114:230,1,97.50000371933,10|0,0:0|1:0,0:0:0:0:
29,51,169798,2,0,P|75:51|95:93,1,97.50000371933,2|0,0:0|1:0,0:0:0:0:
35,246,169975,2,0,P|19:202|52:169,1,97.50000371933,10|0,0:0|0:0,0:0:0:0:
151,3,170151,6,0,P|244:31|340:47,1,195.00000743866,2|8,1:2|0:0,0:0:0:0:
500,19,170416,2,0,P|455:16|422:61,1,97.50000371933,2|0,0:0|1:0,0:0:0:0:
296,192,170593,1,0,1:0:0:0:
274,201,170681,2,0,P|238:172|239:125,1,97.50000371933,10|0,0:0|0:0,0:0:0:0:
351,35,170857,6,0,P|314:206|290:380,1,350.99998928833,6|0,1:2|1:0,0:0:0:0:
289,380,171210,5,10,0:0:0:0:
298,381,171298,1,0,1:0:0:0:
311,365,171387,1,0,1:0:0:0:
320,338,171475,1,0,1:0:0:0:
315,298,171563,1,10,0:0:0:0:
289,256,171651,1,0,1:0:0:0:
259,204,171740,1,0,1:0:0:0:
255,136,171828,1,0,1:0:0:0:
284,64,171916,1,10,0:0:0:0:
361,25,172004,1,0,1:0:0:0:
445,50,172093,1,0,1:0:0:0:
488,125,172181,1,0,1:0:0:0:
439,224,172269,6,0,P|462:109|502:0,1,233.999992858887,6|8,1:2|0:0,0:0:0:0:
509,270,172534,2,0,P|495:314|444:320,1,97.50000371933,2|0,1:2|0:0,0:0:0:0:
362,159,172710,1,0,1:0:0:0:
345,144,172798,2,0,B|292:136|265:194|308:199|273:267|213:262,1,195.00000743866,10|0,0:0|1:0,0:0:0:0:
351,274,173063,5,0,0:0:0:0:
351,274,173151,2,0,P|363:321|371:369,1,97.50000371933,10|0,0:0|0:0,0:0:0:0:
139,235,173328,2,0,P|152:190|198:185,1,97.50000371933,2|0,1:2|1:0,0:0:0:0:
286,367,173504,2,0,P|241:377|212:340,1,97.50000371933,10|0,0:0|0:0,0:0:0:0:
33,227,173681,6,0,P|80:239|128:247,1,97.50000371933,2|0,1:2|0:0,0:0:0:0:
264,112,173857,1,10,0:0:0:0:
276,96,173945,2,0,P|323:83|371:75,1,97.50000371933,2|0,1:2|0:0,0:0:0:0:
277,243,174122,1,0,1:0:0:0:
269,223,174210,2,0,P|183:168|96:119,1,195.00000743866,10|0,0:0|1:0,0:0:0:0:
53,12,174475,5,0,0:0:0:0:
53,12,174563,2,0,B|8:39|8:39|29:81,1,97.50000371933,10|0,0:0|0:0,0:0:0:0:
170,64,174740,2,0,B|178:12|178:12|131:1,1,97.50000371933,2|0,1:2|1:0,0:0:0:0:
21,173,174916,5,10,0:0:0:0:
33,176,175004,1,2,0:0:0:0:
29,165,175093,2,0,P|45:218|57:282,1,97.50000371933,2|0,1:2|0:0,0:0:0:0:
208,378,175269,1,10,0:0:0:0:
224,365,175357,2,0,P|234:317|248:270,1,97.50000371933,2|0,1:2|0:0,0:0:0:0:
33,338,175534,1,2,1:2:0:0:
52,345,175622,2,0,P|98:330|145:319,1,97.50000371933,10|0,0:0|0:0,0:0:0:0:
245,107,175798,6,0,P|330:129|310:215,1,195.00000743866,2|8,1:2|0:0,0:0:0:0:
126,167,176063,2,0,P|172:181|219:192,1,97.50000371933,2|0,0:0|1:0,0:0:0:0:
331,296,176240,1,0,1:0:0:0:
355,300,176328,2,0,P|391:267|424:231,1,97.50000371933,10|0,0:0|0:0,0:0:0:0:
274,23,176504,6,0,P|296:127|313:231,1,195.00000743866,2|8,1:2|0:0,0:0:0:0:
310,214,176769,1,0,1:0:0:0:
58,319,176945,1,0,1:0:0:0:
58,319,177034,1,8,0:0:0:0:
93,48,177210,1,0,1:0:0:0:
273,347,177387,5,10,0:0:0:0:
204,292,177475,1,8,0:0:0:0:
189,217,177563,1,10,0:3:0:0:
214,161,177651,1,8,0:3:0:0:
251,129,177740,1,6,0:3:0:0:
262,98,177828,1,4,0:3:0:0:
246,78,177916,6,0,B|215:122|215:122|293:246|293:246|262:290,1,246.999993404389,6|0,1:2|3:0,0:0:0:0:
127,119,178181,2,0,P|51:83|36:166,1,195.00000743866,10|0,0:0|0:0,0:0:0:0:
36,166,178445,2,0,P|77:188|81:234,1,97.50000371933,10|0,0:0|0:0,0:0:0:0:
245,308,178622,6,0,B|209:257|209:257|302:110|302:110|265:58,1,299.000005702973,6|0,1:2|3:0,0:0:0:0:
486,198,178887,2,0,P|401:237|403:133,1,221.000004215241,10|0,0:0|0:0,0:0:0:0:
390,141,179151,2,0,P|436:116|438:63,1,110.50000210762,10|0,0:0|0:0,0:0:0:0:
245,35,179328,6,0,B|201:96|201:96|310:269|310:269|268:327,1,351.000001338959,6|0,1:2|3:0,0:0:0:0:
118,98,179593,2,0,P|22:53|24:171,1,246.999993404389,10|0,0:0|0:0,0:0:0:0:
6,158,179857,2,0,P|58:185|60:246,1,123.499996702194,10|0,0:0|0:0,0:0:0:0:
182,374,180034,2,0,P|228:378|261:344,1,97.50000371933,2|0,1:2|0:0,0:0:0:0:
2,311,180210,5,10,0:0:0:0:
79,325,180298,1,10,0:0:0:0:
153,300,180387,1,8,0:0:0:0:
205,243,180475,1,8,0:0:0:0:
275,209,180563,1,8,0:0:0:0:
352,217,180651,1,8,0:0:0:0:
419,257,180740,6,0,P|491:260|442:147,1,233.999992858887,4|10,1:2|0:0,0:0:0:0:
350,297,181004,1,0,1:0:0:0:
345,318,181093,2,0,P|375:356|426:344,1,97.50000371933,2|0,0:0|1:0,0:0:0:0:
418,73,181269,2,0,P|371:70|346:109,1,97.50000371933,10|0,0:0|0:0,0:0:0:0:
450,163,181445,6,0,P|355:138|260:118,1,195.00000743866,2|8,1:2|0:0,0:0:0:0:
162,23,181710,2,0,B|206:-1|206:-1|237:36,1,97.50000371933,2|0,0:0|1:0,0:0:0:0:
138,165,181887,1,0,1:0:0:0:
123,166,181975,2,0,B|79:139|79:139|97:94,1,97.50000371933,10|0,0:0|0:0,0:0:0:0:
137,333,182151,6,0,P|157:217|185:104,1,233.999992858887,4|10,1:2|0:0,0:0:0:0:
57,291,182416,1,0,1:0:0:0:
41,297,182504,2,0,P|28:341|61:373,1,97.50000371933,2|0,0:0|1:0,0:0:0:0:
258,317,182681,2,0,P|271:272|238:240,1,97.50000371933,10|0,0:0|0:0,0:0:0:0:
173,95,182857,6,0,B|125:88|87:139|130:148|87:224|11:202,1,195.00000743866,2|8,1:2|0:0,0:0:0:0:
0,0,183122,2,0,P|41:14|107:30,1,97.50000371933,2|0,0:0|1:0,0:0:0:0:
234,165,183298,1,0,1:0:0:0:
244,153,183387,2,0,P|285:139|351:123,1,97.50000371933,10|0,0:0|0:0,0:0:0:0:
485,30,183563,6,0,B|492:74|492:74|397:192|397:192|406:232,1,233.999992858887,4|10,1:2|0:0,0:0:0:0:
393,56,183828,1,0,1:0:0:0:
385,42,183916,2,0,B|340:59|340:59|337:108,1,97.50000371933,2|0,0:0|1:0,0:0:0:0:
510,291,184093,2,0,B|521:244|521:244|483:213,1,97.50000371933,10|0,0:0|0:0,0:0:0:0:
315,357,184269,6,0,P|215:315|130:292,1,195.00000743866,2|8,1:2|0:0,0:0:0:0:
12,339,184534,2,0,P|43:373|89:366,1,97.50000371933,2|0,0:0|1:0,0:0:0:0:
234,237,184710,1,0,1:0:0:0:
242,223,184798,2,0,P|288:216|319:250,1,97.50000371933,10|0,0:0|0:0,0:0:0:0:
483,361,184975,6,0,B|507:298|507:298|473:264|473:264|451:162,1,195.00000743866,6|0,1:0|0:0,0:0:0:0:
262,40,185151,2,0,B|160:101|160:101|227:136,1,195.00000743866,8|0,0:0|1:0,0:0:0:0:
472,104,185328,6,0,B|476:85|476:85|425:57|425:57|335:103|335:103|293:91,1,195.00000743866,2|0,0:1|1:0,0:0:0:0:
207,351,185504,2,0,B|202:308|202:308|178:269|178:269|252:232|252:232|289:145,1,195.00000743866,8|0,0:0|0:0,0:0:0:0:
391,285,185681,6,0,B|406:353|406:353|331:329|331:329|284:326,1,195.00000743866,2|0,1:0|0:0,0:0:0:0:
146,191,185857,2,0,B|104:186|104:186|35:242|35:242|97:271,1,195.00000743866,8|0,0:0|0:0,0:0:0:0:
278,44,186034,5,2,1:0:0:0:
228,120,186122,1,8,0:0:0:0:
297,190,186210,1,8,0:0:0:0:
217,269,186298,1,8,0:0:0:0:
245,364,186387,6,0,P|253:247|273:132,1,233.999992858887,4|10,1:2|0:0,0:0:0:0:
421,280,186651,1,0,1:0:0:0:
424,303,186740,2,0,P|374:283|320:267,1,97.50000371933,2|0,0:0|1:0,0:0:0:0:
200,106,186916,2,0,P|151:112|104:122,1,97.50000371933,10|0,0:0|0:0,0:0:0:0:
15,312,187093,6,0,P|73:331|99:222,1,195.00000743866,2|8,1:2|0:0,0:0:0:0:
26,98,187357,2,0,P|7:142|38:174,1,97.50000371933,2|0,0:0|1:0,0:0:0:0:
207,255,187534,1,0,1:0:0:0:
223,258,187622,2,0,P|232:303|195:329,1,97.50000371933,10|0,0:0|0:0,0:0:0:0:
113,214,187798,6,0,P|229:234|371:253,1,233.999992858887,4|10,1:2|0:0,0:0:0:0:
349,257,188063,1,2,1:2:0:0:
353,265,188151,2,0,P|355:311|310:326,1,97.50000371933,2|0,0:0|1:0,0:0:0:0:
351,158,188328,2,0,P|396:151|416:192,1,97.50000371933,10|0,0:0|0:0,0:0:0:0:
267,17,188504,6,0,B|219:15|186:69|227:87|185:148|122:138,1,195.00000743866,2|8,1:2|0:0,0:0:0:0:
0,39,188769,2,0,P|46:54|93:68,1,97.50000371933,2|0,0:0|1:0,0:0:0:0:
277,112,188945,1,0,1:0:0:0:
286,97,189034,2,0,P|332:81|379:67,1,97.50000371933,10|0,0:0|0:0,0:0:0:0:
214,227,189210,6,0,P|192:108|161:-1,1,233.999992858887,4|10,1:2|0:0,0:0:0:0:
137,263,189475,1,0,1:0:0:0:
133,278,189563,2,0,P|159:316|208:308,1,97.50000371933,2|0,0:0|1:0,0:0:0:0:
368,357,189740,2,0,P|414:353|432:306,1,97.50000371933,10|0,0:0|0:0,0:0:0:0:
306,268,189916,2,0,P|292:314|280:362,1,97.50000371933,2|0,1:2|0:0,0:0:0:0:
280,362,190093,5,8,0:0:0:0:
290,284,190181,1,10,0:0:0:0:
267,209,190269,1,8,0:0:0:0:
221,146,190357,1,8,0:0:0:0:
232,69,190445,1,10,0:0:0:0:
302,35,190534,1,8,0:0:0:0:
372,68,190622,5,6,1:2:0:0:
372,68,191328,5,10,0:0:0:0:
372,68,191593,1,10,0:0:0:0:
372,68,191857,1,10,0:0:0:0:
273,375,192034,6,0,B|377:281|294:166|222:242|146:107|244:18,1,409.499987503052,6|0,1:2|1:0,0:0:0:0:
237,38,192387,1,0,3:0:0:0:
239,49,192475,1,0,1:0:0:0:
242,59,192563,2,0,P|210:106|155:101,1,116.999996429443,10|0,0:0|0:0,0:0:0:0:
90,166,192740,2,0,P|34:162|11:111,1,116.999996429443,0|0,1:0|0:0,0:0:0:0:
231,13,192916,6,0,P|284:35|340:55,1,116.999996429443,8|0,0:0|0:0,0:0:0:0:
403,179,193093,1,2,1:2:0:0:
403,179,193181,1,0,1:0:0:0:
403,179,193269,2,0,P|456:156|512:136,1,116.999996429443,8|0,0:0|0:0,0:0:0:0:
494,29,193445,6,0,P|441:30|421:83,1,116.999996429443,0|0,1:0|0:0,0:0:0:0:
340,239,193622,1,10,0:0:0:0:
340,239,193710,2,0,P|355:343|470:336,1,233.999992858887,0|0,1:0|1:0,0:0:0:0:
464,341,193975,2,0,P|469:280|406:269,1,116.999996429443,8|0,0:0|0:0,0:0:0:0:
328,147,194151,6,0,B|271:124|211:179|255:200|196:270|116:228,1,233.999992858887,2|8,1:2|0:0,0:0:0:0:
50,183,194416,2,0,B|83:131|83:131|153:149,1,116.999996429443,2|0,0:0|1:0,0:0:0:0:
155,324,194593,1,0,1:0:0:0:
155,324,194681,2,0,B|96:341|96:341|53:282,1,116.999996429443,10|0,0:0|0:0,0:0:0:0:
126,237,194857,1,0,1:0:0:0:
214,2,195034,5,10,0:0:0:0:
202,4,195122,1,2,1:2:0:0:
192,9,195210,1,2,0:0:0:0:
182,14,195298,2,0,P|174:66|227:87,1,116.999996429443,2|8,1:2|0:0,0:0:0:0:
396,25,195475,6,2,B|346:36|346:36|286:161|286:161|239:174,1,233.999992858887,2|0,0:1|0:0,0:1:0:0:
403,112,195740,6,0,P|434:158|411:208,1,116.999996429443,10|0,0:0|0:0,0:0:0:0:
271,341,195916,2,0,P|220:316|216:260,1,116.999996429443,2|0,1:2|1:0,0:0:0:0:
484,276,196093,2,0,P|455:324|399:324,1,116.999996429443,10|0,0:0|0:0,0:0:0:0:
253,186,196269,6,0,P|365:217|476:253,1,233.999992858887,2|8,1:2|0:0,0:0:0:0:
512,99,196534,2,0,P|456:117|399:130,1,116.999996429443,2|0,1:2|0:0,0:0:0:0:
228,282,196710,1,2,1:2:0:0:
219,267,196798,2,0,P|163:247|106:235,1,116.999996429443,10|0,0:0|0:0,0:0:0:0:
6,38,196975,6,0,P|132:1|66:149,1,350.99998928833,2|0,1:2|0:0,0:0:0:0:
85,140,197328,1,0,1:0:0:0:
78,129,197416,1,0,1:0:0:0:
72,118,197504,2,0,P|21:159|42:217,1,116.999996429443,8|0,0:0|0:0,0:0:0:0:
256,75,197681,6,0,B|322:138|294:225|244:176|200:276|261:327,1,286.000008728028,6|8,1:2|0:0,0:0:0:0:
429,349,197945,2,0,P|467:309|441:250,1,116.999996429443,2|0,1:2|0:0,0:0:0:0:
466,168,198122,1,0,1:0:0:0:
466,168,198210,2,0,P|426:129|367:155,1,116.999996429443,10|0,0:0|0:0,0:0:0:0:
251,345,198387,6,0,B|325:273|279:160|211:223|178:106|256:45,1,337.999984527589,6|8,1:2|0:0,0:0:0:0:
85,16,198651,2,0,P|44:56|72:117,1,130,2|0,0:0|1:0,0:0:0:0:
46,203,198828,1,0,1:0:0:0:
46,203,198916,2,0,P|86:243|147:215,1,130,10|0,0:0|0:0,0:0:0:0:
257,24,199093,6,0,B|348:93|307:229|228:156|173:275|261:371,1,390.00001487732,6|8,1:2|0:0,0:0:0:0:
458,351,199357,2,0,P|501:306|471:240,1,143.000004364014,2|0,1:2|0:0,0:0:0:0:
500,148,199534,1,0,1:0:0:0:
500,148,199622,2,0,P|455:104|389:134,1,143.000004364014,10|0,0:0|0:0,0:0:0:0:
274,381,199798,6,0,P|195:295|61:277,1,233.999992858887,2|8,1:2|0:0,0:0:0:0:
0,321,200063,2,0,P|19:374|76:373,1,116.999996429443,2|0,0:0|1:0,0:0:0:0:
79,365,200240,1,0,1:0:0:0:
83,354,200328,2,0,P|55:215|28:122,1,233.999992858887,10|0,0:0|1:0,0:0:0:0:
372,26,200681,5,10,0:0:0:0:
372,26,200769,2,0,P|481:58|437:142,1,233.999992858887,0|0,1:0|1:0,0:0:0:0:
265,7,201034,2,0,P|286:60|300:119,1,116.999996429443,10|0,0:0|0:0,0:0:0:0:
483,220,201210,2,0,P|461:274|448:331,1,116.999996429443,2|0,1:2|0:0,0:0:0:0:
179,181,201387,5,8,0:0:0:0:
179,181,201475,2,0,B|251:155|302:207|265:233|325:286|388:244,1,233.999992858887,2|0,0:0|1:0,0:0:0:0:
212,258,201740,2,0,P|154:275|77:311,1,116.999996429443,10|0,0:0|0:0,0:0:0:0:
102,297,201916,5,6,1:2:0:0:
105,316,202004,1,0,1:0:0:0:
126,334,202093,1,0,1:0:0:0:
160,339,202181,1,0,1:0:0:0:
197,316,202269,1,8,0:0:0:0:
209,269,202357,1,0,1:0:0:0:
200,212,202445,1,0,1:0:0:0:
170,156,202534,1,0,1:0:0:0:
171,85,202622,1,8,0:0:0:0:
212,20,202710,1,0,1:0:0:0:
294,3,202798,1,0,1:0:0:0:
369,54,202887,1,0,1:0:0:0:
357,147,202975,6,0,P|341:141|318:135,3,38.9999988098145,10|2|2|2,0:0|1:2|1:2|1:2,0:0:0:0:
431,203,203328,5,6,1:2:0:0:
420,252,203416,1,0,3:0:0:0:
381,288,203504,1,8,0:0:0:0:
326,288,203593,1,0,1:0:0:0:
293,357,203681,5,2,3:2:0:0:
239,364,203769,1,0,1:0:0:0:
194,335,203857,1,8,0:0:0:0:
177,285,203946,1,0,3:0:0:0:
101,275,204033,5,2,1:2:0:0:
79,227,204121,1,0,3:0:0:0:
90,175,204209,1,8,0:0:0:0:
133,142,204298,1,0,3:0:0:0:
119,66,204388,5,2,1:2:0:0:
158,32,204476,1,0,1:0:0:0:
209,27,204564,1,8,0:0:0:0:
254,59,204651,1,0,3:0:0:0:
386,141,204740,5,2,1:2:0:0:
403,83,204828,1,0,3:0:0:0:
380,30,204916,1,8,0:0:0:0:
331,0,205004,1,0,1:0:0:0:
256,40,205093,5,2,3:2:0:0:
204,6,205181,1,0,1:0:0:0:
146,11,205269,1,8,0:0:0:0:
101,52,205357,1,0,3:0:0:0:
116,139,205445,5,2,1:2:0:0:
68,174,205534,1,0,3:0:0:0:
55,232,205622,1,8,0:0:0:0:
80,285,205710,1,0,3:0:0:0:
167,298,205798,5,2,1:2:0:0:
185,356,205887,1,0,1:0:0:0:
237,384,205975,1,8,0:0:0:0:
294,377,206063,1,0,3:0:0:0:
330,288,206151,6,0,B|387:274|387:274|432:335,1,116.999996429443,2|0,1:2|3:0,0:0:0:0:
228,99,206328,2,0,B|192:146|192:146|136:132,1,116.999996429443,10|0,0:0|1:0,0:0:0:0:
362,187,206504,2,0,B|314:151|314:151|328:95,1,116.999996429443,2|0,3:2|1:0,0:0:0:0:
224,227,206681,2,0,B|238:283|238:283|190:318,1,116.999996429443,10|0,0:0|3:0,0:0:0:0:
31,183,206857,6,0,B|67:248|67:248|138:230,1,143.000004364014,2|0,1:2|3:0,0:0:0:0:
303,21,207034,2,0,B|369:4|369:4|405:69,1,143.000004364014,10|0,0:0|3:0,0:0:0:0:
366,365,207210,2,0,B|382:298|382:298|317:262,1,143.000004364014,2|0,1:2|1:0,0:0:0:0:
127,122,207387,2,0,B|110:55|110:55|175:19,1,143.000004364014,10|0,0:0|3:0,0:0:0:0:
439,181,207563,6,0,B|391:142|317:175|355:219|272:260|219:204,1,233.999992858887,2|8,1:2|0:0,0:0:0:0:
15,64,207828,2,0,P|107:23|141:128,1,233.999992858887,2|0,1:2|1:0,0:0:0:0:
83,286,208093,2,0,P|95:229|148:211,1,116.999996429443,10|0,0:0|0:0,0:0:0:0:
246,109,208269,6,2,B|296:122|296:122|336:241|336:241|390:256,1,233.999992858887,2|8,1:0|0:0,0:1:0:0:
390,256,208534,1,8,0:0:0:0:
452,223,208622,1,8,0:3:0:0:
460,165,208710,1,8,0:3:0:0:
439,123,208798,1,4,0:3:0:0:
402,110,208887,1,4,0:3:0:0:
382,128,208975,6,0,P|253:201|110:244,1,299.000005702973,6|0,1:2|3:0,0:0:0:0:
105,54,209240,2,0,P|14:94|54:216,1,233.999992858887,10|0,0:0|0:0,0:0:0:0:
38,207,209504,2,0,P|66:251|34:315,1,116.999996429443,10|0,0:0|0:0,0:0:0:0:
144,136,209681,6,0,P|260:201|388:240,1,246.999993404389,6|0,1:2|3:0,0:0:0:0:
408,86,209945,2,0,P|489:121|453:231,1,208,10|0,0:0|0:0,0:0:0:0:
468,222,210209,2,0,P|442:261|471:318,1,104,10|0,0:0|0:0,0:0:0:0:
344,148,210387,6,0,P|259:197|167:228,1,195.00000743866,6|0,1:2|3:0,0:0:0:0:
121,89,210651,2,0,P|49:120|80:216,1,181.999994445801,10|0,0:0|0:0,0:0:0:0:
66,208,210915,2,0,P|88:242|62:293,1,90.9999972229005,10|0,0:0|0:0,0:0:0:0:
237,338,211093,6,0,P|250:209|278:43,1,272.999991668701,2|8,1:2|0:0,0:0:0:0:
273,67,211357,1,10,0:0:0:0:
241,128,211445,1,8,0:0:0:0:
284,183,211534,1,8,0:0:0:0:
352,166,211622,1,10,0:0:0:0:
420,179,211710,1,8,0:0:0:0:
475,236,211798,6,0,P|345:186|209:147,1,272.999991668701,4|10,1:2|0:0,0:0:0:0:
84,40,212063,1,0,1:0:0:0:
84,40,212151,2,0,P|45:86|76:142,1,116.999996429443,2|0,0:0|1:0,0:0:0:0:
134,271,212328,2,0,P|193:281|226:226,1,116.999996429443,10|0,0:0|0:0,0:0:0:0:
80,135,212504,6,0,P|95:231|108:371,1,233.999992858887,2|8,1:2|0:0,0:0:0:0:
150,88,212769,2,0,P|204:75|241:116,1,116.999996429443,2|0,0:0|1:0,0:0:0:0:
328,197,212945,1,0,1:0:0:0:
328,197,213034,2,0,P|340:251|299:288,1,116.999996429443,10|0,0:0|0:0,0:0:0:0:
178,168,213210,6,0,B|259:125|328:192|267:217|359:279|424:228,1,272.999991668701,4|10,1:2|0:0,0:0:0:0:
510,120,213475,1,0,1:0:0:0:
510,120,213563,2,0,B|456:95|456:95|412:165,1,116.999996429443,2|0,0:0|1:0,0:0:0:0:
486,291,213740,2,0,B|527:249|527:249|476:183,1,116.999996429443,10|0,0:0|0:0,0:0:0:0:
333,12,213916,6,0,P|251:60|113:102,1,233.999992858887,2|8,1:2|0:0,0:0:0:0:
260,149,214181,2,0,P|314:153|347:99,1,116.999996429443,2|0,0:0|1:0,0:0:0:0:
144,5,214357,1,0,1:0:0:0:
144,5,214445,2,0,P|99:36|109:99,1,116.999996429443,10|0,0:0|0:0,0:0:0:0:
241,235,214622,6,0,P|233:352|122:306,1,272.999991668701,4|10,1:2|0:0,0:0:0:0:
79,189,214887,1,0,1:0:0:0:
79,189,214975,2,0,P|129:177|154:231,1,116.999996429443,2|0,0:0|1:0,0:0:0:0:
45,323,215151,2,0,P|0:296|16:240,1,116.999996429443,10|0,0:0|0:0,0:0:0:0:
125,298,215328,6,0,P|231:248|350:216,1,233.999992858887,2|8,1:2|0:0,0:0:0:0:
466,157,215593,2,0,P|442:210|425:266,1,116.999996429443,2|0,0:0|1:0,0:0:0:0:
424,266,215769,5,8,0:0:0:0:
414,183,215857,1,10,0:0:0:0:
397,103,215945,1,8,0:0:0:0:
369,25,216034,1,6,1:2:0:0:
369,25,216740,5,8,0:0:0:0:
184,166,217004,1,8,0:0:0:0:
319,264,217269,1,8,0:0:0:0:
256,384,217445,6,0,L|260:334,1,42.2499980659486,12|0,0:0|0:0,0:0:0:0:
