osu file format v14

[General]
AudioFilename: audio.mp3
AudioLeadIn: 0
PreviewTime: 69713
Countdown: 0
SampleSet: Normal
StackLeniency: 0.7
Mode: 1
LetterboxInBreaks: 0
WidescreenStoryboard: 0

[Editor]
Bookmarks: 863,10463,20063,24863,29663,34463,39263,48863,58463,68063,70463,80063,89663,99263,108863,113663,118463,123263,128063,137663,147263,156863,159263,168863,178463,188063,197663,207263,226463,231263,236063,240863,245663,248063,250463,260063,269663,279263,288863,298463,303263,307763
DistanceSpacing: 0.6
BeatDivisor: 16
GridSize: 32
TimelineZoom: 1.9

[Metadata]
Title:I thought I was an angel
TitleUnicode:天使だと思っていたのに
Artist:Utsu-P
ArtistUnicode:鬱P
Creator:D0UG
Version:Dekinai
Source:#コンパス 戦闘摂理解析システム
Tags:Video Game videogame Metal Japanese Novelty 初音ミク Hatsune Miku Vocaloid UtsuP #Compass 天使だと思っていたのに Tenshi da to Omotte Ita noni RENAISSANCE 13 Thirteen サーティーン ボーカロイド
BeatmapID:2746097
BeatmapSetID:1325664

[Difficulty]
HPDrainRate:5
CircleSize:2
OverallDifficulty:6.5
ApproachRate:10
SliderMultiplier:1.4
SliderTickRate:1

[Events]
//Background and Video events
0,0,"bg.jpg",0,50
//Break Periods
//Storyboard Layer 0 (Background)
//Storyboard Layer 1 (Fail)
//Storyboard Layer 2 (Pass)
//Storyboard Layer 3 (Foreground)
//Storyboard Layer 4 (Overlay)
//Storyboard Sound Samples

[TimingPoints]
863,600,4,1,0,50,1,0
863,-90.9090909090909,4,1,0,50,0,0
10426,-76.9230769230769,4,1,0,50,0,0
18526,-78.7401574803149,4,1,0,50,0,0
18826,-80.6451612903226,4,1,0,50,0,0
19126,-82.6446280991736,4,1,0,50,0,0
19426,-84.7457627118644,4,1,0,50,0,0
20026,-62.5,4,1,0,75,0,0
38176,-64.9350649350649,4,1,0,75,0,0
38326,-66.2251655629139,4,1,0,75,0,0
38476,-67.5675675675676,4,1,0,75,0,0
38626,-68.9655172413793,4,1,0,75,0,0
38776,-70.4225352112676,4,1,0,75,0,0
38926,-71.9424460431655,4,1,0,75,0,0
39226,-75.187969924812,4,1,0,50,0,0
48826,-68.9655172413793,4,1,0,60,0,0
58426,-60.6060606060606,4,1,0,70,0,0
67726,-64.5161290322581,4,1,0,70,0,0
67876,-66.6666666666667,4,1,0,70,0,0
68026,-68.9655172413793,4,1,0,50,0,0
69826,-68.9655172413793,4,1,0,70,0,0
70276,-68.9655172413793,4,1,0,90,0,0
70463,-51.2820512820513,4,1,0,90,0,1
80063,-51.2820512820513,4,1,0,80,0,0
80176,-52.0833333333333,4,1,0,80,0,0
80326,-52.9100529100529,4,1,0,80,0,0
80476,-53.763440860215,4,1,0,80,0,0
80551,-54.054054054054,4,1,0,80,0,0
80626,-54.6448087431694,4,1,0,80,0,0
88051,-55.2486187845304,4,1,0,80,0,0
88126,-55.8659217877095,4,1,0,80,0,0
88201,-56.4971751412429,4,1,0,80,0,0
88276,-57.1428571428571,4,1,0,80,0,0
88351,-57.8034682080925,4,1,0,80,0,0
88426,-58.4795321637427,4,1,0,80,0,0
88576,-59.8802395209581,4,1,0,80,0,0
89663,-50,4,1,0,90,0,1
107626,-50.5050505050505,4,1,0,90,0,1
107701,-51.0204081632653,4,1,0,90,0,1
107776,-51.5463917525773,4,1,0,90,0,1
107851,-52.0833333333333,4,1,0,90,0,1
107926,-52.6315789473684,4,1,0,90,0,1
108001,-53.1914893617021,4,1,0,90,0,1
108076,-53.763440860215,4,1,0,90,0,1
108151,-54.3478260869565,4,1,0,90,0,1
108226,-54.9450549450549,4,1,0,90,0,1
108376,-56.1797752808989,4,1,0,70,0,1
108676,-58.8235294117647,4,1,0,70,0,1
108863,-59.8802395209581,4,1,0,90,0,0
108976,-60.9756097560976,4,1,0,75,0,0
109126,-62.5,4,1,0,75,0,0
126976,-64.9350649350649,4,1,0,75,0,0
127126,-66.2251655629139,4,1,0,75,0,0
127276,-67.5675675675676,4,1,0,75,0,0
127426,-68.9655172413793,4,1,0,75,0,0
127576,-70.4225352112676,4,1,0,75,0,0
127726,-71.9424460431655,4,1,0,75,0,0
128026,-75.187969924812,4,1,0,50,0,0
137626,-68.9655172413793,4,1,0,60,0,0
147226,-60.6060606060606,4,1,0,70,0,0
156526,-64.5161290322581,4,1,0,70,0,0
156676,-66.6666666666667,4,1,0,70,0,0
156826,-68.9655172413793,4,1,0,50,0,0
158626,-68.9655172413793,4,1,0,70,0,0
159263,-51.2820512820513,4,1,0,90,0,1
168863,-51.2820512820513,4,1,0,80,0,0
168976,-52.0833333333333,4,1,0,80,0,0
169126,-52.9100529100529,4,1,0,80,0,0
169276,-53.763440860215,4,1,0,80,0,0
169351,-54.054054054054,4,1,0,80,0,0
169426,-54.6448087431694,4,1,0,80,0,0
176851,-55.2486187845304,4,1,0,80,0,0
176926,-55.8659217877095,4,1,0,80,0,0
177001,-56.4971751412429,4,1,0,80,0,0
177076,-57.1428571428571,4,1,0,80,0,0
177151,-57.8034682080925,4,1,0,80,0,0
177226,-58.4795321637427,4,1,0,80,0,0
177376,-59.8802395209581,4,1,0,80,0,0
177976,-58.1395348837209,4,1,0,80,0,0
178126,-56.1797752808989,4,1,0,80,0,0
178276,-54.3478260869565,4,1,0,80,0,0
178463,-52.6315789473684,4,1,0,90,0,1
197663,-48.780487804878,4,1,0,70,0,0
200026,-71.4285714285714,4,1,0,70,0,0
201226,-71.4285714285714,4,1,0,80,0,0
202576,-71.4285714285714,4,1,0,70,0,0
206926,-70.9219858156028,4,1,0,70,0,0
207076,-69.9300699300699,4,1,0,70,0,0
207226,-68.9655172413793,4,1,0,90,0,0
226126,-68.4931506849315,4,1,0,80,0,0
226276,-68.0272108843537,4,1,0,80,0,0
226426,-67.5675675675676,4,1,0,80,0,0
226576,-67.1140939597315,4,1,0,80,0,0
226726,-66.6666666666667,4,1,0,80,0,0
235726,-66.2251655629139,4,1,0,82,0,0
235876,-65.7894736842105,4,1,0,82,0,0
236026,-65.359477124183,4,1,0,82,0,0
236176,-64.9350649350649,4,1,0,82,0,0
236326,-64.5161290322581,4,1,0,82,0,0
240526,-64.1025641025641,4,1,0,84,0,0
240676,-63.6942675159236,4,1,0,84,0,0
240826,-63.2911392405063,4,1,0,84,0,0
240976,-62.8930817610063,4,1,0,84,0,0
241126,-62.5,4,1,0,84,0,0
241726,-62.111801242236,4,1,0,86,0,0
241876,-61.7283950617284,4,1,0,86,0,0
242026,-61.3496932515337,4,1,0,86,0,0
242176,-60.9756097560976,4,1,0,86,0,0
242326,-60.6060606060606,4,1,0,86,0,0
242926,-59.8802395209581,4,1,0,89,0,0
243076,-59.1715976331361,4,1,0,89,0,0
243226,-58.4795321637427,4,1,0,89,0,0
243376,-57.8034682080925,4,1,0,89,0,0
243526,-57.1428571428571,4,1,0,89,0,0
244126,-56.4971751412429,4,1,0,92,0,0
244276,-55.8659217877095,4,1,0,92,0,0
244426,-55.2486187845304,4,1,0,92,0,0
244576,-54.6448087431694,4,1,0,92,0,0
244726,-54.054054054054,4,1,0,92,0,0
245626,-51.2820512820513,4,1,0,96,0,0
246226,-50.761421319797,4,1,0,96,0,0
246826,-50.251256281407,4,1,0,96,0,0
247426,-49.7512437810945,4,1,0,96,0,0
248063,-49.2610837438424,4,1,0,100,0,1
248163,-49.0196078431373,4,1,0,100,0,1
248263,-48.780487804878,4,1,0,100,0,1
248363,-48.5436893203883,4,1,0,100,0,1
248463,-48.3091787439614,4,1,0,100,0,1
248563,-48.0769230769231,4,1,0,100,0,1
248663,-47.8468899521531,4,1,0,100,0,1
248763,-47.6190476190476,4,1,0,100,0,1
248863,-47.39336492891,4,1,0,100,0,1
248963,-46.9483568075117,4,1,0,100,0,1
249063,-46.5116279069767,4,1,0,100,0,1
249163,-46.0829493087558,4,1,0,100,0,1
249263,-45.662100456621,4,1,0,100,0,1
249363,-45.2488687782805,4,1,0,100,0,1
249463,-44.6428571428571,4,1,0,100,0,1
249563,-44.0528634361233,4,1,0,100,0,1
249663,-43.2900432900433,4,1,0,100,0,1
249763,-42.5531914893617,4,1,0,100,0,1
249863,-41.6666666666667,4,1,0,100,0,0
250463,-83.3333333333333,4,1,0,50,0,0
250988,-83.3333333333333,4,1,0,70,0,0
251138,-83.3333333333333,4,1,0,50,0,0
252188,-83.3333333333333,4,1,0,70,0,0
252338,-83.3333333333333,4,1,0,50,0,0
253388,-83.3333333333333,4,1,0,70,0,0
253538,-83.3333333333333,4,1,0,50,0,0
254588,-83.3333333333333,4,1,0,70,0,0
254738,-83.3333333333333,4,1,0,50,0,0
255788,-83.3333333333333,4,1,0,70,0,0
255938,-83.3333333333333,4,1,0,50,0,0
256988,-83.3333333333333,4,1,0,70,0,0
257138,-83.3333333333333,4,1,0,50,0,0
258188,-83.3333333333333,4,1,0,70,0,0
258338,-83.3333333333333,4,1,0,50,0,0
259388,-50,4,1,0,90,0,0
259913,-66.6666666666667,4,1,0,70,0,0
260063,-50,4,1,0,90,0,1
266026,-49.2610837438424,4,1,0,90,0,1
266476,-48.5436893203883,4,1,0,90,0,1
266926,-47.8468899521531,4,1,0,90,0,1
269176,-48.0769230769231,4,1,0,90,0,1
269251,-48.3091787439614,4,1,0,90,0,1
269326,-48.5436893203883,4,1,0,90,0,1
269401,-48.780487804878,4,1,0,90,0,1
269476,-49.0196078431373,4,1,0,90,0,1
269551,-49.2610837438424,4,1,0,90,0,1
269663,-49.5049504950495,4,1,0,80,0,0
269776,-51.0204081632653,4,1,0,80,0,0
269926,-52.6315789473684,4,1,0,80,0,0
277651,-53.1914893617021,4,1,0,80,0,0
277726,-53.763440860215,4,1,0,80,0,0
277801,-54.3478260869565,4,1,0,80,0,0
277876,-54.9450549450549,4,1,0,80,0,0
277951,-55.5555555555556,4,1,0,80,0,0
278026,-56.1797752808989,4,1,0,80,0,0
278176,-57.4712643678161,4,1,0,80,0,0
279263,-47.6190476190476,4,1,0,90,0,1
297226,-47.8468899521531,4,1,0,90,0,1
297301,-48.0769230769231,4,1,0,90,0,1
297376,-48.3091787439614,4,1,0,90,0,1
297451,-48.5436893203883,4,1,0,90,0,1
297526,-48.780487804878,4,1,0,90,0,1
297601,-49.0196078431373,4,1,0,90,0,1
297676,-49.2610837438424,4,1,0,90,0,1
297751,-49.5049504950495,4,1,0,90,0,1
297826,-49.7512437810945,4,1,0,90,0,1
297976,-47.6190476190476,4,1,0,90,0,1
298126,-45.662100456621,4,1,0,90,0,1
298276,-43.859649122807,4,1,0,90,0,1
298463,-41.1522633744856,4,1,0,90,0,0
298613,-37.3134328358209,4,1,0,90,0,0
299063,-37.3134328358209,4,1,0,85,0,0
299663,-37.3134328358209,4,1,0,80,0,0
300263,-37.3134328358209,4,1,0,75,0,0
300863,-55.5555555555556,4,1,0,70,0,0
301463,-55.5555555555556,4,1,0,65,0,0
302063,-55.5555555555556,4,1,0,60,0,0
302663,-55.5555555555556,4,1,0,55,0,0
303263,-90.9090909090909,4,1,0,50,0,0
305663,-90.9090909090909,4,1,0,40,0,0

[HitObjects]
248,258,863,5,8,0:0:0:0:
248,258,1163,5,8,0:0:0:0:
248,258,1313,5,0,0:0:0:0:
248,258,1463,5,8,0:0:0:0:
248,258,1763,5,0,0:0:0:0:
248,258,2063,5,8,0:0:0:0:
248,258,2363,5,8,0:0:0:0:
248,258,2663,5,0,0:0:0:0:
248,258,2963,5,0,0:0:0:0:
248,258,3113,5,0,0:0:0:0:
248,258,3263,5,8,0:0:0:0:
248,258,3563,5,0,0:0:0:0:
248,258,3713,5,8,0:0:0:0:
248,258,3863,5,0,0:0:0:0:
248,258,4163,5,8,0:0:0:0:
248,258,4463,5,0,0:0:0:0:
248,258,4763,5,0,0:0:0:0:
248,258,5063,5,8,0:0:0:0:
248,258,5663,5,0,0:0:0:0:
248,258,5963,5,8,0:0:0:0:
248,258,6113,5,8,0:0:0:0:
248,258,6263,5,0,0:0:0:0:
248,258,6563,5,8,0:0:0:0:
248,258,6863,5,0,0:0:0:0:
248,258,7163,5,8,0:0:0:0:
248,258,7463,5,0,0:0:0:0:
248,258,7613,5,8,0:0:0:0:
248,258,7763,5,0,0:0:0:0:
248,258,7913,5,0,0:0:0:0:
248,258,8063,5,8,0:0:0:0:
248,258,8363,5,0,0:0:0:0:
248,258,8513,5,8,0:0:0:0:
248,258,8663,5,0,0:0:0:0:
248,258,8963,5,0,0:0:0:0:
248,258,9563,5,0,0:0:0:0:
248,258,9863,5,0,0:0:0:0:
248,258,10463,5,8,0:0:0:0:
248,258,10763,5,0,0:0:0:0:
248,258,10913,5,0,0:0:0:0:
248,258,11063,5,8,0:0:0:0:
248,258,11363,5,8,0:0:0:0:
248,258,11513,5,0,0:0:0:0:
248,258,11663,5,8,0:0:0:0:
248,258,11963,5,0,0:0:0:0:
248,258,12113,5,8,0:0:0:0:
248,258,12263,5,8,0:0:0:0:
248,258,12563,5,8,0:0:0:0:
248,258,12863,5,0,0:0:0:0:
248,258,13163,5,8,0:0:0:0:
248,258,13313,5,0,0:0:0:0:
248,258,13463,5,8,0:0:0:0:
248,258,13763,5,8,0:0:0:0:
248,258,13913,5,0,0:0:0:0:
248,258,14063,5,0,0:0:0:0:
248,258,14363,5,0,0:0:0:0:
248,258,14513,5,0,0:0:0:0:
248,258,14663,5,8,0:0:0:0:
248,258,14963,5,0,0:0:0:0:
248,258,15263,5,8,0:0:0:0:
248,258,15563,5,0,0:0:0:0:
248,258,15713,5,8,0:0:0:0:
248,258,15863,5,8,0:0:0:0:
248,258,16163,5,0,0:0:0:0:
248,258,16463,5,8,0:0:0:0:
248,258,16763,5,0,0:0:0:0:
248,258,17063,5,8,0:0:0:0:
248,258,17363,5,0,0:0:0:0:
248,258,17513,5,8,0:0:0:0:
248,258,17663,5,8,0:0:0:0:
248,258,17963,5,8,0:0:0:0:
248,258,18113,5,0,0:0:0:0:
248,258,18263,5,8,0:0:0:0:
248,258,18563,5,8,0:0:0:0:
248,258,18863,5,0,0:0:0:0:
248,258,19163,5,0,0:0:0:0:
248,258,19463,5,8,0:0:0:0:
248,258,20063,5,12,0:0:0:0:
248,258,20213,5,0,0:0:0:0:
248,258,20363,5,8,0:0:0:0:
248,258,20663,5,8,0:0:0:0:
248,258,20813,5,0,0:0:0:0:
248,258,21113,5,0,0:0:0:0:
248,258,21263,5,8,0:0:0:0:
248,258,21563,5,0,0:0:0:0:
248,258,21713,5,8,0:0:0:0:
248,258,22013,5,0,0:0:0:0:
248,258,22163,5,8,0:0:0:0:
248,258,22313,5,8,0:0:0:0:
248,258,22463,5,0,0:0:0:0:
248,258,22613,5,0,0:0:0:0:
248,258,22763,5,8,0:0:0:0:
248,258,23063,5,8,0:0:0:0:
248,258,23213,5,0,0:0:0:0:
248,258,23513,5,0,0:0:0:0:
248,258,23663,5,8,0:0:0:0:
248,258,23963,5,0,0:0:0:0:
248,258,24113,5,8,0:0:0:0:
248,258,24413,5,8,0:0:0:0:
248,258,24563,5,0,0:0:0:0:
248,258,24713,5,0,0:0:0:0:
248,258,24863,5,8,0:0:0:0:
248,258,25013,5,8,0:0:0:0:
248,258,25163,5,0,0:0:0:0:
248,258,25313,5,8,0:0:0:0:
248,258,25463,5,0,0:0:0:0:
248,258,25613,5,0,0:0:0:0:
248,258,25763,5,8,0:0:0:0:
248,258,25913,5,8,0:0:0:0:
248,258,26063,5,0,0:0:0:0:
248,258,26213,5,8,0:0:0:0:
248,258,26363,5,8,0:0:0:0:
248,258,26513,5,8,0:0:0:0:
248,258,26663,5,0,0:0:0:0:
248,258,26813,5,8,0:0:0:0:
248,258,26963,5,0,0:0:0:0:
248,258,27113,5,8,0:0:0:0:
248,258,27263,5,0,0:0:0:0:
248,258,27413,5,0,0:0:0:0:
248,258,27563,5,0,0:0:0:0:
248,258,27713,5,0,0:0:0:0:
248,258,28013,5,0,0:0:0:0:
248,258,28163,5,0,0:0:0:0:
248,258,28313,5,0,0:0:0:0:
248,258,28463,5,8,0:0:0:0:
248,258,28538,5,8,0:0:0:0:
248,258,28613,5,0,0:0:0:0:
248,258,28688,5,0,0:0:0:0:
248,258,28763,5,8,0:0:0:0:
248,258,28838,5,8,0:0:0:0:
248,258,28913,5,0,0:0:0:0:
248,258,28988,5,0,0:0:0:0:
248,258,29063,5,0,0:0:0:0:
248,258,29138,5,0,0:0:0:0:
248,258,29213,5,8,0:0:0:0:
248,258,29363,5,8,0:0:0:0:
248,258,29663,5,12,0:0:0:0:
248,258,29813,5,0,0:0:0:0:
248,258,29963,5,8,0:0:0:0:
248,258,30263,5,8,0:0:0:0:
248,258,30413,5,0,0:0:0:0:
248,258,30713,5,0,0:0:0:0:
248,258,30863,5,8,0:0:0:0:
248,258,31163,5,0,0:0:0:0:
248,258,31313,5,0,0:0:0:0:
248,258,31463,5,8,0:0:0:0:
248,258,31613,5,8,0:0:0:0:
248,258,31763,5,0,0:0:0:0:
248,258,32063,5,0,0:0:0:0:
248,258,32213,5,8,0:0:0:0:
248,258,32363,5,0,0:0:0:0:
248,258,32663,5,8,0:0:0:0:
248,258,32813,5,0,0:0:0:0:
248,258,33113,5,0,0:0:0:0:
248,258,33263,5,8,0:0:0:0:
248,258,33563,5,0,0:0:0:0:
248,258,33713,5,0,0:0:0:0:
248,258,33863,5,8,0:0:0:0:
248,258,34013,5,8,0:0:0:0:
248,258,34163,5,0,0:0:0:0:
248,258,34313,5,0,0:0:0:0:
248,258,34463,5,8,0:0:0:0:
248,258,34613,5,8,0:0:0:0:
248,258,34763,5,0,0:0:0:0:
248,258,34913,5,8,0:0:0:0:
248,258,35063,5,0,0:0:0:0:
248,258,35213,5,0,0:0:0:0:
248,258,35363,5,8,0:0:0:0:
248,258,35513,5,8,0:0:0:0:
248,258,35663,5,0,0:0:0:0:
248,258,35813,5,8,0:0:0:0:
248,258,35963,5,8,0:0:0:0:
248,258,36113,5,8,0:0:0:0:
248,258,36263,5,0,0:0:0:0:
248,258,36413,5,8,0:0:0:0:
248,258,36563,5,8,0:0:0:0:
248,258,36713,5,0,0:0:0:0:
248,258,36863,5,8,0:0:0:0:
248,258,37013,5,8,0:0:0:0:
248,258,37163,5,8,0:0:0:0:
248,258,37313,5,0,0:0:0:0:
248,258,37463,5,8,0:0:0:0:
248,258,37613,5,0,0:0:0:0:
248,258,37763,5,8,0:0:0:0:
248,258,37913,5,8,0:0:0:0:
248,258,38213,5,0,0:0:0:0:
248,258,38363,5,0,0:0:0:0:
248,258,38513,5,0,0:0:0:0:
248,258,38663,5,8,0:0:0:0:
248,258,38813,5,8,0:0:0:0:
248,258,38963,5,0,0:0:0:0:
248,258,39263,5,8,0:0:0:0:
248,258,39563,5,8,0:0:0:0:
248,258,39713,5,8,0:0:0:0:
248,258,39863,5,0,0:0:0:0:
248,258,40163,5,8,0:0:0:0:
248,258,40463,5,8,0:0:0:0:
248,258,40763,5,0,0:0:0:0:
248,258,41063,5,8,0:0:0:0:
248,258,41213,5,0,0:0:0:0:
248,258,41363,5,8,0:0:0:0:
248,258,41663,5,8,0:0:0:0:
248,258,41963,5,0,0:0:0:0:
248,258,42113,5,8,0:0:0:0:
248,258,42263,5,0,0:0:0:0:
248,258,42563,5,0,0:0:0:0:
248,258,42863,5,8,0:0:0:0:
248,258,43163,5,8,0:0:0:0:
248,258,43463,5,0,0:0:0:0:
248,258,44063,5,8,0:0:0:0:
248,258,44363,5,8,0:0:0:0:
248,258,44513,5,8,0:0:0:0:
248,258,44663,5,0,0:0:0:0:
248,258,44963,5,0,0:0:0:0:
248,258,45263,5,8,0:0:0:0:
248,258,45563,5,0,0:0:0:0:
248,258,45863,5,8,0:0:0:0:
248,258,46013,5,0,0:0:0:0:
248,258,46163,5,8,0:0:0:0:
248,258,46463,5,8,0:0:0:0:
248,258,46613,5,8,0:0:0:0:
248,258,46763,5,0,0:0:0:0:
248,258,46913,5,0,0:0:0:0:
248,258,47063,5,8,0:0:0:0:
248,258,47363,5,0,0:0:0:0:
248,258,47963,5,8,0:0:0:0:
248,258,48263,5,0,0:0:0:0:
248,258,48863,5,8,0:0:0:0:
248,258,49163,5,0,0:0:0:0:
248,258,49313,5,0,0:0:0:0:
248,258,49463,5,8,0:0:0:0:
248,258,49763,5,0,0:0:0:0:
248,258,49913,5,8,0:0:0:0:
248,258,50063,5,0,0:0:0:0:
248,258,50363,5,8,0:0:0:0:
248,258,50513,5,0,0:0:0:0:
248,258,50663,5,8,0:0:0:0:
248,258,50963,5,8,0:0:0:0:
248,258,51263,5,0,0:0:0:0:
248,258,51563,5,8,0:0:0:0:
248,258,51713,5,0,0:0:0:0:
248,258,51863,5,8,0:0:0:0:
248,258,52163,5,0,0:0:0:0:
248,258,52313,5,8,0:0:0:0:
248,258,52463,5,0,0:0:0:0:
248,258,52763,5,8,0:0:0:0:
248,258,52913,5,0,0:0:0:0:
248,258,53063,5,8,0:0:0:0:
248,258,53213,5,8,0:0:0:0:
248,258,53363,5,0,0:0:0:0:
248,258,53663,5,8,0:0:0:0:
248,258,53963,5,0,0:0:0:0:
248,258,54113,5,0,0:0:0:0:
248,258,54263,5,8,0:0:0:0:
248,258,54563,5,0,0:0:0:0:
248,258,54863,5,8,0:0:0:0:
248,258,55163,5,8,0:0:0:0:
248,258,55463,5,8,0:0:0:0:
248,258,55763,5,0,0:0:0:0:
248,258,55913,5,8,0:0:0:0:
248,258,56063,5,0,0:0:0:0:
248,258,56363,5,8,0:0:0:0:
248,258,56513,5,0,0:0:0:0:
248,258,56663,5,8,0:0:0:0:
248,258,56963,5,0,0:0:0:0:
248,258,57563,5,8,0:0:0:0:
248,258,57863,5,8,0:0:0:0:
248,258,58463,5,8,0:0:0:0:
248,258,58763,5,0,0:0:0:0:
248,258,58913,5,0,0:0:0:0:
248,258,59063,5,8,0:0:0:0:
248,258,59363,5,8,0:0:0:0:
248,258,59513,5,0,0:0:0:0:
248,258,59663,5,8,0:0:0:0:
248,258,59963,5,0,0:0:0:0:
248,258,60263,5,8,0:0:0:0:
248,258,60863,5,0,0:0:0:0:
248,258,61163,5,8,0:0:0:0:
248,258,61313,5,8,0:0:0:0:
248,258,61463,5,0,0:0:0:0:
248,258,61763,5,0,0:0:0:0:
248,258,61913,5,8,0:0:0:0:
248,258,62063,5,0,0:0:0:0:
248,258,62363,5,0,0:0:0:0:
248,258,62663,5,8,0:0:0:0:
248,258,63263,5,8,0:0:0:0:
248,258,63413,5,0,0:0:0:0:
248,258,63563,5,8,0:0:0:0:
248,258,63713,5,8,0:0:0:0:
248,258,63863,5,0,0:0:0:0:
248,258,64163,5,0,0:0:0:0:
248,258,64463,5,8,0:0:0:0:
248,258,64763,5,0,0:0:0:0:
248,258,65063,5,8,0:0:0:0:
248,258,65363,5,0,0:0:0:0:
248,258,65513,5,8,0:0:0:0:
248,258,65663,5,0,0:0:0:0:
248,258,65963,5,0,0:0:0:0:
248,258,66113,5,8,0:0:0:0:
248,258,66413,5,0,0:0:0:0:
248,258,66563,5,8,0:0:0:0:
248,258,66863,5,0,0:0:0:0:
248,258,67163,5,8,0:0:0:0:
248,258,67313,5,0,0:0:0:0:
248,258,67463,5,8,0:0:0:0:
248,258,67763,5,8,0:0:0:0:
248,258,67913,5,8,0:0:0:0:
248,258,68063,5,0,0:0:0:0:
248,258,68363,5,8,0:0:0:0:
248,258,68513,5,0,0:0:0:0:
248,258,68663,5,0,0:0:0:0:
248,258,68963,5,8,0:0:0:0:
248,258,69038,5,8,0:0:0:0:
248,258,69113,5,8,0:0:0:0:
248,258,69188,5,0,0:0:0:0:
248,258,69263,5,0,0:0:0:0:
248,258,69413,5,8,0:0:0:0:
248,258,69563,5,8,0:0:0:0:
248,258,69713,5,0,0:0:0:0:
248,258,69863,5,8,0:0:0:0:
248,258,70463,5,4,0:0:0:0:
248,258,70763,5,4,0:0:0:0:
248,258,71063,5,4,0:0:0:0:
248,258,71363,5,4,0:0:0:0:
248,258,71663,5,4,0:0:0:0:
248,258,71963,5,4,0:0:0:0:
248,258,72263,5,4,0:0:0:0:
248,258,72563,5,4,0:0:0:0:
248,258,72863,5,8,0:0:0:0:
248,258,73013,5,0,0:0:0:0:
248,258,73163,5,0,0:0:0:0:
248,258,73313,5,8,0:0:0:0:
248,258,73388,5,8,0:0:0:0:
248,258,73463,5,0,0:0:0:0:
248,258,73538,5,0,0:0:0:0:
248,258,73613,5,8,0:0:0:0:
248,258,73688,5,0,0:0:0:0:
248,258,73763,5,0,0:0:0:0:
248,258,73838,5,0,0:0:0:0:
248,258,73913,5,8,0:0:0:0:
248,258,73988,5,8,0:0:0:0:
248,258,74063,5,0,0:0:0:0:
248,258,74138,5,0,0:0:0:0:
248,258,74213,5,8,0:0:0:0:
248,258,74288,5,8,0:0:0:0:
248,258,74363,5,0,0:0:0:0:
248,258,74438,5,0,0:0:0:0:
248,258,74513,5,0,0:0:0:0:
248,258,74588,5,0,0:0:0:0:
248,258,74663,5,8,0:0:0:0:
248,258,74813,5,8,0:0:0:0:
248,258,74963,5,8,0:0:0:0:
248,258,75113,5,0,0:0:0:0:
248,258,75263,5,8,0:0:0:0:
248,258,75413,5,0,0:0:0:0:
248,258,75563,5,8,0:0:0:0:
248,258,75713,5,0,0:0:0:0:
248,258,75863,5,8,0:0:0:0:
248,258,76013,5,0,0:0:0:0:
248,258,76163,5,8,0:0:0:0:
248,258,76313,5,0,0:0:0:0:
248,258,76463,5,12,0:0:0:0:
248,258,76613,5,0,0:0:0:0:
248,258,76763,5,0,0:0:0:0:
248,258,76913,5,12,0:0:0:0:
248,258,77063,5,0,0:0:0:0:
248,258,77213,5,0,0:0:0:0:
248,258,77363,5,12,0:0:0:0:
248,258,77513,5,0,0:0:0:0:
248,258,77663,5,0,0:0:0:0:
248,258,77813,5,8,0:0:0:0:
248,258,77888,5,8,0:0:0:0:
248,258,77963,5,0,0:0:0:0:
248,258,78113,5,8,0:0:0:0:
248,258,78188,5,8,0:0:0:0:
248,258,78263,5,0,0:0:0:0:
248,258,78413,5,8,0:0:0:0:
248,258,78488,5,8,0:0:0:0:
248,258,78563,5,8,0:0:0:0:
248,258,78638,5,0,0:0:0:0:
248,258,78713,5,0,0:0:0:0:
248,258,78788,5,0,0:0:0:0:
248,258,78863,5,8,0:0:0:0:
248,258,78938,5,0,0:0:0:0:
248,258,79013,5,0,0:0:0:0:
248,258,79088,5,0,0:0:0:0:
248,258,79163,5,8,0:0:0:0:
248,258,79313,5,0,0:0:0:0:
248,258,79463,5,8,0:0:0:0:
248,258,79613,5,0,0:0:0:0:
248,258,79688,5,0,0:0:0:0:
248,258,79763,5,8,0:0:0:0:
248,258,79838,5,8,0:0:0:0:
248,258,79913,5,0,0:0:0:0:
248,258,79988,5,0,0:0:0:0:
248,258,80063,5,12,0:0:0:0:
248,258,80213,5,0,0:0:0:0:
248,258,80363,5,0,0:0:0:0:
248,258,80513,5,8,0:0:0:0:
248,258,80588,5,0,0:0:0:0:
248,258,80663,5,0,0:0:0:0:
248,258,80813,5,0,0:0:0:0:
248,258,80963,5,8,0:0:0:0:
248,258,81113,5,8,0:0:0:0:
248,258,81188,5,8,0:0:0:0:
248,258,81263,5,0,0:0:0:0:
248,258,81338,1,0,0:0:0:0:
248,258,81413,5,0,0:0:0:0:
248,258,81563,5,8,0:0:0:0:
248,258,81713,5,8,0:0:0:0:
248,258,81863,5,8,0:0:0:0:
248,258,81938,1,8,0:0:0:0:
248,258,82013,5,0,0:0:0:0:
248,258,82163,5,8,0:0:0:0:
248,258,82463,5,8,0:0:0:0:
248,258,82538,1,0,0:0:0:0:
248,258,82613,5,8,0:0:0:0:
248,258,82763,5,0,0:0:0:0:
248,258,82913,5,8,0:0:0:0:
248,258,82988,5,8,0:0:0:0:
248,258,83063,5,0,0:0:0:0:
248,258,83213,5,8,0:0:0:0:
248,258,83363,5,0,0:0:0:0:
248,258,83513,5,8,0:0:0:0:
248,258,83588,1,0,0:0:0:0:
248,258,83663,5,8,0:0:0:0:
248,258,83738,5,0,0:0:0:0:
248,258,83813,5,0,0:0:0:0:
248,258,83963,5,8,0:0:0:0:
248,258,84113,5,8,0:0:0:0:
248,258,84263,5,8,0:0:0:0:
248,258,84338,1,0,0:0:0:0:
248,258,84413,5,0,0:0:0:0:
248,258,84563,5,8,0:0:0:0:
248,258,84638,5,8,0:0:0:0:
248,258,84713,5,8,0:0:0:0:
248,258,84788,5,8,0:0:0:0:
248,258,84863,5,4,0:0:0:0:
248,258,85163,5,0,0:0:0:0:
248,258,85313,5,8,0:0:0:0:
248,258,85463,5,8,0:0:0:0:
248,258,85538,5,0,0:0:0:0:
248,258,85613,5,0,0:0:0:0:
248,258,85763,5,8,0:0:0:0:
248,258,85913,5,0,0:0:0:0:
248,258,86063,5,8,0:0:0:0:
248,258,86138,5,8,0:0:0:0:
248,258,86213,5,0,0:0:0:0:
248,258,86363,5,0,0:0:0:0:
248,258,86513,5,8,0:0:0:0:
248,258,86663,5,8,0:0:0:0:
248,258,86738,5,8,0:0:0:0:
248,258,86813,5,0,0:0:0:0:
248,258,86888,5,0,0:0:0:0:
248,258,86963,5,8,0:0:0:0:
248,258,87113,5,0,0:0:0:0:
248,258,87263,5,8,0:0:0:0:
248,258,87413,5,0,0:0:0:0:
248,258,87563,5,0,0:0:0:0:
248,258,87713,5,8,0:0:0:0:
248,258,87863,5,0,0:0:0:0:
248,258,88013,5,8,0:0:0:0:
248,258,88088,5,8,0:0:0:0:
248,258,88163,5,0,0:0:0:0:
248,258,88238,5,0,0:0:0:0:
248,258,88313,5,8,0:0:0:0:
248,258,88388,5,8,0:0:0:0:
248,258,88463,5,0,0:0:0:0:
248,258,88613,5,0,0:0:0:0:
248,258,88913,5,0,0:0:0:0:
248,258,89213,5,0,0:0:0:0:
248,258,89288,5,0,0:0:0:0:
248,258,89363,5,8,0:0:0:0:
248,258,89663,5,12,0:0:0:0:
248,258,89813,5,0,0:0:0:0:
248,258,89888,5,0,0:0:0:0:
248,258,89963,5,8,0:0:0:0:
248,258,90113,5,0,0:0:0:0:
248,258,90263,5,0,0:0:0:0:
248,258,90413,5,8,0:0:0:0:
248,258,90488,5,0,0:0:0:0:
248,258,90563,5,8,0:0:0:0:
248,258,90638,5,0,0:0:0:0:
248,258,90713,5,0,0:0:0:0:
248,258,90788,5,0,0:0:0:0:
248,258,90863,5,8,0:0:0:0:
248,258,91013,5,8,0:0:0:0:
248,258,91163,5,8,0:0:0:0:
248,258,91238,5,0,0:0:0:0:
248,258,91313,5,0,0:0:0:0:
248,258,91463,5,8,0:0:0:0:
248,258,91538,5,8,0:0:0:0:
248,258,91613,5,0,0:0:0:0:
248,258,91763,5,8,0:0:0:0:
248,258,92063,5,8,0:0:0:0:
248,258,92213,5,0,0:0:0:0:
248,258,92288,5,8,0:0:0:0:
248,258,92363,5,0,0:0:0:0:
248,258,92513,5,8,0:0:0:0:
248,258,92663,5,0,0:0:0:0:
248,258,92813,5,8,0:0:0:0:
248,258,92888,5,0,0:0:0:0:
248,258,92963,5,8,0:0:0:0:
248,258,93038,5,8,0:0:0:0:
248,258,93113,5,0,0:0:0:0:
248,258,93263,5,8,0:0:0:0:
248,258,93413,5,8,0:0:0:0:
248,258,93563,5,8,0:0:0:0:
248,258,93713,5,0,0:0:0:0:
248,258,93863,5,8,0:0:0:0:
248,258,93938,5,8,0:0:0:0:
248,258,94013,5,0,0:0:0:0:
248,258,94163,5,8,0:0:0:0:
248,258,94238,5,8,0:0:0:0:
248,258,94313,5,8,0:0:0:0:
248,258,94388,5,8,0:0:0:0:
248,258,94463,5,0,0:0:0:0:
248,258,94538,5,0,0:0:0:0:
248,258,94613,5,8,0:0:0:0:
248,258,94688,5,0,0:0:0:0:
248,258,94763,5,8,0:0:0:0:
248,258,94913,5,8,0:0:0:0:
248,258,95063,5,0,0:0:0:0:
248,258,95213,5,8,0:0:0:0:
248,258,95288,5,0,0:0:0:0:
248,258,95363,5,8,0:0:0:0:
248,258,95438,5,0,0:0:0:0:
248,258,95513,5,0,0:0:0:0:
248,258,95663,5,8,0:0:0:0:
248,258,95813,5,8,0:0:0:0:
248,258,95963,5,8,0:0:0:0:
248,258,96038,5,8,0:0:0:0:
248,258,96113,5,0,0:0:0:0:
248,258,96263,5,8,0:0:0:0:
248,258,96338,5,0,0:0:0:0:
248,258,96413,5,0,0:0:0:0:
248,258,96563,5,8,0:0:0:0:
248,258,96863,5,8,0:0:0:0:
248,258,97013,5,0,0:0:0:0:
248,258,97088,5,8,0:0:0:0:
248,258,97163,5,0,0:0:0:0:
248,258,97313,5,8,0:0:0:0:
248,258,97463,5,0,0:0:0:0:
248,258,97613,5,8,0:0:0:0:
248,258,97763,5,8,0:0:0:0:
248,258,97838,5,8,0:0:0:0:
248,258,97913,5,8,0:0:0:0:
248,258,97988,5,8,0:0:0:0:
248,258,98063,5,0,0:0:0:0:
248,258,98138,5,0,0:0:0:0:
248,258,98213,5,0,0:0:0:0:
248,258,98288,5,0,0:0:0:0:
248,258,98363,5,8,0:0:0:0:
248,258,98513,5,0,0:0:0:0:
248,258,98663,5,8,0:0:0:0:
248,258,98738,5,8,0:0:0:0:
248,258,98813,5,0,0:0:0:0:
248,258,98963,5,8,0:0:0:0:
248,258,99038,5,0,0:0:0:0:
248,258,99113,5,0,0:0:0:0:
248,258,99263,5,12,0:0:0:0:
248,258,99413,5,8,0:0:0:0:
248,258,99488,5,8,0:0:0:0:
248,258,99563,5,0,0:0:0:0:
248,258,99713,5,8,0:0:0:0:
248,258,99863,5,0,0:0:0:0:
248,258,100013,5,8,0:0:0:0:
248,258,100088,5,8,0:0:0:0:
248,258,100163,5,8,0:0:0:0:
248,258,100238,5,0,0:0:0:0:
248,258,100313,5,8,0:0:0:0:
248,258,100463,5,0,0:0:0:0:
248,258,100613,5,0,0:0:0:0:
248,258,100763,5,8,0:0:0:0:
248,258,100913,5,0,0:0:0:0:
248,258,101063,5,8,0:0:0:0:
248,258,101138,5,0,0:0:0:0:
248,258,101213,5,0,0:0:0:0:
248,258,101363,5,8,0:0:0:0:
248,258,101663,5,8,0:0:0:0:
248,258,101813,5,0,0:0:0:0:
248,258,101888,5,0,0:0:0:0:
248,258,101963,5,8,0:0:0:0:
248,258,102113,5,8,0:0:0:0:
248,258,102188,5,0,0:0:0:0:
248,258,102263,5,0,0:0:0:0:
248,258,102413,5,0,0:0:0:0:
248,258,102563,5,8,0:0:0:0:
248,258,102713,5,8,0:0:0:0:
248,258,102788,5,8,0:0:0:0:
248,258,102863,5,0,0:0:0:0:
248,258,102938,5,8,0:0:0:0:
248,258,103013,5,0,0:0:0:0:
248,258,103163,5,8,0:0:0:0:
248,258,103313,5,0,0:0:0:0:
248,258,103463,5,8,0:0:0:0:
248,258,103538,5,0,0:0:0:0:
248,258,103613,5,0,0:0:0:0:
248,258,103688,5,0,0:0:0:0:
248,258,103763,5,8,0:0:0:0:
248,258,103838,5,0,0:0:0:0:
248,258,103913,5,0,0:0:0:0:
248,258,103988,5,0,0:0:0:0:
248,258,104063,5,8,0:0:0:0:
248,258,104213,5,0,0:0:0:0:
248,258,104363,5,8,0:0:0:0:
248,258,104513,5,0,0:0:0:0:
248,258,104663,5,8,0:0:0:0:
248,258,104738,5,0,0:0:0:0:
248,258,104813,5,0,0:0:0:0:
248,258,104963,5,8,0:0:0:0:
248,258,105113,5,0,0:0:0:0:
248,258,105263,5,8,0:0:0:0:
248,258,105338,5,8,0:0:0:0:
248,258,105413,5,0,0:0:0:0:
248,258,105563,5,8,0:0:0:0:
248,258,105713,5,0,0:0:0:0:
248,258,105863,5,8,0:0:0:0:
248,258,105938,5,8,0:0:0:0:
248,258,106013,5,8,0:0:0:0:
248,258,106088,5,0,0:0:0:0:
248,258,106163,5,12,0:0:0:0:
248,258,106313,5,0,0:0:0:0:
248,258,106463,5,12,0:0:0:0:
248,258,106613,5,0,0:0:0:0:
248,258,106763,5,12,0:0:0:0:
248,258,106913,5,0,0:0:0:0:
248,258,107063,5,0,0:0:0:0:
248,258,107213,5,8,0:0:0:0:
248,258,107288,5,0,0:0:0:0:
248,258,107363,5,8,0:0:0:0:
248,258,107513,5,8,0:0:0:0:
248,258,107663,5,8,0:0:0:0:
248,258,107738,5,8,0:0:0:0:
248,258,107813,5,0,0:0:0:0:
248,258,107888,5,0,0:0:0:0:
248,258,107963,5,0,0:0:0:0:
248,258,108038,5,0,0:0:0:0:
248,258,108113,5,0,0:0:0:0:
248,258,108188,5,0,0:0:0:0:
248,258,108263,5,8,0:0:0:0:
248,258,108413,5,0,0:0:0:0:
248,258,108713,5,0,0:0:0:0:
248,258,108863,5,12,0:0:0:0:
248,258,109013,5,0,0:0:0:0:
248,258,109163,5,8,0:0:0:0:
248,258,109463,5,8,0:0:0:0:
248,258,109613,5,0,0:0:0:0:
248,258,109913,5,0,0:0:0:0:
248,258,110063,5,8,0:0:0:0:
248,258,110363,5,0,0:0:0:0:
248,258,110513,5,8,0:0:0:0:
248,258,110813,5,0,0:0:0:0:
248,258,110963,5,8,0:0:0:0:
248,258,111113,5,8,0:0:0:0:
248,258,111263,5,0,0:0:0:0:
248,258,111413,5,0,0:0:0:0:
248,258,111563,5,8,0:0:0:0:
248,258,111863,5,8,0:0:0:0:
248,258,112013,5,0,0:0:0:0:
248,258,112313,5,0,0:0:0:0:
248,258,112463,5,8,0:0:0:0:
248,258,112763,5,0,0:0:0:0:
248,258,112913,5,8,0:0:0:0:
248,258,113213,5,8,0:0:0:0:
248,258,113363,5,0,0:0:0:0:
248,258,113513,5,0,0:0:0:0:
248,258,113663,5,8,0:0:0:0:
248,258,113813,5,8,0:0:0:0:
248,258,113963,5,0,0:0:0:0:
248,258,114113,5,8,0:0:0:0:
248,258,114263,5,0,0:0:0:0:
248,258,114413,5,0,0:0:0:0:
248,258,114563,5,8,0:0:0:0:
248,258,114713,5,8,0:0:0:0:
248,258,114863,5,0,0:0:0:0:
248,258,115013,5,8,0:0:0:0:
248,258,115163,5,8,0:0:0:0:
248,258,115313,5,8,0:0:0:0:
248,258,115463,5,0,0:0:0:0:
248,258,115613,5,8,0:0:0:0:
248,258,115763,5,0,0:0:0:0:
248,258,115913,5,8,0:0:0:0:
248,258,116063,5,0,0:0:0:0:
248,258,116213,5,0,0:0:0:0:
248,258,116363,5,0,0:0:0:0:
248,258,116513,5,0,0:0:0:0:
248,258,116813,5,0,0:0:0:0:
248,258,116963,5,0,0:0:0:0:
248,258,117113,5,0,0:0:0:0:
248,258,117263,5,8,0:0:0:0:
248,258,117338,5,8,0:0:0:0:
248,258,117413,5,0,0:0:0:0:
248,258,117488,5,0,0:0:0:0:
248,258,117563,5,8,0:0:0:0:
248,258,117638,5,8,0:0:0:0:
248,258,117713,5,0,0:0:0:0:
248,258,117788,5,0,0:0:0:0:
248,258,117863,5,0,0:0:0:0:
248,258,117938,5,0,0:0:0:0:
248,258,118013,5,8,0:0:0:0:
248,258,118163,5,8,0:0:0:0:
248,258,118463,5,12,0:0:0:0:
248,258,118613,5,0,0:0:0:0:
248,258,118763,5,8,0:0:0:0:
248,258,119063,5,8,0:0:0:0:
248,258,119213,5,0,0:0:0:0:
248,258,119513,5,0,0:0:0:0:
248,258,119663,5,8,0:0:0:0:
248,258,119963,5,0,0:0:0:0:
248,258,120113,5,0,0:0:0:0:
248,258,120263,5,8,0:0:0:0:
248,258,120413,5,0,0:0:0:0:
248,258,120563,5,8,0:0:0:0:
248,258,120713,5,0,0:0:0:0:
248,258,120863,5,8,0:0:0:0:
248,258,121013,5,8,0:0:0:0:
248,258,121163,5,0,0:0:0:0:
248,258,121463,5,8,0:0:0:0:
248,258,121613,5,0,0:0:0:0:
248,258,121913,5,0,0:0:0:0:
248,258,122063,5,8,0:0:0:0:
248,258,122363,5,8,0:0:0:0:
248,258,122513,5,0,0:0:0:0:
248,258,122663,5,8,0:0:0:0:
248,258,122813,5,8,0:0:0:0:
248,258,122963,5,0,0:0:0:0:
248,258,123113,5,0,0:0:0:0:
248,258,123263,5,8,0:0:0:0:
248,258,123413,5,8,0:0:0:0:
248,258,123563,5,0,0:0:0:0:
248,258,123713,5,8,0:0:0:0:
248,258,123863,5,0,0:0:0:0:
248,258,124013,5,0,0:0:0:0:
248,258,124163,5,8,0:0:0:0:
248,258,124313,5,8,0:0:0:0:
248,258,124463,5,0,0:0:0:0:
248,258,124613,5,8,0:0:0:0:
248,258,124763,5,8,0:0:0:0:
248,258,124913,5,8,0:0:0:0:
248,258,125063,5,0,0:0:0:0:
248,258,125213,5,8,0:0:0:0:
248,258,125363,5,8,0:0:0:0:
248,258,125513,5,0,0:0:0:0:
248,258,125663,5,8,0:0:0:0:
248,258,125813,5,8,0:0:0:0:
248,258,125963,5,8,0:0:0:0:
248,258,126113,5,0,0:0:0:0:
248,258,126263,5,8,0:0:0:0:
248,258,126413,5,0,0:0:0:0:
248,258,126563,5,8,0:0:0:0:
248,258,126713,5,8,0:0:0:0:
248,258,127013,5,0,0:0:0:0:
248,258,127163,5,0,0:0:0:0:
248,258,127313,5,0,0:0:0:0:
248,258,127463,5,8,0:0:0:0:
248,258,127613,5,8,0:0:0:0:
248,258,127763,5,0,0:0:0:0:
248,258,128063,5,8,0:0:0:0:
248,258,128363,5,8,0:0:0:0:
248,258,128513,5,0,0:0:0:0:
248,258,128663,5,8,0:0:0:0:
248,258,128963,5,0,0:0:0:0:
248,258,129263,5,8,0:0:0:0:
248,258,129563,5,8,0:0:0:0:
248,258,129863,5,8,0:0:0:0:
248,258,130013,5,8,0:0:0:0:
248,258,130163,5,0,0:0:0:0:
248,258,130313,5,0,0:0:0:0:
248,258,130463,5,8,0:0:0:0:
248,258,130763,5,0,0:0:0:0:
248,258,130913,5,8,0:0:0:0:
248,258,131063,5,0,0:0:0:0:
248,258,131363,5,8,0:0:0:0:
248,258,131513,5,0,0:0:0:0:
248,258,131663,5,8,0:0:0:0:
248,258,131963,5,8,0:0:0:0:
248,258,132263,5,0,0:0:0:0:
248,258,132863,5,8,0:0:0:0:
248,258,133163,5,0,0:0:0:0:
248,258,133313,5,8,0:0:0:0:
248,258,133463,5,0,0:0:0:0:
248,258,133763,5,8,0:0:0:0:
248,258,134063,5,0,0:0:0:0:
248,258,134363,5,8,0:0:0:0:
248,258,134663,5,8,0:0:0:0:
248,258,134813,5,8,0:0:0:0:
248,258,134963,5,0,0:0:0:0:
248,258,135113,5,0,0:0:0:0:
248,258,135263,5,8,0:0:0:0:
248,258,135563,5,0,0:0:0:0:
248,258,135713,5,8,0:0:0:0:
248,258,135863,5,8,0:0:0:0:
248,258,136163,5,0,0:0:0:0:
248,258,136763,5,8,0:0:0:0:
248,258,137063,5,0,0:0:0:0:
248,258,137663,5,8,0:0:0:0:
248,258,137963,5,8,0:0:0:0:
248,258,138113,5,0,0:0:0:0:
248,258,138263,5,8,0:0:0:0:
248,258,138563,5,0,0:0:0:0:
248,258,138713,5,8,0:0:0:0:
248,258,138863,5,0,0:0:0:0:
248,258,139163,5,8,0:0:0:0:
248,258,139313,5,0,0:0:0:0:
248,258,139463,5,8,0:0:0:0:
248,258,139763,5,0,0:0:0:0:
248,258,140063,5,8,0:0:0:0:
248,258,140363,5,8,0:0:0:0:
248,258,140513,5,8,0:0:0:0:
248,258,140663,5,0,0:0:0:0:
248,258,140963,5,8,0:0:0:0:
248,258,141263,5,0,0:0:0:0:
248,258,141563,5,0,0:0:0:0:
248,258,141713,5,8,0:0:0:0:
248,258,141863,5,8,0:0:0:0:
248,258,142013,5,0,0:0:0:0:
248,258,142163,5,8,0:0:0:0:
248,258,142463,5,8,0:0:0:0:
248,258,142763,5,0,0:0:0:0:
248,258,142913,5,0,0:0:0:0:
248,258,143063,5,8,0:0:0:0:
248,258,143363,5,8,0:0:0:0:
248,258,143663,5,0,0:0:0:0:
248,258,143963,5,8,0:0:0:0:
248,258,144263,5,8,0:0:0:0:
248,258,144413,5,8,0:0:0:0:
248,258,144563,5,0,0:0:0:0:
248,258,144713,5,0,0:0:0:0:
248,258,144863,5,8,0:0:0:0:
248,258,145013,5,0,0:0:0:0:
248,258,145163,5,0,0:0:0:0:
248,258,145313,5,8,0:0:0:0:
248,258,145463,5,0,0:0:0:0:
248,258,145763,5,8,0:0:0:0:
248,258,146363,5,0,0:0:0:0:
248,258,146663,5,8,0:0:0:0:
248,258,147263,5,8,0:0:0:0:
248,258,147413,5,8,0:0:0:0:
248,258,147563,5,0,0:0:0:0:
248,258,147713,5,0,0:0:0:0:
248,258,147863,5,8,0:0:0:0:
248,258,148163,5,0,0:0:0:0:
248,258,148463,5,8,0:0:0:0:
248,258,148763,5,0,0:0:0:0:
248,258,148913,5,0,0:0:0:0:
248,258,149063,5,8,0:0:0:0:
248,258,149663,5,0,0:0:0:0:
248,258,149813,5,0,0:0:0:0:
248,258,149963,5,8,0:0:0:0:
248,258,150113,5,8,0:0:0:0:
248,258,150263,5,0,0:0:0:0:
248,258,150563,5,8,0:0:0:0:
248,258,150863,5,0,0:0:0:0:
248,258,151013,5,8,0:0:0:0:
248,258,151163,5,0,0:0:0:0:
248,258,151463,5,8,0:0:0:0:
248,258,152063,5,8,0:0:0:0:
248,258,152213,5,0,0:0:0:0:
248,258,152363,5,8,0:0:0:0:
248,258,152513,5,8,0:0:0:0:
248,258,152663,5,0,0:0:0:0:
248,258,152963,5,0,0:0:0:0:
248,258,153263,5,8,0:0:0:0:
248,258,153563,5,0,0:0:0:0:
248,258,153863,5,8,0:0:0:0:
248,258,154163,5,0,0:0:0:0:
248,258,154313,5,8,0:0:0:0:
248,258,154463,5,0,0:0:0:0:
248,258,154763,5,0,0:0:0:0:
248,258,154913,5,8,0:0:0:0:
248,258,155213,5,0,0:0:0:0:
248,258,155363,5,8,0:0:0:0:
248,258,155663,5,0,0:0:0:0:
248,258,155963,5,8,0:0:0:0:
248,258,156113,5,0,0:0:0:0:
248,258,156263,5,8,0:0:0:0:
248,258,156563,5,8,0:0:0:0:
248,258,156713,5,8,0:0:0:0:
248,258,156863,5,0,0:0:0:0:
248,258,157163,5,8,0:0:0:0:
248,258,157313,5,0,0:0:0:0:
248,258,157463,5,0,0:0:0:0:
248,258,157763,5,8,0:0:0:0:
248,258,157838,5,8,0:0:0:0:
248,258,157913,5,8,0:0:0:0:
248,258,157988,5,0,0:0:0:0:
248,258,158063,5,0,0:0:0:0:
248,258,158213,5,8,0:0:0:0:
248,258,158363,5,8,0:0:0:0:
248,258,158513,5,0,0:0:0:0:
248,258,158663,5,8,0:0:0:0:
248,258,159263,5,4,0:0:0:0:
248,258,159563,5,4,0:0:0:0:
248,258,159863,5,4,0:0:0:0:
248,258,160163,5,4,0:0:0:0:
248,258,160463,5,4,0:0:0:0:
248,258,160763,5,4,0:0:0:0:
248,258,161063,5,4,0:0:0:0:
248,258,161363,5,4,0:0:0:0:
248,258,161663,5,8,0:0:0:0:
248,258,161813,5,0,0:0:0:0:
248,258,161963,5,0,0:0:0:0:
248,258,162113,5,8,0:0:0:0:
248,258,162188,5,8,0:0:0:0:
248,258,162263,5,0,0:0:0:0:
248,258,162338,5,0,0:0:0:0:
248,258,162413,5,8,0:0:0:0:
248,258,162488,5,0,0:0:0:0:
248,258,162563,5,0,0:0:0:0:
248,258,162638,5,0,0:0:0:0:
248,258,162713,5,8,0:0:0:0:
248,258,162788,5,0,0:0:0:0:
248,258,162863,5,8,0:0:0:0:
248,258,162938,5,0,0:0:0:0:
248,258,163013,5,8,0:0:0:0:
248,258,163088,5,8,0:0:0:0:
248,258,163163,5,0,0:0:0:0:
248,258,163238,5,0,0:0:0:0:
248,258,163313,5,8,0:0:0:0:
248,258,163388,5,0,0:0:0:0:
248,258,163463,5,8,0:0:0:0:
248,258,163613,5,8,0:0:0:0:
248,258,163763,5,8,0:0:0:0:
248,258,163913,5,0,0:0:0:0:
248,258,164063,5,8,0:0:0:0:
248,258,164213,5,0,0:0:0:0:
248,258,164363,5,8,0:0:0:0:
248,258,164513,5,0,0:0:0:0:
248,258,164663,5,8,0:0:0:0:
248,258,164813,5,0,0:0:0:0:
248,258,164963,5,8,0:0:0:0:
248,258,165113,5,0,0:0:0:0:
248,258,165263,5,12,0:0:0:0:
248,258,165413,5,0,0:0:0:0:
248,258,165563,5,0,0:0:0:0:
248,258,165713,5,12,0:0:0:0:
248,258,165863,5,0,0:0:0:0:
248,258,166013,5,0,0:0:0:0:
248,258,166163,5,12,0:0:0:0:
248,258,166313,5,0,0:0:0:0:
248,258,166463,5,0,0:0:0:0:
248,258,166613,5,8,0:0:0:0:
248,258,166688,5,8,0:0:0:0:
248,258,166763,5,0,0:0:0:0:
248,258,166913,5,8,0:0:0:0:
248,258,166988,5,8,0:0:0:0:
248,258,167063,5,0,0:0:0:0:
248,258,167213,5,8,0:0:0:0:
248,258,167288,5,0,0:0:0:0:
248,258,167363,5,8,0:0:0:0:
248,258,167438,5,8,0:0:0:0:
248,258,167513,5,0,0:0:0:0:
248,258,167588,5,0,0:0:0:0:
248,258,167663,5,8,0:0:0:0:
248,258,167738,5,8,0:0:0:0:
248,258,167813,5,0,0:0:0:0:
248,258,167888,5,0,0:0:0:0:
248,258,167963,5,8,0:0:0:0:
248,258,168113,5,0,0:0:0:0:
248,258,168263,5,8,0:0:0:0:
248,258,168413,5,8,0:0:0:0:
248,258,168488,5,8,0:0:0:0:
248,258,168563,5,0,0:0:0:0:
248,258,168638,5,0,0:0:0:0:
248,258,168713,5,0,0:0:0:0:
248,258,168788,5,0,0:0:0:0:
248,258,168863,5,12,0:0:0:0:
248,258,169013,5,0,0:0:0:0:
248,258,169163,5,0,0:0:0:0:
248,258,169313,5,8,0:0:0:0:
248,258,169388,5,8,0:0:0:0:
248,258,169463,5,0,0:0:0:0:
248,258,169613,5,0,0:0:0:0:
248,258,169763,5,8,0:0:0:0:
248,258,169913,5,8,0:0:0:0:
248,258,169988,5,8,0:0:0:0:
248,258,170063,5,0,0:0:0:0:
248,258,170138,1,0,0:0:0:0:
248,258,170213,5,8,0:0:0:0:
248,258,170363,5,0,0:0:0:0:
248,258,170513,5,8,0:0:0:0:
248,258,170663,5,8,0:0:0:0:
248,258,170738,1,8,0:0:0:0:
248,258,170813,5,0,0:0:0:0:
248,258,170963,5,8,0:0:0:0:
248,258,171263,5,8,0:0:0:0:
248,258,171338,1,0,0:0:0:0:
248,258,171413,5,8,0:0:0:0:
248,258,171563,5,0,0:0:0:0:
248,258,171713,5,8,0:0:0:0:
248,258,171788,1,0,0:0:0:0:
248,258,171863,5,0,0:0:0:0:
248,258,172013,5,8,0:0:0:0:
248,258,172163,5,8,0:0:0:0:
248,258,172313,5,8,0:0:0:0:
248,258,172388,5,8,0:0:0:0:
248,258,172463,5,8,0:0:0:0:
248,258,172538,5,0,0:0:0:0:
248,258,172613,5,0,0:0:0:0:
248,258,172763,5,0,0:0:0:0:
248,258,172913,5,8,0:0:0:0:
248,258,173063,5,8,0:0:0:0:
248,258,173138,1,8,0:0:0:0:
248,258,173213,5,0,0:0:0:0:
248,258,173363,5,8,0:0:0:0:
248,258,173438,5,8,0:0:0:0:
248,258,173513,5,8,0:0:0:0:
248,258,173588,5,8,0:0:0:0:
248,258,173663,5,4,0:0:0:0:
248,258,173963,5,0,0:0:0:0:
248,258,174113,5,8,0:0:0:0:
248,258,174263,5,8,0:0:0:0:
248,258,174338,5,0,0:0:0:0:
248,258,174413,5,0,0:0:0:0:
248,258,174563,5,8,0:0:0:0:
248,258,174713,5,0,0:0:0:0:
248,258,174863,5,8,0:0:0:0:
248,258,174938,5,8,0:0:0:0:
248,258,175013,5,0,0:0:0:0:
248,258,175163,5,0,0:0:0:0:
248,258,175313,5,8,0:0:0:0:
248,258,175463,5,8,0:0:0:0:
248,258,175538,5,8,0:0:0:0:
248,258,175613,5,0,0:0:0:0:
248,258,175688,5,0,0:0:0:0:
248,258,175763,5,8,0:0:0:0:
248,258,175913,5,0,0:0:0:0:
248,258,176063,5,8,0:0:0:0:
248,258,176213,5,0,0:0:0:0:
248,258,176363,5,0,0:0:0:0:
248,258,176513,5,8,0:0:0:0:
248,258,176663,5,0,0:0:0:0:
248,258,176813,5,8,0:0:0:0:
248,258,176888,5,8,0:0:0:0:
248,258,176963,5,0,0:0:0:0:
248,258,177038,5,0,0:0:0:0:
248,258,177113,5,8,0:0:0:0:
248,258,177188,5,8,0:0:0:0:
248,258,177263,5,0,0:0:0:0:
248,258,177413,5,0,0:0:0:0:
248,258,177713,5,0,0:0:0:0:
248,258,177788,5,0,0:0:0:0:
248,258,177863,5,8,0:0:0:0:
248,258,178013,5,0,0:0:0:0:
248,258,178163,5,8,0:0:0:0:
248,258,178313,5,0,0:0:0:0:
248,258,178463,5,4,0:0:0:0:
248,258,178613,5,0,0:0:0:0:
248,258,178688,1,8,0:0:0:0:
248,258,178763,5,0,0:0:0:0:
248,258,178913,5,0,0:0:0:0:
248,258,179063,5,8,0:0:0:0:
248,258,179213,1,8,0:0:0:0:
248,258,179288,1,8,0:0:0:0:
248,258,179363,5,0,0:0:0:0:
248,258,179513,5,0,0:0:0:0:
248,258,179813,5,0,0:0:0:0:
248,258,179963,5,8,0:0:0:0:
248,258,180113,5,0,0:0:0:0:
248,258,180188,5,0,0:0:0:0:
248,258,180263,5,8,0:0:0:0:
248,258,180413,5,0,0:0:0:0:
248,258,180563,5,8,0:0:0:0:
248,258,180638,1,0,0:0:0:0:
248,258,180713,5,8,0:0:0:0:
248,258,180788,1,8,0:0:0:0:
248,258,180863,5,0,0:0:0:0:
248,258,181013,5,0,0:0:0:0:
248,258,181088,1,8,0:0:0:0:
248,258,181163,5,0,0:0:0:0:
248,258,181313,5,0,0:0:0:0:
248,258,181463,5,8,0:0:0:0:
248,258,181613,1,8,0:0:0:0:
248,258,181688,1,8,0:0:0:0:
248,258,181763,5,0,0:0:0:0:
248,258,181913,5,0,0:0:0:0:
248,258,182213,5,0,0:0:0:0:
248,258,182363,5,0,0:0:0:0:
248,258,182513,1,8,0:0:0:0:
248,258,182588,1,0,0:0:0:0:
248,258,182663,5,8,0:0:0:0:
248,258,182813,5,0,0:0:0:0:
248,258,182963,5,8,0:0:0:0:
248,258,183038,1,0,0:0:0:0:
248,258,183113,5,8,0:0:0:0:
248,258,183188,1,0,0:0:0:0:
248,258,183263,5,0,0:0:0:0:
248,258,183413,5,8,0:0:0:0:
248,258,183488,1,0,0:0:0:0:
248,258,183563,5,8,0:0:0:0:
248,258,183713,5,0,0:0:0:0:
248,258,183863,5,8,0:0:0:0:
248,258,184013,1,8,0:0:0:0:
248,258,184088,1,8,0:0:0:0:
248,258,184163,5,0,0:0:0:0:
248,258,184313,5,0,0:0:0:0:
248,258,184613,5,0,0:0:0:0:
248,258,184763,5,8,0:0:0:0:
248,258,184913,5,0,0:0:0:0:
248,258,184988,1,0,0:0:0:0:
248,258,185063,5,8,0:0:0:0:
248,258,185213,5,0,0:0:0:0:
248,258,185363,5,8,0:0:0:0:
248,258,185438,1,0,0:0:0:0:
248,258,185513,5,8,0:0:0:0:
248,258,185588,1,8,0:0:0:0:
248,258,185663,5,8,0:0:0:0:
248,258,185813,5,8,0:0:0:0:
248,258,185888,1,8,0:0:0:0:
248,258,185963,5,0,0:0:0:0:
248,258,186113,5,0,0:0:0:0:
248,258,186263,5,8,0:0:0:0:
248,258,186413,1,0,0:0:0:0:
248,258,186563,5,8,0:0:0:0:
248,258,186638,1,8,0:0:0:0:
248,258,186713,5,8,0:0:0:0:
248,258,186788,1,8,0:0:0:0:
248,258,186863,1,0,0:0:0:0:
248,258,187013,5,8,0:0:0:0:
248,258,187163,5,0,0:0:0:0:
248,258,187313,1,0,0:0:0:0:
248,258,187463,5,8,0:0:0:0:
248,258,187538,5,0,0:0:0:0:
248,258,187613,5,8,0:0:0:0:
248,258,187688,5,8,0:0:0:0:
248,258,187763,5,0,0:0:0:0:
248,258,187838,5,0,0:0:0:0:
248,258,187913,5,0,0:0:0:0:
248,258,187988,5,0,0:0:0:0:
248,258,188063,5,12,0:0:0:0:
248,258,188213,5,0,0:0:0:0:
248,258,188363,5,0,0:0:0:0:
248,258,188513,5,8,0:0:0:0:
248,258,188588,1,0,0:0:0:0:
248,258,188663,5,8,0:0:0:0:
248,258,188813,5,8,0:0:0:0:
248,258,188888,1,0,0:0:0:0:
248,258,188963,5,0,0:0:0:0:
248,258,189113,5,8,0:0:0:0:
248,258,189188,1,8,0:0:0:0:
248,258,189263,1,0,0:0:0:0:
248,258,189413,5,0,0:0:0:0:
248,258,189563,5,0,0:0:0:0:
248,258,189863,5,8,0:0:0:0:
248,258,190013,5,0,0:0:0:0:
248,258,190163,5,8,0:0:0:0:
248,258,190313,5,0,0:0:0:0:
248,258,190463,5,8,0:0:0:0:
248,258,190538,1,0,0:0:0:0:
248,258,190613,5,8,0:0:0:0:
248,258,190763,5,0,0:0:0:0:
248,258,190913,5,8,0:0:0:0:
248,258,190988,1,0,0:0:0:0:
248,258,191063,5,0,0:0:0:0:
248,258,191213,5,8,0:0:0:0:
248,258,191288,1,8,0:0:0:0:
248,258,191363,5,0,0:0:0:0:
248,258,191513,5,8,0:0:0:0:
248,258,191588,1,8,0:0:0:0:
248,258,191663,1,8,0:0:0:0:
248,258,191738,1,0,0:0:0:0:
248,258,191813,5,0,0:0:0:0:
248,258,191963,5,0,0:0:0:0:
248,258,192263,5,8,0:0:0:0:
248,258,192413,5,0,0:0:0:0:
248,258,192488,1,0,0:0:0:0:
248,258,192563,5,8,0:0:0:0:
248,258,192638,1,0,0:0:0:0:
248,258,192713,5,8,0:0:0:0:
248,258,192863,5,8,0:0:0:0:
248,258,193013,5,0,0:0:0:0:
248,258,193163,5,0,0:0:0:0:
248,258,193313,5,0,0:0:0:0:
248,258,193463,5,8,0:0:0:0:
248,258,193763,5,0,0:0:0:0:
248,258,193913,5,0,0:0:0:0:
248,258,194063,5,8,0:0:0:0:
248,258,194138,1,0,0:0:0:0:
248,258,194213,5,0,0:0:0:0:
248,258,194363,5,0,0:0:0:0:
248,258,194513,5,0,0:0:0:0:
248,258,194663,5,8,0:0:0:0:
248,258,194738,1,8,0:0:0:0:
248,258,194813,1,0,0:0:0:0:
248,258,194888,1,0,0:0:0:0:
248,258,194963,5,0,0:0:0:0:
248,258,195113,5,0,0:0:0:0:
248,258,195263,5,8,0:0:0:0:
248,258,195338,1,0,0:0:0:0:
248,258,195413,5,8,0:0:0:0:
248,258,195563,5,0,0:0:0:0:
248,258,195713,5,8,0:0:0:0:
248,258,195788,1,8,0:0:0:0:
248,258,195863,5,8,0:0:0:0:
248,258,196013,5,8,0:0:0:0:
248,258,196088,1,0,0:0:0:0:
248,258,196163,5,0,0:0:0:0:
248,258,196313,5,8,0:0:0:0:
248,258,196388,1,0,0:0:0:0:
248,258,196463,5,8,0:0:0:0:
248,258,196613,5,0,0:0:0:0:
248,258,196763,5,8,0:0:0:0:
248,258,196838,5,8,0:0:0:0:
248,258,196913,5,0,0:0:0:0:
248,258,196988,5,0,0:0:0:0:
248,258,197063,5,8,0:0:0:0:
248,258,197138,5,0,0:0:0:0:
248,258,197213,5,8,0:0:0:0:
248,258,197288,5,0,0:0:0:0:
248,258,197363,5,8,0:0:0:0:
248,258,197663,5,12,0:0:0:0:
256,192,197813,12,0,200663,0:0:0:0:
248,258,201263,5,0,0:0:0:0:
248,258,201413,5,0,0:0:0:0:
248,258,201563,5,8,0:0:0:0:
248,258,201713,5,8,0:0:0:0:
248,258,201863,5,0,0:0:0:0:
248,258,202088,5,0,0:0:0:0:
248,258,202313,5,0,0:0:0:0:
248,258,202463,5,12,0:0:0:0:
256,192,202613,12,0,205463,0:0:0:0:
248,258,206063,5,8,0:0:0:0:
248,258,206363,5,0,0:0:0:0:
248,258,206663,5,0,0:0:0:0:
248,258,206963,5,8,0:0:0:0:
248,258,207113,5,0,0:0:0:0:
248,258,207263,5,12,0:0:0:0:
248,258,207563,5,8,0:0:0:0:
248,258,207863,5,0,0:0:0:0:
248,258,208013,5,8,0:0:0:0:
248,258,208463,5,8,0:0:0:0:
248,258,208613,5,0,0:0:0:0:
248,258,208913,5,8,0:0:0:0:
248,258,209213,5,0,0:0:0:0:
248,258,209363,5,8,0:0:0:0:
248,258,209663,5,0,0:0:0:0:
248,258,209963,5,8,0:0:0:0:
248,258,210113,5,0,0:0:0:0:
248,258,210263,5,8,0:0:0:0:
248,258,210563,5,0,0:0:0:0:
248,258,210713,5,8,0:0:0:0:
248,258,210863,5,8,0:0:0:0:
248,258,211013,5,0,0:0:0:0:
248,258,211313,5,0,0:0:0:0:
248,258,211613,5,0,0:0:0:0:
248,258,211763,5,8,0:0:0:0:
248,258,212063,5,8,0:0:0:0:
248,258,212213,5,0,0:0:0:0:
248,258,212363,5,8,0:0:0:0:
248,258,212663,5,0,0:0:0:0:
248,258,212813,5,8,0:0:0:0:
248,258,213263,5,8,0:0:0:0:
248,258,213413,5,0,0:0:0:0:
248,258,213713,5,8,0:0:0:0:
248,258,214013,5,0,0:0:0:0:
248,258,214163,5,8,0:0:0:0:
248,258,214463,5,0,0:0:0:0:
248,258,214763,5,8,0:0:0:0:
248,258,214913,5,0,0:0:0:0:
248,258,215063,5,8,0:0:0:0:
248,258,215213,5,8,0:0:0:0:
248,258,215363,5,0,0:0:0:0:
248,258,215513,5,0,0:0:0:0:
248,258,215663,5,8,0:0:0:0:
248,258,215813,5,0,0:0:0:0:
248,258,216113,5,8,0:0:0:0:
248,258,216263,5,8,0:0:0:0:
248,258,216413,5,0,0:0:0:0:
248,258,216563,5,0,0:0:0:0:
248,258,216863,5,8,0:0:0:0:
248,258,217013,5,0,0:0:0:0:
248,258,217163,5,8,0:0:0:0:
248,258,217463,5,0,0:0:0:0:
248,258,217613,5,8,0:0:0:0:
248,258,218063,5,8,0:0:0:0:
248,258,218213,5,0,0:0:0:0:
248,258,218513,5,8,0:0:0:0:
248,258,218813,5,0,0:0:0:0:
248,258,218963,5,8,0:0:0:0:
248,258,219263,5,0,0:0:0:0:
248,258,219563,5,8,0:0:0:0:
248,258,219713,5,8,0:0:0:0:
248,258,219863,5,0,0:0:0:0:
248,258,220163,5,0,0:0:0:0:
248,258,220313,5,0,0:0:0:0:
248,258,220463,5,8,0:0:0:0:
248,258,220613,5,8,0:0:0:0:
248,258,220763,5,0,0:0:0:0:
248,258,220913,5,8,0:0:0:0:
248,258,221063,5,8,0:0:0:0:
248,258,221213,5,0,0:0:0:0:
248,258,221363,5,8,0:0:0:0:
248,258,221663,5,8,0:0:0:0:
248,258,221813,5,0,0:0:0:0:
248,258,221963,5,8,0:0:0:0:
248,258,222263,5,0,0:0:0:0:
248,258,222413,5,8,0:0:0:0:
248,258,222863,5,8,0:0:0:0:
248,258,223013,5,0,0:0:0:0:
248,258,223313,5,8,0:0:0:0:
248,258,223613,5,0,0:0:0:0:
248,258,223763,5,8,0:0:0:0:
248,258,224063,5,0,0:0:0:0:
248,258,224363,5,8,0:0:0:0:
248,258,224513,5,0,0:0:0:0:
248,258,224663,5,8,0:0:0:0:
248,258,224963,5,0,0:0:0:0:
248,258,225113,5,0,0:0:0:0:
248,258,225263,5,12,0:0:0:0:
248,258,225413,5,8,0:0:0:0:
248,258,225563,5,0,0:0:0:0:
248,258,225713,5,8,0:0:0:0:
248,258,225863,5,12,0:0:0:0:
248,258,226163,5,8,0:0:0:0:
248,258,226313,5,0,0:0:0:0:
248,258,226463,5,8,0:0:0:0:
248,258,226613,5,8,0:0:0:0:
248,258,226763,5,0,0:0:0:0:
248,258,227063,5,0,0:0:0:0:
248,258,227363,5,8,0:0:0:0:
248,258,227513,5,8,0:0:0:0:
248,258,227663,5,8,0:0:0:0:
248,258,227813,5,0,0:0:0:0:
248,258,227963,5,8,0:0:0:0:
248,258,228263,5,0,0:0:0:0:
248,258,228563,5,8,0:0:0:0:
248,258,228713,5,0,0:0:0:0:
248,258,228863,5,8,0:0:0:0:
248,258,229163,5,8,0:0:0:0:
248,258,229463,5,0,0:0:0:0:
248,258,229763,5,0,0:0:0:0:
248,258,229913,5,8,0:0:0:0:
248,258,230063,5,8,0:0:0:0:
248,258,230213,5,0,0:0:0:0:
248,258,230363,5,8,0:0:0:0:
248,258,230663,5,0,0:0:0:0:
248,258,230963,5,8,0:0:0:0:
248,258,231113,5,0,0:0:0:0:
248,258,231263,5,8,0:0:0:0:
248,258,231413,5,0,0:0:0:0:
248,258,231563,5,8,0:0:0:0:
248,258,231863,5,0,0:0:0:0:
248,258,232163,5,8,0:0:0:0:
248,258,232313,5,0,0:0:0:0:
248,258,232463,5,8,0:0:0:0:
248,258,232613,5,8,0:0:0:0:
248,258,232763,5,0,0:0:0:0:
248,258,233063,5,8,0:0:0:0:
248,258,233363,5,0,0:0:0:0:
248,258,233663,5,8,0:0:0:0:
248,258,233963,5,8,0:0:0:0:
248,258,234263,5,0,0:0:0:0:
248,258,234563,5,0,0:0:0:0:
248,258,234713,5,8,0:0:0:0:
248,258,234863,5,0,0:0:0:0:
248,258,235163,5,8,0:0:0:0:
248,258,235463,5,0,0:0:0:0:
248,258,235763,5,8,0:0:0:0:
248,258,235913,5,0,0:0:0:0:
248,258,236063,5,8,0:0:0:0:
248,258,236213,5,0,0:0:0:0:
248,258,236363,5,8,0:0:0:0:
248,258,236663,5,0,0:0:0:0:
248,258,236963,5,8,0:0:0:0:
248,258,237113,5,8,0:0:0:0:
248,258,237263,5,0,0:0:0:0:
248,258,237413,5,0,0:0:0:0:
248,258,237563,5,8,0:0:0:0:
248,258,237863,5,0,0:0:0:0:
248,258,238163,5,8,0:0:0:0:
248,258,238463,5,8,0:0:0:0:
248,258,238763,5,0,0:0:0:0:
248,258,239063,5,0,0:0:0:0:
248,258,239363,5,8,0:0:0:0:
248,258,239513,5,8,0:0:0:0:
248,258,239663,5,0,0:0:0:0:
248,258,239963,5,8,0:0:0:0:
248,258,240263,5,0,0:0:0:0:
248,258,240563,5,8,0:0:0:0:
248,258,240713,5,8,0:0:0:0:
248,258,240863,5,0,0:0:0:0:
248,258,241013,5,0,0:0:0:0:
248,258,241163,5,8,0:0:0:0:
248,258,241463,5,0,0:0:0:0:
248,258,241763,5,8,0:0:0:0:
248,258,241913,5,0,0:0:0:0:
248,258,242063,5,8,0:0:0:0:
248,258,242213,5,0,0:0:0:0:
248,258,242363,5,8,0:0:0:0:
248,258,242663,5,0,0:0:0:0:
248,258,242963,5,8,0:0:0:0:
248,258,243113,5,0,0:0:0:0:
248,258,243263,5,8,0:0:0:0:
248,258,243413,5,8,0:0:0:0:
248,258,243563,5,0,0:0:0:0:
248,258,243863,5,0,0:0:0:0:
248,258,244163,5,8,0:0:0:0:
248,258,244313,5,8,0:0:0:0:
248,258,244463,5,0,0:0:0:0:
248,258,244613,5,0,0:0:0:0:
248,258,244763,5,8,0:0:0:0:
248,258,245063,5,0,0:0:0:0:
248,258,245363,5,0,0:0:0:0:
248,258,245663,5,12,0:0:0:0:
248,258,245813,5,0,0:0:0:0:
248,258,245963,5,0,0:0:0:0:
248,258,246113,5,0,0:0:0:0:
248,258,246263,5,12,0:0:0:0:
248,258,246413,5,0,0:0:0:0:
248,258,246563,5,0,0:0:0:0:
248,258,246713,5,0,0:0:0:0:
248,258,246863,5,12,0:0:0:0:
248,258,247013,5,0,0:0:0:0:
248,258,247163,5,0,0:0:0:0:
248,258,247313,5,0,0:0:0:0:
248,258,247463,5,12,0:0:0:0:
248,258,247613,5,0,0:0:0:0:
248,258,247763,5,0,0:0:0:0:
248,258,247913,5,0,0:0:0:0:
248,258,248063,5,8,0:0:0:0:
248,258,248163,5,0,0:0:0:0:
248,258,248263,5,0,0:0:0:0:
248,258,248363,5,8,0:0:0:0:
248,258,248463,5,0,0:0:0:0:
248,258,248563,5,0,0:0:0:0:
248,258,248663,5,8,0:0:0:0:
248,258,248763,5,0,0:0:0:0:
248,258,248863,5,0,0:0:0:0:
248,258,248963,5,8,0:0:0:0:
248,258,249063,5,8,0:0:0:0:
248,258,249163,5,8,0:0:0:0:
248,258,249263,5,8,0:0:0:0:
248,258,249363,5,8,0:0:0:0:
248,258,249463,5,8,0:0:0:0:
248,258,249563,5,8,0:0:0:0:
248,258,249663,5,8,0:0:0:0:
248,258,249763,5,8,0:0:0:0:
248,258,249863,5,4,0:0:0:0:
248,258,250463,5,8,0:0:0:0:
248,258,250913,5,0,0:0:0:0:
248,258,251063,5,8,0:0:0:0:
248,258,251363,5,0,0:0:0:0:
248,258,251663,5,0,0:0:0:0:
248,258,251963,5,0,0:0:0:0:
248,258,252263,5,8,0:0:0:0:
248,258,252563,5,0,0:0:0:0:
248,258,252863,5,0,0:0:0:0:
248,258,253313,5,0,0:0:0:0:
248,258,253463,5,8,0:0:0:0:
248,258,253763,5,0,0:0:0:0:
248,258,254063,5,0,0:0:0:0:
248,258,254363,5,0,0:0:0:0:
248,258,254663,5,8,0:0:0:0:
248,258,254963,5,0,0:0:0:0:
248,258,255263,5,0,0:0:0:0:
248,258,255713,5,0,0:0:0:0:
248,258,255863,5,8,0:0:0:0:
248,258,256163,5,0,0:0:0:0:
248,258,256463,5,0,0:0:0:0:
248,258,256763,5,0,0:0:0:0:
248,258,257063,5,8,0:0:0:0:
248,258,257363,5,0,0:0:0:0:
248,258,257663,5,0,0:0:0:0:
248,258,258113,5,0,0:0:0:0:
248,258,258263,5,8,0:0:0:0:
248,258,258563,5,0,0:0:0:0:
248,258,258863,5,0,0:0:0:0:
248,258,259163,5,0,0:0:0:0:
248,258,259463,5,12,0:0:0:0:
248,258,260063,5,4,0:0:0:0:
248,258,260363,5,4,0:0:0:0:
248,258,260663,5,4,0:0:0:0:
248,258,260963,5,4,0:0:0:0:
248,258,261263,5,4,0:0:0:0:
248,258,261563,5,4,0:0:0:0:
248,258,261863,5,4,0:0:0:0:
248,258,262163,5,4,0:0:0:0:
248,258,262463,5,8,0:0:0:0:
248,258,262613,5,0,0:0:0:0:
248,258,262763,5,0,0:0:0:0:
248,258,262913,5,8,0:0:0:0:
248,258,262988,5,8,0:0:0:0:
248,258,263063,5,0,0:0:0:0:
248,258,263138,5,0,0:0:0:0:
248,258,263213,5,8,0:0:0:0:
248,258,263288,5,8,0:0:0:0:
248,258,263363,5,0,0:0:0:0:
248,258,263438,5,0,0:0:0:0:
248,258,263513,5,8,0:0:0:0:
248,258,263588,5,0,0:0:0:0:
248,258,263663,5,8,0:0:0:0:
248,258,263738,5,0,0:0:0:0:
248,258,263813,5,8,0:0:0:0:
248,258,263888,5,8,0:0:0:0:
248,258,263963,5,0,0:0:0:0:
248,258,264038,5,0,0:0:0:0:
248,258,264113,5,8,0:0:0:0:
248,258,264188,5,0,0:0:0:0:
248,258,264263,5,8,0:0:0:0:
248,258,264413,5,8,0:0:0:0:
248,258,264563,5,8,0:0:0:0:
248,258,264713,5,0,0:0:0:0:
248,258,264863,5,8,0:0:0:0:
248,258,265013,5,0,0:0:0:0:
248,258,265163,5,8,0:0:0:0:
248,258,265313,5,0,0:0:0:0:
248,258,265463,5,8,0:0:0:0:
248,258,265613,5,0,0:0:0:0:
248,258,265763,5,8,0:0:0:0:
248,258,265913,5,0,0:0:0:0:
248,258,266063,5,12,0:0:0:0:
248,258,266213,5,0,0:0:0:0:
248,258,266363,5,0,0:0:0:0:
248,258,266513,5,12,0:0:0:0:
248,258,266663,5,0,0:0:0:0:
248,258,266813,5,0,0:0:0:0:
248,258,266963,5,12,0:0:0:0:
248,258,267113,5,0,0:0:0:0:
248,258,267263,5,0,0:0:0:0:
248,258,267413,5,8,0:0:0:0:
248,258,267488,5,8,0:0:0:0:
248,258,267563,5,0,0:0:0:0:
248,258,267713,5,8,0:0:0:0:
248,258,267788,5,8,0:0:0:0:
248,258,267863,5,0,0:0:0:0:
248,258,268013,5,8,0:0:0:0:
248,258,268088,5,8,0:0:0:0:
248,258,268163,5,8,0:0:0:0:
248,258,268238,5,0,0:0:0:0:
248,258,268313,5,8,0:0:0:0:
248,258,268388,5,0,0:0:0:0:
248,258,268463,5,8,0:0:0:0:
248,258,268538,5,0,0:0:0:0:
248,258,268613,5,0,0:0:0:0:
248,258,268688,5,0,0:0:0:0:
248,258,268763,5,8,0:0:0:0:
248,258,268913,5,0,0:0:0:0:
248,258,269063,5,8,0:0:0:0:
248,258,269213,5,8,0:0:0:0:
248,258,269288,5,0,0:0:0:0:
248,258,269363,5,8,0:0:0:0:
248,258,269438,5,8,0:0:0:0:
248,258,269513,5,0,0:0:0:0:
248,258,269588,5,0,0:0:0:0:
248,258,269663,5,12,0:0:0:0:
248,258,269813,5,0,0:0:0:0:
248,258,269963,5,0,0:0:0:0:
248,258,270113,5,8,0:0:0:0:
248,258,270188,5,0,0:0:0:0:
248,258,270263,5,0,0:0:0:0:
248,258,270413,5,8,0:0:0:0:
248,258,270563,5,8,0:0:0:0:
248,258,270713,5,8,0:0:0:0:
248,258,270788,5,0,0:0:0:0:
248,258,270863,5,8,0:0:0:0:
248,258,271013,5,0,0:0:0:0:
248,258,271163,5,8,0:0:0:0:
248,258,271313,5,8,0:0:0:0:
248,258,271463,5,8,0:0:0:0:
248,258,271538,1,8,0:0:0:0:
248,258,271613,5,0,0:0:0:0:
248,258,271763,5,8,0:0:0:0:
248,258,272063,5,8,0:0:0:0:
248,258,272138,1,0,0:0:0:0:
248,258,272213,5,8,0:0:0:0:
248,258,272363,5,0,0:0:0:0:
248,258,272513,5,8,0:0:0:0:
248,258,272588,5,8,0:0:0:0:
248,258,272663,5,0,0:0:0:0:
248,258,272813,5,0,0:0:0:0:
248,258,272963,5,8,0:0:0:0:
248,258,273113,5,8,0:0:0:0:
248,258,273188,5,0,0:0:0:0:
248,258,273263,5,8,0:0:0:0:
248,258,273338,1,0,0:0:0:0:
248,258,273413,5,0,0:0:0:0:
248,258,273563,5,8,0:0:0:0:
248,258,273713,5,8,0:0:0:0:
248,258,273863,5,8,0:0:0:0:
248,258,273938,1,8,0:0:0:0:
248,258,274013,5,0,0:0:0:0:
248,258,274163,5,8,0:0:0:0:
248,258,274238,5,8,0:0:0:0:
248,258,274313,5,8,0:0:0:0:
248,258,274388,5,8,0:0:0:0:
248,258,274463,5,4,0:0:0:0:
248,258,274763,5,0,0:0:0:0:
248,258,274913,5,8,0:0:0:0:
248,258,275063,5,8,0:0:0:0:
248,258,275138,5,0,0:0:0:0:
248,258,275213,5,0,0:0:0:0:
248,258,275363,5,8,0:0:0:0:
248,258,275513,5,0,0:0:0:0:
248,258,275663,5,8,0:0:0:0:
248,258,275738,5,8,0:0:0:0:
248,258,275813,5,0,0:0:0:0:
248,258,275963,5,0,0:0:0:0:
248,258,276113,5,8,0:0:0:0:
248,258,276263,5,8,0:0:0:0:
248,258,276338,5,8,0:0:0:0:
248,258,276413,5,0,0:0:0:0:
248,258,276488,5,0,0:0:0:0:
248,258,276563,5,8,0:0:0:0:
248,258,276713,5,0,0:0:0:0:
248,258,276863,5,8,0:0:0:0:
248,258,277013,5,0,0:0:0:0:
248,258,277163,5,0,0:0:0:0:
248,258,277313,5,8,0:0:0:0:
248,258,277463,5,0,0:0:0:0:
248,258,277613,5,8,0:0:0:0:
248,258,277688,5,8,0:0:0:0:
248,258,277763,5,0,0:0:0:0:
248,258,277838,5,0,0:0:0:0:
248,258,277913,5,8,0:0:0:0:
248,258,277988,5,8,0:0:0:0:
248,258,278063,5,0,0:0:0:0:
248,258,278213,5,0,0:0:0:0:
248,258,278513,5,0,0:0:0:0:
248,258,278813,5,0,0:0:0:0:
248,258,278888,5,0,0:0:0:0:
248,258,278963,5,8,0:0:0:0:
248,258,279263,5,12,0:0:0:0:
248,258,279413,5,0,0:0:0:0:
248,258,279488,5,0,0:0:0:0:
248,258,279563,5,8,0:0:0:0:
248,258,279713,5,8,0:0:0:0:
248,258,279863,5,0,0:0:0:0:
248,258,280013,5,8,0:0:0:0:
248,258,280088,5,0,0:0:0:0:
248,258,280163,5,8,0:0:0:0:
248,258,280238,5,0,0:0:0:0:
248,258,280313,5,0,0:0:0:0:
248,258,280388,5,0,0:0:0:0:
248,258,280463,5,8,0:0:0:0:
248,258,280613,5,0,0:0:0:0:
248,258,280763,5,8,0:0:0:0:
248,258,280838,5,8,0:0:0:0:
248,258,280913,5,0,0:0:0:0:
248,258,281063,5,8,0:0:0:0:
248,258,281138,5,0,0:0:0:0:
248,258,281213,5,0,0:0:0:0:
248,258,281363,5,8,0:0:0:0:
248,258,281438,5,8,0:0:0:0:
248,258,281513,5,0,0:0:0:0:
248,258,281588,5,0,0:0:0:0:
248,258,281663,5,8,0:0:0:0:
248,258,281813,5,0,0:0:0:0:
248,258,281888,5,0,0:0:0:0:
248,258,281963,5,8,0:0:0:0:
248,258,282113,5,8,0:0:0:0:
248,258,282263,5,0,0:0:0:0:
248,258,282413,5,8,0:0:0:0:
248,258,282488,5,0,0:0:0:0:
248,258,282563,5,8,0:0:0:0:
248,258,282638,5,0,0:0:0:0:
248,258,282713,5,0,0:0:0:0:
248,258,282863,5,8,0:0:0:0:
248,258,283013,5,8,0:0:0:0:
248,258,283163,5,0,0:0:0:0:
248,258,283313,5,0,0:0:0:0:
248,258,283463,5,8,0:0:0:0:
248,258,283538,5,8,0:0:0:0:
248,258,283613,5,0,0:0:0:0:
248,258,283688,5,0,0:0:0:0:
248,258,283763,5,8,0:0:0:0:
248,258,283838,5,8,0:0:0:0:
248,258,283913,5,8,0:0:0:0:
248,258,283988,5,0,0:0:0:0:
248,258,284063,5,8,0:0:0:0:
248,258,284213,5,0,0:0:0:0:
248,258,284288,5,8,0:0:0:0:
248,258,284363,5,0,0:0:0:0:
248,258,284513,5,8,0:0:0:0:
248,258,284663,5,0,0:0:0:0:
248,258,284813,5,8,0:0:0:0:
248,258,284888,5,0,0:0:0:0:
248,258,284963,5,8,0:0:0:0:
248,258,285038,5,8,0:0:0:0:
248,258,285113,5,0,0:0:0:0:
248,258,285263,5,8,0:0:0:0:
248,258,285413,5,8,0:0:0:0:
248,258,285563,5,8,0:0:0:0:
248,258,285638,5,8,0:0:0:0:
248,258,285713,5,0,0:0:0:0:
248,258,285788,5,0,0:0:0:0:
248,258,285863,5,8,0:0:0:0:
248,258,285938,5,0,0:0:0:0:
248,258,286013,5,0,0:0:0:0:
248,258,286088,5,0,0:0:0:0:
248,258,286163,5,8,0:0:0:0:
248,258,286238,5,0,0:0:0:0:
248,258,286313,5,8,0:0:0:0:
248,258,286388,5,0,0:0:0:0:
248,258,286463,5,8,0:0:0:0:
248,258,286613,5,0,0:0:0:0:
248,258,286688,5,8,0:0:0:0:
248,258,286763,5,0,0:0:0:0:
248,258,286913,5,8,0:0:0:0:
248,258,287063,5,0,0:0:0:0:
248,258,287213,5,8,0:0:0:0:
248,258,287288,5,0,0:0:0:0:
248,258,287363,5,8,0:0:0:0:
248,258,287513,5,0,0:0:0:0:
248,258,287663,5,0,0:0:0:0:
248,258,287813,5,0,0:0:0:0:
248,258,287888,5,0,0:0:0:0:
248,258,287963,5,8,0:0:0:0:
248,258,288113,5,0,0:0:0:0:
248,258,288263,5,8,0:0:0:0:
248,258,288338,5,0,0:0:0:0:
248,258,288413,5,0,0:0:0:0:
248,258,288563,5,8,0:0:0:0:
248,258,288863,5,8,0:0:0:0:
248,258,288938,5,0,0:0:0:0:
248,258,289013,5,8,0:0:0:0:
248,258,289088,5,8,0:0:0:0:
248,258,289163,5,0,0:0:0:0:
248,258,289238,5,0,0:0:0:0:
248,258,289313,5,8,0:0:0:0:
248,258,289388,5,8,0:0:0:0:
248,258,289463,5,0,0:0:0:0:
248,258,289538,5,0,0:0:0:0:
248,258,289613,5,8,0:0:0:0:
248,258,289688,5,0,0:0:0:0:
248,258,289763,5,8,0:0:0:0:
248,258,289838,5,0,0:0:0:0:
248,258,289913,5,8,0:0:0:0:
248,258,289988,5,8,0:0:0:0:
248,258,290063,5,8,0:0:0:0:
248,258,290138,5,8,0:0:0:0:
248,258,290213,5,0,0:0:0:0:
248,258,290288,5,0,0:0:0:0:
248,258,290363,5,8,0:0:0:0:
248,258,290438,5,0,0:0:0:0:
248,258,290513,5,0,0:0:0:0:
248,258,290588,5,0,0:0:0:0:
248,258,290663,5,8,0:0:0:0:
248,258,290738,5,8,0:0:0:0:
248,258,290813,5,0,0:0:0:0:
248,258,290888,5,0,0:0:0:0:
248,258,290963,5,8,0:0:0:0:
248,258,291038,5,8,0:0:0:0:
248,258,291113,5,0,0:0:0:0:
248,258,291188,5,0,0:0:0:0:
248,258,291263,5,8,0:0:0:0:
248,258,291338,5,0,0:0:0:0:
248,258,291413,5,8,0:0:0:0:
248,258,291488,5,8,0:0:0:0:
248,258,291563,5,0,0:0:0:0:
248,258,291638,5,0,0:0:0:0:
248,258,291713,5,8,0:0:0:0:
248,258,291788,5,8,0:0:0:0:
248,258,291863,5,0,0:0:0:0:
248,258,291938,5,0,0:0:0:0:
248,258,292013,5,8,0:0:0:0:
248,258,292088,5,0,0:0:0:0:
248,258,292163,5,8,0:0:0:0:
248,258,292238,5,0,0:0:0:0:
248,258,292313,5,8,0:0:0:0:
248,258,292388,5,8,0:0:0:0:
248,258,292463,5,8,0:0:0:0:
248,258,292538,5,8,0:0:0:0:
248,258,292613,5,0,0:0:0:0:
248,258,292688,5,0,0:0:0:0:
248,258,292763,5,8,0:0:0:0:
248,258,292838,5,0,0:0:0:0:
248,258,292913,5,0,0:0:0:0:
248,258,292988,5,0,0:0:0:0:
248,258,293063,5,8,0:0:0:0:
248,258,293138,5,8,0:0:0:0:
248,258,293213,5,0,0:0:0:0:
248,258,293288,5,0,0:0:0:0:
248,258,293363,5,8,0:0:0:0:
248,258,293438,5,8,0:0:0:0:
248,258,293513,5,0,0:0:0:0:
248,258,293588,5,0,0:0:0:0:
248,258,293663,5,8,0:0:0:0:
248,258,293738,5,8,0:0:0:0:
248,258,293813,5,0,0:0:0:0:
248,258,293888,5,0,0:0:0:0:
248,258,293963,5,8,0:0:0:0:
248,258,294038,5,0,0:0:0:0:
248,258,294113,5,0,0:0:0:0:
248,258,294188,5,0,0:0:0:0:
248,258,294263,5,8,0:0:0:0:
248,258,294338,5,8,0:0:0:0:
248,258,294413,5,0,0:0:0:0:
248,258,294488,5,0,0:0:0:0:
248,258,294563,5,8,0:0:0:0:
248,258,294638,5,0,0:0:0:0:
248,258,294713,5,0,0:0:0:0:
248,258,294788,5,0,0:0:0:0:
248,258,294863,5,8,0:0:0:0:
248,258,294938,5,8,0:0:0:0:
248,258,295013,5,8,0:0:0:0:
248,258,295088,5,0,0:0:0:0:
248,258,295163,5,8,0:0:0:0:
248,258,295238,5,0,0:0:0:0:
248,258,295313,5,0,0:0:0:0:
248,258,295388,5,0,0:0:0:0:
248,258,295463,5,8,0:0:0:0:
248,258,295538,5,8,0:0:0:0:
248,258,295613,5,8,0:0:0:0:
248,258,295688,5,8,0:0:0:0:
248,258,295763,5,4,0:0:0:0:
248,258,295913,5,0,0:0:0:0:
248,258,296063,5,12,0:0:0:0:
248,258,296213,5,0,0:0:0:0:
248,258,296363,5,12,0:0:0:0:
248,258,296513,5,0,0:0:0:0:
248,258,296663,5,8,0:0:0:0:
248,258,296813,5,8,0:0:0:0:
248,258,296888,5,0,0:0:0:0:
248,258,296963,5,8,0:0:0:0:
248,258,297113,5,8,0:0:0:0:
248,258,297263,5,8,0:0:0:0:
248,258,297338,5,8,0:0:0:0:
248,258,297413,5,0,0:0:0:0:
248,258,297488,5,0,0:0:0:0:
248,258,297563,5,0,0:0:0:0:
248,258,297638,5,0,0:0:0:0:
248,258,297713,5,0,0:0:0:0:
248,258,297788,5,0,0:0:0:0:
248,258,297863,5,8,0:0:0:0:
248,258,298013,5,0,0:0:0:0:
248,258,298163,5,8,0:0:0:0:
248,258,298313,5,0,0:0:0:0:
248,258,298463,5,12,0:0:0:0:
256,192,298613,12,0,300563,0:0:0:0:
248,258,300863,5,0,0:0:0:0:
256,192,301163,12,0,302963,0:0:0:0:
248,258,303263,5,8,0:0:0:0:
248,258,303563,5,8,0:0:0:0:
248,258,303713,5,0,0:0:0:0:
248,258,303863,5,8,0:0:0:0:
248,258,304163,5,0,0:0:0:0:
248,258,304463,5,8,0:0:0:0:
248,258,304763,5,8,0:0:0:0:
248,258,305063,5,8,0:0:0:0:
248,258,305213,5,8,0:0:0:0:
248,258,305363,5,0,0:0:0:0:
248,258,305513,5,0,0:0:0:0:
248,258,305663,5,8,0:0:0:0:
248,258,305813,5,8,0:0:0:0:
248,258,305963,5,0,0:0:0:0:
248,258,306113,5,0,0:0:0:0:
248,258,306263,5,8,0:0:0:0:
248,258,306563,5,8,0:0:0:0:
248,258,306863,5,0,0:0:0:0:
248,258,307163,5,8,0:0:0:0:
248,258,307463,5,0,0:0:0:0:
248,258,307613,5,8,0:0:0:0:
248,258,307763,5,0,0:0:0:0:
