osu file format v14

[General]
AudioFilename: audio.mp3
AudioLeadIn: 0
PreviewTime: 114012
Countdown: 0
SampleSet: None
StackLeniency: 0.3
Mode: 0
LetterboxInBreaks: 0
WidescreenStoryboard: 0

[Editor]
DistanceSpacing: 0.66
BeatDivisor: 4
GridSize: 4
TimelineZoom: 1.8

[Metadata]
Title:Garapagosu de Warui ka
TitleUnicode:ガラパゴスで悪いか
Artist:Utsu-P
ArtistUnicode:鬱P
Creator:Danii
Version:Gurobarusutandado
Source:
Tags:UtsuP 初音ミク Hatsune Miku 鏡音リン Kagamine Rin vocaloid Is it bad at the Galapagos Syndrome? metal rock MY SONG IS SHIT comiket 92 c92 mirimo Akitoshi -Rmdy Armody
BeatmapID:1403922
BeatmapSetID:663266

[Difficulty]
HPDrainRate:6.3
CircleSize:4.3
OverallDifficulty:9
ApproachRate:9.8
SliderMultiplier:1.8
SliderTickRate:1

[Events]
//Background and Video events
0,0,"global.jpg",0,0
//Break Periods
2,35848,37214
2,38029,39396
2,96803,99396
2,101166,103760
2,131848,133214
//Storyboard Layer 0 (Background)
//Storyboard Layer 1 (Fail)
//Storyboard Layer 2 (Pass)
//Storyboard Layer 3 (Foreground)
//Storyboard Sound Samples

[TimingPoints]
603,272.727272727273,4,3,3,60,1,0
18057,-100,4,3,2,60,0,0
18262,-100,4,3,2,10,0,0
18330,-100,4,3,2,60,0,0
18534,-100,4,3,2,10,0,0
18602,-100,4,3,2,60,0,0
19148,-133.333333333333,4,3,2,60,0,0
20239,-100,4,3,2,60,0,0
20443,-100,4,3,2,10,0,0
20511,-100,4,3,2,60,0,0
20715,-100,4,3,2,10,0,0
20783,-100,4,3,2,60,0,0
21330,-133.333333333333,4,3,2,60,0,0
22421,-100,4,3,3,60,0,0
22966,-90.9090909090909,4,3,3,60,0,0
23171,-90.9090909090909,4,3,3,10,0,0
23239,-100,4,3,3,60,0,0
25148,-90.9090909090909,4,3,3,60,0,0
25353,-90.9090909090909,4,3,3,10,0,0
25421,-100,4,3,3,60,0,0
26784,-100,4,3,2,60,0,0
34421,-100,4,3,3,60,0,0
35034,-100,4,3,3,10,0,0
35103,-100,4,3,3,15,0,0
35171,-100,4,3,3,20,0,0
35239,-100,4,3,3,25,0,0
35307,-100,4,3,3,30,0,0
35375,-100,4,3,3,40,0,0
35443,-100,4,3,3,50,0,0
35512,-100,4,3,3,60,0,0
44239,-90.9090909090909,4,3,2,60,0,0
44307,-100,4,3,2,60,0,0
47512,-90.9090909090909,4,3,2,60,0,0
48603,-100,4,3,2,60,0,0
52966,-100,4,3,3,60,0,0
56239,-90.9090909090909,4,3,3,60,0,0
57330,-100,4,3,3,60,0,0
61693,-133.333333333333,4,3,7,60,0,0
61830,-133.333333333333,4,3,6,40,0,0
78603,-111.111111111111,4,3,6,50,0,0
79148,-90.9090909090909,4,3,2,60,0,0
79216,-100,4,3,2,60,0,0
82421,-95.2380952380952,4,3,2,60,0,0
82625,-95.2380952380952,4,3,2,10,0,0
82693,-90.9090909090909,4,3,2,60,0,0
82898,-90.9090909090909,4,3,2,10,0,0
82966,-86.9565217391304,4,3,2,60,0,0
83171,-86.9565217391304,4,3,2,10,0,0
83239,-83.3333333333333,4,3,2,60,0,0
83443,-83.3333333333333,4,3,2,10,0,0
83512,-100,4,3,3,60,0,0
84057,-100,4,3,2,60,0,0
86784,-95.2380952380952,4,3,2,60,0,0
86988,-95.2380952380952,4,3,2,10,0,0
87056,-90.9090909090909,4,3,2,60,0,0
87262,-90.9090909090909,4,3,2,10,0,0
87330,-100,4,3,2,60,0,0
87875,-90.9090909090909,4,3,3,60,0,0
87943,-100,4,3,3,60,0,0
88421,-100,4,3,2,60,0,0
91148,-95.2380952380952,4,3,2,60,0,0
91421,-90.9090909090909,4,3,2,60,0,0
91625,-90.9090909090909,4,3,2,10,0,0
91693,-86.9565217391304,4,3,2,60,0,0
91966,-83.3333333333333,4,3,2,60,0,0
92171,-83.3333333333333,4,3,2,10,0,0
92239,-100,4,3,3,60,0,0
92307,-100,4,3,2,60,0,0
95784,-100,4,3,3,60,0,0
96603,-100,4,3,2,60,0,0
99875,-133.333333333333,4,3,3,45,0,0
100966,-133.333333333333,4,3,2,45,0,0
104239,-133.333333333333,4,3,3,45,0,0
105330,-111.111111111111,4,3,2,45,0,0
105603,-111.111111111111,4,3,0,45,0,0
108603,-100,4,3,3,45,0,0
109693,-200,4,3,2,50,0,0
109762,-200,4,3,2,10,0,0
109966,-166.666666666667,4,3,2,15,0,0
110239,-142.857142857143,4,3,2,20,0,0
110512,-117.647058823529,4,3,2,25,0,0
110784,-100,4,3,2,30,0,0
111057,-100,4,3,2,35,0,0
111330,-100,4,3,2,40,0,0
111603,-100,4,3,2,50,0,0
111875,-100,4,3,2,55,0,0
112421,-100,4,3,2,60,0,0
112966,-133.333333333333,4,3,3,50,0,0
113034,-133.333333333333,4,3,3,10,0,0
113512,-200,4,3,3,50,0,0
113580,-200,4,3,3,10,0,0
114057,-83.3333333333333,4,3,4,80,0,1
114125,-90.9090909090909,4,3,4,80,0,1
117875,-90.9090909090909,4,3,5,80,0,1
118421,-90.9090909090909,4,3,4,80,0,1
122784,-83.3333333333333,4,3,4,80,0,1
122853,-90.9090909090909,4,3,4,80,0,1
126603,-90.9090909090909,4,3,5,80,0,1
127148,-90.9090909090909,4,3,4,80,0,1
129330,-86.9565217391304,4,3,3,80,0,1
129603,-86.9565217391304,4,3,4,80,0,1
129671,-86.9565217391304,4,3,3,80,0,1
131034,-86.9565217391304,4,3,3,10,0,1
131103,-86.9565217391304,4,3,3,15,0,1
131171,-86.9565217391304,4,3,3,20,0,1
131239,-86.9565217391304,4,3,3,25,0,1
131307,-86.9565217391304,4,3,3,35,0,1
131375,-86.9565217391304,4,3,3,45,0,1
131443,-86.9565217391304,4,3,3,55,0,1
131512,-100,4,3,3,60,0,0
134784,-86.9565217391304,4,3,3,60,0,0
135875,-100,4,3,3,60,0,0

[Colours]
Combo1 : 0,128,0
Combo2 : 128,0,64
Combo3 : 0,213,53
Combo4 : 211,3,71

[HitObjects]
61,79,18057,6,0,B|136:87|136:87|200:128,1,135,4|0,0:0|0:0,0:0:0:0:
237,192,18330,2,0,B|312:184|312:184|376:143,1,135,6|0,0:0|0:0,0:0:0:0:
457,92,18603,5,2,0:0:0:0:
465,138,18693,1,0,0:0:0:0:
474,185,18784,1,0,0:0:0:0:
421,240,18876,5,6,0:0:0:0:
413,286,18966,1,0,0:0:0:0:
404,333,19057,1,0,0:0:0:0:
461,383,19148,5,4,0:0:0:0:
258,233,20239,6,0,P|218:247|244:183,1,135,4|0,0:0|0:0,0:0:0:0:
311,153,20512,2,0,P|351:167|325:103,1,135,6|0,0:0|0:0,0:0:0:0:
235,58,20784,5,2,0:0:0:0:
187,63,20875,1,0,0:0:0:0:
142,44,20966,1,0,0:0:0:0:
70,95,21057,5,6,0:0:0:0:
75,143,21148,1,0,0:0:0:0:
56,188,21239,1,0,0:0:0:0:
130,248,21330,5,4,0:0:0:0:
422,142,22421,5,4,0:0:0:0:
419,155,22489,1,0,0:0:0:0:
416,168,22557,1,0,0:0:0:0:
428,116,22830,1,4,0:0:0:0:
425,129,22898,1,0,0:0:0:0:
422,142,22966,6,0,B|398:239|398:239|375:192,1,148.50000453186,2|0,0:0|0:0,0:0:0:0:
306,141,23239,5,4,0:0:0:0:
293,144,23307,1,0,0:0:0:0:
279,147,23375,1,0,0:0:0:0:
333,135,23648,1,4,0:0:0:0:
320,138,23716,1,0,0:0:0:0:
306,141,23784,1,0,0:0:0:0:
47,318,24603,5,4,0:0:0:0:
42,300,24671,1,0,0:0:0:0:
37,282,24739,1,0,0:0:0:0:
57,354,25012,1,4,0:0:0:0:
52,336,25080,1,0,0:0:0:0:
47,318,25148,6,0,B|37:280|37:280|163:324,1,148.50000453186,2|0,0:0|0:0,0:0:0:0:
216,245,25421,5,4,0:0:0:0:
198,238,25489,1,0,0:0:0:0:
181,231,25557,1,0,0:0:0:0:
251,259,25830,1,4,0:0:0:0:
233,252,25898,1,0,0:0:0:0:
216,245,25966,1,0,0:0:0:0:
317,228,26239,1,8,0:0:0:0:
284,243,26307,1,8,0:0:0:0:
251,259,26375,2,0,L|197:287,1,45
92,239,26512,1,0,0:0:0:0:
86,226,26580,1,0,0:0:0:0:
80,213,26648,1,0,0:0:0:0:
74,200,26716,1,0,0:0:0:0:
68,187,26784,6,0,L|51:297,1,90,4|0,0:0|0:0,0:0:0:0:
202,151,27057,2,0,L|210:93,3,45,2|0|0|0,0:0|0:0|0:0|0:0,0:0:0:0:
136,16,27330,2,0,L|129:60,3,45,2|0|0|0,0:0|0:0|0:0|0:0,0:0:0:0:
31,114,27603,2,0,L|39:56,3,45,2|0|0|0,0:0|0:0|0:0|0:0,0:0:0:0:
68,187,27875,5,2,0:0:0:0:
81,204,27943,1,0,0:0:0:0:
98,218,28012,1,0,0:0:0:0:
117,228,28080,1,0,0:0:0:0:
138,234,28148,1,0,0:0:0:0:
160,235,28216,1,0,0:0:0:0:
182,230,28284,1,0,0:0:0:0:
202,220,28353,1,0,0:0:0:0:
219,205,28421,5,2,0:0:0:0:
187,206,28489,1,0,0:0:0:0:
159,220,28557,1,0,0:0:0:0:
139,244,28625,1,0,0:0:0:0:
128,273,28693,1,0,0:0:0:0:
128,304,28762,1,0,0:0:0:0:
140,332,28830,1,0,0:0:0:0:
162,353,28898,1,0,0:0:0:0:
191,363,28966,6,0,L|200:310,3,45
139,244,29239,6,0,L|130:191,1,45,2|0,0:0|0:0,0:0:0:0:
46,113,29375,2,0,L|55:166,1,45
145,93,29512,2,0,L|136:40,1,45,2|0,0:0|0:0,0:0:0:0:
218,158,29648,2,0,L|227:211,1,45
146,288,29784,2,0,L|137:235,1,45,2|0,0:0|0:0,0:0:0:0:
251,280,29921,2,0,L|260:333,1,45
330,206,30057,5,2,0:0:0:0:
336,184,30125,1,0,0:0:0:0:
342,162,30193,1,0,0:0:0:0:
348,140,30262,1,0,0:0:0:0:
354,118,30330,1,0,0:0:0:0:
360,96,30398,1,0,0:0:0:0:
366,74,30466,1,0,0:0:0:0:
372,52,30534,1,0,0:0:0:0:
378,30,30603,6,0,L|446:17,3,45,2|0|0|0,0:0|0:0|0:0|0:0,0:0:0:0:
445,127,30875,2,0,L|513:140,3,45
330,206,31148,5,4,0:0:0:0:
298,208,31216,1,0,0:0:0:0:
269,195,31284,1,0,0:0:0:0:
252,167,31353,1,0,0:0:0:0:
255,135,31421,2,0,L|217:193,3,45,2|0|0|0,0:0|0:0|0:0|0:0,0:0:0:0:
215,264,31693,2,0,L|153:295,3,45,2|0|0|0,0:0|0:0|0:0|0:0,0:0:0:0:
93,344,31966,2,0,L|23:340,3,45,2|0|0|0,0:0|0:0|0:0|0:0,0:0:0:0:
22,231,32239,5,2,0:0:0:0:
25,199,32307,1,0,0:0:0:0:
41,172,32375,1,0,0:0:0:0:
68,157,32443,1,0,0:0:0:0:
99,158,32512,1,0,0:0:0:0:
126,172,32580,1,0,0:0:0:0:
143,197,32648,1,0,0:0:0:0:
148,227,32716,1,0,0:0:0:0:
141,257,32784,6,0,L|86:248,1,45,2|0,0:0|0:0,0:0:0:0:
216,166,32921,2,0,L|161:175,1,45,2|0,0:0|0:0,0:0:0:0:
280,269,33057,2,0,L|225:260,1,45,2|0,0:0|0:0,0:0:0:0:
350,170,33194,2,0,L|295:179,1,45,2|0,0:0|0:0,0:0:0:0:
453,244,33330,5,10,0:0:0:0:
462,215,33398,1,8,0:0:0:0:
463,186,33466,1,0,0:0:0:0:
458,158,33534,1,0,0:0:0:0:
443,132,33602,1,0,0:0:0:0:
424,111,33670,1,0,0:0:0:0:
400,95,33739,5,10,0:0:0:0:
415,120,33807,1,8,0:0:0:0:
424,146,33875,1,0,0:0:0:0:
427,176,33943,1,0,0:0:0:0:
421,205,34011,1,0,0:0:0:0:
408,230,34079,1,0,0:0:0:0:
382,245,34148,5,10,0:0:0:0:
378,222,34216,1,8,0:0:0:0:
375,200,34284,1,0,0:0:0:0:
372,178,34352,1,0,0:0:0:0:
369,155,34420,5,0,0:0:0:0:
175,58,34557,1,10,0:0:0:0:
163,96,34625,1,8,0:0:0:0:
151,134,34693,1,10,0:0:0:0:
192,320,34830,1,10,0:0:0:0:
204,282,34898,1,8,0:0:0:0:
216,243,34966,5,10,0:0:0:0:
225,240,35034,1,8,0:0:0:0:
235,238,35103,1,8,0:0:0:0:
251,237,35171,1,8,0:0:0:0:
267,240,35239,1,8,0:0:0:0:
286,251,35307,1,8,0:0:0:0:
301,266,35375,1,8,0:0:0:0:
311,300,35443,1,8,0:0:0:0:
302,335,35512,5,6,0:0:0:0:
457,253,35648,1,6,0:0:0:0:
84,63,37693,5,6,0:0:0:0:
239,145,37829,1,6,0:0:0:0:
106,341,39875,5,6,0:0:0:0:
261,259,40011,1,6,0:0:0:0:
106,341,41103,5,6,0:0:0:0:
106,177,42057,5,6,0:0:0:0:
261,259,42193,1,6,0:0:0:0:
106,177,43148,5,10,0:0:0:0:
98,212,43216,1,8,0:0:0:0:
90,247,43284,2,0,L|147:221,1,45
277,126,43421,1,10,0:0:0:0:
285,161,43489,1,8,0:0:0:0:
293,196,43557,2,0,L|236:170,1,45
117,95,43693,5,4,0:0:0:0:
372,26,43830,1,8,0:0:0:0:
380,60,43898,1,8,0:0:0:0:
389,94,43966,1,10,0:0:0:0:
397,128,44034,1,8,0:0:0:0:
406,163,44103,1,10,0:0:0:0:
414,197,44171,1,8,0:0:0:0:
423,231,44239,6,0,P|449:179|447:117,1,99.0000030212403,4|8,0:0|0:0,0:0:0:0:
293,196,44512,1,2,0:0:0:0:
293,196,44580,1,0,0:0:0:0:
293,196,44648,1,8,0:0:0:0:
401,317,44784,1,2,0:0:0:0:
389,94,44921,1,8,0:0:0:0:
315,282,45057,1,0,0:0:0:0:
451,138,45193,1,8,0:0:0:0:
265,205,45330,5,0,0:0:0:0:
490,226,45466,2,0,L|389:241,1,90,10|0,0:0|0:0,0:0:0:0:
390,250,45671,1,0,0:0:0:0:
390,250,45739,1,8,0:0:0:0:
299,107,45875,2,0,L|400:92,1,90,2|8,0:0|0:0,0:0:0:0:
247,235,46148,1,2,0:0:0:0:
130,26,46284,1,10,0:0:0:0:
46,254,46421,6,0,P|33:198|53:151,1,90,0|8,0:0|0:0,0:0:0:0:
144,343,46693,1,2,0:0:0:0:
144,343,46762,1,0,0:0:0:0:
144,343,46830,1,8,0:0:0:0:
311,189,46966,2,0,P|324:245|304:292,1,90,2|8,0:0|0:0,0:0:0:0:
161,173,47239,1,0,0:0:0:0:
156,363,47375,1,8,0:0:0:0:
35,190,47512,5,2,0:0:0:0:
238,289,47648,1,8,0:0:0:0:
139,87,47784,1,2,0:0:0:0:
139,87,47853,1,0,0:0:0:0:
139,87,47921,1,8,0:0:0:0:
248,304,48057,1,0,0:0:0:0:
38,325,48193,1,8,0:0:0:0:
254,150,48330,1,2,0:0:0:0:
26,343,48466,1,10,0:0:0:0:
139,87,48603,6,0,P|189:73|258:83,1,90,0|8,0:0|0:0,0:0:0:0:
358,217,48875,1,2,0:0:0:0:
353,234,48943,1,0,0:0:0:0:
348,251,49012,1,8,0:0:0:0:
327,39,49148,1,2,0:0:0:0:
481,179,49284,1,8,0:0:0:0:
240,233,49421,2,0,P|190:219|121:229,1,90,0|8,0:0|0:0,0:0:0:0:
294,358,49693,5,0,0:0:0:0:
481,179,49830,2,0,L|466:283,1,90,10|0,0:0|0:0,0:0:0:0:
465,285,50034,1,0,0:0:0:0:
462,303,50103,1,8,0:0:0:0:
257,223,50239,1,0,0:0:0:0:
405,121,50375,1,8,0:0:0:0:
240,233,50512,1,2,0:0:0:0:
465,285,50648,1,10,0:0:0:0:
274,114,50784,6,0,L|161:90,1,90,0|8,0:0|0:0,0:0:0:0:
43,235,51057,1,2,0:0:0:0:
60,239,51125,1,0,0:0:0:0:
77,243,51193,1,8,0:0:0:0:
288,368,51330,2,0,L|175:344,1,90,2|8,0:0|0:0,0:0:0:0:
400,218,51603,1,0,0:0:0:0:
185,95,51739,1,8,0:0:0:0:
288,368,51875,5,8,0:0:0:0:
294,332,51943,1,8,0:0:0:0:
300,296,52012,1,8,0:0:0:0:
306,260,52080,1,8,0:0:0:0:
312,224,52148,2,0,L|217:284,1,90,6|0,0:0|0:0,0:0:0:0:
471,308,52421,5,8,0:0:0:0:
477,272,52489,1,8,0:0:0:0:
483,236,52558,1,8,0:0:0:0:
489,200,52626,1,8,0:0:0:0:
495,164,52693,2,0,L|400:224,1,90,6|0,0:0|0:0,0:0:0:0:
185,95,52966,6,0,L|280:155,1,90,4|8,0:0|0:0,0:0:0:0:
294,332,53239,1,2,0:0:0:0:
294,332,53307,1,0,0:0:0:0:
294,332,53375,1,8,0:0:0:0:
418,212,53512,1,2,0:0:0:0:
205,249,53648,1,8,0:0:0:0:
342,112,53784,1,0,0:0:0:0:
294,332,53921,1,8,0:0:0:0:
199,121,54057,5,0,0:0:0:0:
418,212,54193,2,0,P|371:219|314:207,1,90,10|0,0:0|0:0,0:0:0:0:
308,199,54398,1,0,0:0:0:0:
308,199,54466,1,8,0:0:0:0:
403,351,54603,2,0,P|450:358|507:346,1,90,2|8,0:0|0:0,0:0:0:0:
374,147,54875,1,2,0:0:0:0:
216,341,55012,1,10,0:0:0:0:
290,85,55148,6,0,L|287:205,1,90,0|8,0:0|0:0,0:0:0:0:
403,351,55421,1,2,0:0:0:0:
403,351,55489,1,0,0:0:0:0:
403,351,55557,1,8,0:0:0:0:
198,233,55693,2,0,L|195:353,1,90,2|8,0:0|0:0,0:0:0:0:
362,246,55966,1,0,0:0:0:0:
177,142,56103,1,8,0:0:0:0:
216,341,56239,5,2,0:0:0:0:
302,128,56375,1,8,0:0:0:0:
403,351,56512,1,2,0:0:0:0:
403,351,56580,1,0,0:0:0:0:
403,351,56648,1,8,0:0:0:0:
311,99,56784,1,2,0:0:0:0:
123,274,56921,1,8,0:0:0:0:
407,243,57057,1,2,0:0:0:0:
106,286,57193,1,10,0:0:0:0:
210,23,57330,6,0,L|195:135,1,90,0|8,0:0|0:0,0:0:0:0:
303,248,57603,1,2,0:0:0:0:
306,224,57671,1,0,0:0:0:0:
309,201,57739,1,8,0:0:0:0:
106,286,57875,2,0,L|121:174,1,90,2|8,0:0|0:0,0:0:0:0:
281,340,58148,1,0,0:0:0:0:
295,117,58284,1,8,0:0:0:0:
452,315,58421,5,0,0:0:0:0:
384,127,58557,2,0,L|278:114,1,90,10|0,0:0|0:0,0:0:0:0:
271,114,58762,1,0,0:0:0:0:
248,111,58830,1,8,0:0:0:0:
56,213,58966,1,2,0:0:0:0:
303,248,59103,1,8,0:0:0:0:
123,85,59239,1,2,0:0:0:0:
313,270,59375,1,10,0:0:0:0:
56,353,59512,6,0,P|119:357|175:338,1,90,0|8,0:0|0:0,0:0:0:0:
66,170,59784,1,2,0:0:0:0:
61,192,59853,1,0,0:0:0:0:
56,213,59921,1,8,0:0:0:0:
210,35,60057,1,2,0:0:0:0:
226,238,60193,1,8,0:0:0:0:
83,55,60330,1,0,0:0:0:0:
85,290,60466,1,8,0:0:0:0:
297,93,60603,5,8,0:0:0:0:
337,95,60671,1,8,0:0:0:0:
375,107,60739,1,8,0:0:0:0:
406,132,60807,1,8,0:0:0:0:
418,170,60875,1,6,0:0:0:0:
277,308,61012,1,0,0:0:0:0:
283,15,61148,5,10,0:0:0:0:
290,54,61216,1,8,0:0:0:0:
297,93,61284,1,0,0:0:0:0:
266,330,61421,1,0,0:0:0:0:
418,170,61557,1,0,0:0:0:0:
121,212,61693,6,0,L|213:192,1,67.5000025749208,6|0,0:0|0:0,0:0:0:0:
297,93,61966,2,0,L|205:113,1,67.5000025749208
338,184,62239,1,0,0:0:0:0:
418,170,62375,1,0,0:0:0:0:
383,269,62512,1,8,0:0:0:0:
463,283,62648,1,0,0:0:0:0:
391,365,62784,5,0,0:0:0:0:
338,184,62921,1,0,0:0:0:0:
320,293,63057,2,0,L|406:259,1,67.5000025749208,2|0,0:0|0:0,0:0:0:0:
198,230,63330,1,8,0:0:0:0:
168,332,63466,1,0,0:0:0:0:
83,245,63603,2,0,P|87:195|110:153,1,67.5000025749208,2|0,0:0|0:0,0:0:0:0:
255,69,63875,6,0,P|251:119|228:161,1,67.5000025749208,10|0,0:0|0:0,0:0:0:0:
198,230,64148,1,0,0:0:0:0:
299,283,64284,1,0,0:0:0:0:
373,209,64421,1,0,0:0:0:0:
474,262,64557,1,0,0:0:0:0:
299,283,64693,2,0,L|279:198,1,67.5000025749208,10|0,0:0|0:0,0:0:0:0:
202,133,64966,5,0,0:0:0:0:
174,361,65103,1,8,0:0:0:0:
299,283,65239,2,0,L|382:305,1,67.5000025749208,2|0,0:0|0:0,0:0:0:0:
202,133,65512,1,8,0:0:0:0:
354,96,65648,1,0,0:0:0:0:
258,216,65784,2,0,L|166:238,1,67.5000025749208,2|0,0:0|0:0,0:0:0:0:
42,140,66057,6,0,L|134:118,1,67.5000025749208,6|0,0:0|0:0,0:0:0:0:
178,33,66330,1,0,0:0:0:0:
279,68,66466,1,0,0:0:0:0:
202,133,66603,1,0,0:0:0:0:
306,167,66739,1,0,0:0:0:0:
178,33,66875,1,8,0:0:0:0:
89,87,67012,1,0,0:0:0:0:
202,133,67148,5,0,0:0:0:0:
129,302,67284,1,8,0:0:0:0:
260,284,67421,2,0,P|309:284|354:262,1,67.5000025749208
153,195,67693,1,8,0:0:0:0:
129,302,67830,1,0,0:0:0:0:
31,209,67966,2,0,P|21:248|25:288,1,67.5000025749208,2|0,0:0|0:0,0:0:0:0:
154,112,68239,6,0,P|164:73|160:33,1,67.5000025749208,10|0,0:0|0:0,0:0:0:0:
66,119,68512,1,0,0:0:0:0:
153,195,68648,1,0,0:0:0:0:
241,137,68784,1,0,0:0:0:0:
317,217,68921,1,0,0:0:0:0:
86,208,69057,2,0,L|171:191,1,67.5000025749208,10|0,0:0|0:0,0:0:0:0:
241,137,69330,5,0,0:0:0:0:
291,347,69466,1,8,0:0:0:0:
317,217,69603,1,0,0:0:0:0:
204,278,69739,1,0,0:0:0:0:
478,297,69875,1,8,0:0:0:0:
378,351,70012,1,0,0:0:0:0:
317,217,70148,1,2,0:0:0:0:
417,163,70284,1,2,0:0:0:0:
378,351,70421,6,0,L|391:266,1,67.5000025749208,6|0,0:0|0:0,0:0:0:0:
281,295,70693,2,0,L|268:380,1,67.5000025749208
194,262,70966,1,0,0:0:0:0:
171,163,71103,1,0,0:0:0:0:
24,270,71239,1,8,0:0:0:0:
47,171,71376,1,0,0:0:0:0:
171,163,71512,5,0,0:0:0:0:
140,347,71648,1,8,0:0:0:0:
194,262,71784,2,0,P|150:256|106:273,1,67.5000025749208,2|0,0:0|0:0,0:0:0:0:
324,348,72057,1,8,0:0:0:0:
289,248,72193,1,0,0:0:0:0:
394,176,72330,2,0,P|400:220|383:264,1,67.5000025749208,2|0,0:0|0:0,0:0:0:0:
251,58,72603,6,0,P|245:102|262:146,1,67.5000025749208,10|0,0:0|0:0,0:0:0:0:
289,248,72875,1,0,0:0:0:0:
394,176,73012,1,0,0:0:0:0:
423,299,73148,1,0,0:0:0:0:
316,369,73284,1,0,0:0:0:0:
394,176,73421,2,0,L|379:84,1,67.5000025749208,10|0,0:0|0:0,0:0:0:0:
250,124,73693,5,0,0:0:0:0:
423,299,73830,1,8,0:0:0:0:
289,248,73966,1,0,0:0:0:0:
394,176,74103,1,0,0:0:0:0:
316,369,74239,1,8,0:0:0:0:
216,321,74375,1,0,0:0:0:0:
124,377,74512,2,0,L|50:355,1,67.5000025749208,2|0,0:0|0:0,0:0:0:0:
32,148,74784,6,0,L|106:170,1,67.5000025749208,6|0,0:0|0:0,0:0:0:0:
204,239,75057,1,0,0:0:0:0:
297,147,75193,1,0,0:0:0:0:
406,214,75330,1,0,0:0:0:0:
475,107,75466,1,0,0:0:0:0:
294,213,75603,2,0,P|290:171|307:127,1,67.5000025749208,8|0,0:0|0:0,0:0:0:0:
406,214,75875,5,0,0:0:0:0:
177,321,76012,1,8,0:0:0:0:
95,211,76148,2,0,P|91:169|108:125,1,67.5000025749208
339,60,76421,1,8,0:0:0:0:
212,19,76557,1,0,0:0:0:0:
270,156,76693,2,0,P|276:188|272:222,1,67.5000025749208,2|0,0:0|0:0,0:0:0:0:
42,347,76966,6,0,P|35:314|39:280,1,67.5000025749208,10|0,0:0|0:0,0:0:0:0:
177,321,77239,1,0,0:0:0:0:
271,222,77375,1,0,0:0:0:0:
316,358,77512,1,0,0:0:0:0:
426,255,77648,1,0,0:0:0:0:
177,321,77784,2,0,L|269:311,1,67.5000025749208,10|0,0:0|0:0,0:0:0:0:
383,315,78057,5,0,0:0:0:0:
310,55,78193,1,8,0:0:0:0:
411,157,78330,1,0,0:0:0:0:
453,22,78466,1,0,0:0:0:0:
271,222,78603,5,8,0:0:0:0:
154,21,78739,1,8,0:0:0:0:
286,247,78875,5,8,0:0:0:0:
23,200,79012,1,8,0:0:0:0:
310,55,79148,5,4,0:0:0:0:
310,55,79421,1,0,0:0:0:0:
411,157,79693,1,2,0:0:0:0:
411,157,79966,1,0,0:0:0:0:
159,143,80239,6,0,B|129:277|129:277|168:232,1,180,10|0,0:0|0:0,0:0:0:0:
399,330,80784,1,2,0:0:0:0:
399,330,81057,1,0,0:0:0:0:
310,55,81330,5,2,0:0:0:0:
159,143,81603,1,0,0:0:0:0:
451,145,81875,1,0,0:0:0:0:
310,55,82148,1,0,0:0:0:0:
279,337,82421,6,0,B|232:324|232:324|193:338|193:338|136:323,1,141.749995674133,6|0,0:0|0:0,0:0:0:0:
114,234,82693,6,0,B|193:255|193:255|261:229,1,148.50000453186,6|0,0:0|0:0,0:0:0:0:
293,131,82966,6,0,B|189:173|189:173|188:171|225:114,1,155.250002961159,6|0,0:0|0:0,0:0:0:0:
210,50,83239,1,6,0:0:0:0:
279,337,83512,5,6,0:0:0:0:
279,337,83784,1,0,0:0:0:0:
462,162,84057,1,2,0:0:0:0:
462,162,84330,1,0,0:0:0:0:
175,191,84603,6,0,P|130:201|173:134,1,180,10|0,0:0|0:0,0:0:0:0:
411,277,85148,1,2,0:0:0:0:
411,277,85421,1,0,0:0:0:0:
70,289,85693,5,2,0:0:0:0:
32,103,85966,1,0,0:0:0:0:
259,281,86239,1,0,0:0:0:0:
70,289,86512,1,0,0:0:0:0:
240,115,86784,6,0,P|315:109|361:47,1,141.749995674133,6|0,0:0|0:0,0:0:0:0:
271,28,87057,6,0,B|231:17|231:17|175:55|100:11,1,148.50000453186,6|0,0:0|0:0,0:0:0:0:
50,95,87330,5,10,0:0:0:0:
67,114,87398,1,8,0:0:0:0:
81,137,87466,1,0,0:0:0:0:
90,160,87534,1,0,0:0:0:0:
95,187,87603,1,2,0:0:0:0:
96,214,87671,1,0,0:0:0:0:
92,239,87739,1,0,0:0:0:0:
85,264,87807,1,0,0:0:0:0:
70,289,87875,5,6,0:0:0:0:
245,210,88012,1,2,0:0:0:0:
186,373,88148,2,0,P|174:312|180:269,1,90,8|0,0:0|0:0,0:0:0:0:
197,127,88421,1,2,0:0:0:0:
70,289,88557,1,0,0:0:0:0:
272,201,88693,1,8,0:0:0:0:
60,158,88830,6,0,B|28:102|44:38|44:38|75:55|94:88,1,180,2|0,0:0|0:0,0:0:0:0:
176,284,89239,2,0,P|131:289|64:267,1,90,10|0,0:0|0:0,0:0:0:0:
272,201,89512,1,2,0:0:0:0:
256,367,89648,1,0,0:0:0:0:
87,279,89784,2,0,L|96:176,1,90,8|0,0:0|0:0,0:0:0:0:
233,78,90057,5,0,0:0:0:0:
48,89,90193,1,2,0:0:0:0:
272,201,90330,2,0,L|281:304,1,90,8|0,0:0|0:0,0:0:0:0:
376,75,90603,1,2,0:0:0:0:
179,181,90739,1,0,0:0:0:0:
395,64,90875,1,8,0:0:0:0:
379,268,91012,1,2,0:0:0:0:
233,78,91148,5,4,0:0:0:0:
165,314,91284,1,0,0:0:0:0:
461,223,91421,6,0,P|403:190|290:212,1,148.50000453186,14|0,0:0|0:0,0:0:0:0:
294,215,91693,5,6,0:0:0:0:
73,74,91830,1,0,0:0:0:0:
165,314,91966,2,0,P|153:221|204:147,1,161.999995056153,12|0,0:0|0:0,0:0:0:0:
214,153,92239,5,4,0:0:0:0:
341,340,92375,1,2,0:0:0:0:
86,342,92512,2,0,P|66:290|66:245,1,90,8|0,0:0|0:0,0:0:0:0:
92,87,92784,1,2,0:0:0:0:
229,246,92921,1,0,0:0:0:0:
268,48,93057,1,8,0:0:0:0:
454,215,93193,6,0,B|473:163|454:91|454:91|431:134|398:147,1,180,2|0,0:0|0:0,0:0:0:0:
229,246,93603,2,0,L|121:216,1,90,8|0,0:0|0:0,0:0:0:0:
308,368,93875,1,2,0:0:0:0:
339,154,94012,1,0,0:0:0:0:
191,289,94148,2,0,P|245:276|299:259,1,90,8|0,0:0|0:0,0:0:0:0:
454,215,94421,5,0,0:0:0:0:
308,368,94557,1,2,0:0:0:0:
134,210,94693,2,0,P|124:156|143:110,1,90,8|0,0:0|0:0,0:0:0:0:
343,47,94966,1,2,0:0:0:0:
289,246,95103,1,0,0:0:0:0:
340,22,95239,1,8,0:0:0:0:
446,234,95375,1,2,0:0:0:0:
197,94,95512,5,12,0:0:0:0:
472,43,95648,1,0,0:0:0:0:
171,183,95784,5,14,0:0:0:0:
446,234,95920,1,0,0:0:0:0:
181,20,96057,5,8,0:0:0:0:
189,57,96125,1,8,0:0:0:0:
197,94,96193,1,0,0:0:0:0:
357,283,96330,1,8,0:0:0:0:
349,246,96398,1,8,0:0:0:0:
341,209,96466,1,0,0:0:0:0:
141,355,96603,5,6,0:0:0:0:
141,355,99875,5,4,0:0:0:0:
172,288,100421,5,6,0:0:0:0:
203,222,100966,5,6,0:0:0:0:
203,222,104239,5,4,0:0:0:0:
172,155,104785,5,6,0:0:0:0:
141,89,105330,5,6,0:0:0:0:
217,22,105603,1,2,0:0:0:0:
293,88,105875,1,0,0:0:0:0:
369,21,106148,1,2,0:0:0:0:
458,67,106421,5,0,0:0:0:0:
293,88,106693,1,2,0:0:0:0:
468,163,106966,1,0,0:0:0:0:
303,184,107239,1,2,0:0:0:0:
479,255,107512,5,0,0:0:0:0:
458,67,107784,1,2,0:0:0:0:
270,92,108057,1,0,0:0:0:0:
290,280,108330,1,2,0:0:0:0:
458,67,108603,5,4,0:0:0:0:
215,187,108875,1,0,0:0:0:0:
455,315,109148,1,4,0:0:0:0:
215,187,109421,1,0,0:0:0:0:
458,67,109693,6,8,L|454:101,3,22.5,4|8|8|8,0:0|0:0|0:0|0:0,0:0:0:0:
382,155,109966,6,8,L|386:120,3,26.9999991760254
469,204,110239,6,8,L|465:242,3,31.4999990386963
367,300,110512,6,8,L|371:260,3,38.2500007295609
271,355,110784,5,8,0:0:0:0:
248,352,110853,1,8,0:0:0:0:
227,342,110921,1,8,0:0:0:0:
210,326,110989,1,8,0:0:0:0:
200,305,111057,1,8,0:0:0:0:
198,282,111125,1,8,0:0:0:0:
202,259,111193,1,8,0:0:0:0:
214,240,111262,1,8,0:0:0:0:
233,229,111330,5,8,0:0:0:0:
233,258,111398,1,8,0:0:0:0:
222,285,111466,1,8,0:0:0:0:
200,305,111534,1,8,0:0:0:0:
171,314,111603,1,8,0:0:0:0:
141,311,111671,1,8,0:0:0:0:
114,298,111739,1,8,0:0:0:0:
96,273,111807,1,8,0:0:0:0:
90,243,111875,5,8,0:0:0:0:
127,227,111943,1,8,0:0:0:0:
167,227,112012,1,8,0:0:0:0:
200,249,112080,1,8,0:0:0:0:
215,286,112148,1,8,0:0:0:0:
245,312,112216,1,8,0:0:0:0:
285,314,112284,1,8,0:0:0:0:
317,289,112353,1,8,0:0:0:0:
337,253,112421,5,8,0:0:0:0:
335,297,112489,1,8,0:0:0:0:
363,331,112557,1,8,0:0:0:0:
406,341,112625,1,8,0:0:0:0:
441,313,112693,1,8,0:0:0:0:
449,268,112762,1,8,0:0:0:0:
419,234,112830,1,8,0:0:0:0:
374,227,112898,1,8,0:0:0:0:
337,253,112966,6,0,B|269:229|269:229|189:252|189:252|105:223,1,236.250009012223,6|0,0:0|0:0,0:0:0:0:
106,128,113512,6,0,B|191:157|191:157|261:135,1,157.5,6|0,0:0|0:0,0:0:0:0:
338,120,114057,6,0,L|369:232,1,107.999996704102,6|8,0:0|0:0,0:0:0:0:
221,306,114330,1,2,0:0:0:0:
221,306,114398,1,0,0:0:0:0:
221,306,114466,1,8,0:0:0:0:
111,137,114603,1,2,0:0:0:0:
59,311,114739,1,8,0:0:0:0:
260,145,114875,1,2,0:0:0:0:
208,330,115012,6,0,L|177:219,1,99.0000030212403,10|0,0:0|0:0,0:0:0:0:
287,64,115284,1,8,0:0:0:0:
429,259,115420,1,2,0:0:0:0:
435,281,115489,1,0,0:0:0:0:
442,304,115557,1,8,0:0:0:0:
201,353,115693,1,2,0:0:0:0:
388,166,115830,1,8,0:0:0:0:
142,220,115966,1,2,0:0:0:0:
442,304,116103,6,0,P|392:316|323:299,1,99.0000030212403,10|0,0:0|0:0,0:0:0:0:
208,145,116375,1,8,0:0:0:0:
201,353,116512,1,2,0:0:0:0:
201,353,116580,1,0,0:0:0:0:
201,353,116648,1,8,0:0:0:0:
314,141,116784,1,0,0:0:0:0:
353,343,116921,1,8,0:0:0:0:
142,220,117057,2,0,P|92:208|23:225,1,99.0000030212403,0|8,0:0|0:0,0:0:0:0:
217,365,117330,5,4,0:0:0:0:
314,141,117466,1,8,0:0:0:0:
360,372,117603,1,0,0:0:0:0:
353,343,117671,1,0,0:0:0:0:
347,313,117739,1,8,0:0:0:0:
147,137,117875,5,4,0:0:0:0:
407,212,118012,1,8,0:0:0:0:
126,118,118148,1,0,0:0:0:0:
217,365,118284,1,8,0:0:0:0:
265,80,118421,6,0,P|324:66|372:83,1,99.0000030212403,6|8,0:0|0:0,0:0:0:0:
417,252,118693,1,2,0:0:0:0:
412,232,118762,1,0,0:0:0:0:
407,212,118830,1,8,0:0:0:0:
231,351,118966,1,2,0:0:0:0:
444,346,119103,1,8,0:0:0:0:
314,141,119239,1,2,0:0:0:0:
217,365,119375,6,0,L|192:255,1,99.0000030212403,10|0,0:0|0:0,0:0:0:0:
265,80,119648,1,8,0:0:0:0:
417,252,119784,1,2,0:0:0:0:
417,252,119853,1,0,0:0:0:0:
417,252,119921,1,8,0:0:0:0:
469,32,120057,1,2,0:0:0:0:
419,275,120193,1,8,0:0:0:0:
265,80,120330,1,2,0:0:0:0:
282,308,120466,6,0,P|282:243|302:198,1,99.0000030212403,10|0,0:0|0:0,0:0:0:0:
470,367,120739,1,8,0:0:0:0:
475,120,120875,1,2,0:0:0:0:
469,152,120943,1,0,0:0:0:0:
463,184,121012,1,8,0:0:0:0:
271,332,121148,1,0,0:0:0:0:
254,104,121284,1,8,0:0:0:0:
419,275,121421,1,0,0:0:0:0:
158,222,121557,1,8,0:0:0:0:
407,84,121693,5,4,0:0:0:0:
271,332,121830,1,0,0:0:0:0:
172,60,121966,1,8,0:0:0:0:
209,36,122034,1,8,0:0:0:0:
252,25,122103,1,8,0:0:0:0:
295,32,122171,1,8,0:0:0:0:
329,59,122239,5,8,0:0:0:0:
333,81,122307,1,0,0:0:0:0:
337,103,122375,1,0,0:0:0:0:
341,125,122443,1,0,0:0:0:0:
345,147,122512,1,0,0:0:0:0:
349,169,122580,1,0,0:0:0:0:
353,191,122648,1,0,0:0:0:0:
357,213,122716,1,0,0:0:0:0:
361,235,122784,6,0,L|242:211,1,107.999996704102,6|8,0:0|0:0,0:0:0:0:
92,330,123057,1,2,0:0:0:0:
92,330,123125,1,0,0:0:0:0:
92,330,123193,1,8,0:0:0:0:
271,332,123330,1,2,0:0:0:0:
178,159,123466,1,8,0:0:0:0:
75,353,123603,1,2,0:0:0:0:
255,213,123739,6,0,L|372:237,1,99.0000030212403,10|0,0:0|0:0,0:0:0:0:
184,72,124012,1,8,0:0:0:0:
58,246,124148,1,2,0:0:0:0:
58,246,124216,1,0,0:0:0:0:
58,246,124284,1,8,0:0:0:0:
274,229,124421,1,2,0:0:0:0:
43,96,124557,1,8,0:0:0:0:
156,312,124693,1,2,0:0:0:0:
184,72,124830,6,0,L|168:188,1,99.0000030212403,10|0,0:0|0:0,0:0:0:0:
283,350,125103,1,8,0:0:0:0:
354,137,125239,1,2,0:0:0:0:
354,137,125307,1,0,0:0:0:0:
354,137,125375,1,8,0:0:0:0:
464,338,125512,1,0,0:0:0:0:
490,90,125648,1,8,0:0:0:0:
318,262,125784,2,0,P|264:261|206:228,1,99.0000030212403,0|8,0:0|0:0,0:0:0:0:
69,59,126057,5,4,0:0:0:0:
69,309,126193,1,8,0:0:0:0:
226,106,126330,1,0,0:0:0:0:
226,106,126398,1,0,0:0:0:0:
226,106,126466,1,8,0:0:0:0:
221,342,126603,5,4,0:0:0:0:
48,159,126739,1,8,0:0:0:0:
233,358,126875,1,0,0:0:0:0:
226,106,127012,1,8,0:0:0:0:
78,336,127148,6,0,P|65:276|74:229,1,99.0000030212403,6|8,0:0|0:0,0:0:0:0:
187,31,127421,1,2,0:0:0:0:
209,27,127489,1,0,0:0:0:0:
231,23,127557,1,8,0:0:0:0:
406,188,127693,1,2,0:0:0:0:
161,177,127830,1,8,0:0:0:0:
422,44,127966,1,2,0:0:0:0:
303,292,128103,6,0,P|293:232|306:171,1,99.0000030212403,10|0,0:0|0:0,0:0:0:0:
438,27,128375,1,8,0:0:0:0:
478,291,128512,1,2,0:0:0:0:
473,261,128580,1,0,0:0:0:0:
469,231,128648,1,8,0:0:0:0:
226,366,128784,1,2,0:0:0:0:
486,367,128921,1,8,0:0:0:0:
336,109,129057,1,2,0:0:0:0:
207,377,129193,1,10,0:0:0:0:
469,231,129330,5,10,0:0:0:0:
463,202,129398,1,8,0:0:0:0:
457,173,129466,1,0,0:0:0:0:
452,144,129534,1,0,0:0:0:0:
446,115,129603,1,2,0:0:0:0:
440,86,129671,1,0,0:0:0:0:
434,57,129739,5,10,0:0:0:0:
428,86,129807,1,8,0:0:0:0:
422,115,129875,1,0,0:0:0:0:
417,144,129943,1,0,0:0:0:0:
411,173,130012,1,0,0:0:0:0:
405,202,130080,1,0,0:0:0:0:
399,230,130148,5,10,0:0:0:0:
370,237,130216,1,8,0:0:0:0:
341,232,130284,1,0,0:0:0:0:
316,216,130353,1,0,0:0:0:0:
297,194,130421,5,0,0:0:0:0:
87,26,130557,1,10,0:0:0:0:
78,66,130625,1,8,0:0:0:0:
69,106,130693,1,10,0:0:0:0:
153,339,130830,1,10,0:0:0:0:
162,299,130898,1,8,0:0:0:0:
172,260,130966,5,10,0:0:0:0:
181,256,131034,1,8,0:0:0:0:
191,254,131103,1,8,0:0:0:0:
206,252,131171,1,8,0:0:0:0:
223,254,131239,1,8,0:0:0:0:
242,264,131307,1,8,0:0:0:0:
258,279,131375,1,8,0:0:0:0:
270,311,131443,1,8,0:0:0:0:
265,345,131512,5,6,0:0:0:0:
483,248,131648,1,6,0:0:0:0:
77,60,133693,5,6,0:0:0:0:
295,157,133829,1,6,0:0:0:0:
77,60,134784,5,10,0:0:0:0:
116,47,134853,1,8,0:0:0:0:
155,33,134921,2,0,L|142:112,1,51.7500009870529
225,181,135057,1,8,0:0:0:0:
264,194,135126,1,8,0:0:0:0:
303,208,135194,2,0,L|290:129,1,51.7500009870529
358,65,135330,5,2,0:0:0:0:
454,304,135466,1,8,0:0:0:0:
458,262,135534,1,8,0:0:0:0:
462,220,135603,1,2,0:0:0:0:
235,359,135738,1,8,0:0:0:0:
231,317,135806,1,8,0:0:0:0:
227,275,135875,5,6,0:0:0:0:
358,65,136012,1,6,0:0:0:0:
