osu file format v14

[General]
AudioFilename: audio.mp3
AudioLeadIn: 0
PreviewTime: 96603
Countdown: 0
SampleSet: None
StackLeniency: 0.2
Mode: 0
LetterboxInBreaks: 0
WidescreenStoryboard: 0

[Editor]
DistanceSpacing: 1.5
BeatDivisor: 4
GridSize: 8
TimelineZoom: 1.2

[Metadata]
Title:Galapagos de Warui ka
TitleUnicode:ガラパゴスで悪いか
Artist:Utsu-P
ArtistUnicode:鬱P
Creator:DendyHere
Version:Hard
Source:
Tags:UtsuP GALAPAGOS 初音ミク Hatsune Miku 鏡音リン Kagamine Rin vocaloid metal rock MY SONG IS SHIT comiket 92 c92 mirimo Akitoshi -Laura- 619 Shmiklak Danii
BeatmapID:1670394
BeatmapSetID:795379

[Difficulty]
HPDrainRate:3.5
CircleSize:3.5
OverallDifficulty:6.5
ApproachRate:8
SliderMultiplier:1.1
SliderTickRate:1

[Events]
//Background and Video events
0,0,"global.jpg",0,0
//Break Periods
2,96803,99050
2,101165,103414
//Storyboard Layer 0 (Background)
//Storyboard Layer 1 (Fail)
//Storyboard Layer 2 (Pass)
//Storyboard Layer 3 (Foreground)
//Storyboard Sound Samples

[TimingPoints]
603,272.727272727273,4,3,3,60,1,0
18057,-100,4,3,2,60,0,0
18262,-100,4,3,2,10,0,0
18330,-100,4,3,2,60,0,0
18534,-100,4,3,2,10,0,0
18602,-100,4,3,2,60,0,0
19148,-100,4,3,2,60,0,0
20239,-100,4,3,2,60,0,0
20443,-100,4,3,2,10,0,0
20511,-100,4,3,2,60,0,0
20715,-100,4,3,2,10,0,0
20783,-100,4,3,2,60,0,0
21330,-100,4,3,2,60,0,0
22421,-100,4,3,3,60,0,0
22966,-100,4,3,3,60,0,0
23171,-100,4,3,3,10,0,0
23239,-100,4,3,3,60,0,0
25148,-100,4,3,3,60,0,0
25353,-100,4,3,3,10,0,0
25421,-100,4,3,3,60,0,0
26784,-100,4,3,2,60,0,0
34421,-100,4,3,3,60,0,0
44239,-100,4,3,2,60,0,0
44307,-100,4,3,2,60,0,0
47512,-100,4,3,2,60,0,0
48603,-100,4,3,2,60,0,0
52966,-100,4,3,3,60,0,0
56239,-100,4,3,3,60,0,0
57330,-100,4,3,3,60,0,0
61693,-100,4,3,7,60,0,0
61830,-100,4,3,6,40,0,0
78603,-100,4,3,6,50,0,0
79148,-100,4,3,2,60,0,0
79216,-100,4,3,2,60,0,0
82421,-100,4,3,2,60,0,0
82625,-100,4,3,2,10,0,0
82693,-100,4,3,2,60,0,0
82898,-100,4,3,2,10,0,0
82966,-100,4,3,2,60,0,0
83171,-100,4,3,2,10,0,0
83239,-100,4,3,2,60,0,0
83443,-100,4,3,2,10,0,0
83512,-100,4,3,3,60,0,0
83580,-100,4,3,2,60,0,0
84057,-100,4,3,2,60,0,0
86784,-100,4,3,2,60,0,0
86988,-100,4,3,2,10,0,0
87056,-100,4,3,2,60,0,0
87262,-100,4,3,2,10,0,0
87330,-100,4,3,2,60,0,0
87875,-100,4,3,3,60,0,0
87943,-100,4,3,3,60,0,0
88421,-100,4,3,2,60,0,0
91148,-100,4,3,2,60,0,0
91421,-100,4,3,2,60,0,0
91625,-100,4,3,2,10,0,0
91693,-100,4,3,2,60,0,0
91966,-100,4,3,2,60,0,0
92171,-100,4,3,2,10,0,0
92239,-100,4,3,3,60,0,0
92307,-100,4,3,2,60,0,0
95784,-100,4,3,3,60,0,0
96603,-100,4,3,2,60,0,0
99875,-125,4,3,2,60,0,0
104239,-125,4,3,3,45,0,0
105330,-100,4,3,2,45,0,0
105603,-100,4,3,0,45,0,0
108603,-100,4,3,3,45,0,0
113512,-100,4,3,3,50,0,0
113580,-100,4,3,3,10,0,0
114057,-83.3333333333333,4,3,4,80,0,1
114125,-83.3333333333333,4,3,4,80,0,1
117875,-83.3333333333333,4,3,5,80,0,1
118421,-83.3333333333333,4,3,4,80,0,1
122784,-83.3333333333333,4,3,4,80,0,1
122853,-83.3333333333333,4,3,4,80,0,1
126603,-83.3333333333333,4,3,5,80,0,1
127148,-83.3333333333333,4,3,4,80,0,1
129330,-83.3333333333333,4,3,3,80,0,1
131512,-100,4,3,3,60,0,0
134784,-100,4,3,3,60,0,0
135875,-100,4,3,3,60,0,0

[Colours]
Combo1 : 0,128,0
Combo2 : 128,0,64
Combo3 : 0,213,53
Combo4 : 211,3,71

[HitObjects]
165,108,18057,6,0,B|213:106|213:106|225:116|225:116|286:114,2,110,4|6|2,0:0|0:0|0:0,0:0:0:0:
47,223,18875,2,0,P|78:227|100:248,1,55,6|0,0:0|0:0,0:0:0:0:
136,313,19148,1,4,0:0:0:0:
347,108,20239,6,0,B|299:106|299:106|287:116|287:116|226:114,2,110,4|6|2,0:0|0:0|0:0,0:0:0:0:
465,223,21057,2,0,P|434:227|412:248,1,55,6|0,0:0|0:0,0:0:0:0:
376,313,21330,1,4,0:0:0:0:
58,69,22421,6,0,L|61:32,2,27.5,4|0|0,0:0|0:0|0:0,0:0:0:0:
139,81,22830,2,0,L|141:53,2,27.5,4|0|2,0:0|0:0|0:0,0:0:0:0:
274,175,23239,2,0,L|271:212,2,27.5,4|0|0,0:0|0:0|0:0,0:0:0:0:
193,163,23648,2,0,L|190:190,2,27.5,4|0|0,0:0|0:0|0:0,0:0:0:0:
406,296,24603,6,0,L|403:323,2,27.5,4|0|0,0:0|0:0|0:0,0:0:0:0:
325,284,25012,2,0,L|322:311,2,27.5,4|0|2,0:0|0:0|0:0,0:0:0:0:
190,189,25421,2,0,L|192:161,2,27.5,4|0|0,0:0|0:0|0:0,0:0:0:0:
271,202,25830,2,0,L|273:174,2,27.5,4|0|0,0:0|0:0|0:0,0:0:0:0:
352,58,26239,2,0,P|388:96|400:165,1,110,8|0,0:0|0:0,0:0:0:0:
417,232,26648,1,0,0:0:0:0:
417,232,26784,6,0,L|347:220,1,55,4|0,0:0|0:0,0:0:0:0:
322,294,27057,2,0,L|249:283,1,55,2|2,1:3|1:3,0:0:0:0:
189,313,27330,2,0,L|116:302,1,55,2|2,1:3|1:3,0:0:0:0:
150,223,27603,2,0,L|223:234,1,55,2|2,1:3|1:3,0:0:0:0:
269,181,27875,2,0,P|257:127|284:67,1,110,2|2,1:3|1:3,0:0:0:0:
349,40,28284,1,2,1:3:0:0:
349,40,28421,2,0,B|264:61|274:-7|175:16,1,165,2|2,1:3|1:3,0:0:0:0:
124,61,28966,6,0,P|117:89|125:123,1,55,0|2,1:3|1:3,0:0:0:0:
83,187,29239,2,0,L|147:196,1,55,2|2,1:3|1:3,0:0:0:0:
176,268,29512,2,0,L|230:260,1,55,2|2,1:3|1:3,0:0:0:0:
258,183,29784,2,0,L|322:192,1,55,2|2,1:3|1:3,0:0:0:0:
381,247,30057,2,0,P|358:299|376:362,1,110,2|2,1:3|1:3,0:0:0:0:
442,312,30466,1,2,1:3:0:0:
442,312,30603,2,0,B|357:337|363:264|268:287,1,165,2|2,1:3|1:3,0:0:0:0:
213,324,31148,6,0,P|199:298|165:290,1,55,4|2,0:0|1:3,0:0:0:0:
93,293,31421,2,0,L|102:231,1,55,2|2,1:3|1:3,0:0:0:0:
175,203,31693,2,0,L|166:141,1,55,2|2,1:3|1:3,0:0:0:0:
96,105,31966,2,0,L|105:43,1,55,2|2,1:3|1:3,0:0:0:0:
174,7,32239,2,0,P|225:33|286:12,1,110,2|2,1:3|1:3,0:0:0:0:
351,51,32648,1,2,1:3:0:0:
351,51,32784,2,0,B|342:121|342:121|351:139|351:139|341:230,1,165,2|2,1:3|1:3,0:0:0:0:
376,288,33330,6,0,P|347:288|302:294,1,55,10|0,0:0|0:0,0:0:0:0:
262,233,33603,1,0,0:0:0:0:
262,233,33739,2,0,P|227:235|194:254,1,55,10|0,0:0|0:0,0:0:0:0:
136,283,34012,1,0,0:0:0:0:
136,283,34148,2,0,P|118:250|95:232,1,55,10|0,0:0|0:0,0:0:0:0:
59,165,34421,2,0,P|79:145|114:132,1,55,0|0,0:0|0:0,0:0:0:0:
184,144,34693,2,0,P|156:136|127:112,1,55,10|0,0:0|0:0,0:0:0:0:
104,44,34966,2,0,B|195:20|182:85|272:57,1,165,10|8,0:0|0:0,0:0:0:0:
337,96,35512,5,6,0:0:0:0:
337,96,35648,1,6,0:0:0:0:
332,252,37693,2,0,L|324:310,1,55,6|6,0:0|0:0,0:0:0:0:
324,306,39875,6,0,L|332:252,1,55,6|6,0:0|0:0,0:0:0:0:
395,198,40148,2,0,P|344:169|280:184,1,110,0|0,0:0|0:0,0:0:0:0:
157,265,40693,2,0,P|155:237|168:202,2,55,0|0|0,0:0|0:0|0:0,0:0:0:0:
100,331,41103,2,0,P|61:285|6:274,1,110,6|0,0:0|0:0,0:0:0:0:
14,190,41512,2,0,P|73:179|110:137,1,110,0|0,0:0|0:0,0:0:0:0:
197,6,42057,5,6,0:0:0:0:
260,58,42193,1,6,0:0:0:0:
260,58,42330,2,0,L|317:54,1,55,0|0,0:0|0:0,0:0:0:0:
385,10,42603,2,0,P|368:64|383:115,1,110,0|0,0:0|0:0,0:0:0:0:
444,168,43012,1,0,0:0:0:0:
377,216,43148,2,0,L|331:210,2,27.5,10|8|0,0:0|0:0|0:0,0:0:0:0:
416,288,43421,2,0,L|462:282,2,27.5,10|8|0,0:0|0:0|0:0,0:0:0:0:
356,344,43693,1,4,0:0:0:0:
288,296,43830,2,0,B|229:283|237:327|166:311,1,110,8|10,0:0|0:0,0:0:0:0:
108,276,44239,5,4,0:0:0:0:
135,198,44375,1,8,0:0:0:0:
135,198,44512,2,0,L|122:127,1,55,2|8,0:0|0:0,0:0:0:0:
81,74,44784,2,0,L|152:60,1,55,2|8,0:0|0:0,0:0:0:0:
205,20,45057,2,0,L|218:91,1,55,2|8,0:0|0:0,0:0:0:0:
284,118,45330,2,0,P|331:93|403:109,2,110,2|2|2,0:0|0:0|0:0,0:0:0:0:
258,196,46012,1,8,0:0:0:0:
313,257,46148,2,0,L|300:373,1,110,2|2,0:0|0:0,0:0:0:0:
218,377,46557,5,8,0:0:0:0:
218,377,46693,2,0,P|192:361|143:356,1,55,2|8,0:0|0:0,0:0:0:0:
86,363,46966,2,0,P|112:348|141:308,1,55,2|8,0:0|0:0,0:0:0:0:
165,256,47239,2,0,P|173:226|165:178,1,55,2|8,0:0|0:0,0:0:0:0:
112,145,47512,2,0,P|169:161|221:131,2,110,2|2|2,0:0|0:0|0:0,0:0:0:0:
56,84,48193,1,8,0:0:0:0:
103,16,48330,2,0,P|155:0|222:29,1,110,2|2,0:0|0:0,0:0:0:0:
265,73,48739,5,8,0:0:0:0:
265,73,48875,2,0,P|295:81|331:69,1,55,2|8,0:0|0:0,0:0:0:0:
374,15,49148,2,0,P|352:36|344:74,1,55,2|8,0:0|0:0,0:0:0:0:
388,129,49421,2,0,B|394:182|366:191|376:243,1,110,2|2,0:0|0:0,0:0:0:0:
393,317,49830,1,8,0:0:0:0:
393,317,49966,2,0,L|332:305,1,55,2|8,0:0|0:0,0:0:0:0:
264,342,50239,2,0,L|203:330,1,55,2|8,0:0|0:0,0:0:0:0:
191,250,50512,2,0,L|130:238,1,55,2|8,0:0|0:0,0:0:0:0:
62,274,50784,5,2,0:0:0:0:
17,204,50921,1,8,0:0:0:0:
17,204,51057,2,0,L|32:135,1,55,2|8,0:0|0:0,0:0:0:0:
17,68,51330,2,0,P|44:69|79:85,1,55,2|8,0:0|0:0,0:0:0:0:
146,47,51603,2,0,P|171:56|198:57,1,55,2|8,0:0|0:0,0:0:0:0:
264,108,51875,2,0,L|259:141,4,27.5,8|8|8|8|6,0:0|0:0|0:0|0:0|0:0,0:0:0:0:
417,45,52421,2,0,L|422:12,4,27.5,8|8|8|8|6,0:0|0:0|0:0|0:0|0:0,0:0:0:0:
429,154,52966,6,0,L|361:142,1,55,4|8,0:0|0:0,0:0:0:0:
330,214,53239,2,0,L|384:223,1,55,2|8,0:0|0:0,0:0:0:0:
402,304,53512,2,0,L|347:294,1,55,2|8,0:0|0:0,0:0:0:0:
279,339,53784,2,0,L|224:329,1,55,2|8,0:0|0:0,0:0:0:0:
173,263,54057,2,0,P|135:310|83:322,2,110,2|2|2,0:0|0:0|0:0,0:0:0:0:
192,183,54739,1,8,0:0:0:0:
131,127,54875,2,0,L|143:60,1,55,2|8,0:0|0:0,0:0:0:0:
206,22,55148,6,0,P|235:33|272:29,1,55,2|8,0:0|0:0,0:0:0:0:
327,78,55421,2,0,P|348:79|370:86,2,27.5,2|0|8,0:0|0:0|0:0,0:0:0:0:
281,146,55693,2,0,L|262:261,1,110,2|2,0:0|0:0,0:0:0:0:
320,315,56103,1,8,0:0:0:0:
320,315,56239,2,0,L|249:300,1,55,2|8,0:0|0:0,0:0:0:0:
197,349,56512,2,0,L|143:337,1,55,2|8,0:0|0:0,0:0:0:0:
133,255,56784,2,0,L|204:270,1,55,2|8,0:0|0:0,0:0:0:0:
257,222,57057,2,0,L|383:250,1,110,2|2,0:0|0:0,0:0:0:0:
432,198,57466,5,8,0:0:0:0:
432,198,57603,2,0,P|431:168|444:143,1,55,2|8,0:0|0:0,0:0:0:0:
411,69,57875,1,2,0:0:0:0:
258,132,58148,1,2,0:0:0:0:
194,79,58284,2,0,B|134:61|141:99|69:77,1,110,8|8,0:0|0:0,0:0:0:0:
19,130,58693,2,0,P|30:158|26:198,1,55,2|8,0:0|0:0,0:0:0:0:
74,252,58966,2,0,P|92:228|129:211,1,55,2|8,0:0|0:0,0:0:0:0:
185,258,59239,2,0,P|214:254|252:268,1,55,2|8,0:0|0:0,0:0:0:0:
289,326,59512,6,0,L|306:198,1,110,2|2,0:0|0:0,0:0:0:0:
371,169,59921,1,8,0:0:0:0:
328,98,60057,2,0,L|273:88,1,55,2|8,0:0|0:0,0:0:0:0:
237,162,60330,2,0,L|291:171,1,55,2|8,0:0|0:0,0:0:0:0:
371,169,60603,2,0,L|411:176,2,27.5,8|8|8,0:0|0:0|0:0,0:0:0:0:
345,247,60875,2,0,L|419:261,1,55
439,329,61148,2,0,L|466:333,2,27.5,10|8|0,0:0|0:0|0:0,0:0:0:0:
374,380,61421,2,0,L|308:368,1,55
278,298,61693,6,0,B|163:323|178:230|52:265,1,220,6|0,0:0|0:0,0:0:0:0:
0,109,62512,1,10,0:0:0:0:
130,9,62784,2,0,P|109:58|120:114,1,110
275,176,63330,2,0,P|296:127|285:71,1,110,8|0,0:0|0:0,0:0:0:0:
445,31,63875,6,0,B|381:212|530:158|467:349,1,330,10|10,0:0|0:0,0:0:0:0:
321,269,64966,2,0,B|269:250|269:250|213:270,1,110,0|2,0:0|0:0,0:0:0:0:
150,317,65375,2,0,B|98:335|98:335|46:317,1,110,0|0,0:0|0:0,0:0:0:0:
12,241,65784,2,0,L|19:173,1,55,2|0,0:0|0:0,0:0:0:0:
57,113,66057,6,0,B|161:137|232:55|232:55|291:106|379:73,1,330,6|10,0:0|0:0,0:0:0:0:
476,196,67148,2,0,P|425:170|363:177,1,110,0|0,0:0|0:0,0:0:0:0:
303,129,67557,2,0,P|252:155|222:210,1,110,0|0,0:0|0:0,0:0:0:0:
146,224,67966,2,0,P|138:257|144:289,1,55,0|0,0:0|0:0,0:0:0:0:
213,316,68239,6,0,B|261:246|207:162|207:162|157:81|206:-3,1,330,10|10,0:0|0:0,0:0:0:0:
350,75,69330,2,0,L|335:192,1,110,0|0,0:0|0:0,0:0:0:0:
406,227,69739,2,0,L|419:336,1,110,0|0,0:0|0:0,0:0:0:0:
352,383,70148,2,0,L|290:372,1,55,2|0,0:0|0:0,0:0:0:0:
253,303,70421,6,0,B|138:362|139:272|17:321|17:321|65:296|71:240,1,330,6|10,0:0|0:0,0:0:0:0:
33,94,71512,2,0,B|62:123|62:123|150:110,1,110,0|2,0:0|0:0,0:0:0:0:
196,63,71921,2,0,B|264:73|264:73|293:44,1,110,0|0,0:0|0:0,0:0:0:0:
369,11,72330,2,0,P|388:36|396:76,1,55,2|0,0:0|0:0,0:0:0:0:
444,124,72603,6,0,B|494:238|407:318|407:318|343:267|361:204,1,330,10|10,0:0|0:0,0:0:0:0:
235,107,73693,2,0,B|216:157|216:157|236:209,1,110,0|0,0:0|0:0,0:0:0:0:
278,281,74103,2,0,B|297:331|297:331|277:383,1,110,0|0,0:0|0:0,0:0:0:0:
211,333,74512,2,0,L|149:331,1,55,2|0,0:0|0:0,0:0:0:0:
82,295,74784,6,0,P|2:158|95:20,1,330,6|10,0:0|0:0,0:0:0:0:
160,55,75739,1,0,0:0:0:0:
160,55,75875,2,0,L|233:47,1,55,0|8,0:0|0:0,0:0:0:0:
282,97,76148,2,0,L|290:153,1,55
214,185,76421,2,0,L|207:130,1,55,10|0,0:0|0:0,0:0:0:0:
289,151,76693,2,0,L|298:219,1,55
368,245,76966,6,0,P|324:281|285:124,1,330,10|10,0:0|0:0,0:0:0:0:
139,43,78057,2,0,L|127:166,1,110
61,199,78466,1,0,0:0:0:0:
61,199,78603,2,0,L|66:259,1,55,8|8,0:0|0:0,0:0:0:0:
139,290,78875,2,0,L|134:350,1,55,8|8,0:0|0:0,0:0:0:0:
209,378,79148,6,0,L|322:361,1,110,4|0,0:0|0:0,0:0:0:0:
398,217,79693,2,0,L|285:200,1,110,2|0,0:0|0:0,0:0:0:0:
185,70,80239,2,0,L|418:40,1,220,10|2,0:0|0:0,0:0:0:0:
492,181,81057,1,0,0:0:0:0:
409,324,81330,6,0,L|283:302,1,110,2|0,0:0|0:0,0:0:0:0:
192,180,81875,2,0,L|83:198,1,110,2|0,0:0|0:0,0:0:0:0:
23,353,82421,1,6,0:0:0:0:
186,366,82693,1,6,0:0:0:0:
120,214,82966,1,6,0:0:0:0:
120,214,83239,1,6,0:0:0:0:
267,140,83512,6,0,P|256:192|258:257,1,110,6|0,0:0|0:0,0:0:0:0:
400,330,84057,2,0,P|408:277|403:221,1,110,2|0,0:0|0:0,0:0:0:0:
497,85,84603,2,0,B|437:50|378:85|389:101|326:134|271:103,1,220,10|2,0:0|0:0,0:0:0:0:
143,30,85421,1,0,0:0:0:0:
47,163,85693,6,0,L|56:278,1,110,2|0,0:0|0:0,0:0:0:0:
190,369,86239,2,0,L|198:259,1,110,2|0,0:0|0:0,0:0:0:0:
332,162,86784,1,6,0:0:0:0:
378,320,87057,1,6,0:0:0:0:
480,190,87330,2,0,L|514:197,2,27.5,10|8|0,0:0|0:0|0:0,0:0:0:0:
457,110,87603,2,0,L|390:97,1,55,2|0,0:0|0:0,0:0:0:0:
351,35,87875,6,0,P|324:84|337:149,1,110,6|8,0:0|0:0,0:0:0:0:
274,207,88284,1,0,0:0:0:0:
274,207,88421,2,0,P|301:256|288:321,1,110,2|8,0:0|0:0,0:0:0:0:
144,376,88966,2,0,L|77:367,1,55,0|0,0:0|0:0,0:0:0:0:
46,297,89239,2,0,L|55:230,1,55,10|0,0:0|0:0,0:0:0:0:
115,187,89512,2,0,L|130:68,1,110,2|8,0:0|0:0,0:0:0:0:
198,33,89921,1,0,0:0:0:0:
198,33,90057,6,0,P|247:58|308:44,1,110,0|8,0:0|0:0,0:0:0:0:
462,42,90603,1,2,0:0:0:0:
415,109,90739,1,0,0:0:0:0:
415,109,90875,2,0,L|423:177,1,55,8|2,0:0|0:0,0:0:0:0:
436,245,91148,1,4,0:0:0:0:
309,351,91421,1,14,0:0:0:0:
230,206,91693,2,0,L|241:140,1,55,6|0,0:0|0:0,0:0:0:0:
280,79,91966,2,0,L|214:68,1,55,12|0,0:0|0:0,0:0:0:0:
151,33,92239,6,0,L|131:149,1,110,4|8,0:0|0:0,0:0:0:0:
73,199,92648,1,0,0:0:0:0:
73,199,92784,2,0,P|100:256|107:313,1,110,2|8,0:0|0:0,0:0:0:0:
257,371,93330,2,0,P|255:338|266:301,1,55,0|0,0:0|0:0,0:0:0:0:
290,239,93603,2,0,P|315:218|352:206,1,55,8|0,0:0|0:0,0:0:0:0:
409,247,93875,2,0,P|378:207|369:142,1,110,2|8,0:0|0:0,0:0:0:0:
380,67,94284,1,0,0:0:0:0:
380,67,94421,6,0,P|331:32|276:56,1,110,0|8,0:0|0:0,0:0:0:0:
174,165,94966,1,2,0:0:0:0:
94,143,95103,1,0,0:0:0:0:
94,143,95239,2,0,L|99:210,1,55,8|2,0:0|0:0,0:0:0:0:
50,265,95512,2,0,P|103:243|164:261,1,110,12|14,0:0|0:0,0:0:0:0:
212,311,95921,1,0,0:0:0:0:
282,268,96057,2,0,L|285:219,2,27.5,8|8|0,0:0|0:0|0:0,0:0:0:0:
347,318,96330,2,0,L|345:345,2,27.5,8|8|0,0:0|0:0|0:0,0:0:0:0:
412,267,96603,5,6,0:0:0:0:
30,215,99875,6,0,P|135:268|183:321,2,176,4|6|6,0:0|0:0|0:0,0:0:0:0:
271,114,104239,6,0,B|253:205|319:201|309:293,2,176,4|6|6,0:0|0:0|0:0,0:0:0:0:
397,5,105603,5,2,0:0:0:0:
474,151,105875,2,0,L|362:137,1,110,0|2,0:0|0:0,0:0:0:0:
230,40,106421,2,0,L|120:53,1,110,0|2,0:0|0:0,0:0:0:0:
22,186,106966,2,0,L|35:295,1,110,0|2,0:0|0:0,0:0:0:0:
184,367,107512,6,0,P|184:315|208:253,1,110,0|2,0:0|0:0,0:0:0:0:
100,131,108057,2,0,P|136:94|197:67,1,110,0|2,0:0|0:0,0:0:0:0:
311,180,108603,2,0,L|442:193,2,110,4|0|4,0:0|0:0|0:0,0:0:0:0:
355,339,109421,1,0,0:0:0:0:
256,192,109693,12,6,112966,0:0:0:0:
430,289,114057,6,0,L|356:281,1,65.9999979858399,6|0,0:0|0:0,0:0:0:0:
275,237,114330,2,0,L|268:315,1,65.9999979858399,2|8,0:0|0:0,0:0:0:0:
189,362,114603,2,0,L|115:354,1,65.9999979858399,2|8,0:0|0:0,0:0:0:0:
64,275,114875,1,2,0:0:0:0:
64,275,115012,2,0,P|87:210|59:137,1,131.99999597168,10|8,0:0|0:0,0:0:0:0:
58,52,115421,2,0,P|91:67|132:64,1,65.9999979858399,2|8,0:0|0:0,0:0:0:0:
202,12,115693,2,0,P|172:33|154:70,1,65.9999979858399,2|8,0:0|0:0,0:0:0:0:
165,157,115966,1,2,0:0:0:0:
234,228,116103,6,0,B|306:216|302:261|387:244,1,131.99999597168,10|8,0:0|0:0,0:0:0:0:
425,170,116512,2,0,L|409:320,1,131.99999597168,2|0,0:0|0:0,0:0:0:0:
333,361,116921,1,8,0:0:0:0:
333,361,117057,2,0,P|298:345|266:348,1,65.9999979858399,0|8,0:0|0:0,0:0:0:0:
177,313,117330,2,0,P|109:329|57:299,1,131.99999597168,4|0,0:0|0:0,0:0:0:0:
19,208,117739,1,8,0:0:0:0:
77,128,117875,2,0,B|134:99|190:139|190:139|236:172|287:146,1,197.99999395752,4|8,0:0|0:0,0:0:0:0:
333,83,118421,6,0,L|408:90,1,65.9999979858399,6|0,0:0|0:0,0:0:0:0:
493,62,118693,2,0,L|486:137,1,65.9999979858399,2|8,0:0|0:0,0:0:0:0:
427,207,118966,2,0,L|420:279,1,65.9999979858399,2|8,0:0|0:0,0:0:0:0:
365,355,119239,1,2,0:0:0:0:
295,285,119375,2,0,B|229:261|226:301|153:279,1,131.99999597168,10|8,0:0|0:0,0:0:0:0:
73,321,119784,2,0,P|77:293|63:250,1,65.9999979858399,2|8,0:0|0:0,0:0:0:0:
16,171,120057,2,0,P|12:143|26:100,1,65.9999979858399,2|8,0:0|0:0,0:0:0:0:
94,39,120330,1,2,0:0:0:0:
94,39,120466,6,0,P|159:52|236:48,1,131.99999597168,10|8,0:0|0:0,0:0:0:0:
316,11,120875,2,0,P|308:53|316:95,1,65.9999979858399,2|8,0:0|0:0,0:0:0:0:
354,165,121148,2,0,P|312:157|270:164,1,65.9999979858399,0|8,0:0|0:0,0:0:0:0:
219,230,121421,1,0,0:0:0:0:
291,296,121557,1,8,0:0:0:0:
291,296,121693,2,0,P|319:243|285:155,1,131.99999597168,4|8,0:0|0:0,0:0:0:0:
209,142,122103,1,8,0:0:0:0:
209,142,122239,2,0,P|181:89|233:27,1,131.99999597168,8|0,0:0|0:0,0:0:0:0:
311,5,122648,1,0,0:0:0:0:
395,56,122784,6,0,P|401:93|392:132,1,65.9999979858399,6|0,0:0|0:0,0:0:0:0:
434,212,123057,2,0,P|397:218|358:209,1,65.9999979858399,2|8,0:0|0:0,0:0:0:0:
288,270,123330,2,0,P|255:265|223:271,1,65.9999979858399,2|8,0:0|0:0,0:0:0:0:
162,350,123603,1,2,0:0:0:0:
90,281,123739,2,0,L|101:137,1,131.99999597168,10|8,0:0|0:0,0:0:0:0:
76,52,124148,2,0,P|103:45|157:60,1,65.9999979858399,2|8,0:0|0:0,0:0:0:0:
214,117,124421,2,0,P|244:127|287:121,1,65.9999979858399,2|8,0:0|0:0,0:0:0:0:
350,57,124693,1,2,0:0:0:0:
350,57,124830,6,0,P|326:121|350:186,1,131.99999597168,10|8,0:0|0:0,0:0:0:0:
443,185,125239,2,0,P|380:213|351:276,1,131.99999597168,2|0,0:0|0:0,0:0:0:0:
367,366,125648,1,8,0:0:0:0:
367,366,125784,2,0,L|283:342,1,65.9999979858399,0|8,0:0|0:0,0:0:0:0:
236,274,126057,2,0,B|177:282|177:282|165:274|165:274|89:287,1,131.99999597168,4|0,0:0|0:0,0:0:0:0:
28,223,126466,1,8,0:0:0:0:
60,129,126603,2,0,B|149:137|149:137|172:157|172:157|261:167,1,197.99999395752,4|0,0:0|0:0,0:0:0:0:
345,140,127148,6,0,L|336:220,1,65.9999979858399,6|0,0:0|0:0,0:0:0:0:
249,165,127421,2,0,L|258:85,1,65.9999979858399,2|8,0:0|0:0,0:0:0:0:
352,74,127693,2,0,L|343:154,1,65.9999979858399,2|8,0:0|0:0,0:0:0:0:
334,238,127966,1,2,0:0:0:0:
396,315,128103,2,0,P|337:279|258:311,1,131.99999597168,10|8,0:0|0:0,0:0:0:0:
201,353,128512,2,0,P|167:359|132:345,1,65.9999979858399,2|8,0:0|0:0,0:0:0:0:
67,280,128784,2,0,P|52:248|56:211,1,65.9999979858399,2|8,0:0|0:0,0:0:0:0:
104,131,129057,1,2,0:0:0:0:
86,33,129193,1,10,0:0:0:0:
86,33,129330,6,0,L|168:42,1,65.9999979858399,0|0,0:0|0:0,0:0:0:0:
217,114,129603,1,0,0:0:0:0:
217,114,129739,2,0,L|299:123,2,65.9999979858399,10|0|0,0:0|0:0|0:0,0:0:0:0:
255,205,130148,2,0,L|320:212,2,65.9999979858399,10|0|0,0:0|0:0|0:0,0:0:0:0:
293,296,130557,1,0,0:0:0:0:
293,296,130693,2,0,L|371:305,1,65.9999979858399,10|0,0:0|0:0,0:0:0:0:
433,238,130966,2,0,P|444:209|439:173,1,65.9999979858399,10|0,0:0|0:0,0:0:0:0:
375,98,131239,2,0,L|381:53,2,32.99999899292,8|8|8,0:0|0:0|0:0,0:0:0:0:
292,132,131512,5,6,0:0:0:0:
292,132,131648,1,6,0:0:0:0:
79,330,133693,2,0,L|141:323,1,55,6|6,0:0|0:0,0:0:0:0:
200,272,134784,6,0,L|232:277,2,27.5,10|0|0,0:0|0:0|0:0,0:0:0:0:
146,208,135057,2,0,L|101:206,2,27.5,8|0|0,0:0|0:0|0:0,0:0:0:0:
193,140,135330,2,0,L|253:143,1,55,2|0,0:0|0:0,0:0:0:0:
326,115,135603,2,0,P|331:148|320:183,1,55,2|0,0:0|0:0,0:0:0:0:
298,246,135875,5,6,0:0:0:0:
298,246,136012,1,6,0:0:0:0:
