osu file format v14

[General]
AudioFilename: audio.mp3
AudioLeadIn: 0
PreviewTime: 96603
Countdown: 0
SampleSet: None
StackLeniency: 0.4
Mode: 0
LetterboxInBreaks: 0
WidescreenStoryboard: 0

[Editor]
Bookmarks: 44239,79148,96603,114057,122784,131512
DistanceSpacing: 0.6
BeatDivisor: 4
GridSize: 8
TimelineZoom: 1.9

[Metadata]
Title:Galapagos de Warui ka
TitleUnicode:ガラパゴスで悪いか
Artist:Utsu-P
ArtistUnicode:鬱P
Creator:DendyHere
Version:Collab Extra
Source:
Tags:UtsuP GALAPAGOS 初音ミク Hatsune Miku 鏡音リン Kagamine Rin vocaloid metal rock MY SONG IS SHIT comiket 92 c92 mirimo Akitoshi -Laura- 619 Shmiklak Danii
BeatmapID:1672531
BeatmapSetID:795379

[Difficulty]
HPDrainRate:5
CircleSize:4
OverallDifficulty:8.5
ApproachRate:9.2
SliderMultiplier:1.4
SliderTickRate:1

[Events]
//Background and Video events
0,0,"global.jpg",0,0
//Break Periods
2,96803,99193
2,101166,103557
2,131848,133093
//Storyboard Layer 0 (Background)
//Storyboard Layer 1 (Fail)
//Storyboard Layer 2 (Pass)
//Storyboard Layer 3 (Foreground)
//Storyboard Sound Samples

[TimingPoints]
603,272.727272727273,4,3,3,60,1,0
18057,-100,4,3,2,60,0,0
18262,-100,4,3,2,10,0,0
18330,-100,4,3,2,60,0,0
18534,-100,4,3,2,10,0,0
18602,-100,4,3,2,60,0,0
19148,-100,4,3,2,60,0,0
19693,-100,4,3,2,70,0,0
20239,-100,4,3,2,60,0,0
20443,-100,4,3,2,10,0,0
20511,-100,4,3,2,60,0,0
20715,-100,4,3,2,10,0,0
20783,-100,4,3,2,60,0,0
21330,-100,4,3,2,60,0,0
21875,-100,4,3,2,70,0,0
22421,-100,4,3,3,60,0,0
22966,-100,4,3,3,60,0,0
23171,-100,4,3,3,10,0,0
23239,-100,4,3,3,60,0,0
24057,-100,4,3,3,60,0,0
24603,-100,4,3,3,70,0,0
25148,-100,4,3,3,60,0,0
25353,-100,4,3,3,10,0,0
25421,-100,4,3,3,60,0,0
26784,-100,4,3,2,60,0,0
34421,-100,4,3,3,60,0,0
35034,-100,4,3,3,10,0,0
35103,-100,4,3,3,15,0,0
35171,-100,4,3,3,20,0,0
35239,-100,4,3,3,35,0,0
35307,-100,4,3,3,40,0,0
35375,-100,4,3,3,50,0,0
35443,-100,4,3,3,60,0,0
35512,-100,4,3,3,60,0,0
41512,-142.857142857143,4,3,3,60,0,0
44239,-83.3333333333333,4,3,2,60,0,0
44307,-100,4,3,2,60,0,0
47512,-100,4,3,2,60,0,0
47784,-100,4,3,2,70,0,0
48603,-100,4,3,2,60,0,0
52966,-100,4,3,3,60,0,0
56239,-100,4,3,3,60,0,0
57330,-100,4,3,3,60,0,0
61693,-142.857142857143,4,3,7,60,0,0
61830,-142.857142857143,4,3,6,40,0,0
78603,-100,4,3,6,50,0,0
79148,-86.9565217391304,4,3,2,60,0,0
79216,-86.9565217391304,4,3,2,60,0,0
82421,-76.9230769230769,4,3,2,60,0,0
82625,-100,4,3,2,10,0,0
82693,-86.9565217391304,4,3,2,60,0,0
82898,-100,4,3,2,10,0,0
82966,-83.3333333333333,4,3,2,60,0,0
83171,-100,4,3,2,10,0,0
83239,-76.9230769230769,4,3,2,60,0,0
83443,-100,4,3,2,10,0,0
83512,-71.4285714285714,4,3,3,60,0,0
84057,-86.9565217391304,4,3,2,60,0,0
86784,-76.9230769230769,4,3,2,60,0,0
86988,-100,4,3,2,10,0,0
87056,-86.9565217391304,4,3,2,60,0,0
87261,-100,4,3,2,10,0,0
87329,-83.3333333333333,4,3,2,60,0,0
87534,-100,4,3,2,10,0,0
87602,-76.9230769230769,4,3,2,60,0,0
87806,-100,4,3,2,10,0,0
87875,-71.4285714285714,4,3,3,60,0,0
88420,-86.9565217391304,4,3,2,60,0,0
91148,-76.9230769230769,4,3,2,60,0,0
91352,-100,4,3,2,10,0,0
91420,-86.9565217391304,4,3,2,60,0,0
91625,-100,4,3,2,10,0,0
91693,-83.3333333333333,4,3,2,60,0,0
91898,-100,4,3,2,10,0,0
91966,-76.9230769230769,4,3,2,60,0,0
92170,-100,4,3,2,10,0,0
92239,-71.4285714285714,4,3,3,60,0,0
92784,-86.9565217391304,4,3,2,60,0,0
95512,-83.3333333333333,4,3,2,60,0,0
95784,-90.9090909090909,4,3,3,60,0,0
96603,-100,4,3,2,60,0,0
99875,-100,4,3,3,45,0,0
100966,-100,4,3,2,45,0,0
104239,-100,4,3,3,45,0,0
105330,-100,4,3,2,45,0,0
105603,-100,4,3,2,45,0,0
108603,-100,4,3,3,45,0,0
109693,-100,4,3,2,40,0,0
110784,-100,4,3,2,50,0,0
111875,-100,4,3,2,60,0,0
112966,-333.333333333333,4,3,3,50,0,0
113034,-100,4,3,3,10,0,0
113512,-1000,4,3,3,50,0,0
113580,-100,4,3,3,10,0,0
114057,-80,4,3,4,80,0,1
117875,-80,4,3,5,80,0,1
118421,-80,4,3,4,80,0,1
122784,-80,4,3,4,80,0,1
122853,-80,4,3,4,80,0,1
126603,-80,4,3,5,80,0,1
127148,-80,4,3,4,80,0,1
129330,-80,4,3,3,80,0,1
131512,-80,4,3,3,60,0,0
134784,-80,4,3,3,60,0,0
135875,-80,4,3,3,60,0,0

[Colours]
Combo1 : 0,128,0
Combo2 : 128,0,64
Combo3 : 0,213,53
Combo4 : 211,3,71

[HitObjects]
43,74,18057,6,0,P|67:60|155:74,1,105,4|0,0:0|0:0,0:0:0:0:
198,114,18330,2,0,P|248:124|296:104,1,105,6|0,0:0|0:0,0:0:0:0:
357,29,18603,5,0,0:0:0:0:
374,43,18693,1,0,0:0:0:0:
385,63,18784,1,0,0:0:0:0:
412,86,18875,5,6,0:0:0:0:
408,108,18966,1,0,0:0:0:0:
400,130,19057,1,0,0:0:0:0:
384,150,19148,5,6,0:0:0:0:
489,76,19693,1,0,0:0:0:0:
435,240,20239,6,0,L|426:350,1,105,4|0,0:0|0:0,0:0:0:0:
350,336,20512,2,0,L|359:226,1,105,6|0,0:0|0:0,0:0:0:0:
283,204,20784,5,0,0:0:0:0:
281,227,20875,1,0,0:0:0:0:
279,250,20966,1,0,0:0:0:0:
248,275,21057,5,6,0:0:0:0:
237,295,21148,1,0,0:0:0:0:
227,316,21239,1,0,0:0:0:0:
195,338,21330,5,6,0:0:0:0:
167,239,21875,1,0,0:0:0:0:
46,339,22421,6,0,L|89:330,2,35,4|0|0,0:0|0:0|0:0,0:0:0:0:
167,239,22830,2,0,L|124:230,2,35,4|0|2,0:0|0:0|0:0,0:0:0:0:
49,144,23239,2,0,L|92:135,2,35,4|0|0,0:0|0:0|0:0,0:0:0:0:
159,39,23648,2,0,L|116:30,2,35,4|0|0,0:0|0:0|0:0,0:0:0:0:
466,339,24603,6,0,L|423:330,2,35,4|0|0,0:0|0:0|0:0,0:0:0:0:
345,239,25012,2,0,L|388:230,2,35,4|0|2,0:0|0:0|0:0,0:0:0:0:
463,144,25421,2,0,L|420:135,2,35,4|0|0,0:0|0:0|0:0,0:0:0:0:
353,39,25830,2,0,L|396:30,2,35,4|0|0,0:0|0:0|0:0,0:0:0:0:
244,90,26239,5,8,0:0:0:0:
244,90,26307,2,0,B|183:104|150:69|150:69|139:74|139:74|103:38|40:56,1,210,8|0,0:0|0:0,0:0:0:0:
48,53,26784,5,4,0:0:0:0:
75,163,27057,2,0,L|87:216,3,35,2|0|2|0,1:3|0:0|1:3|0:0,0:0:0:0:
140,254,27330,2,0,L|128:307,3,35,2|0|2|0,1:3|0:0|1:3|0:0,0:0:0:0:
34,343,27603,1,2,1:3:0:0:
47,347,27671,1,0,0:0:0:0:
60,351,27739,1,2,1:3:0:0:
72,356,27807,1,0,0:0:0:0:
85,360,27875,6,0,P|148:370|216:299,1,140,2|2,1:3|1:3,0:0:0:0:
260,38,28421,2,0,P|297:35|335:48,1,70,2|2,1:3|1:3,0:0:0:0:
425,131,28693,2,0,P|390:134|356:124,1,70,2|2,1:3|1:3,0:0:0:0:
482,52,28966,5,2,1:3:0:0:
448,303,29239,2,0,L|453:266,3,35,2|0|2|0,1:3|0:0|1:3|0:0,0:0:0:0:
360,350,29512,2,0,L|355:313,3,35,2|0|2|0,1:3|0:0|1:3|0:0,0:0:0:0:
275,280,29784,1,2,1:3:0:0:
262,273,29853,1,0,0:0:0:0:
248,269,29921,1,2,1:3:0:0:
234,267,29989,1,0,0:0:0:0:
220,268,30057,6,0,P|191:288|76:278,1,140,2|2,1:3|1:3,0:0:0:0:
89,29,30603,2,0,P|100:63|93:109,1,70,2|2,1:3|1:3,0:0:0:0:
29,219,30875,2,0,P|18:188|25:142,1,70,2|2,1:3|1:3,0:0:0:0:
204,48,31148,5,4,0:0:0:0:
252,201,31421,2,0,L|286:194,3,35,2|0|2|0,1:3|0:0|1:3|0:0,0:0:0:0:
372,126,31693,2,0,L|337:119,3,35,2|0|2|0,1:3|0:0|1:3|0:0,0:0:0:0:
438,207,31966,1,2,1:3:0:0:
435,224,32034,1,0,0:0:0:0:
432,241,32103,1,2,1:3:0:0:
429,258,32171,1,0,0:0:0:0:
426,275,32239,6,0,B|421:333|397:361|397:361|404:329|388:293,1,140,2|2,1:3|1:3,0:0:0:0:
49,343,32784,2,0,P|65:336|130:327,1,70,2|2,1:3|1:3,0:0:0:0:
240,278,33057,2,0,P|222:269|157:258,1,70,2|2,1:3|1:3,0:0:0:0:
57,155,33330,5,10,0:0:0:0:
57,155,33398,1,8,0:0:0:0:
57,155,33466,1,8,0:0:0:0:
115,89,33603,2,0,P|133:84|189:95,1,70,0|10,0:0|0:0,0:0:0:0:
282,98,33875,2,0,P|295:111|313:165,1,70,0|0,0:0|0:0,0:0:0:0:
240,278,34148,1,10,0:0:0:0:
240,278,34216,1,8,0:0:0:0:
240,278,34284,1,8,0:0:0:0:
255,191,34421,6,0,P|282:167|320:158,1,70,0|10,0:0|0:0,0:0:0:0:
446,228,34693,2,0,P|409:212|385:181,1,70,10|10,0:0|0:0,0:0:0:0:
390,38,34966,2,0,P|394:77|379:113,1,70,10|8,0:0|0:0,0:0:0:0:
255,191,35239,1,8,0:0:0:0:
255,191,35307,1,8,0:0:0:0:
255,191,35375,1,8,0:0:0:0:
255,191,35443,1,8,0:0:0:0:
255,191,35512,5,6,0:0:0:0:
112,79,35648,1,6,0:0:0:0:
255,191,37693,5,6,0:0:0:0:
398,303,37829,1,6,0:0:0:0:
177,220,39875,5,6,0:0:0:0:
112,303,40011,1,6,0:0:0:0:
112,303,40148,2,0,P|98:273|109:212,1,70,0|0,0:0|0:0,0:0:0:0:
177,220,40421,2,0,P|191:250|180:311,1,70,0|0,0:0|0:0,0:0:0:0:
119,158,40693,6,0,P|86:157|42:177,1,70,0|0,0:0|0:0,0:0:0:0:
200,138,40966,2,0,P|183:109|144:81,1,70,0|6,0:0|0:0,0:0:0:0:
258,197,41239,2,0,P|274:168|278:120,1,70,0|0,0:0|0:0,0:0:0:0:
243,278,41512,6,0,B|314:289|314:289|340:308|340:308|411:317,1,171.499994766236
416,318,42057,1,6,0:0:0:0:
283,364,42193,1,6,0:0:0:0:
306,202,42330,2,0,L|254:196,1,48.9999985046387
250,106,42603,2,0,P|223:113|196:128,1,48.9999985046387
152,199,42875,1,0,0:0:0:0:
174,340,43012,1,0,0:0:0:0:
139,194,43148,5,10,0:0:0:0:
139,194,43216,1,8,0:0:0:0:
139,194,43284,1,0,0:0:0:0:
166,361,43421,1,10,0:0:0:0:
166,361,43489,1,8,0:0:0:0:
166,361,43557,1,0,0:0:0:0:
214,270,43693,1,4,0:0:0:0:
295,333,43830,1,8,0:0:0:0:
308,337,43898,1,8,0:0:0:0:
323,340,43966,2,0,L|316:303,3,24.4999992523194,10|8|10|8,0:0|0:0|0:0|0:0,0:0:0:0:
346,361,44239,6,0,L|329:258,1,83.9999974365235,4|8,0:0|0:0,0:0:0:0:
306,140,44512,1,2,0:0:0:0:
385,188,44648,1,8,0:0:0:0:
220,161,44784,2,0,P|218:126|242:80,1,70,2|8,0:0|0:0,0:0:0:0:
306,140,45057,2,0,P|308:175|284:221,1,70,2|8,0:0|0:0,0:0:0:0:
152,259,45330,6,0,L|227:245,1,70,2|8,0:0|0:0,0:0:0:0:
98,335,45603,2,0,L|23:321,1,70,2|8,0:0|0:0,0:0:0:0:
155,110,45875,1,2,0:0:0:0:
90,192,46012,1,8,0:0:0:0:
50,96,46148,2,0,L|170:112,1,105,2|0,0:0|0:0,0:0:0:0:
166,112,46421,5,2,0:0:0:0:
117,17,46557,1,8,0:0:0:0:
235,120,46693,2,0,L|142:108,1,70,2|8,0:0|0:0,0:0:0:0:
188,199,46966,1,2,0:0:0:0:
319,128,47103,1,8,0:0:0:0:
304,258,47239,2,0,P|281:232|269:182,1,70,2|8,0:0|0:0,0:0:0:0:
429,211,47512,6,0,B|396:188|358:193|358:193|392:215,1,105,2|0,0:0|0:0,0:0:0:0:
469,277,47784,2,0,L|484:155,1,105,2|0,0:0|0:0,0:0:0:0:
501,46,48057,1,2,0:0:0:0:
394,99,48193,1,8,0:0:0:0:
297,55,48330,2,0,P|322:50|403:93,1,105,2|0,0:0|0:0,0:0:0:0:
397,113,48603,5,2,0:0:0:0:
212,74,48739,1,8,0:0:0:0:
273,208,48875,2,0,P|278:172|269:131,1,70,2|8,0:0|0:0,0:0:0:0:
98,227,49148,2,0,L|175:218,1,70,2|8,0:0|0:0,0:0:0:0:
222,340,49421,2,0,L|92:332,1,105,2|0,0:0|0:0,0:0:0:0:
102,332,49693,5,2,0:0:0:0:
63,243,49830,1,8,0:0:0:0:
24,138,49966,2,0,L|20:179,2,35,2|0|8,0:0|0:0|0:0,0:0:0:0:
158,101,50239,2,0,L|148:188,1,70,2|8,0:0|0:0,0:0:0:0:
280,272,50512,2,0,L|272:160,1,105,2|0,0:0|0:0,0:0:0:0:
296,144,50784,5,2,0:0:0:0:
200,224,50921,1,8,0:0:0:0:
360,256,51057,1,2,0:0:0:0:
360,256,51125,1,0,0:0:0:0:
360,256,51193,1,8,0:0:0:0:
208,320,51330,2,0,P|168:315|137:296,1,70,2|8,0:0|0:0,0:0:0:0:
360,256,51603,2,0,P|374:286|375:328,1,70,2|8,0:0|0:0,0:0:0:0:
221,198,51875,6,0,L|226:148,3,35,8|8|8|8,0:0|0:0|0:0|0:0,0:0:0:0:
219,224,52148,1,6,0:0:0:0:
320,93,52421,2,0,L|315:43,3,35,8|8|8|8,0:0|0:0|0:0|0:0,0:0:0:0:
323,114,52693,1,6,0:0:0:0:
323,114,52966,6,0,L|411:106,1,70,4|8,0:0|0:0,0:0:0:0:
321,195,53239,2,0,B|268:199|268:199|203:170,1,105,2|0,0:0|0:0,0:0:0:0:
151,207,53512,2,0,B|204:203|204:203|251:224,1,105,2|0,0:0|0:0,0:0:0:0:
266,239,53784,1,2,0:0:0:0:
314,118,53921,1,8,0:0:0:0:
341,267,54057,6,0,P|321:296|291:313,1,70,2|8,0:0|0:0,0:0:0:0:
138,342,54330,2,0,L|223:352,1,70,2|8,0:0|0:0,0:0:0:0:
130,225,54603,2,0,B|85:230|85:230|68:221|68:221|15:227,1,105,2|0,0:0|0:0,0:0:0:0:
94,150,54875,2,0,B|139:155|139:155|156:146|156:146|209:152,1,105,2|0,0:0|0:0,0:0:0:0:
218,130,55148,6,0,P|212:93|211:56,1,70,2|8,0:0|0:0,0:0:0:0:
291,187,55421,2,0,P|289:221|283:256,1,70,2|8,0:0|0:0,0:0:0:0:
150,357,55693,1,2,0:0:0:0:
182,236,55830,1,8,0:0:0:0:
93,292,55966,1,2,0:0:0:0:
93,292,56034,1,0,0:0:0:0:
93,292,56103,1,8,0:0:0:0:
259,340,56239,6,0,L|338:331,1,70,2|8,0:0|0:0,0:0:0:0:
360,194,56512,2,0,L|281:185,1,70,2|8,0:0|0:0,0:0:0:0:
445,263,56784,1,2,0:0:0:0:
421,142,56921,1,8,0:0:0:0:
317,262,57057,2,0,P|263:262|209:249,1,105,2|0,0:0|0:0,0:0:0:0:
189,242,57330,6,0,L|198:335,1,70,2|8,0:0|0:0,0:0:0:0:
104,214,57603,1,2,0:0:0:0:
213,144,57739,1,8,0:0:0:0:
84,72,57875,2,0,P|89:125|98:151,1,70,2|8,0:0|0:0,0:0:0:0:
185,38,58148,1,2,0:0:0:0:
42,13,58284,1,8,0:0:0:0:
0,165,58421,6,0,L|73:158,1,70,2|8,0:0|0:0,0:0:0:0:
198,234,58693,2,0,L|125:227,1,70,2|8,0:0|0:0,0:0:0:0:
235,151,58966,2,0,L|308:144,1,70,2|8,0:0|0:0,0:0:0:0:
433,220,59238,2,0,L|360:213,1,70,2|10,0:0|0:0,0:0:0:0:
500,163,59512,5,2,0:0:0:0:
461,288,59648,1,8,0:0:0:0:
411,139,59784,1,2,0:0:0:0:
415,125,59852,1,0,0:0:0:0:
420,112,59920,1,8,0:0:0:0:
307,41,60057,2,0,P|266:39|225:49,1,70,2|8,0:0|0:0,0:0:0:0:
119,101,60330,2,0,P|159:107|197:125,1,70,2|8,0:0|0:0,0:0:0:0:
261,224,60603,6,0,L|263:273,3,35,8|8|8|8,0:0|0:0|0:0|0:0,0:0:0:0:
288,284,60875,2,0,P|317:277|391:314,1,105,6|0,0:0|0:0,0:0:0:0:
405,337,61148,2,0,L|448:334,3,35,10|8|8|8,0:0|0:0|0:0|0:0,0:0:0:0:
478,326,61421,2,0,P|490:296|492:245,1,70
422,111,61693,6,0,B|312:144|336:61|218:83,1,195.999994018555,6|0,0:0|0:0,0:0:0:0:
122,120,62512,2,0,P|156:130|188:125,1,48.9999985046387,8|0,0:0|0:0,0:0:0:0:
67,51,62784,1,0,0:0:0:0:
103,164,62921,2,0,P|117:138|122:100,1,48.9999985046387,8|2,0:0|0:0,0:0:0:0:
69,60,63193,1,0,0:0:0:0:
105,173,63330,2,0,P|119:147|124:109,1,48.9999985046387,8|0,0:0|0:0,0:0:0:0:
48,284,63603,2,0,P|62:270|123:253,1,73.4999977569581,2|0,0:0|0:0,0:0:0:0:
135,265,63875,6,0,B|225:305|225:305|343:294,1,195.999994018555,10|0,0:0|0:0,0:0:0:0:
411,231,64693,2,0,L|399:286,1,48.9999985046387,10|0,0:0|0:0,0:0:0:0:
377,356,64966,1,0,0:0:0:0:
419,233,65103,2,0,L|407:288,1,48.9999985046387,8|2,0:0|0:0,0:0:0:0:
385,358,65376,1,0,0:0:0:0:
429,236,65512,2,0,L|417:291,1,48.9999985046387,8|0,0:0|0:0,0:0:0:0:
322,295,65784,1,2,0:0:0:0:
349,210,65921,1,0,0:0:0:0:
375,125,66057,6,0,B|295:110|267:180|267:180|248:151|216:145,1,195.999994018555,6|0,0:0|0:0,0:0:0:0:
152,242,66875,2,0,P|181:231|200:213,1,48.9999985046387,8|0,0:0|0:0,0:0:0:0:
134,163,67148,1,0,0:0:0:0:
154,252,67284,2,0,P|183:241|202:223,1,48.9999985046387,8|0,0:0|0:0,0:0:0:0:
136,173,67557,1,0,0:0:0:0:
157,265,67693,2,0,P|186:254|205:236,1,48.9999985046387,8|0,0:0|0:0,0:0:0:0:
217,145,67966,1,2,0:0:0:0:
154,89,68103,1,0,0:0:0:0:
75,114,68239,6,0,P|52:164|142:260,1,195.999994018555,10|0,0:0|0:0,0:0:0:0:
261,277,69057,2,0,L|207:270,1,48.9999985046387,10|0,0:0|0:0,0:0:0:0:
163,337,69330,1,0,0:0:0:0:
265,269,69466,2,0,L|211:262,1,48.9999985046387,8|0,0:0|0:0,0:0:0:0:
167,329,69739,1,0,0:0:0:0:
269,258,69875,2,0,L|215:251,1,48.9999985046387,8|0,0:0|0:0,0:0:0:0:
321,330,70148,1,2,0:0:0:0:
354,253,70284,1,2,0:0:0:0:
306,184,70421,6,0,B|363:151|421:184|435:236|435:236|431:211|440:188,1,195.999994018555,6|0,0:0|0:0,0:0:0:0:
232,216,71239,2,0,P|216:215|172:195,1,48.9999985046387,8|0,0:0|0:0,0:0:0:0:
150,131,71512,1,0,0:0:0:0:
231,223,71648,2,0,P|215:222|171:202,1,48.9999985046387,8|2,0:0|0:0,0:0:0:0:
149,138,71921,1,0,0:0:0:0:
227,232,72057,2,0,P|211:231|167:211,1,48.9999985046387,8|0,0:0|0:0,0:0:0:0:
96,224,72330,1,2,0:0:0:0:
54,296,72466,1,0,0:0:0:0:
102,364,72603,6,0,B|141:332|198:361|198:361|255:390|299:351,1,195.999994018555,10|0,0:0|0:0,0:0:0:0:
364,252,73421,2,0,P|347:271|339:301,1,48.9999985046387,10|0,0:0|0:0,0:0:0:0:
367,366,73693,1,0,0:0:0:0:
362,243,73830,2,0,P|345:262|337:292,1,48.9999985046387,8|0,0:0|0:0,0:0:0:0:
365,357,74102,1,0,0:0:0:0:
361,231,74239,2,0,P|344:250|336:280,1,48.9999985046387,8|0,0:0|0:0,0:0:0:0:
462,322,74512,1,2,0:0:0:0:
445,239,74648,1,0,0:0:0:0:
430,158,74784,6,0,B|388:167|351:135|351:135|312:130|282:150,1,146.999995513916,6|0,0:0|0:0,0:0:0:0:
239,60,75330,2,0,P|212:80|195:132,1,73.4999977569581
147,175,75603,2,0,P|149:208|187:249,1,73.4999977569581,8|0,0:0|0:0,0:0:0:0:
302,299,75875,6,0,L|225:293,1,73.4999977569581,0|0,0:0|0:0,0:0:0:0:
162,345,76148,2,0,L|85:339,1,73.4999977569581,0|0,0:0|0:0,0:0:0:0:
12,231,76421,6,0,P|51:239|80:274,1,73.4999977569581,8|0,0:0|0:0,0:0:0:0:
147,175,76693,2,0,P|173:150|209:144,1,73.4999977569581,2|0,0:0|0:0,0:0:0:0:
367,180,76966,6,0,P|300:145|328:216,1,195.999994018555,10|0,0:0|0:0,0:0:0:0:
312,347,77784,2,0,L|319:291,1,48.9999985046387,10|0,0:0|0:0,0:0:0:0:
328,216,78057,1,0,0:0:0:0:
312,356,78193,2,0,L|319:300,1,48.9999985046387,8|0,0:0|0:0,0:0:0:0:
250,256,78466,1,0,0:0:0:0:
250,256,78603,5,8,0:0:0:0:
167,239,78739,1,8,0:0:0:0:
123,167,78875,1,8,0:0:0:0:
139,84,79012,1,8,0:0:0:0:
219,70,79148,6,0,P|194:146|103:160,2,161.000003070831,4|0|2,0:0|0:0|0:0,0:0:0:0:
139,84,79966,1,0,0:0:0:0:
264,190,80239,6,0,B|310:183|310:183|416:237,2,161.000003070831,10|0|2,0:0|0:0|0:0,0:0:0:0:
187,208,81057,1,0,0:0:0:0:
166,356,81330,6,0,L|181:192,2,161.000003070831,2|0|2,0:0|0:0|0:0,0:0:0:0:
278,272,82148,1,0,0:0:0:0:
427,280,82421,2,0,B|369:275|369:275|350:288|350:288|284:281,1,136.499993751526,6|0,0:0|0:0,0:0:0:0:
303,296,82693,2,0,B|350:302|350:302|369:289|369:289|435:296,1,120.750002303124,6|0,0:0|0:0,0:0:0:0:
230,338,82966,2,0,P|203:299|220:208,1,125.999996154785,6|0,0:0|0:0,0:0:0:0:
110,298,83239,2,0,P|130:255|217:224,1,136.499993751526,6|0,0:0|0:0,0:0:0:0:
61,171,83512,6,0,P|128:145|208:240,1,195.999994018555,6|0,0:0|0:0,0:0:0:0:
240,93,83921,1,0,0:0:0:0:
240,93,84057,2,0,P|201:97|157:126,1,80.5000015354157,2|0,0:0|0:0,0:0:0:0:
298,149,84330,2,0,P|333:165|388:157,1,80.5000015354157,0|0,0:0|0:0,0:0:0:0:
459,69,84603,6,0,B|450:132|450:132|459:162|459:162|443:238,2,161.000003070831,10|0|2,0:0|0:0|0:0,0:0:0:0:
445,226,85421,1,0,0:0:0:0:
354,311,85693,6,0,B|291:325|251:280|251:280|218:291|179:274,2,161.000003070831,2|0|2,0:0|0:0|0:0,0:0:0:0:
221,203,86512,1,0,0:0:0:0:
158,358,86784,2,0,P|127:316|154:214,1,136.499993751526,6|0,0:0|0:0,0:0:0:0:
113,244,87057,2,0,P|108:304|136:357,1,120.750002303124,6|0,0:0|0:0,0:0:0:0:
207,288,87330,1,10,0:0:0:0:
207,288,87398,1,8,0:0:0:0:
207,288,87466,1,0,0:0:0:0:
223,193,87603,2,0,P|182:187|111:256,1,136.499993751526,2|0,0:0|0:0,0:0:0:0:
287,249,87875,6,0,L|266:44,1,195.999994018555,6|8,0:0|0:0,0:0:0:0:
110,107,88284,1,0,0:0:0:0:
110,107,88421,2,0,P|150:104|198:121,1,80.5000015354157,2|0,0:0|0:0,0:0:0:0:
267,54,88693,2,0,P|306:57|345:45,1,80.5000015354157,8|2,0:0|0:0,0:0:0:0:
417,117,88966,6,0,P|408:156|416:196,1,80.5000015354157,0|0,0:0|0:0,0:0:0:0:
356,259,89239,2,0,P|364:298|357:337,1,80.5000015354157,10|0,0:0|0:0,0:0:0:0:
204,306,89512,2,0,L|309:296,1,80.5000015354157,2|0,0:0|0:0,0:0:0:0:
150,370,89784,2,0,L|45:360,1,80.5000015354157,8|0,0:0|0:0,0:0:0:0:
100,215,90057,6,0,P|121:253|122:309,1,80.5000015354157,0|2,0:0|0:0,0:0:0:0:
43,149,90330,2,0,P|48:109|68:74,1,80.5000015354157,8|0,0:0|0:0,0:0:0:0:
250,151,90603,1,2,0:0:0:0:
250,151,90739,1,0,0:0:0:0:
250,151,90875,2,0,L|108:130,1,120.750002303124,8|0,0:0|0:0,0:0:0:0:
130,133,91148,6,0,P|150:90|104:0,1,136.499993751526,4|0,0:0|0:0,0:0:0:0:
120,10,91421,2,0,P|146:48|247:53,1,120.750002303124,14|0,0:0|0:0,0:0:0:0:
216,65,91693,2,0,P|172:71|130:150,1,125.999996154785,6|0,0:0|0:0,0:0:0:0:
140,257,91966,2,0,P|159:213|113:123,1,136.499993751526,12|0,0:0|0:0,0:0:0:0:
35,270,92239,6,0,B|124:275|124:275|157:297|157:297|253:298,1,195.999994018555,4|8,0:0|0:0,0:0:0:0:
362,241,92648,1,0,0:0:0:0:
362,241,92784,2,0,L|267:238,1,80.5000015354157,2|0,0:0|0:0,0:0:0:0:
279,360,93057,2,0,L|374:363,1,80.5000015354157,8|2,0:0|0:0,0:0:0:0:
318,171,93330,6,0,P|288:203|285:258,1,80.5000015354157,0|0,0:0|0:0,0:0:0:0:
438,238,93603,2,0,P|429:199|401:171,1,80.5000015354157,8|0,0:0|0:0,0:0:0:0:
237,167,93875,2,0,L|343:172,1,80.5000015354157,2|0,0:0|0:0,0:0:0:0:
205,86,94148,2,0,L|99:81,1,80.5000015354157,8|0,0:0|0:0,0:0:0:0:
62,255,94421,6,0,P|66:209|50:157,1,80.5000015354157,0|2,0:0|0:0,0:0:0:0:
142,363,94693,2,0,P|138:317|154:265,1,80.5000015354157,8|0,0:0|0:0,0:0:0:0:
305,340,94966,1,2,0:0:0:0:
305,340,95103,1,0,0:0:0:0:
305,340,95239,2,0,L|195:328,1,80.5000015354157,8|2,0:0|0:0,0:0:0:0:
351,266,95512,6,0,B|382:287|382:287|401:383,1,125.999996154785,12|0,0:0|0:0,0:0:0:0:
503,367,95784,2,0,B|472:346|472:346|453:255,1,115.50000352478,14|0,0:0|0:0,0:0:0:0:
419,166,96057,2,0,L|410:203,2,38.5000011749268,8|8|0,0:0|0:0|0:0,0:0:0:0:
450,51,96330,2,0,L|458:88,2,38.5000011749268,8|8|0,0:0|0:0|0:0,0:0:0:0:
255,190,96603,5,6,0:0:0:0:
458,145,99875,5,4,0:0:0:0:
120,109,100421,1,6,0:0:0:0:
257,194,100966,5,6,0:0:0:0:
272,62,104239,5,4,0:0:0:0:
190,312,104784,1,6,0:0:0:0:
130,122,105330,5,6,0:0:0:0:
189,181,105603,1,2,0:0:0:0:
107,199,105875,1,0,0:0:0:0:
166,258,106148,2,0,L|243:247,1,70,2|0,0:0|0:0,0:0:0:0:
265,277,106421,5,0,0:0:0:0:
205,336,106693,1,2,0:0:0:0:
283,364,106966,1,0,0:0:0:0:
342,304,107239,2,0,P|338:263|330:225,1,70,2|0,0:0|0:0,0:0:0:0:
315,196,107512,5,0,0:0:0:0:
255,136,107784,1,2,0:0:0:0:
314,76,108057,1,0,0:0:0:0:
373,135,108330,1,2,0:0:0:0:
234,213,108603,6,0,P|169:200|81:202,1,140,4|0,0:0|0:0,0:0:0:0:
306,266,109148,2,0,P|371:253|459:255,1,140,4|0,0:0|0:0,0:0:0:0:
158,350,109693,6,8,L|161:310,15,35,12|8|8|8|8|0|0|0|8|0|0|0|8|0|0|0,0:0|0:0|0:0|0:0|0:0|0:0|0:0|0:0|0:0|0:0|0:0|0:0|0:0|0:0|0:0|0:0,0:0:0:0:
145,300,110784,2,0,L|142:260,15,35,8|8|8|8|8|8|8|8|8|8|8|8|8|8|8|8,0:0|0:0|0:0|0:0|0:0|0:0|0:0|0:0|0:0|0:0|0:0|0:0|0:0|0:0|0:0|0:0,0:0:0:0:
157,250,111875,5,8,0:0:0:0:
174,228,111943,1,8,0:0:0:0:
181,201,112011,1,8,0:0:0:0:
175,174,112079,1,8,0:0:0:0:
157,153,112147,1,8,0:0:0:0:
132,141,112215,1,8,0:0:0:0:
104,142,112284,1,8,0:0:0:0:
80,156,112352,1,8,0:0:0:0:
60,176,112421,1,8,0:0:0:0:
50,202,112489,1,8,0:0:0:0:
50,230,112557,1,8,0:0:0:0:
59,256,112625,1,8,0:0:0:0:
78,275,112693,2,0,L|119:274,1,35,8|8,0:0|0:0,0:0:0:0:
291,312,112830,2,0,L|250:311,1,35,8|8,0:0|0:0,0:0:0:0:
58,354,112966,6,0,P|94:358|138:346,1,73.4999977569581,6|0,0:0|0:0,0:0:0:0:
185,301,113512,6,0,P|187:288|186:276,1,24.5,6|0,0:0|0:0,0:0:0:0:
193,309,114057,6,0,P|197:250|177:204,1,87.5,6|8,0:0|0:0,0:0:0:0:
114,192,114330,1,2,0:0:0:0:
114,192,114398,1,0,0:0:0:0:
114,192,114466,1,8,0:0:0:0:
256,163,114603,1,2,0:0:0:0:
177,129,114739,1,8,0:0:0:0:
167,47,114875,1,2,0:0:0:0:
167,47,115012,6,0,P|235:71|245:185,1,175,10|8,0:0|0:0,0:0:0:0:
189,259,115421,2,0,L|193:204,2,43.75,2|0|8,0:0|0:0|0:0,0:0:0:0:
272,266,115693,2,0,P|228:273|172:244,1,87.5,2|8,0:0|0:0,0:0:0:0:
338,204,115966,1,2,0:0:0:0:
338,204,116103,6,0,P|363:254|290:357,1,175,10|8,0:0|0:0,0:0:0:0:
212,345,116512,2,0,L|163:357,2,43.75,2|0|8,0:0|0:0|0:0,0:0:0:0:
94,369,116784,1,0,0:0:0:0:
94,369,116921,1,8,0:0:0:0:
119,290,117057,1,0,0:0:0:0:
119,290,117193,1,8,0:0:0:0:
54,204,117330,6,0,B|123:258|123:258|212:239,1,175,4|0,0:0|0:0,0:0:0:0:
299,50,117739,1,8,0:0:0:0:
299,50,117875,2,0,B|218:159|355:189|281:322,1,262.5,4|8,0:0|0:0,0:0:0:0:
374,317,118421,6,0,P|330:317|280:289,1,87.5,6|8,0:0|0:0,0:0:0:0:
208,239,118693,1,2,0:0:0:0:
208,239,118762,1,0,0:0:0:0:
208,239,118830,1,8,0:0:0:0:
196,322,118966,2,0,P|192:277|223:222,1,87.5,2|8,0:0|0:0,0:0:0:0:
293,202,119239,1,2,0:0:0:0:
148,158,119375,6,0,P|223:142|298:221,1,175,10|8,0:0|0:0,0:0:0:0:
109,243,119784,1,2,0:0:0:0:
109,243,119853,1,0,0:0:0:0:
109,243,119921,1,8,0:0:0:0:
113,79,120057,2,0,P|135:109|145:184,1,87.5,2|8,0:0|0:0,0:0:0:0:
29,173,120330,1,2,0:0:0:0:
12,291,120466,6,0,P|75:347|187:316,1,175,10|8,0:0|0:0,0:0:0:0:
196,261,120875,1,2,0:0:0:0:
196,261,120943,1,0,0:0:0:0:
196,261,121012,1,8,0:0:0:0:
251,330,121148,1,0,0:0:0:0:
251,330,121284,1,8,0:0:0:0:
265,218,121421,1,0,0:0:0:0:
265,218,121557,1,8,0:0:0:0:
272,114,121693,6,0,L|264:221,1,87.5,4|0,0:0|0:0,0:0:0:0:
351,130,121966,2,0,L|348:174,3,43.75,8|8|8|8,0:0|0:0|0:0|0:0,0:0:0:0:
331,54,122239,1,8,0:0:0:0:
253,14,122375,1,0,0:0:0:0:
165,25,122512,1,0,0:0:0:0:
113,95,122648,1,0,0:0:0:0:
132,185,122784,6,0,L|225:191,1,87.5,6|8,0:0|0:0,0:0:0:0:
114,293,123057,1,2,0:0:0:0:
114,293,123125,1,0,0:0:0:0:
114,293,123193,1,8,0:0:0:0:
220,357,123330,2,0,P|215:317|204:264,1,87.5,2|8,0:0|0:0,0:0:0:0:
313,159,123603,1,2,0:0:0:0:
292,273,123739,1,10,0:0:0:0:
401,128,123875,6,0,L|387:33,1,87.5,0|8,0:0|0:0,0:0:0:0:
485,183,124148,2,0,L|481:234,2,43.75,2|0|8,0:0|0:0|0:0,0:0:0:0:
372,304,124421,2,0,P|421:299|464:312,1,87.5,2|8,0:0|0:0,0:0:0:0:
286,350,124693,1,2,0:0:0:0:
298,245,124830,1,10,0:0:0:0:
137,275,124966,6,0,P|164:290|223:295,1,87.5,0|8,0:0|0:0,0:0:0:0:
195,181,125239,1,2,0:0:0:0:
196,198,125307,1,0,0:0:0:0:
197,215,125375,1,8,0:0:0:0:
106,189,125512,2,0,L|121:98,1,87.5,0|8,0:0|0:0,0:0:0:0:
283,106,125784,2,0,L|295:199,1,87.5,0|8,0:0|0:0,0:0:0:0:
218,53,126057,6,0,P|254:28|303:25,1,87.5,4|8,0:0|0:0,0:0:0:0:
402,145,126330,2,0,L|355:142,1,43.75,0|0,0:0|0:0,0:0:0:0:
294,192,126466,1,8,0:0:0:0:
390,234,126603,2,0,P|433:230|475:197,1,87.5,4|8,0:0|0:0,0:0:0:0:
486,355,126875,2,0,P|447:340|388:339,1,87.5,0|8,0:0|0:0,0:0:0:0:
252,362,127148,6,0,L|162:351,1,87.5,6|8,0:0|0:0,0:0:0:0:
124,273,127421,1,2,0:0:0:0:
124,273,127489,1,0,0:0:0:0:
124,273,127557,1,8,0:0:0:0:
218,189,127694,2,0,P|214:236|207:275,1,87.5,2|8,0:0|0:0,0:0:0:0:
287,123,127966,1,2,0:0:0:0:
132,140,128103,1,10,0:0:0:0:
214,17,128239,6,0,L|304:28,1,87.5,0|8,0:0|0:0,0:0:0:0:
357,109,128512,2,0,L|306:117,2,43.75,2|0|8,0:0|0:0|0:0,0:0:0:0:
247,199,128785,2,0,P|296:194|340:203,1,87.5,2|8,0:0|0:0,0:0:0:0:
409,257,129057,1,2,0:0:0:0:
441,176,129194,1,10,0:0:0:0:
328,281,129330,6,0,L|338:340,4,43.75,10|8|0|0|0,0:0|0:0|0:0|0:0|0:0,0:0:0:0:
232,362,129739,1,10,0:0:0:0:
232,362,129807,1,8,0:0:0:0:
232,362,129875,2,0,L|241:266,1,87.5,0|0,0:0|0:0,0:0:0:0:
144,259,130148,1,10,0:0:0:0:
144,259,130216,1,8,0:0:0:0:
144,259,130284,1,0,0:0:0:0:
55,320,130421,5,0,0:0:0:0:
8,230,130557,1,10,0:0:0:0:
8,230,130625,1,8,0:0:0:0:
8,230,130693,1,10,0:0:0:0:
87,162,130830,1,10,0:0:0:0:
87,162,130898,1,8,0:0:0:0:
87,162,130966,2,0,P|84:127|111:78,1,87.5,10|8,0:0|0:0,0:0:0:0:
191,16,131239,2,0,L|181:61,3,43.75,8|8|8|8,0:0|0:0|0:0|0:0,0:0:0:0:
179,69,131512,5,6,0:0:0:0:
256,189,131648,1,6,0:0:0:0:
264,48,133693,5,6,0:0:0:0:
214,221,133830,1,6,0:0:0:0:
92,247,134784,6,0,L|135:255,3,43.75,10|8|0|0,0:0|0:0|0:0|0:0,0:0:0:0:
229,301,135057,5,8,0:0:0:0:
243,296,135125,1,8,0:0:0:0:
256,291,135193,1,0,0:0:0:0:
270,286,135261,1,0,0:0:0:0:
281,284,135330,6,0,L|276:334,1,43.75,2|0,0:0|0:0,0:0:0:0:
399,287,135466,1,8,0:0:0:0:
407,271,135534,1,8,0:0:0:0:
411,253,135603,5,2,0:0:0:0:
410,235,135670,1,0,0:0:0:0:
407,217,135739,2,0,P|399:179|402:156,1,43.75,8|8,0:0|0:0,0:0:0:0:
419,74,135875,5,6,0:0:0:0:
306,162,136012,1,6,0:0:0:0:
