osu file format v14

[General]
AudioFilename: audio.mp3
AudioLeadIn: 0
PreviewTime: 96603
Countdown: 0
SampleSet: None
StackLeniency: 0.7
Mode: 0
LetterboxInBreaks: 0
WidescreenStoryboard: 0

[Editor]
DistanceSpacing: 0.6
BeatDivisor: 4
GridSize: 8
TimelineZoom: 2.799999

[Metadata]
Title:Galapagos de Warui ka
TitleUnicode:ガラパゴスで悪いか
Artist:Utsu-P
ArtistUnicode:鬱P
Creator:DendyHere
Version:Akitoshi's Extreme
Source:
Tags:UtsuP GALAPAGOS 初音ミク Hatsune Miku 鏡音リン Kagamine Rin vocaloid metal rock MY SONG IS SHIT comiket 92 c92 mirimo Akitoshi -Laura- 619 Shmiklak Danii
BeatmapID:1670393
BeatmapSetID:795379

[Difficulty]
HPDrainRate:6
CircleSize:3.5
OverallDifficulty:8.8
ApproachRate:9.3
SliderMultiplier:1.8
SliderTickRate:1

[Events]
//Background and Video events
0,0,"global.jpg",0,0
//Break Periods
2,35848,37139
2,38029,39321
2,96803,99321
2,101166,103685
2,131848,133139
//Storyboard Layer 0 (Background)
//Storyboard Layer 1 (Fail)
//Storyboard Layer 2 (Pass)
//Storyboard Layer 3 (Foreground)
//Storyboard Sound Samples

[TimingPoints]
603,272.727272727273,4,3,3,60,1,0
18057,-100,4,3,2,60,0,0
18262,-100,4,3,2,10,0,0
18330,-100,4,3,2,60,0,0
18534,-100,4,3,2,10,0,0
18602,-100,4,3,2,60,0,0
20443,-100,4,3,2,10,0,0
20511,-100,4,3,2,60,0,0
20715,-100,4,3,2,10,0,0
20783,-100,4,3,2,60,0,0
22421,-100,4,3,3,60,0,0
23171,-100,4,3,3,10,0,0
23239,-100,4,3,3,60,0,0
25353,-100,4,3,3,10,0,0
25421,-100,4,3,3,60,0,0
26784,-100,4,3,2,60,0,0
34421,-100,4,3,3,60,0,0
35034,-100,4,3,3,10,0,0
35103,-100,4,3,3,15,0,0
35171,-100,4,3,3,20,0,0
35239,-100,4,3,3,35,0,0
35307,-100,4,3,3,40,0,0
35375,-100,4,3,3,45,0,0
35443,-100,4,3,3,50,0,0
35512,-100,4,3,3,60,0,0
44239,-90.9090909090909,4,3,2,60,0,0
52966,-90.9090909090909,4,3,3,60,0,0
61693,-133.333333333333,4,3,7,60,0,0
61830,-133.333333333333,4,3,6,40,0,0
78603,-111.111111111111,4,3,6,50,0,0
79148,-111.111111111111,4,3,2,60,0,0
82625,-111.111111111111,4,3,2,10,0,0
82693,-111.111111111111,4,3,2,60,0,0
82898,-111.111111111111,4,3,2,10,0,0
82966,-111.111111111111,4,3,2,60,0,0
83171,-111.111111111111,4,3,2,10,0,0
83239,-111.111111111111,4,3,2,60,0,0
83443,-111.111111111111,4,3,2,10,0,0
83512,-111.111111111111,4,3,3,60,0,0
84057,-111.111111111111,4,3,2,60,0,0
86988,-111.111111111111,4,3,2,10,0,0
87056,-111.111111111111,4,3,2,60,0,0
87262,-111.111111111111,4,3,2,10,0,0
87330,-111.111111111111,4,3,2,60,0,0
87875,-100,4,3,3,60,0,0
88421,-100,4,3,2,60,0,0
91625,-100,4,3,2,10,0,0
91693,-100,4,3,2,60,0,0
92171,-100,4,3,2,10,0,0
92239,-100,4,3,3,60,0,0
92307,-100,4,3,2,60,0,0
95784,-100,4,3,3,60,0,0
96603,-133.333333333333,4,3,2,60,0,0
99875,-133.333333333333,4,3,3,45,0,0
100966,-133.333333333333,4,3,2,45,0,0
104239,-133.333333333333,4,3,3,45,0,0
105330,-117.647058823529,4,3,2,45,0,0
105603,-117.647058823529,4,3,2,45,0,0
108603,-100,4,3,3,45,0,0
109693,-100,4,3,2,40,0,0
110239,-100,4,3,2,45,0,0
110784,-100,4,3,2,50,0,0
111057,-100,4,3,2,55,0,0
111330,-100,4,3,2,60,0,0
111875,-100,4,3,2,60,0,0
112421,-100,4,3,2,60,0,0
112966,-133.333333333333,4,3,3,50,0,0
113034,-133.333333333333,4,3,3,10,0,0
113512,-200,4,3,3,50,0,0
113580,-200,4,3,3,10,0,0
114057,-90.9090909090909,4,3,4,80,0,1
114125,-90.9090909090909,4,3,4,80,0,1
117875,-90.9090909090909,4,3,5,80,0,1
118421,-90.9090909090909,4,3,4,80,0,1
122784,-83.3333333333333,4,3,4,80,0,1
122853,-90.9090909090909,4,3,4,80,0,1
126603,-90.9090909090909,4,3,5,80,0,1
127148,-90.9090909090909,4,3,4,80,0,1
129330,-90.9090909090909,4,3,3,80,0,1
131512,-100,4,3,3,60,0,0
134784,-90.9090909090909,4,3,3,60,0,0
135875,-100,4,3,3,60,0,0

[Colours]
Combo1 : 0,128,0
Combo2 : 128,0,64
Combo3 : 0,213,53
Combo4 : 211,3,71

[HitObjects]
107,179,18057,6,0,L|6:174,1,90,4|0,0:0|0:0,0:0:0:0:
152,320,18330,2,0,L|241:315,1,90,6|0,0:0|0:0,0:0:0:0:
415,217,18603,5,2,0:0:0:0:
431,178,18693,1,0,0:0:0:0:
430,135,18784,1,0,0:0:0:0:
414,95,18875,1,6,0:0:0:0:
381,122,18966,1,0,0:0:0:0:
339,129,19057,1,0,0:0:0:0:
298,118,19148,1,4,0:0:0:0:
298,118,20239,6,0,L|290:225,1,90,4|0,0:0|0:0,0:0:0:0:
156,353,20512,2,0,L|148:246,1,90,6|0,0:0|0:0,0:0:0:0:
134,66,20784,5,2,0:0:0:0:
172,49,20875,1,0,0:0:0:0:
213,45,20966,1,0,0:0:0:0:
251,62,21057,1,6,0:0:0:0:
289,79,21148,1,0,0:0:0:0:
330,83,21239,1,0,0:0:0:0:
369,67,21330,1,4,0:0:0:0:
376,74,22421,5,4,0:0:0:0:
376,74,22489,1,0,0:0:0:0:
376,74,22557,1,0,0:0:0:0:
131,188,22830,5,4,0:0:0:0:
131,188,22898,1,0,0:0:0:0:
131,188,22966,1,2,0:0:0:0:
393,253,23239,5,4,0:0:0:0:
393,253,23307,1,0,0:0:0:0:
393,253,23375,1,0,0:0:0:0:
216,48,23648,5,4,0:0:0:0:
216,48,23716,1,0,0:0:0:0:
216,48,23784,1,0,0:0:0:0:
216,48,24603,5,4,0:0:0:0:
216,48,24671,1,0,0:0:0:0:
216,48,24739,1,0,0:0:0:0:
251,315,25012,5,4,0:0:0:0:
251,315,25080,1,0,0:0:0:0:
251,315,25148,1,2,0:0:0:0:
13,186,25421,5,4,0:0:0:0:
13,186,25489,1,0,0:0:0:0:
13,186,25557,1,0,0:0:0:0:
282,171,25830,5,4,0:0:0:0:
282,171,25898,1,0,0:0:0:0:
282,171,25966,1,0,0:0:0:0:
72,342,26239,5,8,0:0:0:0:
72,342,26307,1,8,0:0:0:0:
72,342,26375,1,0,0:0:0:0:
69,256,26512,2,0,L|76:356,1,90,0|0,0:0|0:0,0:0:0:0:
218,196,26784,6,0,L|225:96,1,90,4|0,0:0|0:0,0:0:0:0:
412,42,27057,1,2,1:3:0:0:
419,72,27125,1,0,0:0:0:0:
424,103,27193,1,2,1:3:0:0:
430,134,27262,1,0,0:0:0:0:
432,165,27330,1,2,1:3:0:0:
407,185,27398,1,0,0:0:0:0:
376,194,27466,1,2,1:3:0:0:
344,189,27534,1,0,0:0:0:0:
315,175,27603,2,0,L|310:234,3,45,2|0|2|0,1:3|0:0|1:3|0:0,0:0:0:0:
298,308,27875,5,2,1:3:0:0:
321,329,27943,1,0,0:0:0:0:
348,344,28012,1,2,1:3:0:0:
378,352,28080,1,0,0:0:0:0:
409,352,28148,1,2,1:3:0:0:
440,348,28216,1,0,0:0:0:0:
467,332,28284,1,2,1:3:0:0:
488,308,28353,1,0,0:0:0:0:
501,279,28421,2,0,L|492:224,3,45,2|0|2|0,1:3|0:0|1:3|0:0,0:0:0:0:
415,166,28693,2,0,L|406:221,1,45,2|0,1:3|0:0,0:0:0:0:
315,175,28830,2,0,L|306:120,1,45,2|0,1:3|0:0,0:0:0:0:
242,50,28966,6,0,P|184:40|138:45,1,90,2|0,1:3|1:3,1:3:0:0:
18,176,29239,1,2,1:3:0:0:
28,210,29307,1,0,0:0:0:0:
49,238,29375,1,2,1:3:0:0:
80,254,29443,1,0,0:0:0:0:
116,257,29512,1,2,1:3:0:0:
147,240,29580,1,0,0:0:0:0:
182,231,29648,1,2,1:3:0:0:
217,235,29716,1,0,0:0:0:0:
249,250,29784,2,0,L|314:247,3,45,2|0|2|0,1:3|0:0|1:3|0:0,0:0:0:0:
362,181,30057,5,2,1:3:0:0:
395,167,30125,1,0,0:0:0:0:
430,168,30193,1,2,1:3:0:0:
462,184,30261,1,0,0:0:0:0:
485,211,30329,1,2,1:3:0:0:
495,245,30397,1,0,0:0:0:0:
490,281,30466,1,2,1:3:0:0:
471,311,30534,1,0,0:0:0:0:
441,331,30603,2,0,L|369:327,3,45,2|0|2|0,1:3|0:0|1:3|0:0,0:0:0:0:
323,255,30875,2,0,L|250:259,1,45,2|0,1:3|0:0,0:0:0:0:
213,340,31012,2,0,L|140:335,1,45,2|0,1:3|0:0,0:0:0:0:
85,261,31148,6,0,B|72:220|72:220|90:170,1,90,4|0,0:0|0:0,0:0:0:0:
199,11,31421,1,2,1:3:0:0:
224,38,31489,1,0,0:0:0:0:
258,55,31557,1,2,1:3:0:0:
295,61,31625,1,0,0:0:0:0:
333,59,31693,1,2,1:3:0:0:
330,97,31762,1,0,0:0:0:0:
324,134,31830,1,2,1:3:0:0:
318,171,31898,1,0,0:0:0:0:
308,208,31966,2,0,L|319:272,3,45,2|0|2|0,1:3|0:0|1:3|0:0,0:0:0:0:
331,342,32239,5,2,1:3:0:0:
365,358,32307,1,0,0:0:0:0:
402,366,32375,1,2,1:3:0:0:
440,363,32443,1,0,0:0:0:0:
474,345,32512,1,2,1:3:0:0:
478,307,32580,1,0,0:0:0:0:
471,269,32648,1,2,1:3:0:0:
465,231,32716,1,0,0:0:0:0:
459,193,32784,2,0,L|464:138,3,45,2|0|2|0,1:3|0:0|1:3|0:0,0:0:0:0:
400,64,33057,2,0,L|348:73,1,45,2|0,1:3|0:0,0:0:0:0:
273,133,33193,2,0,L|221:124,1,45,2|0,1:3|0:0,0:0:0:0:
130,88,33330,5,10,0:0:0:0:
130,88,33398,1,8,0:0:0:0:
130,88,33466,2,0,L|78:97,1,45,0|0,0:0|0:0,0:0:0:0:
20,177,33603,2,0,L|72:186,1,45,0|0,0:0|0:0,0:0:0:0:
180,252,33739,5,10,0:0:0:0:
180,252,33807,1,8,0:0:0:0:
180,252,33875,2,0,L|128:261,1,45,0|0,0:0|0:0,0:0:0:0:
70,341,34012,2,0,L|122:350,1,45,0|0,0:0|0:0,0:0:0:0:
248,352,34148,5,10,0:0:0:0:
248,352,34216,1,8,0:0:0:0:
248,352,34284,2,0,L|257:300,1,45,0|0,0:0|0:0,0:0:0:0:
332,236,34421,2,0,L|341:288,1,45,0|0,0:0|0:0,0:0:0:0:
244,172,34557,5,10,0:0:0:0:
244,172,34625,1,8,0:0:0:0:
244,172,34693,2,0,L|253:120,1,45,10|0,0:0|0:0,0:0:0:0:
343,39,34830,1,10,0:0:0:0:
343,39,34898,1,8,0:0:0:0:
343,39,34966,2,0,P|382:30|458:64,1,90,10|8,0:0|0:0,0:0:0:0:
497,209,35239,1,8,0:0:0:0:
491,249,35307,1,8,0:0:0:0:
486,289,35375,1,8,0:0:0:0:
480,329,35443,1,8,0:0:0:0:
471,369,35512,5,6,0:0:0:0:
339,280,35648,1,6,0:0:0:0:
339,280,37693,5,6,0:0:0:0:
428,148,37829,1,6,0:0:0:0:
428,148,39875,5,6,0:0:0:0:
296,59,40011,1,6,0:0:0:0:
296,59,41103,5,6,0:0:0:0:
296,59,42057,5,6,0:0:0:0:
207,191,42193,1,6,0:0:0:0:
214,198,43148,5,10,0:0:0:0:
214,198,43216,1,8,0:0:0:0:
214,198,43284,1,0,0:0:0:0:
178,57,43421,1,10,0:0:0:0:
178,57,43489,1,8,0:0:0:0:
178,57,43557,1,0,0:0:0:0:
302,128,43693,1,4,0:0:0:0:
217,321,43830,2,0,P|223:291|222:268,1,45
125,192,43966,1,10,0:0:0:0:
96,181,44034,1,8,0:0:0:0:
59,183,44103,1,10,0:0:0:0:
29,203,44171,1,8,0:0:0:0:
16,240,44239,6,0,L|29:380,1,99.0000030212403,4|8,0:0|0:0,0:0:0:0:
204,296,44512,2,0,L|217:156,1,99.0000030212403,2|8,0:0|0:0,0:0:0:0:
314,63,44784,1,2,0:0:0:0:
193,15,44921,1,8,0:0:0:0:
289,151,45057,1,2,0:0:0:0:
410,103,45193,1,8,0:0:0:0:
361,263,45330,6,0,P|366:313|371:364,1,99.0000030212403,2|8,0:0|0:0,0:0:0:0:
493,205,45603,1,2,0:0:0:0:
493,205,45671,1,0,0:0:0:0:
493,205,45739,1,8,0:0:0:0:
410,103,45875,1,2,0:0:0:0:
361,263,46012,1,8,0:0:0:0:
275,118,46148,2,0,L|284:6,1,99.0000030212403,2|8,0:0|0:0,0:0:0:0:
99,95,46421,6,0,L|108:207,1,99.0000030212403,2|8,0:0|0:0,0:0:0:0:
125,360,46693,1,2,0:0:0:0:
125,360,46762,1,0,0:0:0:0:
125,360,46830,1,8,0:0:0:0:
266,269,46966,1,2,0:0:0:0:
136,269,47103,1,8,0:0:0:0:
275,361,47239,2,0,P|326:352|382:344,1,99.0000030212403,2|8,0:0|0:0,0:0:0:0:
497,231,47512,5,2,0:0:0:0:
319,170,47648,1,8,0:0:0:0:
403,266,47784,1,2,0:0:0:0:
403,266,47853,1,0,0:0:0:0:
403,266,47921,1,8,0:0:0:0:
477,115,48057,2,0,L|459:4,1,99.0000030212403,2|8,0:0|0:0,0:0:0:0:
296,158,48330,2,0,B|284:212|284:212|296:247|296:247|275:344,1,148.50000453186,2|0,0:0|0:0,0:0:0:0:
274,335,48603,5,2,0:0:0:0:
202,252,48739,1,8,0:0:0:0:
381,213,48875,1,2,0:0:0:0:
381,213,48943,1,0,0:0:0:0:
381,213,49012,1,8,0:0:0:0:
282,130,49148,2,0,L|152:138,1,99.0000030212403,2|8,0:0|0:0,0:0:0:0:
14,145,49421,1,2,0:0:0:0:
99,48,49557,1,8,0:0:0:0:
110,225,49693,6,0,L|240:233,1,99.0000030212403,2|8,0:0|0:0,0:0:0:0:
377,248,49966,1,2,0:0:0:0:
377,248,50034,1,0,0:0:0:0:
377,248,50103,1,8,0:0:0:0:
237,154,50239,1,2,0:0:0:0:
286,272,50375,1,8,0:0:0:0:
384,134,50512,2,0,P|391:76|373:24,1,99.0000030212403,2|8,0:0|0:0,0:0:0:0:
185,3,50784,5,2,0:0:0:0:
280,90,50921,1,8,0:0:0:0:
121,145,51057,2,0,L|6:134,1,99.0000030212403,2|8,0:0|0:0,0:0:0:0:
112,278,51330,2,0,L|227:267,1,99.0000030212403,2|8,0:0|0:0,0:0:0:0:
377,248,51603,1,2,0:0:0:0:
300,350,51739,1,8,0:0:0:0:
273,174,51875,5,10,0:0:0:0:
268,139,51943,1,8,0:0:0:0:
264,105,52011,1,8,0:0:0:0:
259,70,52079,1,8,0:0:0:0:
255,36,52148,2,0,L|233:163,1,99.0000030212403,6|0,0:0|0:0,0:0:0:0:
152,313,52421,5,8,0:0:0:0:
118,308,52489,1,8,0:0:0:0:
84,304,52557,1,8,0:0:0:0:
49,299,52625,1,8,0:0:0:0:
15,295,52694,2,0,L|141:272,1,99.0000030212403,6|0,0:0|0:0,0:0:0:0:
277,248,52966,5,4,0:0:0:0:
160,191,53103,1,8,0:0:0:0:
221,347,53239,1,2,0:0:0:0:
221,347,53307,1,0,0:0:0:0:
221,347,53375,1,8,0:0:0:0:
377,284,53512,2,0,L|475:288,1,99.0000030212403,2|8,0:0|0:0,0:0:0:0:
411,133,53784,2,0,L|313:137,1,99.0000030212403,2|8,0:0|0:0,0:0:0:0:
143,151,54057,5,2,0:0:0:0:
265,36,54193,1,8,0:0:0:0:
233,242,54330,1,2,0:0:0:0:
233,242,54398,1,0,0:0:0:0:
233,242,54466,1,8,0:0:0:0:
122,113,54603,2,0,L|-3:123,1,99.0000030212403,2|8,0:0|0:0,0:0:0:0:
172,7,54875,1,2,0:0:0:0:
225,124,55012,1,8,0:0:0:0:
377,52,55148,6,0,P|428:51|484:75,1,99.0000030212403,2|8,0:0|0:0,0:0:0:0:
505,233,55421,1,2,0:0:0:0:
505,233,55489,1,0,0:0:0:0:
505,233,55557,1,8,0:0:0:0:
342,276,55693,1,2,0:0:0:0:
409,167,55830,1,8,0:0:0:0:
423,334,55966,2,0,P|379:368|327:374,1,99.0000030212403,2|8,0:0|0:0,0:0:0:0:
158,314,56239,5,2,0:0:0:0:
342,276,56375,1,8,0:0:0:0:
197,188,56512,1,2,0:0:0:0:
197,188,56580,1,0,0:0:0:0:
197,188,56648,1,8,0:0:0:0:
329,149,56784,2,0,L|439:154,1,99.0000030212403,2|8,0:0|0:0,0:0:0:0:
276,40,57057,1,2,0:0:0:0:
197,188,57193,1,8,0:0:0:0:
42,119,57330,6,0,P|26:71|26:3,1,99.0000030212403,2|8,0:0|0:0,0:0:0:0:
178,89,57603,1,2,0:0:0:0:
178,89,57671,1,0,0:0:0:0:
178,89,57739,1,8,0:0:0:0:
104,239,57875,2,0,L|-1:233,1,99.0000030212403,2|8,0:0|0:0,0:0:0:0:
109,366,58148,1,2,0:0:0:0:
272,330,58284,6,0,P|288:282|288:214,1,99.0000030212403,8|2,0:0|0:0,0:0:0:0:
265,107,58557,1,8,0:0:0:0:
427,147,58693,1,2,0:0:0:0:
427,147,58762,1,0,0:0:0:0:
427,147,58830,1,8,0:0:0:0:
274,216,58966,2,0,L|168:206,1,99.0000030212403,2|8,0:0|0:0,0:0:0:0:
44,100,59239,2,0,L|150:90,1,99.0000030212403,2|8,0:0|0:0,0:0:0:0:
309,66,59512,5,2,0:0:0:0:
194,8,59648,1,8,0:0:0:0:
236,170,59784,1,2,0:0:0:0:
236,170,59853,1,0,0:0:0:0:
236,170,59921,1,8,0:0:0:0:
396,121,60057,2,0,L|508:132,1,99.0000030212403,2|8,0:0|0:0,0:0:0:0:
398,270,60330,1,2,0:0:0:0:
316,145,60466,1,8,0:0:0:0:
166,260,60603,5,8,0:0:0:0:
138,280,60671,1,8,0:0:0:0:
104,288,60739,1,8,0:0:0:0:
69,287,60807,1,8,0:0:0:0:
37,272,60875,2,0,L|29:167,1,99.0000030212403,6|0,0:0|0:0,0:0:0:0:
181,45,61148,5,10,0:0:0:0:
181,45,61216,1,8,0:0:0:0:
181,45,61284,1,0,0:0:0:0:
234,205,61421,1,0,0:0:0:0:
98,106,61557,1,0,0:0:0:0:
307,104,61693,5,6,0:0:0:0:
307,104,62512,2,0,P|328:156|300:240,1,135.000005149842,10|0,0:0|0:0,0:0:0:0:
111,268,62921,2,0,P|145:223|232:206,1,135.000005149842,8|0,0:0|0:0,0:0:0:0:
351,354,63330,2,0,P|295:346|236:279,1,135.000005149842,8|2,0:0|0:0,0:0:0:0:
307,104,63875,5,10,0:0:0:0:
307,104,64693,2,0,P|240:75|169:90,1,135.000005149842,10|0,0:0|0:0,0:0:0:0:
253,290,65103,2,0,P|311:246|334:177,1,135.000005149842,8|0,0:0|0:0,0:0:0:0:
120,149,65512,2,0,P|128:221|176:275,1,135.000005149842,8|2,0:0|0:0,0:0:0:0:
422,337,66057,5,6,0:0:0:0:
422,337,66875,2,0,P|384:270|376:200,1,135.000005149842,8|0,0:0|0:0,0:0:0:0:
392,35,67284,2,0,P|352:101|296:143,1,135.000005149842,8|0,0:0|0:0,0:0:0:0:
146,212,67693,2,0,P|223:212|287:240,1,135.000005149842,8|2,0:0|0:0,0:0:0:0:
466,363,68239,6,0,P|505:271|470:99,1,270.000010299683,10|0,0:0|0:0,0:0:0:0:
253,50,69057,2,0,B|200:65|200:65|121:50,1,135.000005149842,10|0,0:0|0:0,0:0:0:0:
28,175,69466,2,0,B|81:160|81:160|160:175,1,135.000005149842,8|0,0:0|0:0,0:0:0:0:
266,288,69875,2,0,B|213:303|213:303|134:288,1,135.000005149842,8|2,0:0|0:0,0:0:0:0:
370,84,70421,5,6,0:0:0:0:
370,84,71239,2,0,L|385:227,1,135.000005149842,8|0,0:0|0:0,0:0:0:0:
243,90,71648,2,0,L|228:233,1,135.000005149842,8|0,0:0|0:0,0:0:0:0:
403,150,72057,2,0,L|418:293,1,135.000005149842,8|2,0:0|0:0,0:0:0:0:
199,361,72603,5,10,0:0:0:0:
200,362,73421,2,0,P|166:329|65:315,1,135.000005149842,10|0,0:0|0:0,0:0:0:0:
267,267,73830,2,0,P|301:234|402:220,1,135.000005149842,8|0,0:0|0:0,0:0:0:0:
200,169,74239,2,0,P|166:136|65:122,1,135.000005149842,8|2,0:0|0:0,0:0:0:0:
281,3,74784,5,6,0:0:0:0:
281,3,75603,2,0,B|231:25|231:25|120:16,1,135.000005149842,8|0,0:0|0:0,0:0:0:0:
275,161,76012,2,0,B|325:183|325:183|436:174,1,135.000005149842,8|0,0:0|0:0,0:0:0:0:
287,27,76421,2,0,B|237:49|237:49|126:40,1,135.000005149842,8|2,0:0|0:0,0:0:0:0:
32,235,76966,6,0,P|56:301|231:310,1,270.000010299683,10|0,0:0|0:0,0:0:0:0:
363,122,77784,2,0,L|509:109,1,135.000005149842,10|0,0:0|0:0,0:0:0:0:
355,236,78193,2,0,L|209:223,1,135.000005149842,8|0,0:0|0:0,0:0:0:0:
98,209,78603,5,8,0:0:0:0:
112,88,78739,1,8,0:0:0:0:
232,103,78875,1,8,0:0:0:0:
220,224,79012,1,8,0:0:0:0:
77,197,79148,6,0,B|69:358|69:358|138:292,1,242.999992584229,4|0,0:0|0:0,0:0:0:0:
220,224,79693,2,0,P|253:230|320:237,1,80.9999975280763,2|0,0:0|0:0,0:0:0:0:
365,338,79966,2,0,P|331:344|265:351,1,80.9999975280763,0|0,0:0|0:0,0:0:0:0:
195,220,80239,6,0,P|187:163|342:127,1,242.999992584229,10|0,0:0|0:0,0:0:0:0:
428,185,80784,2,0,P|437:145|442:105,1,80.9999975280763,2|0,0:0|0:0,0:0:0:0:
339,220,81057,2,0,P|343:260|352:299,1,80.9999975280763,0|0,0:0|0:0,0:0:0:0:
170,346,81330,6,0,B|92:322|14:361|14:361|50:326|53:286,1,242.999992584229,2|0,0:0|0:0,0:0:0:0:
20,172,81875,2,0,P|13:133|4:93,1,80.9999975280763,2|0,0:0|0:0,0:0:0:0:
125,45,82148,2,0,P|116:84|109:124,1,80.9999975280763,0|0,0:0|0:0,0:0:0:0:
187,228,82421,6,0,P|229:246|291:234,1,80.9999975280763,6|0,0:0|0:0,0:0:0:0:
245,140,82693,1,6,0:0:0:0:
245,140,82830,1,0,0:0:0:0:
342,67,82966,2,0,L|436:74,1,80.9999975280763,6|0,0:0|0:0,0:0:0:0:
413,195,83239,2,0,L|319:202,1,80.9999975280763,6|0,0:0|0:0,0:0:0:0:
187,228,83512,6,0,B|157:187|157:187|170:76,1,161.999995056153,6|0,0:0|0:0,0:0:0:0:
96,0,83921,1,0,0:0:0:0:
25,77,84057,2,0,B|38:187|38:187|8:228,1,161.999995056153,2|0,0:0|0:0,0:0:0:0:
182,347,84603,6,0,P|251:313|343:326,1,161.999995056153,10|0,0:0|0:0,0:0:0:0:
426,371,85012,1,0,0:0:0:0:
492,290,85148,2,0,L|479:201,1,80.9999975280763,2|0,0:0|0:0,0:0:0:0:
388,156,85421,2,0,L|401:67,1,80.9999975280763,0|0,0:0|0:0,0:0:0:0:
297,98,85693,6,0,P|217:105|148:56,2,161.999995056153,2|0|2,0:0|0:0|0:0,0:0:0:0:
400,76,86375,1,0,0:0:0:0:
484,139,86512,2,0,L|475:230,1,80.9999975280763,0|0,0:0|0:0,0:0:0:0:
359,306,86784,6,0,L|351:225,1,80.9999975280763,6|0,0:0|0:0,0:0:0:0:
246,163,87057,2,0,L|238:243,1,80.9999975280763,6|0,0:0|0:0,0:0:0:0:
125,323,87330,1,10,0:0:0:0:
125,323,87398,1,8,0:0:0:0:
125,323,87466,1,0,0:0:0:0:
136,201,87603,1,2,0:0:0:0:
235,269,87739,1,0,0:0:0:0:
65,250,87875,6,0,P|58:164|132:114,1,180,6|8,0:0|0:0,0:0:0:0:
240,149,88284,1,0,0:0:0:0:
300,7,88421,1,2,0:0:0:0:
202,71,88557,1,0,0:0:0:0:
351,102,88693,2,0,L|447:96,1,90,8|2,0:0|0:0,0:0:0:0:
500,267,88966,6,0,P|431:232|320:292,1,180,0|10,0:0|0:0,0:0:0:0:
254,346,89375,1,0,0:0:0:0:
180,211,89512,1,2,0:0:0:0:
94,292,89648,1,0,0:0:0:0:
250,260,89784,2,0,L|355:265,1,90,8|0,0:0|0:0,0:0:0:0:
466,135,90057,6,0,B|496:71|461:12|461:12|405:39,2,180,0|8|2,0:0|0:0|0:0,0:0:0:0:
355,174,90739,1,0,0:0:0:0:
219,103,90875,2,0,L|227:12,1,90,8|2,0:0|0:0,0:0:0:0:
114,154,91148,5,4,0:0:0:0:
191,241,91284,1,0,0:0:0:0:
53,310,91421,2,0,P|40:264|36:220,1,90,14|0,0:0|0:0,0:0:0:0:
33,69,91693,1,6,0:0:0:0:
114,154,91830,1,0,0:0:0:0:
224,48,91966,2,0,L|331:57,1,90,12|0,0:0|0:0,0:0:0:0:
453,170,92239,6,0,P|387:169|303:256,1,180,4|8,0:0|0:0,0:0:0:0:
416,284,92648,1,0,0:0:0:0:
284,361,92784,2,0,L|182:352,1,90,2|0,0:0|0:0,0:0:0:0:
41,338,93057,1,8,0:0:0:0:
131,264,93193,1,2,0:0:0:0:
15,162,93330,6,0,P|73:122|213:132,1,180,0|8,0:0|0:0,0:0:0:0:
287,164,93739,1,0,0:0:0:0:
364,32,93875,1,2,0:0:0:0:
247,50,94012,1,0,0:0:0:0:
378,127,94148,2,0,B|381:170|381:170|382:217,1,90,8|0,0:0|0:0,0:0:0:0:
251,297,94421,6,0,B|212:270|173:258|173:258|123:265|77:296,2,180,0|8|2,0:0|0:0|0:0,0:0:0:0:
351,357,95103,1,0,0:0:0:0:
446,238,95239,1,8,0:0:0:0:
330,250,95375,1,2,0:0:0:0:
453,105,95512,5,12,0:0:0:0:
436,256,95648,1,0,0:0:0:0:
268,146,95784,1,14,0:0:0:0:
251,297,95920,1,0,0:0:0:0:
355,96,96057,5,8,0:0:0:0:
355,96,96125,1,8,0:0:0:0:
355,96,96193,1,0,0:0:0:0:
160,210,96330,1,8,0:0:0:0:
160,210,96398,1,8,0:0:0:0:
160,210,96466,1,0,0:0:0:0:
345,275,96603,5,6,0:0:0:0:
256,192,99875,5,4,0:0:0:0:
256,192,100421,1,6,0:0:0:0:
256,192,100966,5,6,0:0:0:0:
256,192,104239,5,4,0:0:0:0:
256,192,104785,5,6,0:0:0:0:
256,192,105330,5,6,0:0:0:0:
256,345,105603,1,2,0:0:0:0:
103,345,105875,1,0,0:0:0:0:
103,192,106148,1,2,0:0:0:0:
256,192,106421,5,0,0:0:0:0:
256,345,106694,1,2,0:0:0:0:
409,345,106966,1,0,0:0:0:0:
409,192,107239,1,2,0:0:0:0:
256,192,107512,5,0,0:0:0:0:
256,39,107785,1,2,0:0:0:0:
409,39,108057,1,0,0:0:0:0:
409,192,108330,1,2,0:0:0:0:
256,192,108603,5,4,0:0:0:0:
256,39,108876,1,0,0:0:0:0:
103,39,109148,1,4,0:0:0:0:
103,192,109421,1,0,0:0:0:0:
256,192,109693,6,8,L|307:187,7,45,12|8|8|8|8|0|0|0,0:0|0:0|0:0|0:0|0:0|0:0|0:0|0:0,0:0:0:0:
364,122,110239,2,8,L|415:127,7,45,8|0|0|0|8|0|0|0,0:0|0:0|0:0|0:0|0:0|0:0|0:0|0:0,0:0:0:0:
481,179,110784,6,0,L|471:236,3,45,8|8|8|8,0:0|0:0|0:0|0:0,0:0:0:0:
394,268,111057,2,0,L|404:325,3,45,8|8|8|8,0:0|0:0|0:0|0:0,0:0:0:0:
328,366,111330,1,8,0:0:0:0:
293,377,111398,1,8,0:0:0:0:
257,380,111466,1,8,0:0:0:0:
221,374,111534,1,8,0:0:0:0:
187,360,111603,1,8,0:0:0:0:
157,339,111671,1,8,0:0:0:0:
137,308,111739,1,8,0:0:0:0:
127,273,111807,1,8,0:0:0:0:
125,237,111875,6,0,L|194:228,3,45,8|8|8|8,0:0|0:0|0:0|0:0,0:0:0:0:
248,184,112148,2,0,L|317:193,3,45,8|8|8|8,0:0|0:0|0:0|0:0,0:0:0:0:
382,206,112421,1,8,0:0:0:0:
415,184,112489,1,8,0:0:0:0:
437,150,112557,1,8,0:0:0:0:
443,110,112625,1,8,0:0:0:0:
433,71,112693,1,8,0:0:0:0:
408,39,112761,1,8,0:0:0:0:
373,20,112830,1,8,0:0:0:0:
333,18,112898,1,8,0:0:0:0:
295,29,112966,6,0,P|266:54|115:7,1,202.500007724762,6|0,0:0|0:0,0:0:0:0:
36,78,113512,6,0,B|22:113|42:143|42:143|22:178|33:216,1,135,6|0,0:0|0:0,0:0:0:0:
77,327,114057,6,0,L|204:314,1,99.0000030212403,6|8,0:0|0:0,0:0:0:0:
352,302,114330,1,2,0:0:0:0:
352,302,114398,1,0,0:0:0:0:
352,302,114466,1,8,0:0:0:0:
200,211,114603,1,2,0:0:0:0:
269,374,114740,1,8,0:0:0:0:
309,202,114875,1,2,0:0:0:0:
176,317,115012,6,0,P|160:217|156:115,1,198.000006042481,10|8,0:0|0:0,0:0:0:0:
306,23,115421,1,2,0:0:0:0:
306,23,115489,1,0,0:0:0:0:
306,23,115557,1,8,0:0:0:0:
307,200,115693,1,2,0:0:0:0:
234,80,115830,1,8,0:0:0:0:
420,95,115966,1,2,0:0:0:0:
276,217,116103,6,0,B|179:196|186:268|76:236,1,198.000006042481,10|8,0:0|0:0,0:0:0:0:
244,335,116512,1,2,0:0:0:0:
244,335,116580,1,0,0:0:0:0:
244,335,116648,1,8,0:0:0:0:
307,200,116784,1,0,0:0:0:0:
126,138,116921,1,8,0:0:0:0:
184,252,117057,1,0,0:0:0:0:
252,77,117193,1,8,0:0:0:0:
403,235,117330,6,0,L|398:356,1,99.0000030212403,4|8,0:0|0:0,0:0:0:0:
498,138,117603,1,0,0:0:0:0:
498,138,117671,1,0,0:0:0:0:
498,138,117739,1,8,0:0:0:0:
282,166,117875,1,4,0:0:0:0:
420,244,118012,1,8,0:0:0:0:
380,90,118148,2,0,P|330:78|268:87,1,99.0000030212403,0|8,0:0|0:0,0:0:0:0:
153,233,118421,6,0,P|203:245|265:236,1,99.0000030212403,6|8,0:0|0:0,0:0:0:0:
109,102,118693,1,2,0:0:0:0:
109,102,118762,1,0,0:0:0:0:
109,102,118830,1,8,0:0:0:0:
12,263,118966,1,2,0:0:0:0:
150,207,119103,1,8,0:0:0:0:
3,107,119239,1,2,0:0:0:0:
183,26,119375,6,0,B|230:52|230:52|390:33,1,198.000006042481,10|8,0:0|0:0,0:0:0:0:
508,151,119784,1,2,0:0:0:0:
508,151,119853,1,0,0:0:0:0:
508,151,119921,1,8,0:0:0:0:
387,267,120057,2,0,P|336:258|260:261,1,99.0000030212403,2|8,0:0|0:0,0:0:0:0:
465,383,120330,1,2,0:0:0:0:
508,151,120466,6,0,B|494:14|494:14|442:65,1,198.000006042481,10|8,0:0|0:0,0:0:0:0:
333,177,120875,1,2,0:0:0:0:
333,177,120943,1,0,0:0:0:0:
333,177,121012,1,8,0:0:0:0:
243,84,121148,1,0,0:0:0:0:
165,232,121284,1,8,0:0:0:0:
75,139,121420,1,0,0:0:0:0:
241,169,121557,1,8,0:0:0:0:
111,331,121693,6,0,L|-3:316,1,99.0000030212403,4|0,0:0|0:0,0:0:0:0:
75,139,121966,1,8,0:0:0:0:
109,134,122034,1,8,0:0:0:0:
144,130,122102,1,8,0:0:0:0:
178,125,122170,1,8,0:0:0:0:
212,121,122238,1,8,0:0:0:0:
292,258,122375,1,0,0:0:0:0:
436,190,122512,1,0,0:0:0:0:
366,47,122648,1,0,0:0:0:0:
212,121,122784,6,0,P|207:59|200:5,1,107.999996704102,6|8,0:0|0:0,0:0:0:0:
113,235,123057,1,2,0:0:0:0:
113,235,123125,1,0,0:0:0:0:
113,235,123193,1,8,0:0:0:0:
229,311,123330,1,2,0:0:0:0:
233,143,123466,1,8,0:0:0:0:
349,219,123603,1,2,0:0:0:0:
242,348,123739,6,0,P|159:333|46:337,1,198.000006042481,10|8,0:0|0:0,0:0:0:0:
7,172,124148,1,2,0:0:0:0:
7,172,124216,1,0,0:0:0:0:
7,172,124284,1,8,0:0:0:0:
167,224,124421,1,2,0:0:0:0:
42,256,124557,1,8,0:0:0:0:
83,62,124693,1,2,0:0:0:0:
156,249,124830,6,0,B|221:240|221:240|288:257|288:257|376:244,1,198.000006042481,10|8,0:0|0:0,0:0:0:0:
464,122,125239,1,2,0:0:0:0:
464,122,125307,1,0,0:0:0:0:
464,122,125375,1,8,0:0:0:0:
297,149,125512,1,0,0:0:0:0:
384,242,125648,1,8,0:0:0:0:
479,91,125784,1,0,0:0:0:0:
509,267,125921,1,8,0:0:0:0:
376,107,126057,6,0,L|365:8,1,99.0000030212403,4|8,0:0|0:0,0:0:0:0:
188,73,126330,1,0,0:0:0:0:
188,73,126398,1,0,0:0:0:0:
188,73,126466,1,8,0:0:0:0:
311,229,126603,1,4,0:0:0:0:
279,57,126739,1,8,0:0:0:0:
170,157,126875,2,0,P|119:150|65:145,1,99.0000030212403,0|8,0:0|0:0,0:0:0:0:
147,329,127148,6,0,P|198:322|252:317,1,99.0000030212403,6|8,0:0|0:0,0:0:0:0:
424,296,127421,1,2,0:0:0:0:
424,296,127489,1,0,0:0:0:0:
424,296,127557,1,8,0:0:0:0:
266,208,127693,1,2,0:0:0:0:
343,371,127829,1,8,0:0:0:0:
377,194,127966,1,2,0:0:0:0:
245,317,128103,6,0,B|189:293|189:293|39:316,1,198.000006042481,10|8,0:0|0:0,0:0:0:0:
8,150,128512,1,2,0:0:0:0:
8,150,128580,1,0,0:0:0:0:
8,150,128648,1,8,0:0:0:0:
153,179,128784,1,2,0:0:0:0:
121,33,128921,1,8,0:0:0:0:
66,212,129057,1,2,0:0:0:0:
206,87,129193,1,10,0:0:0:0:
245,317,129330,5,10,0:0:0:0:
279,335,129398,1,8,0:0:0:0:
316,346,129466,1,0,0:0:0:0:
355,343,129534,1,0,0:0:0:0:
393,331,129603,2,0,L|394:272,1,49.5000015106202,0|0,0:0|0:0,0:0:0:0:
402,171,129739,1,10,0:0:0:0:
402,171,129807,1,8,0:0:0:0:
402,171,129875,2,0,P|344:157|273:183,1,99.0000030212403,0|0,0:0|0:0,0:0:0:0:
149,310,130148,1,10,0:0:0:0:
149,310,130216,1,8,0:0:0:0:
149,310,130284,2,0,P|207:324|278:298,1,99.0000030212403,0|0,0:0|0:0,0:0:0:0:
91,157,130557,5,10,0:0:0:0:
91,157,130625,1,8,0:0:0:0:
91,157,130693,2,0,L|28:162,1,49.5000015106202,10|0,0:0|0:0,0:0:0:0:
201,37,130830,1,10,0:0:0:0:
201,37,130898,1,8,0:0:0:0:
201,37,130966,2,0,L|337:47,1,99.0000030212403,10|8,0:0|0:0,0:0:0:0:
450,158,131239,1,8,0:0:0:0:
456,171,131307,1,8,0:0:0:0:
460,190,131375,1,8,0:0:0:0:
460,214,131443,1,8,0:0:0:0:
454,240,131512,5,6,0:0:0:0:
382,99,131648,1,6,0:0:0:0:
300,276,133693,5,6,0:0:0:0:
347,121,133829,1,6,0:0:0:0:
347,121,134784,5,10,0:0:0:0:
347,121,134853,1,8,0:0:0:0:
347,121,134921,1,0,0:0:0:0:
133,167,135057,1,8,0:0:0:0:
133,167,135125,1,8,0:0:0:0:
133,167,135193,1,0,0:0:0:0:
212,35,135330,1,2,0:0:0:0:
259,264,135466,1,8,0:0:0:0:
259,264,135534,1,8,0:0:0:0:
259,264,135603,1,2,0:0:0:0:
465,167,135739,1,8,0:0:0:0:
465,167,135807,1,8,0:0:0:0:
465,167,135875,5,6,0:0:0:0:
239,143,136012,1,6,0:0:0:0:
