osu file format v14

[General]
AudioFilename: audio.mp3
AudioLeadIn: 0
PreviewTime: 96603
Countdown: 0
SampleSet: None
StackLeniency: 0.7
Mode: 0
LetterboxInBreaks: 0
WidescreenStoryboard: 0

[Editor]
DistanceSpacing: 1.1
BeatDivisor: 4
GridSize: 8
TimelineZoom: 1.299999

[Metadata]
Title:Galapagos de Warui ka
TitleUnicode:ガラパゴスで悪いか
Artist:Utsu-P
ArtistUnicode:鬱P
Creator:DendyHere
Version:619's Normal
Source:
Tags:UtsuP GALAPAGOS 初音ミク Hatsune Miku 鏡音リン Kagamine Rin vocaloid metal rock MY SONG IS SHIT comiket 92 c92 mirimo Akitoshi -Laura- 619 Shmiklak Danii
BeatmapID:1673156
BeatmapSetID:795379

[Difficulty]
HPDrainRate:3.5
CircleSize:3
OverallDifficulty:5
ApproachRate:6
SliderMultiplier:0.8
SliderTickRate:1

[Events]
//Background and Video events
0,0,"global.jpg",0,0
//Break Periods
2,35848,38675
2,96803,104130
//Storyboard Layer 0 (Background)
//Storyboard Layer 1 (Fail)
//Storyboard Layer 2 (Pass)
//Storyboard Layer 3 (Foreground)
//Storyboard Sound Samples

[TimingPoints]
603,272.727272727273,4,3,3,60,1,0
18057,-100,4,3,2,60,0,0
22421,-100,4,3,3,60,0,0
26784,-100,4,3,2,60,0,0
34421,-100,4,3,3,60,0,0
44239,-100,4,3,2,60,0,0
52966,-100,4,3,3,60,0,0
61693,-100,4,3,7,60,0,0
61830,-100,4,3,6,40,0,0
78603,-100,4,3,6,50,0,0
79148,-100,4,3,2,60,0,0
83512,-100,4,3,3,60,0,0
83580,-100,4,3,2,60,0,0
86784,-100,4,3,2,60,0,0
87875,-100,4,3,3,60,0,0
88421,-100,4,3,2,60,0,0
92239,-100,4,3,3,60,0,0
92307,-100,4,3,2,60,0,0
95784,-100,4,3,3,60,0,0
96603,-100,4,3,2,60,0,0
105330,-100,4,3,2,45,0,0
105603,-100,4,3,0,45,0,0
108603,-100,4,3,3,45,0,0
109693,-100,4,3,2,40,0,0
110784,-100,4,3,2,50,0,0
111875,-100,4,3,2,55,0,0
112421,-100,4,3,2,60,0,0
112966,-100,4,3,3,50,0,0
114057,-100,4,3,4,80,0,1
117875,-100,4,3,5,80,0,1
118421,-100,4,3,4,80,0,1
122784,-100,4,3,4,80,0,1
126603,-100,4,3,5,80,0,1
127148,-100,4,3,4,80,0,1
129330,-100,4,3,3,80,0,1
131512,-100,4,3,3,60,0,0

[Colours]
Combo1 : 0,128,0
Combo2 : 128,0,64
Combo3 : 0,213,53
Combo4 : 211,3,71

[HitObjects]
447,262,18057,6,0,L|447:358,2,80,4|6|2,0:0|0:0|0:0,0:0:0:0:
472,177,18875,1,6,0:0:0:0:
425,102,19148,1,4,0:0:0:0:
425,102,20239,6,0,P|388:108|336:100,1,80,4|6,0:0|0:0,0:0:0:0:
266,65,20784,2,0,P|229:59|177:67,1,80,2|6,0:0|0:0,0:0:0:0:
100,80,21330,1,4,0:0:0:0:
100,80,22421,6,0,L|97:172,1,80,4|0,0:0|0:0,0:0:0:0:
83,201,22830,2,0,P|78:238|90:286,1,80,4|0,0:0|0:0,0:0:0:0:
114,314,23239,2,0,B|153:325|153:325|202:313,1,80,4|0,0:0|0:0,0:0:0:0:
227,290,23648,2,0,L|316:297,1,80,4|0,0:0|0:0,0:0:0:0:
344,273,24057,1,0,0:0:0:0:
344,273,24603,6,0,B|387:279|421:261|421:261|442:274|467:278,2,120,4|4|4,0:0|0:0|0:0,0:0:0:0:
281,211,25693,2,0,P|272:176|282:127,1,80
349,79,26239,2,0,P|370:77|402:81,2,40,8|0|0,0:0|0:0|0:0,0:0:0:0:
267,45,26784,6,0,L|177:45,1,80,4|2,0:0|1:3,0:0:0:0:
105,78,27330,2,0,P|98:116|106:166,1,80,2|2,1:3|1:3,0:0:0:0:
132,241,27875,1,2,1:3:0:0:
195,302,28148,1,2,1:3:0:0:
257,240,28421,2,0,L|347:238,1,80,2|2,1:3|1:3,0:0:0:0:
421,264,28966,5,2,1:3:0:0:
502,229,29239,2,0,B|510:282|510:282|501:320,2,80,2|2|2,1:3|1:3|1:3,0:0:0:0:
468,147,30057,2,0,P|430:153|387:148,1,80,2|2,1:3|1:3,0:0:0:0:
312,104,30603,1,2,1:3:0:0:
234,62,30875,1,2,1:3:0:0:
147,79,31148,6,0,L|142:169,1,80,4|2,0:0|0:0,0:0:0:0:
176,240,31693,2,0,P|136:246|98:235,2,80,2|2|2,1:3|1:3|1:3,0:0:0:0:
251,194,32512,1,2,1:3:0:0:
324,242,32784,2,0,L|330:334,1,80,2|2,1:3|1:3,0:0:0:0:
417,323,33330,6,0,L|422:243,1,80,10|0,0:0|0:0,0:0:0:0:
453,211,33739,2,0,B|460:173|460:173|448:131,1,80,10|0,0:0|0:0,0:0:0:0:
422,97,34148,2,0,P|461:104|512:89,2,80,10|0|10,0:0|0:0|0:0,0:0:0:0:
338,69,34966,1,10,0:0:0:0:
262,23,35239,1,8,0:0:0:0:
191,75,35512,6,0,P|188:95|192:120,1,40,6|6,0:0|0:0,0:0:0:0:
256,192,39875,12,4,43148,0:0:0:0:
108,120,44239,6,0,L|17:114,2,80,4|2|2,0:0|0:0|0:0,0:0:0:0:
191,93,45057,1,2,0:0:0:0:
271,127,45330,2,0,P|321:134|355:127,1,80,0|2,0:0|0:0,0:0:0:0:
410,65,45875,1,2,0:0:0:0:
482,116,46148,2,0,B|490:198,1,80,2|2,0:0|0:0,0:0:0:0:
468,281,46693,6,0,B|428:269|428:269|389:281,1,80,2|2,0:0|0:0,0:0:0:0:
310,316,47239,1,2,0:0:0:0:
223,331,47512,2,0,P|158:364|78:324,1,160,2|2,0:0|0:0,0:0:0:0:
98,244,48330,2,0,L|93:159,1,80,2|2,0:0|0:0,0:0:0:0:
49,87,48875,6,0,P|88:76|134:85,1,80,2|2,0:0|0:0,0:0:0:0:
213,97,49421,1,2,0:0:0:0:
296,67,49693,1,2,0:0:0:0:
377,101,49966,2,0,B|430:109|430:109|469:98,2,80,2|2|2,0:0|0:0|0:0,0:0:0:0:
296,67,50784,6,0,L|295:153,1,80,2|2,0:0|0:0,0:0:0:0:
253,224,51330,1,2,0:0:0:0:
180,174,51603,2,0,P|138:168|99:174,1,80,2|8,0:0|0:0,0:0:0:0:
59,189,52012,1,8,0:0:0:0:
59,189,52148,2,0,P|50:230|59:276,1,80,6|8,0:0|0:0,0:0:0:0:
86,299,52557,1,8,0:0:0:0:
86,299,52693,2,0,B|137:308|137:308|173:298,1,80,6|4,0:0|0:0,0:0:0:0:
253,304,53239,6,0,L|253:218,1,80,2|2,0:0|0:0,0:0:0:0:
292,145,53784,1,2,0:0:0:0:
252,66,54057,2,0,P|293:57|335:68,1,80,2|2,0:0|0:0,0:0:0:0:
416,80,54603,2,0,P|407:118|415:158,1,80,2|2,0:0|0:0,0:0:0:0:
469,227,55148,5,2,0:0:0:0:
487,313,55421,2,0,B|449:322|449:322|396:312,1,80,2|2,0:0|0:0,0:0:0:0:
322,295,55966,1,2,0:0:0:0:
238,267,56239,2,0,B|200:258|200:258|147:268,1,80,2|2,0:0|0:0,0:0:0:0:
90,320,56784,1,2,0:0:0:0:
45,244,57057,2,0,B|37:190|37:190|47:154,1,80,2|2,0:0|0:0,0:0:0:0:
82,86,57603,6,0,L|0:81,2,80,2|2|2,0:0|0:0|0:0,0:0:0:0:
167,107,58421,1,2,0:0:0:0:
242,61,58693,2,0,P|255:103|246:146,1,80,2|2,0:0|0:0,0:0:0:0:
228,223,59239,1,2,0:0:0:0:
299,274,59512,6,0,L|385:274,1,80,2|2,0:0|0:0,0:0:0:0:
464,248,60057,1,2,0:0:0:0:
492,164,60330,2,0,P|495:140|479:83,1,80,2|8,0:0|0:0,0:0:0:0:
454,51,60739,1,8,0:0:0:0:
454,51,60875,2,0,L|367:48,1,80,6|10,0:0|0:0,0:0:0:0:
340,76,61284,1,8,0:0:0:0:
340,76,61421,1,0,0:0:0:0:
263,33,61693,6,0,B|216:86|126:66|126:66|150:115|130:162,1,240,6|8,0:0|0:0,0:0:0:0:
49,182,62784,2,0,P|97:235|181:227,1,160,0|8,0:0|0:0,0:0:0:0:
255,182,63603,1,2,0:0:0:0:
313,251,63875,6,0,P|398:228|350:115,1,240,10|10,0:0|0:0,0:0:0:0:
276,70,64966,2,0,L|185:74,1,80,0|2,0:0|0:0,0:0:0:0:
158,96,65375,2,0,P|115:99|73:84,1,80
40,68,65784,1,2,0:0:0:0:
17,156,66057,6,0,B|77:209|50:297|50:297|95:281|142:293,1,240,6|8,0:0|0:0,0:0:0:0:
212,332,67148,2,0,B|268:349|321:326|321:326|290:272,1,160,0|8,0:0|0:0,0:0:0:0:
263,202,67966,1,2,0:0:0:0:
245,115,68239,6,0,P|317:92|406:122,1,160,10|0,0:0|0:0,0:0:0:0:
466,164,69057,1,10,0:0:0:0:
502,244,69330,2,0,P|508:284|501:325,1,80,0|0,0:0|0:0,0:0:0:0:
480,361,69739,2,0,L|398:360,1,80,0|0,0:0|0:0,0:0:0:0:
359,341,70148,1,2,0:0:0:0:
286,290,70421,6,0,B|230:280|192:309|192:309|182:291|159:285|159:285|114:316|54:295,1,240,6|8,0:0|0:0,0:0:0:0:
22,220,71512,2,0,B|8:114|8:114|59:76,1,160,0|8,0:0|0:0,0:0:0:0:
127,39,72330,1,2,0:0:0:0:
215,37,72603,6,0,P|295:67|223:165,1,240,10|10,0:0|0:0,0:0:0:0:
143,144,73693,2,0,L|143:226,1,80,0|0,0:0|0:0,0:0:0:0:
151,267,74103,2,0,P|191:275|232:266,1,80,0|0,0:0|0:0,0:0:0:0:
270,251,74512,1,2,0:0:0:0:
353,279,74784,6,0,P|430:272|464:198,1,160,6|0,0:0|0:0,0:0:0:0:
470,116,75603,1,8,0:0:0:0:
421,42,75875,2,0,P|382:34|335:42,1,80,0|0,0:0|0:0,0:0:0:0:
267,85,76421,2,0,P|227:90|188:82,1,80,8|2,0:0|0:0,0:0:0:0:
111,38,76966,6,0,B|74:79|74:79|82:200,1,160,10|0,0:0|0:0,0:0:0:0:
86,271,77784,1,10,0:0:0:0:
148,332,78057,2,0,L|230:340,1,80,0|0,0:0|0:0,0:0:0:0:
271,338,78466,2,0,L|350:330,1,80,0|8,0:0|0:0,0:0:0:0:
391,314,78875,1,8,0:0:0:0:
473,282,79148,6,0,P|483:244|468:190,1,80,4|0,0:0|0:0,0:0:0:0:
442,123,79693,2,0,L|358:123,1,80,2|0,0:0|0:0,0:0:0:0:
286,169,80239,1,10,0:0:0:0:
217,113,80512,1,0,0:0:0:0:
130,127,80784,2,0,L|124:209,1,80,2|0,0:0|0:0,0:0:0:0:
35,209,81330,6,0,L|29:129,2,80,2|0|0,0:0|0:0|0:0,0:0:0:0:
81,283,82148,1,0,0:0:0:0:
159,322,82421,2,0,B|243:301|232:349|325:318,1,160,6|6,0:0|0:0,0:0:0:0:
399,290,83239,1,6,0:0:0:0:
343,221,83512,6,0,L|254:221,1,80,6|0,0:0|0:0,0:0:0:0:
183,183,84057,2,0,P|174:147|184:98,1,80,2|0,0:0|0:0,0:0:0:0:
260,67,84603,2,0,L|342:67,1,80,10|0,0:0|0:0,0:0:0:0:
425,88,85148,1,2,0:0:0:0:
493,142,85421,1,0,0:0:0:0:
499,229,85693,6,0,P|475:300|402:287,1,160,2|0,0:0|0:0,0:0:0:0:
338,228,86512,1,0,0:0:0:0:
263,183,86784,2,0,L|176:183,1,80,6|6,0:0|0:0,0:0:0:0:
105,158,87330,1,10,0:0:0:0:
58,232,87603,1,2,0:0:0:0:
103,306,87875,6,0,P|145:315|190:304,1,80,6|8,0:0|0:0,0:0:0:0:
265,281,88421,1,2,0:0:0:0:
337,330,88693,1,8,0:0:0:0:
418,297,88966,2,0,L|421:213,1,80,0|10,0:0|0:0,0:0:0:0:
471,144,89512,1,2,0:0:0:0:
438,62,89784,1,8,0:0:0:0:
355,32,90057,6,0,P|317:25|265:35,1,80,0|8,0:0|0:0,0:0:0:0:
196,68,90603,2,0,P|156:73|117:66,1,80,2|8,0:0|0:0,0:0:0:0:
34,37,91148,1,4,0:0:0:0:
2,119,91421,1,14,0:0:0:0:
9,206,91693,1,6,0:0:0:0:
51,283,91966,1,12,0:0:0:0:
125,329,92239,6,0,P|137:293|124:236,1,80,4|8,0:0|0:0,0:0:0:0:
149,165,92784,2,0,L|233:162,1,80,2|8,0:0|0:0,0:0:0:0:
312,129,93330,1,0,0:0:0:0:
398,145,93603,1,8,0:0:0:0:
473,190,93875,2,0,P|481:229|470:279,1,80,2|8,0:0|0:0,0:0:0:0:
435,347,94421,6,0,L|352:347,1,80,0|8,0:0|0:0,0:0:0:0:
267,337,94966,1,2,0:0:0:0:
196,284,95239,2,0,P|177:281|150:281,1,40,8|2,0:0|0:0,0:0:0:0:
113,269,95512,2,0,B|105:326|105:326|113:357,2,80,12|14|8,0:0|0:0|0:0,0:0:0:0:
134,183,96330,1,8,0:0:0:0:
216,153,96603,5,6,0:0:0:0:
341,291,105330,6,0,L|426:281,2,80,6|2|0,0:0|0:0|0:0,0:0:0:0:
256,267,106148,1,2,0:0:0:0:
171,291,106421,2,0,L|86:281,2,80,0|2|0,0:0|0:0|0:0,0:0:0:0:
256,267,107239,1,2,0:0:0:0:
319,206,107512,6,0,P|327:168|319:122,2,80,0|2|0,0:0|0:0|0:0,0:0:0:0:
256,267,108330,1,2,0:0:0:0:
193,206,108603,2,0,P|185:168|193:122,2,80,4|0|4,0:0|0:0|0:0,0:0:0:0:
256,267,109421,1,0,0:0:0:0:
341,291,109693,6,8,B|417:319|489:264|489:264|442:271|399:237,1,240,12|8,0:0|0:0,0:0:0:0:
367,169,110784,2,0,P|395:89|464:180,1,240,8|8,0:0|0:0,0:0:0:0:
256,192,111875,12,6,112966,0:0:0:0:
69,339,114057,6,0,L|64:253,1,80,6|2,0:0|0:0,0:0:0:0:
28,178,114603,1,2,0:0:0:0:
57,95,114875,1,2,0:0:0:0:
57,95,115012,2,0,P|118:85|182:97,1,120,0|2,0:0|0:0,0:0:0:0:
258,120,115693,2,0,P|298:127|344:119,1,80,2|2,0:0|0:0,0:0:0:0:
369,91,116103,6,0,B|386:167|386:167|366:218,1,120
331,284,116784,1,0,0:0:0:0:
405,331,117057,1,0,0:0:0:0:
332,380,117330,2,0,L|246:376,1,80,4|0,0:0|0:0,0:0:0:0:
194,307,117875,1,4,0:0:0:0:
150,230,118148,1,0,0:0:0:0:
81,174,118421,6,0,P|43:170|-7:187,2,80,6|2|2,0:0|0:0|0:0,0:0:0:0:
150,230,119239,1,2,0:0:0:0:
150,230,119375,2,0,L|284:230,1,120,0|2,0:0|0:0,0:0:0:0:
356,213,120057,2,0,P|361:173|353:121,1,80,2|2,0:0|0:0,0:0:0:0:
377,94,120466,6,0,B|328:94|328:94|313:86|313:86|258:86,1,120
186,35,121148,1,0,0:0:0:0:
135,105,121421,1,0,0:0:0:0:
56,65,121693,2,0,P|46:104|56:146,1,80,4|8,0:0|0:0,0:0:0:0:
117,203,122239,1,8,0:0:0:0:
197,237,122512,1,0,0:0:0:0:
156,314,122784,6,0,B|118:323|118:323|62:311,2,80,6|2|2,0:0|0:0|0:0,0:0:0:0:
197,237,123603,1,2,0:0:0:0:
197,237,123739,2,0,P|240:283|237:354,1,120,0|2,0:0|0:0,0:0:0:0:
331,344,124421,2,0,L|337:265,1,80,2|2,0:0|0:0,0:0:0:0:
371,236,124830,6,0,B|368:204|383:162|383:162|364:146|354:119,1,120
327,44,125512,1,0,0:0:0:0:
249,84,125784,1,0,0:0:0:0:
163,62,126057,2,0,L|81:62,2,80,4|0|4,0:0|0:0|0:0,0:0:0:0:
249,84,126875,1,0,0:0:0:0:
323,130,127148,6,0,P|331:170|323:216,1,80,6|2,0:0|0:0,0:0:0:0:
317,296,127693,2,0,L|230:296,1,80,2|2,0:0|0:0,0:0:0:0:
194,308,128103,6,0,B|136:322|136:322|74:300,1,120,0|2,0:0|0:0,0:0:0:0:
110,220,128784,2,0,P|118:181|108:130,1,80,2|2,0:0|0:0,0:0:0:0:
114,53,129330,6,0,B|72:57|41:43|41:43|-9:65,2,120,10|10|10,0:0|0:0|0:0,0:0:0:0:
198,78,130421,2,0,P|237:85|285:77,1,80,0|10,0:0|0:0,0:0:0:0:
319,67,130830,1,10,0:0:0:0:
319,67,130966,2,0,L|322:150,1,80,10|8,0:0|0:0,0:0:0:0:
344,184,131375,1,8,0:0:0:0:
344,184,131512,6,0,P|365:186|398:182,1,40,6|6,0:0|0:0,0:0:0:0:
383,184,133693,6,0,L|383:279,2,80,6|0|0,0:0|0:0|0:0,0:0:0:0:
266,51,134784,2,0,P|226:42|177:55,1,80,10|8,0:0|0:0,0:0:0:0:
109,88,135330,2,0,L|112:139,1,40,2|8,0:0|0:0,0:0:0:0:
113,172,135603,2,0,L|110:223,1,40,2|8,0:0|0:0,0:0:0:0:
116,255,135875,5,6,0:0:0:0:
116,255,136012,1,6,0:0:0:0:
