osu file format v14

[General]
AudioFilename: audio.mp3
AudioLeadIn: 0
PreviewTime: 114182
Countdown: 0
SampleSet: None
StackLeniency: 0.7
Mode: 3
LetterboxInBreaks: 0
SpecialStyle: 0
WidescreenStoryboard: 0

[Editor]
DistanceSpacing: 0.6
BeatDivisor: 4
GridSize: 4
TimelineZoom: 3.099999

[Metadata]
Title:Daruma-san Ga Koronda Ki Ga Suru
TitleUnicode:ダルマさんが転んだ気がする
Artist:Utsu-P
ArtistUnicode:鬱P
Creator:Cryolien
Version:Fall Down!
Source:
Tags:
BeatmapID:1795767
BeatmapSetID:859346

[Difficulty]
HPDrainRate:8
CircleSize:7
OverallDifficulty:8
ApproachRate:5
SliderMultiplier:1.4
SliderTickRate:1

[Events]
//Background and Video events
0,0,"moksha.png",0,0
//Break Periods
//Storyboard Layer 0 (Background)
//Storyboard Layer 1 (Fail)
//Storyboard Layer 2 (Pass)
//Storyboard Layer 3 (Foreground)
//Storyboard Sound Samples

[TimingPoints]
182.294117647059,500,4,2,0,10,1,0
8182,250,4,2,0,10,1,0
8182,-200,4,2,0,10,0,0
42182,500,4,2,0,10,1,0
42182,-100,4,2,0,10,0,0
66182,250,4,2,0,10,1,0
66182,-200,4,2,0,10,0,0
82182,500,4,2,0,10,1,0
82182,-100,4,2,0,10,0,0
116182,250,4,2,0,10,1,0
116182,-200,4,2,0,10,0,0
132182,500,4,2,0,10,1,0
132182,-100,4,2,0,10,0,0
134182,-166.666666666667,4,2,0,10,0,0
149932,-125,4,2,0,10,0,0
166182,250,4,2,0,10,1,0
166182,-200,4,2,0,10,0,0
190182,500,4,2,0,10,1,0
190182,-100,4,2,0,10,0,0

[HitObjects]
36,192,182,5,0,0:0:0:0:
182,192,182,1,0,0:0:0:0:
256,192,432,1,0,0:0:0:0:
475,192,682,1,0,0:0:0:0:
402,192,682,1,0,0:0:0:0:
109,192,682,1,0,0:0:0:0:
329,192,932,128,0,1182:0:0:0:0:
36,192,1182,1,0,0:0:0:0:
256,192,1182,1,0,0:0:0:0:
182,192,1432,1,0,0:0:0:0:
109,192,1432,1,0,0:0:0:0:
402,192,1682,1,0,0:0:0:0:
36,192,1682,1,0,0:0:0:0:
329,192,1682,1,0,0:0:0:0:
182,192,1932,1,0,0:0:0:0:
109,192,2057,1,0,0:0:0:0:
329,192,2182,1,0,0:0:0:0:
475,192,2182,1,0,0:0:0:0:
256,192,2432,1,0,0:0:0:0:
36,192,2682,1,0,0:0:0:0:
109,192,2682,1,0,0:0:0:0:
402,192,2682,1,0,0:0:0:0:
256,192,2932,128,0,3182:0:0:0:0:
36,192,3182,1,0,0:0:0:0:
329,192,3182,1,0,0:0:0:0:
182,192,3432,1,0,0:0:0:0:
402,192,3432,1,0,0:0:0:0:
475,192,3682,1,0,0:0:0:0:
109,192,3682,1,0,0:0:0:0:
329,192,3682,128,0,3807:0:0:0:0:
256,192,3807,128,0,3932:0:0:0:0:
182,192,3932,1,0,0:0:0:0:
329,192,3932,128,0,4057:0:0:0:0:
256,192,4057,128,0,4182:0:0:0:0:
36,192,4182,1,0,0:0:0:0:
475,192,4182,1,0,0:0:0:0:
109,192,4432,1,0,0:0:0:0:
402,192,4432,1,0,0:0:0:0:
182,192,4682,1,0,0:0:0:0:
256,192,4682,1,0,0:0:0:0:
475,192,4682,1,0,0:0:0:0:
402,192,4932,1,0,0:0:0:0:
109,192,4932,1,0,0:0:0:0:
256,192,4932,128,0,5182:0:0:0:0:
329,192,5057,1,0,0:0:0:0:
182,192,5057,1,0,0:0:0:0:
402,192,5182,1,0,0:0:0:0:
109,192,5182,1,0,0:0:0:0:
36,192,5432,1,0,0:0:0:0:
256,192,5432,1,0,0:0:0:0:
182,192,5682,1,0,0:0:0:0:
329,192,5682,1,0,0:0:0:0:
475,192,5682,1,0,0:0:0:0:
329,192,5932,1,0,0:0:0:0:
402,192,5932,1,0,0:0:0:0:
182,192,6057,1,0,0:0:0:0:
109,192,6057,1,0,0:0:0:0:
329,192,6182,1,0,0:0:0:0:
402,192,6182,1,0,0:0:0:0:
109,192,6432,1,0,0:0:0:0:
256,192,6432,1,0,0:0:0:0:
475,192,6682,1,0,0:0:0:0:
402,192,6682,1,0,0:0:0:0:
182,192,6682,1,0,0:0:0:0:
36,192,6932,1,0,0:0:0:0:
256,192,6932,1,0,0:0:0:0:
475,192,6932,128,0,7182:0:0:0:0:
109,192,7057,1,0,0:0:0:0:
329,192,7057,1,0,0:0:0:0:
182,192,7182,1,0,0:0:0:0:
402,192,7182,1,0,0:0:0:0:
329,192,7307,1,0,0:0:0:0:
36,192,7307,1,0,0:0:0:0:
256,192,7307,1,0,0:0:0:0:
109,192,7432,1,0,0:0:0:0:
475,192,7432,1,0,0:0:0:0:
402,192,7432,1,0,0:0:0:0:
329,192,7682,1,0,0:0:0:0:
182,192,7682,1,0,0:0:0:0:
256,192,7682,1,0,0:0:0:0:
36,192,8182,1,0,0:0:0:0:
109,192,8182,1,0,0:0:0:0:
256,192,8182,1,0,0:0:0:0:
402,192,8182,1,0,0:0:0:0:
329,192,8182,1,0,0:0:0:0:
182,192,8307,1,0,0:0:0:0:
475,192,8307,1,0,0:0:0:0:
256,192,8432,1,0,0:0:0:0:
402,192,8432,1,0,0:0:0:0:
36,192,8432,128,0,8682:0:0:0:0:
109,192,8682,1,0,0:0:0:0:
182,192,8682,1,0,0:0:0:0:
402,192,8682,1,0,0:0:0:0:
329,192,8932,128,0,9057:0:0:0:0:
256,192,8932,1,0,0:0:0:0:
109,192,8932,1,0,0:0:0:0:
475,192,9057,128,0,9182:0:0:0:0:
182,192,9057,1,0,0:0:0:0:
36,192,9057,1,0,0:0:0:0:
402,192,9182,1,0,0:0:0:0:
256,192,9182,1,0,0:0:0:0:
329,192,9307,1,0,0:0:0:0:
109,192,9307,1,0,0:0:0:0:
182,192,9432,128,0,9682:0:0:0:0:
256,192,9432,1,0,0:0:0:0:
475,192,9432,1,0,0:0:0:0:
36,192,9682,1,0,0:0:0:0:
109,192,9682,1,0,0:0:0:0:
329,192,9682,1,0,0:0:0:0:
329,192,9932,128,0,10057:0:0:0:0:
256,192,9932,1,0,0:0:0:0:
182,192,9932,1,0,0:0:0:0:
475,192,10057,128,0,10182:0:0:0:0:
36,192,10057,1,0,0:0:0:0:
109,192,10057,1,0,0:0:0:0:
402,192,10057,1,0,0:0:0:0:
182,192,10182,1,0,0:0:0:0:
329,192,10182,1,0,0:0:0:0:
256,192,10307,1,0,0:0:0:0:
402,192,10307,1,0,0:0:0:0:
182,192,10432,128,0,10682:0:0:0:0:
329,192,10432,1,0,0:0:0:0:
109,192,10432,1,0,0:0:0:0:
36,192,10682,1,0,0:0:0:0:
256,192,10682,1,0,0:0:0:0:
475,192,10682,1,0,0:0:0:0:
329,192,10932,128,0,11057:0:0:0:0:
36,192,10932,1,0,0:0:0:0:
182,192,10932,1,0,0:0:0:0:
402,192,11057,128,0,11182:0:0:0:0:
109,192,11057,1,0,0:0:0:0:
256,192,11057,1,0,0:0:0:0:
475,192,11182,128,0,11307:0:0:0:0:
36,192,11182,1,0,0:0:0:0:
182,192,11182,1,0,0:0:0:0:
475,192,11432,128,0,11682:0:0:0:0:
109,192,11432,1,0,0:0:0:0:
182,192,11432,1,0,0:0:0:0:
402,192,11682,128,0,11932:0:0:0:0:
256,192,11682,1,0,0:0:0:0:
36,192,11682,1,0,0:0:0:0:
329,192,11932,128,0,12182:0:0:0:0:
36,192,11932,1,0,0:0:0:0:
182,192,11932,1,0,0:0:0:0:
109,192,12057,1,0,0:0:0:0:
256,192,12057,1,0,0:0:0:0:
475,192,12057,1,0,0:0:0:0:
402,192,12182,1,0,0:0:0:0:
182,192,12182,1,0,0:0:0:0:
36,192,12182,1,0,0:0:0:0:
329,192,12307,1,0,0:0:0:0:
475,192,12307,1,0,0:0:0:0:
36,192,12432,128,0,12682:0:0:0:0:
109,192,12432,1,0,0:0:0:0:
256,192,12432,1,0,0:0:0:0:
182,192,12682,1,0,0:0:0:0:
329,192,12682,1,0,0:0:0:0:
475,192,12682,1,0,0:0:0:0:
256,192,12932,128,0,13057:0:0:0:0:
36,192,12932,1,0,0:0:0:0:
182,192,12932,1,0,0:0:0:0:
402,192,13057,128,0,13182:0:0:0:0:
329,192,13057,1,0,0:0:0:0:
475,192,13057,1,0,0:0:0:0:
109,192,13182,1,0,0:0:0:0:
182,192,13182,1,0,0:0:0:0:
329,192,13307,1,0,0:0:0:0:
402,192,13307,1,0,0:0:0:0:
182,192,13432,128,0,13682:0:0:0:0:
36,192,13432,1,0,0:0:0:0:
109,192,13432,1,0,0:0:0:0:
329,192,13682,1,0,0:0:0:0:
402,192,13682,1,0,0:0:0:0:
475,192,13682,1,0,0:0:0:0:
256,192,13932,128,0,14057:0:0:0:0:
109,192,13932,1,0,0:0:0:0:
182,192,13932,1,0,0:0:0:0:
402,192,14057,128,0,14182:0:0:0:0:
36,192,14057,1,0,0:0:0:0:
329,192,14057,1,0,0:0:0:0:
475,192,14057,1,0,0:0:0:0:
109,192,14182,1,0,0:0:0:0:
256,192,14182,1,0,0:0:0:0:
329,192,14307,1,0,0:0:0:0:
475,192,14307,1,0,0:0:0:0:
182,192,14432,128,0,14682:0:0:0:0:
256,192,14432,1,0,0:0:0:0:
402,192,14432,1,0,0:0:0:0:
36,192,14682,1,0,0:0:0:0:
109,192,14682,1,0,0:0:0:0:
475,192,14682,1,0,0:0:0:0:
329,192,14932,128,0,15057:0:0:0:0:
109,192,14932,1,0,0:0:0:0:
182,192,14932,1,0,0:0:0:0:
402,192,15057,128,0,15182:0:0:0:0:
256,192,15057,1,0,0:0:0:0:
36,192,15057,1,0,0:0:0:0:
475,192,15182,128,0,15307:0:0:0:0:
109,192,15182,1,0,0:0:0:0:
182,192,15182,1,0,0:0:0:0:
402,192,15307,1,0,0:0:0:0:
256,192,15307,1,0,0:0:0:0:
36,192,15307,1,0,0:0:0:0:
475,192,15432,128,0,15682:0:0:0:0:
109,192,15432,1,0,0:0:0:0:
329,192,15432,1,0,0:0:0:0:
182,192,15682,128,0,15932:0:0:0:0:
256,192,15682,1,0,0:0:0:0:
36,192,15682,1,0,0:0:0:0:
329,192,15682,1,0,0:0:0:0:
109,192,15765,1,0,0:0:0:0:
475,192,15765,1,0,0:0:0:0:
402,192,15848,1,0,0:0:0:0:
36,192,15848,1,0,0:0:0:0:
329,192,15932,128,0,16182:0:0:0:0:
256,192,15932,1,0,0:0:0:0:
475,192,15932,1,0,0:0:0:0:
402,192,16015,1,0,0:0:0:0:
36,192,16098,1,0,0:0:0:0:
109,192,16182,1,0,0:0:0:0:
182,192,16182,1,0,0:0:0:0:
256,192,16182,1,0,0:0:0:0:
475,192,16182,1,0,0:0:0:0:
402,192,16307,1,0,0:0:0:0:
36,192,16307,1,0,0:0:0:0:
109,192,16432,128,0,16682:0:0:0:0:
256,192,16432,1,0,0:0:0:0:
329,192,16432,1,0,0:0:0:0:
182,192,16682,1,0,0:0:0:0:
36,192,16682,1,0,0:0:0:0:
475,192,16682,1,0,0:0:0:0:
402,192,16932,128,0,17057:0:0:0:0:
36,192,16932,1,0,0:0:0:0:
256,192,16932,1,0,0:0:0:0:
475,192,17057,128,0,17182:0:0:0:0:
109,192,17057,1,0,0:0:0:0:
329,192,17057,1,0,0:0:0:0:
182,192,17182,1,0,0:0:0:0:
36,192,17182,1,0,0:0:0:0:
109,192,17307,1,0,0:0:0:0:
256,192,17307,1,0,0:0:0:0:
329,192,17432,128,0,17682:0:0:0:0:
182,192,17432,1,0,0:0:0:0:
402,192,17432,1,0,0:0:0:0:
36,192,17682,1,0,0:0:0:0:
109,192,17682,1,0,0:0:0:0:
475,192,17682,1,0,0:0:0:0:
402,192,17932,128,0,18057:0:0:0:0:
329,192,17932,1,0,0:0:0:0:
182,192,17932,1,0,0:0:0:0:
475,192,18057,128,0,18182:0:0:0:0:
256,192,18057,1,0,0:0:0:0:
109,192,18057,1,0,0:0:0:0:
36,192,18057,1,0,0:0:0:0:
182,192,18182,1,0,0:0:0:0:
402,192,18182,1,0,0:0:0:0:
36,192,18307,1,0,0:0:0:0:
256,192,18307,1,0,0:0:0:0:
329,192,18432,128,0,18682:0:0:0:0:
109,192,18432,1,0,0:0:0:0:
402,192,18432,1,0,0:0:0:0:
256,192,18682,1,0,0:0:0:0:
402,192,18682,1,0,0:0:0:0:
36,192,18682,1,0,0:0:0:0:
182,192,18932,128,0,19057:0:0:0:0:
36,192,18932,1,0,0:0:0:0:
475,192,18932,1,0,0:0:0:0:
329,192,19057,128,0,19182:0:0:0:0:
402,192,19057,1,0,0:0:0:0:
109,192,19057,1,0,0:0:0:0:
475,192,19182,128,0,19307:0:0:0:0:
256,192,19182,1,0,0:0:0:0:
36,192,19182,1,0,0:0:0:0:
475,192,19432,128,0,19682:0:0:0:0:
109,192,19432,1,0,0:0:0:0:
329,192,19432,1,0,0:0:0:0:
329,192,19682,128,0,19932:0:0:0:0:
256,192,19682,1,0,0:0:0:0:
36,192,19682,1,0,0:0:0:0:
402,192,19682,1,0,0:0:0:0:
182,192,19932,128,0,20182:0:0:0:0:
109,192,19932,1,0,0:0:0:0:
402,192,19932,1,0,0:0:0:0:
256,192,20057,1,0,0:0:0:0:
475,192,20057,1,0,0:0:0:0:
36,192,20057,1,0,0:0:0:0:
109,192,20182,1,0,0:0:0:0:
329,192,20182,1,0,0:0:0:0:
402,192,20307,1,0,0:0:0:0:
182,192,20307,1,0,0:0:0:0:
109,192,20432,128,0,20682:0:0:0:0:
256,192,20432,1,0,0:0:0:0:
329,192,20432,1,0,0:0:0:0:
36,192,20682,1,0,0:0:0:0:
182,192,20682,1,0,0:0:0:0:
402,192,20682,1,0,0:0:0:0:
256,192,20932,128,0,21057:0:0:0:0:
36,192,20932,1,0,0:0:0:0:
182,192,20932,1,0,0:0:0:0:
402,192,21057,128,0,21182:0:0:0:0:
329,192,21057,1,0,0:0:0:0:
475,192,21057,1,0,0:0:0:0:
36,192,21182,1,0,0:0:0:0:
182,192,21182,1,0,0:0:0:0:
109,192,21307,1,0,0:0:0:0:
256,192,21307,1,0,0:0:0:0:
182,192,21432,128,0,21682:0:0:0:0:
329,192,21432,1,0,0:0:0:0:
475,192,21432,1,0,0:0:0:0:
36,192,21682,1,0,0:0:0:0:
109,192,21682,1,0,0:0:0:0:
329,192,21682,1,0,0:0:0:0:
256,192,21932,128,0,22057:0:0:0:0:
329,192,21932,1,0,0:0:0:0:
475,192,21932,1,0,0:0:0:0:
402,192,22057,128,0,22182:0:0:0:0:
182,192,22057,1,0,0:0:0:0:
109,192,22057,1,0,0:0:0:0:
36,192,22057,1,0,0:0:0:0:
329,192,22182,1,0,0:0:0:0:
475,192,22182,1,0,0:0:0:0:
36,192,22307,1,0,0:0:0:0:
109,192,22307,1,0,0:0:0:0:
182,192,22432,128,0,22682:0:0:0:0:
256,192,22432,1,0,0:0:0:0:
329,192,22432,1,0,0:0:0:0:
475,192,22682,1,0,0:0:0:0:
402,192,22682,1,0,0:0:0:0:
109,192,22682,1,0,0:0:0:0:
256,192,22932,128,0,23057:0:0:0:0:
36,192,22932,1,0,0:0:0:0:
402,192,22932,1,0,0:0:0:0:
329,192,23057,128,0,23182:0:0:0:0:
109,192,23057,1,0,0:0:0:0:
182,192,23057,1,0,0:0:0:0:
475,192,23182,128,0,23307:0:0:0:0:
36,192,23182,1,0,0:0:0:0:
402,192,23182,1,0,0:0:0:0:
109,192,23307,1,0,0:0:0:0:
256,192,23307,1,0,0:0:0:0:
329,192,23307,1,0,0:0:0:0:
475,192,23432,128,0,23682:0:0:0:0:
182,192,23432,1,0,0:0:0:0:
402,192,23432,1,0,0:0:0:0:
36,192,23682,128,0,24182:0:0:0:0:
109,192,23682,1,0,0:0:0:0:
182,192,23682,1,0,0:0:0:0:
402,192,23682,1,0,0:0:0:0:
329,192,23807,1,0,0:0:0:0:
475,192,23807,1,0,0:0:0:0:
256,192,23932,128,0,24182:0:0:0:0:
402,192,23932,1,0,0:0:0:0:
182,192,23932,1,0,0:0:0:0:
109,192,23932,1,0,0:0:0:0:
475,192,24182,5,0,0:0:0:0:
329,192,24307,1,0,0:0:0:0:
475,192,24432,1,0,0:0:0:0:
256,192,24557,1,0,0:0:0:0:
402,192,24682,1,0,0:0:0:0:
36,192,24682,1,0,0:0:0:0:
256,192,24807,1,0,0:0:0:0:
182,192,24932,1,0,0:0:0:0:
329,192,25057,1,0,0:0:0:0:
182,192,25182,1,0,0:0:0:0:
475,192,25182,1,0,0:0:0:0:
109,192,25307,1,0,0:0:0:0:
256,192,25432,1,0,0:0:0:0:
109,192,25557,1,0,0:0:0:0:
36,192,25682,128,0,26182:0:0:0:0:
475,192,25682,1,0,0:0:0:0:
329,192,25932,128,0,26057:0:0:0:0:
109,192,26057,128,0,26182:0:0:0:0:
182,192,26182,1,0,0:0:0:0:
256,192,26182,1,0,0:0:0:0:
402,192,26182,1,0,0:0:0:0:
475,192,26182,1,0,0:0:0:0:
329,192,26182,128,0,26432:0:0:0:0:
109,192,26307,1,0,0:0:0:0:
36,192,26307,1,0,0:0:0:0:
182,192,26432,128,0,26682:0:0:0:0:
256,192,26432,1,0,0:0:0:0:
475,192,26432,1,0,0:0:0:0:
329,192,26682,128,0,26932:0:0:0:0:
36,192,26682,1,0,0:0:0:0:
109,192,26682,1,0,0:0:0:0:
475,192,26682,1,0,0:0:0:0:
182,192,26932,128,0,27182:0:0:0:0:
109,192,26932,1,0,0:0:0:0:
402,192,26932,1,0,0:0:0:0:
36,192,26932,1,0,0:0:0:0:
475,192,27057,1,0,0:0:0:0:
329,192,27057,1,0,0:0:0:0:
36,192,27182,128,0,27432:0:0:0:0:
402,192,27182,1,0,0:0:0:0:
256,192,27182,1,0,0:0:0:0:
109,192,27307,1,0,0:0:0:0:
182,192,27307,1,0,0:0:0:0:
329,192,27432,128,0,27682:0:0:0:0:
256,192,27432,1,0,0:0:0:0:
475,192,27432,1,0,0:0:0:0:
475,192,27682,128,0,28182:0:0:0:0:
109,192,27682,1,0,0:0:0:0:
182,192,27682,1,0,0:0:0:0:
402,192,27682,1,0,0:0:0:0:
182,192,27932,128,0,28057:0:0:0:0:
329,192,27932,1,0,0:0:0:0:
402,192,27932,1,0,0:0:0:0:
109,192,28057,128,0,28182:0:0:0:0:
36,192,28057,1,0,0:0:0:0:
256,192,28057,1,0,0:0:0:0:
182,192,28182,128,0,28432:0:0:0:0:
329,192,28182,1,0,0:0:0:0:
402,192,28182,1,0,0:0:0:0:
36,192,28307,1,0,0:0:0:0:
109,192,28307,1,0,0:0:0:0:
256,192,28432,128,0,28682:0:0:0:0:
402,192,28432,1,0,0:0:0:0:
475,192,28432,1,0,0:0:0:0:
182,192,28682,128,0,28932:0:0:0:0:
36,192,28682,1,0,0:0:0:0:
109,192,28682,1,0,0:0:0:0:
329,192,28682,1,0,0:0:0:0:
329,192,28932,128,0,29182:0:0:0:0:
256,192,28932,1,0,0:0:0:0:
402,192,28932,1,0,0:0:0:0:
36,192,28932,1,0,0:0:0:0:
182,192,29057,1,0,0:0:0:0:
475,192,29057,1,0,0:0:0:0:
109,192,29182,128,0,29432:0:0:0:0:
402,192,29182,1,0,0:0:0:0:
256,192,29182,1,0,0:0:0:0:
36,192,29307,1,0,0:0:0:0:
475,192,29432,128,0,29682:0:0:0:0:
182,192,29432,128,0,29682:0:0:0:0:
329,192,29432,1,0,0:0:0:0:
402,192,29432,1,0,0:0:0:0:
256,192,29432,1,0,0:0:0:0:
402,192,29682,128,0,30182:0:0:0:0:
36,192,29682,1,0,0:0:0:0:
109,192,29682,1,0,0:0:0:0:
329,192,29682,1,0,0:0:0:0:
182,192,29932,128,0,30057:0:0:0:0:
475,192,29932,1,0,0:0:0:0:
36,192,29932,1,0,0:0:0:0:
329,192,29932,1,0,0:0:0:0:
109,192,30057,128,0,30182:0:0:0:0:
182,192,30182,1,0,0:0:0:0:
256,192,30182,1,0,0:0:0:0:
36,192,30182,1,0,0:0:0:0:
329,192,30182,128,0,30432:0:0:0:0:
402,192,30307,1,0,0:0:0:0:
109,192,30307,1,0,0:0:0:0:
182,192,30432,128,0,30682:0:0:0:0:
256,192,30432,1,0,0:0:0:0:
475,192,30432,1,0,0:0:0:0:
329,192,30682,128,0,30932:0:0:0:0:
402,192,30682,1,0,0:0:0:0:
256,192,30682,1,0,0:0:0:0:
36,192,30682,1,0,0:0:0:0:
109,192,30932,128,0,31182:0:0:0:0:
475,192,30932,1,0,0:0:0:0:
256,192,30932,1,0,0:0:0:0:
402,192,31057,1,0,0:0:0:0:
36,192,31057,1,0,0:0:0:0:
256,192,31182,128,0,31432:0:0:0:0:
475,192,31182,1,0,0:0:0:0:
329,192,31182,1,0,0:0:0:0:
402,192,31307,1,0,0:0:0:0:
109,192,31307,1,0,0:0:0:0:
36,192,31432,128,0,31682:0:0:0:0:
182,192,31432,1,0,0:0:0:0:
329,192,31432,1,0,0:0:0:0:
109,192,31682,1,0,0:0:0:0:
182,192,31682,1,0,0:0:0:0:
402,192,31682,1,0,0:0:0:0:
329,192,31932,128,0,32057:0:0:0:0:
36,192,31932,1,0,0:0:0:0:
109,192,31932,1,0,0:0:0:0:
402,192,32057,128,0,32182:0:0:0:0:
182,192,32057,1,0,0:0:0:0:
256,192,32057,1,0,0:0:0:0:
475,192,32182,128,0,32307:0:0:0:0:
36,192,32182,1,0,0:0:0:0:
109,192,32182,1,0,0:0:0:0:
329,192,32307,1,0,0:0:0:0:
182,192,32307,1,0,0:0:0:0:
402,192,32432,128,0,32682:0:0:0:0:
256,192,32432,1,0,0:0:0:0:
109,192,32432,1,0,0:0:0:0:
329,192,32682,128,0,32932:0:0:0:0:
36,192,32682,1,0,0:0:0:0:
182,192,32682,1,0,0:0:0:0:
475,192,32682,1,0,0:0:0:0:
256,192,32932,128,0,33182:0:0:0:0:
36,192,32932,1,0,0:0:0:0:
402,192,32932,1,0,0:0:0:0:
109,192,33057,1,0,0:0:0:0:
329,192,33057,1,0,0:0:0:0:
475,192,33182,128,0,33307:0:0:0:0:
182,192,33182,1,0,0:0:0:0:
36,192,33182,1,0,0:0:0:0:
402,192,33307,128,0,33432:0:0:0:0:
109,192,33307,1,0,0:0:0:0:
256,192,33307,1,0,0:0:0:0:
329,192,33307,1,0,0:0:0:0:
475,192,33432,128,0,33682:0:0:0:0:
182,192,33432,1,0,0:0:0:0:
36,192,33432,1,0,0:0:0:0:
36,192,33682,1,0,0:0:0:0:
182,192,33682,1,0,0:0:0:0:
329,192,33682,1,0,0:0:0:0:
109,192,33807,1,0,0:0:0:0:
256,192,33807,1,0,0:0:0:0:
475,192,33932,1,0,0:0:0:0:
329,192,33932,1,0,0:0:0:0:
36,192,33932,1,0,0:0:0:0:
182,192,33932,128,0,34057:0:0:0:0:
109,192,34057,128,0,34182:0:0:0:0:
402,192,34057,1,0,0:0:0:0:
256,192,34057,1,0,0:0:0:0:
182,192,34182,128,0,34432:0:0:0:0:
329,192,34182,1,0,0:0:0:0:
475,192,34182,1,0,0:0:0:0:
36,192,34182,1,0,0:0:0:0:
256,192,34307,1,0,0:0:0:0:
402,192,34307,1,0,0:0:0:0:
109,192,34432,128,0,34682:0:0:0:0:
329,192,34432,1,0,0:0:0:0:
36,192,34432,1,0,0:0:0:0:
329,192,34682,128,0,34932:0:0:0:0:
256,192,34682,1,0,0:0:0:0:
402,192,34682,1,0,0:0:0:0:
475,192,34682,1,0,0:0:0:0:
182,192,34932,128,0,35182:0:0:0:0:
36,192,34932,1,0,0:0:0:0:
402,192,34932,1,0,0:0:0:0:
256,192,35057,1,0,0:0:0:0:
475,192,35057,1,0,0:0:0:0:
36,192,35182,128,0,35432:0:0:0:0:
402,192,35182,1,0,0:0:0:0:
329,192,35182,1,0,0:0:0:0:
256,192,35307,1,0,0:0:0:0:
182,192,35307,1,0,0:0:0:0:
109,192,35432,128,0,35682:0:0:0:0:
329,192,35432,1,0,0:0:0:0:
402,192,35432,1,0,0:0:0:0:
402,192,35682,128,0,36182:0:0:0:0:
36,192,35682,1,0,0:0:0:0:
182,192,35682,1,0,0:0:0:0:
475,192,35682,1,0,0:0:0:0:
182,192,35932,128,0,36057:0:0:0:0:
329,192,35932,1,0,0:0:0:0:
256,192,35932,1,0,0:0:0:0:
109,192,36057,128,0,36182:0:0:0:0:
36,192,36057,1,0,0:0:0:0:
475,192,36057,1,0,0:0:0:0:
329,192,36182,128,0,36432:0:0:0:0:
182,192,36182,1,0,0:0:0:0:
256,192,36182,1,0,0:0:0:0:
36,192,36307,1,0,0:0:0:0:
109,192,36307,1,0,0:0:0:0:
182,192,36432,128,0,36682:0:0:0:0:
402,192,36432,1,0,0:0:0:0:
475,192,36432,1,0,0:0:0:0:
329,192,36682,128,0,36932:0:0:0:0:
36,192,36682,1,0,0:0:0:0:
109,192,36682,1,0,0:0:0:0:
402,192,36682,1,0,0:0:0:0:
36,192,36932,128,0,37182:0:0:0:0:
109,192,36932,1,0,0:0:0:0:
256,192,36932,1,0,0:0:0:0:
402,192,37057,1,0,0:0:0:0:
475,192,37057,1,0,0:0:0:0:
329,192,37182,128,0,37432:0:0:0:0:
182,192,37182,1,0,0:0:0:0:
109,192,37182,1,0,0:0:0:0:
475,192,37432,128,0,37682:0:0:0:0:
36,192,37432,128,0,37682:0:0:0:0:
109,192,37432,1,0,0:0:0:0:
256,192,37432,1,0,0:0:0:0:
402,192,37682,128,0,37932:0:0:0:0:
256,192,37682,1,0,0:0:0:0:
329,192,37682,1,0,0:0:0:0:
182,192,37682,1,0,0:0:0:0:
109,192,37932,128,0,38057:0:0:0:0:
36,192,37932,1,0,0:0:0:0:
182,192,37932,1,0,0:0:0:0:
256,192,38057,128,0,38182:0:0:0:0:
329,192,38057,1,0,0:0:0:0:
402,192,38057,1,0,0:0:0:0:
475,192,38057,1,0,0:0:0:0:
109,192,38182,128,0,38432:0:0:0:0:
36,192,38182,1,0,0:0:0:0:
182,192,38182,1,0,0:0:0:0:
256,192,38307,1,0,0:0:0:0:
402,192,38307,1,0,0:0:0:0:
36,192,38432,128,0,38682:0:0:0:0:
329,192,38432,1,0,0:0:0:0:
182,192,38432,1,0,0:0:0:0:
109,192,38682,128,0,38932:0:0:0:0:
475,192,38682,1,0,0:0:0:0:
402,192,38682,1,0,0:0:0:0:
256,192,38682,1,0,0:0:0:0:
36,192,38932,1,0,0:0:0:0:
256,192,38932,1,0,0:0:0:0:
182,192,38932,128,0,39182:0:0:0:0:
109,192,39057,1,0,0:0:0:0:
402,192,39057,1,0,0:0:0:0:
329,192,39182,128,0,39432:0:0:0:0:
475,192,39182,1,0,0:0:0:0:
256,192,39182,1,0,0:0:0:0:
402,192,39307,1,0,0:0:0:0:
36,192,39307,1,0,0:0:0:0:
182,192,39432,128,0,39682:0:0:0:0:
109,192,39432,1,0,0:0:0:0:
475,192,39432,1,0,0:0:0:0:
402,192,39682,1,0,0:0:0:0:
329,192,39682,1,0,0:0:0:0:
109,192,39682,1,0,0:0:0:0:
256,192,39932,128,0,40057:0:0:0:0:
36,192,39932,1,0,0:0:0:0:
182,192,39932,1,0,0:0:0:0:
329,192,40057,128,0,40182:0:0:0:0:
109,192,40057,1,0,0:0:0:0:
402,192,40057,1,0,0:0:0:0:
475,192,40182,128,0,40307:0:0:0:0:
182,192,40182,1,0,0:0:0:0:
256,192,40182,1,0,0:0:0:0:
329,192,40307,1,0,0:0:0:0:
109,192,40307,1,0,0:0:0:0:
402,192,40432,128,0,40682:0:0:0:0:
182,192,40432,1,0,0:0:0:0:
36,192,40432,1,0,0:0:0:0:
256,192,40682,128,0,40932:0:0:0:0:
182,192,40682,1,0,0:0:0:0:
329,192,40682,1,0,0:0:0:0:
475,192,40682,1,0,0:0:0:0:
109,192,40932,128,0,41182:0:0:0:0:
36,192,40932,1,0,0:0:0:0:
329,192,40932,1,0,0:0:0:0:
182,192,41057,1,0,0:0:0:0:
475,192,41057,1,0,0:0:0:0:
329,192,41182,128,0,41307:0:0:0:0:
402,192,41182,1,0,0:0:0:0:
36,192,41182,1,0,0:0:0:0:
182,192,41307,128,0,41432:0:0:0:0:
109,192,41307,1,0,0:0:0:0:
256,192,41307,1,0,0:0:0:0:
475,192,41307,1,0,0:0:0:0:
329,192,41432,128,0,41682:0:0:0:0:
36,192,41432,1,0,0:0:0:0:
402,192,41432,1,0,0:0:0:0:
36,192,41682,1,0,0:0:0:0:
182,192,41682,1,0,0:0:0:0:
475,192,41682,1,0,0:0:0:0:
402,192,41807,1,0,0:0:0:0:
256,192,41807,1,0,0:0:0:0:
329,192,41932,1,0,0:0:0:0:
182,192,41932,1,0,0:0:0:0:
256,192,42057,1,0,0:0:0:0:
109,192,42057,1,0,0:0:0:0:
36,192,42182,1,0,0:0:0:0:
475,192,42182,1,0,0:0:0:0:
329,192,42182,1,0,0:0:0:0:
109,192,42432,1,0,0:0:0:0:
402,192,42682,1,0,0:0:0:0:
109,192,42932,1,0,0:0:0:0:
402,192,43182,1,0,0:0:0:0:
109,192,43432,1,0,0:0:0:0:
109,192,43557,1,0,0:0:0:0:
402,192,43682,1,0,0:0:0:0:
109,192,43932,1,0,0:0:0:0:
402,192,44182,1,0,0:0:0:0:
109,192,44432,1,0,0:0:0:0:
402,192,44682,1,0,0:0:0:0:
109,192,44932,1,0,0:0:0:0:
402,192,45182,1,0,0:0:0:0:
109,192,45307,1,0,0:0:0:0:
475,192,45432,128,0,45557:0:0:0:0:
182,192,45432,1,0,0:0:0:0:
329,192,45557,1,0,0:0:0:0:
36,192,45682,128,0,45807:0:0:0:0:
402,192,45682,1,0,0:0:0:0:
109,192,45807,1,0,0:0:0:0:
475,192,45932,128,0,46182:0:0:0:0:
182,192,45932,1,0,0:0:0:0:
402,192,46057,1,0,0:0:0:0:
329,192,46182,1,0,0:0:0:0:
256,192,46182,1,0,0:0:0:0:
109,192,46182,1,0,0:0:0:0:
402,192,46432,128,0,46557:0:0:0:0:
182,192,46432,1,0,0:0:0:0:
109,192,46682,1,0,0:0:0:0:
402,192,46932,128,0,47057:0:0:0:0:
182,192,46932,1,0,0:0:0:0:
109,192,47182,1,0,0:0:0:0:
402,192,47432,128,0,47557:0:0:0:0:
182,192,47432,1,0,0:0:0:0:
182,192,47557,1,0,0:0:0:0:
109,192,47682,1,0,0:0:0:0:
402,192,47932,128,0,48057:0:0:0:0:
182,192,47932,1,0,0:0:0:0:
182,192,48057,1,0,0:0:0:0:
109,192,48182,1,0,0:0:0:0:
402,192,48432,128,0,48557:0:0:0:0:
36,192,48432,1,0,0:0:0:0:
256,192,48432,1,0,0:0:0:0:
109,192,48682,1,0,0:0:0:0:
402,192,48932,128,0,49057:0:0:0:0:
182,192,48932,1,0,0:0:0:0:
475,192,48932,1,0,0:0:0:0:
109,192,49182,1,0,0:0:0:0:
329,192,49432,128,0,49557:0:0:0:0:
182,192,49432,1,0,0:0:0:0:
475,192,49432,1,0,0:0:0:0:
109,192,49557,1,0,0:0:0:0:
36,192,49682,1,0,0:0:0:0:
182,192,49682,1,0,0:0:0:0:
475,192,49682,1,0,0:0:0:0:
109,192,49807,1,0,0:0:0:0:
475,192,49932,128,0,50057:0:0:0:0:
36,192,50057,1,0,0:0:0:0:
109,192,50057,1,0,0:0:0:0:
402,192,50057,1,0,0:0:0:0:
182,192,50182,1,0,0:0:0:0:
256,192,50182,1,0,0:0:0:0:
475,192,50182,1,0,0:0:0:0:
329,192,50182,128,0,50432:0:0:0:0:
256,192,50432,1,0,0:0:0:0:
36,192,50557,128,0,50682:0:0:0:0:
109,192,50682,1,0,0:0:0:0:
182,192,50682,1,0,0:0:0:0:
402,192,50682,1,0,0:0:0:0:
475,192,50807,128,0,50932:0:0:0:0:
329,192,50932,1,0,0:0:0:0:
256,192,50932,128,0,51182:0:0:0:0:
36,192,51057,1,0,0:0:0:0:
182,192,51057,128,0,51182:0:0:0:0:
329,192,51182,1,0,0:0:0:0:
402,192,51182,128,0,51432:0:0:0:0:
109,192,51182,128,0,51307:0:0:0:0:
182,192,51432,128,0,51557:0:0:0:0:
329,192,51432,1,0,0:0:0:0:
109,192,51682,128,0,51807:0:0:0:0:
402,192,51682,1,0,0:0:0:0:
475,192,51682,1,0,0:0:0:0:
182,192,51682,1,0,0:0:0:0:
256,192,51932,128,0,52182:0:0:0:0:
36,192,51932,128,0,52182:0:0:0:0:
329,192,51932,1,0,0:0:0:0:
402,192,52182,128,0,52432:0:0:0:0:
182,192,52182,128,0,52432:0:0:0:0:
329,192,52182,1,0,0:0:0:0:
36,192,52432,128,0,52557:0:0:0:0:
256,192,52432,1,0,0:0:0:0:
109,192,52557,128,0,52682:0:0:0:0:
329,192,52557,1,0,0:0:0:0:
182,192,52682,1,0,0:0:0:0:
256,192,52682,1,0,0:0:0:0:
402,192,52682,1,0,0:0:0:0:
475,192,52807,128,0,52932:0:0:0:0:
256,192,52932,128,0,53182:0:0:0:0:
36,192,52932,1,0,0:0:0:0:
329,192,53057,128,0,53182:0:0:0:0:
402,192,53182,128,0,53432:0:0:0:0:
182,192,53182,128,0,53307:0:0:0:0:
36,192,53182,1,0,0:0:0:0:
109,192,53432,128,0,53557:0:0:0:0:
256,192,53432,1,0,0:0:0:0:
36,192,53682,128,0,53807:0:0:0:0:
182,192,53682,1,0,0:0:0:0:
402,192,53682,1,0,0:0:0:0:
475,192,53682,1,0,0:0:0:0:
256,192,53807,1,0,0:0:0:0:
475,192,53932,128,0,54182:0:0:0:0:
329,192,53932,128,0,54182:0:0:0:0:
182,192,53932,1,0,0:0:0:0:
36,192,54057,1,0,0:0:0:0:
109,192,54057,1,0,0:0:0:0:
182,192,54182,128,0,54432:0:0:0:0:
256,192,54182,128,0,54432:0:0:0:0:
402,192,54182,1,0,0:0:0:0:
329,192,54432,128,0,54557:0:0:0:0:
36,192,54432,1,0,0:0:0:0:
402,192,54557,128,0,54682:0:0:0:0:
109,192,54557,1,0,0:0:0:0:
182,192,54682,1,0,0:0:0:0:
256,192,54682,1,0,0:0:0:0:
329,192,54682,1,0,0:0:0:0:
475,192,54807,128,0,54932:0:0:0:0:
36,192,54932,128,0,55182:0:0:0:0:
256,192,54932,1,0,0:0:0:0:
402,192,55057,128,0,55182:0:0:0:0:
182,192,55182,128,0,55432:0:0:0:0:
109,192,55182,128,0,55432:0:0:0:0:
329,192,55182,1,0,0:0:0:0:
256,192,55432,128,0,55557:0:0:0:0:
402,192,55432,1,0,0:0:0:0:
329,192,55557,128,0,55682:0:0:0:0:
109,192,55682,1,0,0:0:0:0:
182,192,55682,1,0,0:0:0:0:
256,192,55682,1,0,0:0:0:0:
475,192,55807,128,0,55932:0:0:0:0:
36,192,55932,128,0,56182:0:0:0:0:
256,192,55932,1,0,0:0:0:0:
402,192,56057,128,0,56182:0:0:0:0:
182,192,56182,128,0,56432:0:0:0:0:
329,192,56182,128,0,56432:0:0:0:0:
109,192,56182,1,0,0:0:0:0:
256,192,56432,128,0,56557:0:0:0:0:
109,192,56432,1,0,0:0:0:0:
402,192,56557,128,0,56682:0:0:0:0:
36,192,56557,1,0,0:0:0:0:
109,192,56682,1,0,0:0:0:0:
256,192,56682,1,0,0:0:0:0:
329,192,56682,1,0,0:0:0:0:
475,192,56807,128,0,56932:0:0:0:0:
36,192,56932,128,0,57182:0:0:0:0:
402,192,56932,1,0,0:0:0:0:
329,192,57057,128,0,57182:0:0:0:0:
182,192,57182,128,0,57432:0:0:0:0:
256,192,57182,128,0,57307:0:0:0:0:
402,192,57182,1,0,0:0:0:0:
109,192,57432,128,0,57557:0:0:0:0:
402,192,57432,1,0,0:0:0:0:
36,192,57682,128,0,57807:0:0:0:0:
182,192,57682,1,0,0:0:0:0:
256,192,57682,1,0,0:0:0:0:
475,192,57682,1,0,0:0:0:0:
402,192,57807,1,0,0:0:0:0:
475,192,57932,128,0,58182:0:0:0:0:
109,192,57932,128,0,58182:0:0:0:0:
182,192,57932,1,0,0:0:0:0:
256,192,57932,1,0,0:0:0:0:
329,192,57932,1,0,0:0:0:0:
36,192,58057,1,0,0:0:0:0:
329,192,58182,128,0,58432:0:0:0:0:
256,192,58182,1,0,0:0:0:0:
402,192,58182,1,0,0:0:0:0:
182,192,58182,128,0,58432:0:0:0:0:
36,192,58432,128,0,58557:0:0:0:0:
475,192,58432,1,0,0:0:0:0:
109,192,58557,128,0,58682:0:0:0:0:
256,192,58557,1,0,0:0:0:0:
182,192,58682,1,0,0:0:0:0:
329,192,58682,1,0,0:0:0:0:
402,192,58682,1,0,0:0:0:0:
475,192,58807,128,0,58932:0:0:0:0:
182,192,58932,128,0,59182:0:0:0:0:
36,192,58932,1,0,0:0:0:0:
329,192,59057,128,0,59182:0:0:0:0:
402,192,59182,128,0,59432:0:0:0:0:
256,192,59182,128,0,59307:0:0:0:0:
36,192,59182,1,0,0:0:0:0:
182,192,59432,128,0,59557:0:0:0:0:
329,192,59432,1,0,0:0:0:0:
109,192,59682,128,0,59807:0:0:0:0:
256,192,59682,1,0,0:0:0:0:
402,192,59682,1,0,0:0:0:0:
36,192,59682,1,0,0:0:0:0:
182,192,59932,128,0,60182:0:0:0:0:
329,192,59932,128,0,60182:0:0:0:0:
475,192,59932,1,0,0:0:0:0:
402,192,60182,128,0,60432:0:0:0:0:
36,192,60182,128,0,60432:0:0:0:0:
256,192,60182,1,0,0:0:0:0:
109,192,60432,128,0,60557:0:0:0:0:
475,192,60432,1,0,0:0:0:0:
256,192,60557,128,0,60682:0:0:0:0:
329,192,60557,1,0,0:0:0:0:
36,192,60682,1,0,0:0:0:0:
109,192,60682,1,0,0:0:0:0:
402,192,60682,1,0,0:0:0:0:
475,192,60807,128,0,60932:0:0:0:0:
182,192,60932,128,0,61182:0:0:0:0:
329,192,60932,1,0,0:0:0:0:
256,192,61057,128,0,61182:0:0:0:0:
402,192,61182,128,0,61432:0:0:0:0:
109,192,61182,128,0,61307:0:0:0:0:
329,192,61182,1,0,0:0:0:0:
36,192,61432,128,0,61557:0:0:0:0:
182,192,61432,1,0,0:0:0:0:
109,192,61682,128,0,61807:0:0:0:0:
402,192,61682,1,0,0:0:0:0:
329,192,61682,1,0,0:0:0:0:
256,192,61682,1,0,0:0:0:0:
36,192,61807,1,0,0:0:0:0:
475,192,61932,128,0,62182:0:0:0:0:
182,192,61932,128,0,62182:0:0:0:0:
109,192,61932,1,0,0:0:0:0:
402,192,62057,1,0,0:0:0:0:
329,192,62057,1,0,0:0:0:0:
109,192,62182,128,0,62432:0:0:0:0:
36,192,62182,128,0,62432:0:0:0:0:
256,192,62182,1,0,0:0:0:0:
329,192,62432,128,0,62557:0:0:0:0:
182,192,62432,1,0,0:0:0:0:
402,192,62557,128,0,62682:0:0:0:0:
256,192,62557,1,0,0:0:0:0:
36,192,62682,1,0,0:0:0:0:
109,192,62682,1,0,0:0:0:0:
182,192,62682,1,0,0:0:0:0:
475,192,62807,128,0,62932:0:0:0:0:
36,192,62932,128,0,63182:0:0:0:0:
182,192,62932,1,0,0:0:0:0:
402,192,63057,128,0,63182:0:0:0:0:
329,192,63182,128,0,63432:0:0:0:0:
109,192,63182,128,0,63432:0:0:0:0:
256,192,63182,1,0,0:0:0:0:
182,192,63432,128,0,63557:0:0:0:0:
475,192,63432,1,0,0:0:0:0:
402,192,63557,128,0,63682:0:0:0:0:
329,192,63682,1,0,0:0:0:0:
182,192,63682,1,0,0:0:0:0:
36,192,63682,1,0,0:0:0:0:
475,192,63807,128,0,63932:0:0:0:0:
36,192,63932,128,0,64182:0:0:0:0:
256,192,63932,1,0,0:0:0:0:
402,192,64057,128,0,64182:0:0:0:0:
329,192,64182,128,0,64432:0:0:0:0:
109,192,64182,128,0,64432:0:0:0:0:
256,192,64182,1,0,0:0:0:0:
182,192,64432,128,0,64557:0:0:0:0:
475,192,64432,1,0,0:0:0:0:
256,192,64557,128,0,64682:0:0:0:0:
329,192,64557,1,0,0:0:0:0:
36,192,64682,1,0,0:0:0:0:
402,192,64682,1,0,0:0:0:0:
182,192,64682,1,0,0:0:0:0:
475,192,64807,128,0,64932:0:0:0:0:
36,192,64932,128,0,65182:0:0:0:0:
182,192,64932,1,0,0:0:0:0:
402,192,65057,128,0,65182:0:0:0:0:
329,192,65182,128,0,65682:0:0:0:0:
475,192,65182,128,0,65682:0:0:0:0:
256,192,65182,1,0,0:0:0:0:
182,192,65307,1,0,0:0:0:0:
109,192,65307,1,0,0:0:0:0:
36,192,65307,1,0,0:0:0:0:
402,192,65432,1,0,0:0:0:0:
36,192,65682,1,0,0:0:0:0:
182,192,65682,1,0,0:0:0:0:
109,192,65807,1,0,0:0:0:0:
256,192,65807,1,0,0:0:0:0:
402,192,65932,128,0,66057:0:0:0:0:
182,192,65932,1,0,0:0:0:0:
329,192,65932,1,0,0:0:0:0:
109,192,66057,128,0,66182:0:0:0:0:
256,192,66057,1,0,0:0:0:0:
36,192,66057,1,0,0:0:0:0:
402,192,66182,128,0,66432:0:0:0:0:
182,192,66182,1,0,0:0:0:0:
329,192,66182,1,0,0:0:0:0:
475,192,66182,1,0,0:0:0:0:
256,192,66307,1,0,0:0:0:0:
36,192,66307,1,0,0:0:0:0:
329,192,66432,128,0,66682:0:0:0:0:
109,192,66432,1,0,0:0:0:0:
182,192,66432,1,0,0:0:0:0:
109,192,66682,128,0,66932:0:0:0:0:
475,192,66682,1,0,0:0:0:0:
402,192,66682,1,0,0:0:0:0:
36,192,66682,1,0,0:0:0:0:
182,192,66932,128,0,67182:0:0:0:0:
402,192,66932,1,0,0:0:0:0:
475,192,66932,1,0,0:0:0:0:
109,192,67057,1,0,0:0:0:0:
36,192,67057,1,0,0:0:0:0:
329,192,67182,128,0,67432:0:0:0:0:
402,192,67182,1,0,0:0:0:0:
475,192,67182,1,0,0:0:0:0:
256,192,67307,1,0,0:0:0:0:
109,192,67307,1,0,0:0:0:0:
182,192,67432,128,0,67682:0:0:0:0:
36,192,67432,1,0,0:0:0:0:
402,192,67432,1,0,0:0:0:0:
475,192,67682,128,0,68182:0:0:0:0:
36,192,67682,1,0,0:0:0:0:
109,192,67682,1,0,0:0:0:0:
402,192,67682,1,0,0:0:0:0:
329,192,67932,128,0,68057:0:0:0:0:
36,192,67932,1,0,0:0:0:0:
256,192,67932,1,0,0:0:0:0:
182,192,68057,128,0,68182:0:0:0:0:
109,192,68057,1,0,0:0:0:0:
402,192,68057,1,0,0:0:0:0:
329,192,68182,128,0,68432:0:0:0:0:
36,192,68182,1,0,0:0:0:0:
256,192,68182,1,0,0:0:0:0:
109,192,68307,1,0,0:0:0:0:
475,192,68307,1,0,0:0:0:0:
182,192,68432,128,0,68682:0:0:0:0:
402,192,68432,1,0,0:0:0:0:
256,192,68432,1,0,0:0:0:0:
36,192,68682,128,0,68932:0:0:0:0:
109,192,68682,1,0,0:0:0:0:
402,192,68682,1,0,0:0:0:0:
475,192,68682,1,0,0:0:0:0:
329,192,68932,128,0,69182:0:0:0:0:
182,192,68932,1,0,0:0:0:0:
109,192,68932,1,0,0:0:0:0:
402,192,69057,1,0,0:0:0:0:
475,192,69057,1,0,0:0:0:0:
182,192,69182,128,0,69432:0:0:0:0:
36,192,69182,1,0,0:0:0:0:
109,192,69182,1,0,0:0:0:0:
475,192,69432,128,0,70182:0:0:0:0:
256,192,69432,128,0,69682:0:0:0:0:
109,192,69432,1,0,0:0:0:0:
329,192,69432,1,0,0:0:0:0:
402,192,69682,128,0,70182:0:0:0:0:
36,192,69682,1,0,0:0:0:0:
182,192,69682,1,0,0:0:0:0:
329,192,69682,1,0,0:0:0:0:
256,192,69932,128,0,70057:0:0:0:0:
36,192,69932,1,0,0:0:0:0:
109,192,69932,1,0,0:0:0:0:
182,192,70057,128,0,70182:0:0:0:0:
329,192,70057,1,0,0:0:0:0:
109,192,70182,128,0,70432:0:0:0:0:
256,192,70182,1,0,0:0:0:0:
36,192,70182,1,0,0:0:0:0:
329,192,70307,1,0,0:0:0:0:
475,192,70307,1,0,0:0:0:0:
36,192,70432,128,0,70682:0:0:0:0:
402,192,70432,1,0,0:0:0:0:
256,192,70432,1,0,0:0:0:0:
109,192,70682,128,0,70932:0:0:0:0:
182,192,70682,1,0,0:0:0:0:
329,192,70682,1,0,0:0:0:0:
475,192,70682,1,0,0:0:0:0:
475,192,70932,1,0,0:0:0:0:
329,192,70932,1,0,0:0:0:0:
256,192,70932,128,0,71182:0:0:0:0:
182,192,71057,1,0,0:0:0:0:
109,192,71057,1,0,0:0:0:0:
475,192,71182,128,0,71432:0:0:0:0:
36,192,71182,1,0,0:0:0:0:
402,192,71182,1,0,0:0:0:0:
329,192,71307,1,0,0:0:0:0:
109,192,71307,1,0,0:0:0:0:
182,192,71432,128,0,71682:0:0:0:0:
36,192,71432,1,0,0:0:0:0:
402,192,71432,1,0,0:0:0:0:
109,192,71682,1,0,0:0:0:0:
329,192,71682,1,0,0:0:0:0:
475,192,71682,1,0,0:0:0:0:
256,192,71932,128,0,72057:0:0:0:0:
475,192,71932,1,0,0:0:0:0:
182,192,71932,1,0,0:0:0:0:
329,192,72057,128,0,72182:0:0:0:0:
36,192,72057,1,0,0:0:0:0:
109,192,72057,1,0,0:0:0:0:
402,192,72182,128,0,72307:0:0:0:0:
182,192,72182,1,0,0:0:0:0:
256,192,72182,1,0,0:0:0:0:
109,192,72307,1,0,0:0:0:0:
475,192,72307,1,0,0:0:0:0:
329,192,72432,128,0,72682:0:0:0:0:
402,192,72432,1,0,0:0:0:0:
182,192,72432,1,0,0:0:0:0:
256,192,72682,128,0,72932:0:0:0:0:
36,192,72682,1,0,0:0:0:0:
109,192,72682,1,0,0:0:0:0:
475,192,72682,1,0,0:0:0:0:
182,192,72932,128,0,73182:0:0:0:0:
36,192,72932,1,0,0:0:0:0:
329,192,72932,1,0,0:0:0:0:
109,192,73057,1,0,0:0:0:0:
402,192,73057,1,0,0:0:0:0:
475,192,73182,128,0,73307:0:0:0:0:
329,192,73182,1,0,0:0:0:0:
256,192,73182,1,0,0:0:0:0:
402,192,73307,128,0,73432:0:0:0:0:
36,192,73307,1,0,0:0:0:0:
109,192,73307,1,0,0:0:0:0:
182,192,73307,1,0,0:0:0:0:
475,192,73432,128,0,73682:0:0:0:0:
329,192,73432,1,0,0:0:0:0:
256,192,73432,1,0,0:0:0:0:
402,192,73682,1,0,0:0:0:0:
36,192,73682,1,0,0:0:0:0:
109,192,73682,1,0,0:0:0:0:
329,192,73765,1,0,0:0:0:0:
256,192,73765,1,0,0:0:0:0:
182,192,73848,1,0,0:0:0:0:
109,192,73848,1,0,0:0:0:0:
36,192,73932,1,0,0:0:0:0:
329,192,73932,1,0,0:0:0:0:
475,192,73932,128,0,74057:0:0:0:0:
109,192,74015,1,0,0:0:0:0:
182,192,74015,1,0,0:0:0:0:
402,192,74057,128,0,74182:0:0:0:0:
256,192,74098,1,0,0:0:0:0:
329,192,74098,1,0,0:0:0:0:
109,192,74182,1,0,0:0:0:0:
182,192,74182,1,0,0:0:0:0:
475,192,74182,1,0,0:0:0:0:
36,192,74182,128,0,74432:0:0:0:0:
329,192,74307,1,0,0:0:0:0:
402,192,74307,1,0,0:0:0:0:
182,192,74432,128,0,74682:0:0:0:0:
475,192,74432,1,0,0:0:0:0:
109,192,74432,1,0,0:0:0:0:
256,192,74682,128,0,74932:0:0:0:0:
329,192,74682,1,0,0:0:0:0:
402,192,74682,1,0,0:0:0:0:
36,192,74682,1,0,0:0:0:0:
109,192,74932,128,0,75182:0:0:0:0:
329,192,74932,1,0,0:0:0:0:
475,192,74932,1,0,0:0:0:0:
402,192,75057,1,0,0:0:0:0:
36,192,75057,1,0,0:0:0:0:
256,192,75182,128,0,75432:0:0:0:0:
329,192,75182,1,0,0:0:0:0:
475,192,75182,1,0,0:0:0:0:
402,192,75307,1,0,0:0:0:0:
182,192,75307,1,0,0:0:0:0:
36,192,75432,128,0,75682:0:0:0:0:
329,192,75432,1,0,0:0:0:0:
109,192,75432,1,0,0:0:0:0:
402,192,75682,128,0,76182:0:0:0:0:
109,192,75682,1,0,0:0:0:0:
329,192,75682,1,0,0:0:0:0:
475,192,75682,1,0,0:0:0:0:
182,192,75932,128,0,76057:0:0:0:0:
256,192,75932,1,0,0:0:0:0:
329,192,75932,1,0,0:0:0:0:
109,192,76057,128,0,76182:0:0:0:0:
475,192,76057,1,0,0:0:0:0:
36,192,76057,1,0,0:0:0:0:
182,192,76182,128,0,76432:0:0:0:0:
256,192,76182,1,0,0:0:0:0:
329,192,76182,1,0,0:0:0:0:
109,192,76307,1,0,0:0:0:0:
36,192,76307,1,0,0:0:0:0:
329,192,76432,128,0,76682:0:0:0:0:
256,192,76432,1,0,0:0:0:0:
475,192,76432,1,0,0:0:0:0:
182,192,76682,128,0,76932:0:0:0:0:
109,192,76682,1,0,0:0:0:0:
402,192,76682,1,0,0:0:0:0:
36,192,76682,1,0,0:0:0:0:
36,192,76932,128,0,77182:0:0:0:0:
109,192,76932,1,0,0:0:0:0:
329,192,76932,1,0,0:0:0:0:
402,192,77057,1,0,0:0:0:0:
182,192,77057,1,0,0:0:0:0:
329,192,77182,128,0,77432:0:0:0:0:
475,192,77182,1,0,0:0:0:0:
109,192,77182,1,0,0:0:0:0:
475,192,77432,128,0,78182:0:0:0:0:
109,192,77432,128,0,77682:0:0:0:0:
402,192,77432,1,0,0:0:0:0:
182,192,77432,1,0,0:0:0:0:
36,192,77682,128,0,78182:0:0:0:0:
182,192,77682,1,0,0:0:0:0:
256,192,77682,1,0,0:0:0:0:
329,192,77682,1,0,0:0:0:0:
256,192,77932,128,0,78057:0:0:0:0:
402,192,77932,1,0,0:0:0:0:
109,192,77932,1,0,0:0:0:0:
182,192,78057,128,0,78182:0:0:0:0:
329,192,78057,1,0,0:0:0:0:
256,192,78182,128,0,78432:0:0:0:0:
402,192,78182,1,0,0:0:0:0:
109,192,78182,1,0,0:0:0:0:
329,192,78307,1,0,0:0:0:0:
36,192,78307,1,0,0:0:0:0:
109,192,78432,128,0,78682:0:0:0:0:
182,192,78432,1,0,0:0:0:0:
475,192,78432,1,0,0:0:0:0:
329,192,78682,128,0,78932:0:0:0:0:
36,192,78682,1,0,0:0:0:0:
256,192,78682,1,0,0:0:0:0:
475,192,78682,1,0,0:0:0:0:
182,192,78932,128,0,79182:0:0:0:0:
402,192,78932,1,0,0:0:0:0:
256,192,78932,1,0,0:0:0:0:
36,192,79057,1,0,0:0:0:0:
475,192,79057,1,0,0:0:0:0:
109,192,79182,128,0,79432:0:0:0:0:
402,192,79182,1,0,0:0:0:0:
256,192,79182,1,0,0:0:0:0:
329,192,79307,1,0,0:0:0:0:
36,192,79307,1,0,0:0:0:0:
402,192,79432,128,0,79682:0:0:0:0:
182,192,79432,1,0,0:0:0:0:
475,192,79432,1,0,0:0:0:0:
36,192,79682,1,0,0:0:0:0:
109,192,79682,1,0,0:0:0:0:
329,192,79682,1,0,0:0:0:0:
256,192,79932,128,0,80057:0:0:0:0:
109,192,79932,1,0,0:0:0:0:
182,192,79932,1,0,0:0:0:0:
402,192,80057,128,0,80182:0:0:0:0:
329,192,80057,1,0,0:0:0:0:
36,192,80057,1,0,0:0:0:0:
475,192,80182,128,0,80307:0:0:0:0:
109,192,80182,1,0,0:0:0:0:
256,192,80182,1,0,0:0:0:0:
182,192,80307,1,0,0:0:0:0:
402,192,80307,1,0,0:0:0:0:
329,192,80432,128,0,80682:0:0:0:0:
36,192,80432,1,0,0:0:0:0:
475,192,80432,1,0,0:0:0:0:
182,192,80682,128,0,80932:0:0:0:0:
475,192,80682,1,0,0:0:0:0:
402,192,80682,1,0,0:0:0:0:
256,192,80682,1,0,0:0:0:0:
36,192,80932,128,0,81182:0:0:0:0:
109,192,80932,1,0,0:0:0:0:
256,192,80932,1,0,0:0:0:0:
475,192,81057,1,0,0:0:0:0:
182,192,81057,1,0,0:0:0:0:
402,192,81182,128,0,81307:0:0:0:0:
329,192,81182,1,0,0:0:0:0:
256,192,81182,1,0,0:0:0:0:
109,192,81307,128,0,81432:0:0:0:0:
182,192,81307,1,0,0:0:0:0:
36,192,81307,1,0,0:0:0:0:
475,192,81307,1,0,0:0:0:0:
402,192,81432,128,0,81682:0:0:0:0:
329,192,81432,1,0,0:0:0:0:
256,192,81432,1,0,0:0:0:0:
109,192,81682,1,0,0:0:0:0:
182,192,81682,1,0,0:0:0:0:
475,192,81682,1,0,0:0:0:0:
256,192,81807,1,0,0:0:0:0:
36,192,81932,1,0,0:0:0:0:
109,192,81932,1,0,0:0:0:0:
475,192,81932,1,0,0:0:0:0:
329,192,81932,1,0,0:0:0:0:
182,192,81932,128,0,82182:0:0:0:0:
329,192,82182,1,0,0:0:0:0:
256,192,82182,1,0,0:0:0:0:
36,192,82182,128,0,82432:0:0:0:0:
109,192,82432,128,0,82557:0:0:0:0:
182,192,82557,128,0,82682:0:0:0:0:
475,192,82807,128,0,82932:0:0:0:0:
402,192,83057,128,0,83182:0:0:0:0:
329,192,83182,128,0,83307:0:0:0:0:
256,192,83432,128,0,83557:0:0:0:0:
475,192,83432,128,0,83557:0:0:0:0:
36,192,83682,128,0,83807:0:0:0:0:
109,192,83682,128,0,83807:0:0:0:0:
475,192,83932,128,0,84182:0:0:0:0:
182,192,83932,128,0,84182:0:0:0:0:
329,192,83932,1,0,0:0:0:0:
256,192,84182,1,0,0:0:0:0:
36,192,84182,128,0,84432:0:0:0:0:
109,192,84432,128,0,84557:0:0:0:0:
256,192,84557,128,0,84682:0:0:0:0:
475,192,84807,128,0,84932:0:0:0:0:
329,192,85057,128,0,85182:0:0:0:0:
182,192,85182,128,0,85307:0:0:0:0:
109,192,85432,128,0,85557:0:0:0:0:
475,192,85432,128,0,85557:0:0:0:0:
402,192,85682,128,0,85807:0:0:0:0:
36,192,85682,128,0,85807:0:0:0:0:
475,192,85932,128,0,86182:0:0:0:0:
109,192,85932,128,0,86182:0:0:0:0:
329,192,85932,1,0,0:0:0:0:
182,192,86182,1,0,0:0:0:0:
36,192,86182,128,0,86432:0:0:0:0:
182,192,86432,128,0,86557:0:0:0:0:
402,192,86432,1,0,0:0:0:0:
329,192,86557,128,0,86682:0:0:0:0:
109,192,86557,1,0,0:0:0:0:
402,192,86682,1,0,0:0:0:0:
475,192,86807,128,0,86932:0:0:0:0:
256,192,86932,1,0,0:0:0:0:
402,192,87057,128,0,87182:0:0:0:0:
36,192,87182,128,0,87432:0:0:0:0:
182,192,87182,1,0,0:0:0:0:
329,192,87182,1,0,0:0:0:0:
475,192,87182,1,0,0:0:0:0:
109,192,87432,128,0,87557:0:0:0:0:
329,192,87432,1,0,0:0:0:0:
256,192,87557,128,0,87682:0:0:0:0:
182,192,87557,1,0,0:0:0:0:
329,192,87682,1,0,0:0:0:0:
475,192,87807,128,0,87932:0:0:0:0:
36,192,87932,1,0,0:0:0:0:
329,192,88057,128,0,88182:0:0:0:0:
475,192,88057,1,0,0:0:0:0:
109,192,88182,128,0,88432:0:0:0:0:
36,192,88182,1,0,0:0:0:0:
402,192,88182,1,0,0:0:0:0:
182,192,88432,128,0,88557:0:0:0:0:
402,192,88432,1,0,0:0:0:0:
329,192,88557,128,0,88682:0:0:0:0:
256,192,88557,1,0,0:0:0:0:
402,192,88682,1,0,0:0:0:0:
36,192,88682,1,0,0:0:0:0:
475,192,88807,128,0,88932:0:0:0:0:
182,192,88932,1,0,0:0:0:0:
402,192,89057,128,0,89182:0:0:0:0:
109,192,89057,1,0,0:0:0:0:
329,192,89182,128,0,89307:0:0:0:0:
36,192,89182,1,0,0:0:0:0:
475,192,89182,1,0,0:0:0:0:
256,192,89432,128,0,89557:0:0:0:0:
402,192,89432,1,0,0:0:0:0:
182,192,89432,1,0,0:0:0:0:
182,192,89682,128,0,89807:0:0:0:0:
36,192,89682,1,0,0:0:0:0:
329,192,89682,1,0,0:0:0:0:
475,192,89807,1,0,0:0:0:0:
109,192,89932,128,0,90057:0:0:0:0:
182,192,90057,1,0,0:0:0:0:
329,192,90057,1,0,0:0:0:0:
475,192,90057,1,0,0:0:0:0:
36,192,90182,1,0,0:0:0:0:
109,192,90182,1,0,0:0:0:0:
256,192,90182,1,0,0:0:0:0:
475,192,90182,1,0,0:0:0:0:
402,192,90182,128,0,90307:0:0:0:0:
329,192,90307,128,0,90432:0:0:0:0:
402,192,90432,128,0,90557:0:0:0:0:
109,192,90432,1,0,0:0:0:0:
329,192,90557,128,0,90682:0:0:0:0:
182,192,90682,128,0,90932:0:0:0:0:
36,192,90682,1,0,0:0:0:0:
256,192,90682,1,0,0:0:0:0:
475,192,90682,1,0,0:0:0:0:
329,192,90932,128,0,91057:0:0:0:0:
109,192,90932,1,0,0:0:0:0:
182,192,91057,128,0,91432:0:0:0:0:
109,192,91182,1,0,0:0:0:0:
402,192,91432,128,0,91557:0:0:0:0:
256,192,91432,1,0,0:0:0:0:
36,192,91557,128,0,91682:0:0:0:0:
182,192,91682,128,0,91932:0:0:0:0:
475,192,91682,1,0,0:0:0:0:
329,192,91682,1,0,0:0:0:0:
109,192,91682,1,0,0:0:0:0:
256,192,91932,128,0,92057:0:0:0:0:
36,192,91932,1,0,0:0:0:0:
329,192,92057,128,0,92182:0:0:0:0:
475,192,92182,128,0,92307:0:0:0:0:
36,192,92182,1,0,0:0:0:0:
402,192,92307,128,0,92432:0:0:0:0:
475,192,92432,128,0,92557:0:0:0:0:
109,192,92432,1,0,0:0:0:0:
402,192,92557,128,0,92682:0:0:0:0:
256,192,92557,1,0,0:0:0:0:
329,192,92682,128,0,92807:0:0:0:0:
36,192,92682,1,0,0:0:0:0:
109,192,92682,1,0,0:0:0:0:
475,192,92682,1,0,0:0:0:0:
182,192,92807,128,0,92932:0:0:0:0:
329,192,92932,128,0,93057:0:0:0:0:
402,192,92932,1,0,0:0:0:0:
182,192,93057,128,0,93307:0:0:0:0:
402,192,93182,1,0,0:0:0:0:
109,192,93307,128,0,93432:0:0:0:0:
256,192,93432,128,0,93557:0:0:0:0:
329,192,93432,1,0,0:0:0:0:
475,192,93432,1,0,0:0:0:0:
182,192,93557,128,0,93682:0:0:0:0:
36,192,93682,128,0,93807:0:0:0:0:
402,192,93682,1,0,0:0:0:0:
109,192,93682,1,0,0:0:0:0:
329,192,93682,1,0,0:0:0:0:
256,192,93807,1,0,0:0:0:0:
329,192,93932,128,0,94057:0:0:0:0:
109,192,93932,1,0,0:0:0:0:
475,192,94057,1,0,0:0:0:0:
402,192,94057,1,0,0:0:0:0:
182,192,94057,1,0,0:0:0:0:
36,192,94182,128,0,94307:0:0:0:0:
256,192,94182,1,0,0:0:0:0:
109,192,94182,128,0,94432:0:0:0:0:
329,192,94182,1,0,0:0:0:0:
182,192,94432,128,0,94557:0:0:0:0:
475,192,94432,1,0,0:0:0:0:
256,192,94557,128,0,94682:0:0:0:0:
329,192,94557,1,0,0:0:0:0:
36,192,94682,1,0,0:0:0:0:
109,192,94682,1,0,0:0:0:0:
182,192,94682,1,0,0:0:0:0:
475,192,94807,128,0,94932:0:0:0:0:
402,192,94932,128,0,95182:0:0:0:0:
256,192,94932,1,0,0:0:0:0:
329,192,95057,128,0,95182:0:0:0:0:
109,192,95182,128,0,95432:0:0:0:0:
182,192,95182,128,0,95432:0:0:0:0:
256,192,95182,1,0,0:0:0:0:
256,192,95432,128,0,95557:0:0:0:0:
402,192,95432,1,0,0:0:0:0:
329,192,95557,128,0,95682:0:0:0:0:
402,192,95682,1,0,0:0:0:0:
182,192,95682,1,0,0:0:0:0:
36,192,95682,1,0,0:0:0:0:
475,192,95807,128,0,95932:0:0:0:0:
329,192,95932,128,0,96182:0:0:0:0:
109,192,95932,1,0,0:0:0:0:
256,192,96057,128,0,96182:0:0:0:0:
182,192,96182,128,0,96432:0:0:0:0:
36,192,96182,128,0,96432:0:0:0:0:
475,192,96182,1,0,0:0:0:0:
402,192,96432,128,0,96682:0:0:0:0:
109,192,96432,128,0,96557:0:0:0:0:
256,192,96432,1,0,0:0:0:0:
329,192,96557,128,0,96682:0:0:0:0:
475,192,96557,1,0,0:0:0:0:
256,192,96682,128,0,96932:0:0:0:0:
36,192,96682,1,0,0:0:0:0:
182,192,96682,1,0,0:0:0:0:
109,192,96682,1,0,0:0:0:0:
475,192,96807,128,0,96932:0:0:0:0:
109,192,96932,128,0,97182:0:0:0:0:
182,192,96932,1,0,0:0:0:0:
329,192,97057,128,0,97182:0:0:0:0:
36,192,97057,1,0,0:0:0:0:
256,192,97057,1,0,0:0:0:0:
402,192,97182,128,0,97932:0:0:0:0:
475,192,97182,128,0,97682:0:0:0:0:
182,192,97182,1,0,0:0:0:0:
36,192,97348,1,0,0:0:0:0:
109,192,97432,1,0,0:0:0:0:
182,192,97515,1,0,0:0:0:0:
256,192,97598,1,0,0:0:0:0:
329,192,97682,1,0,0:0:0:0:
36,192,97682,1,0,0:0:0:0:
109,192,97765,1,0,0:0:0:0:
182,192,97848,1,0,0:0:0:0:
256,192,97932,1,0,0:0:0:0:
329,192,98015,1,0,0:0:0:0:
402,192,98098,1,0,0:0:0:0:
36,192,98182,1,0,0:0:0:0:
109,192,98182,1,0,0:0:0:0:
329,192,98182,1,0,0:0:0:0:
475,192,98182,1,0,0:0:0:0:
256,192,98182,128,0,98432:0:0:0:0:
36,192,98432,1,0,0:0:0:0:
329,192,98432,1,0,0:0:0:0:
402,192,98432,1,0,0:0:0:0:
475,192,98432,1,0,0:0:0:0:
182,192,98432,128,0,98682:0:0:0:0:
109,192,98682,1,0,0:0:0:0:
256,192,98682,1,0,0:0:0:0:
402,192,98682,1,0,0:0:0:0:
329,192,98682,128,0,98807:0:0:0:0:
182,192,98807,128,0,98932:0:0:0:0:
475,192,98932,1,0,0:0:0:0:
109,192,99057,1,0,0:0:0:0:
256,192,99057,1,0,0:0:0:0:
402,192,99057,1,0,0:0:0:0:
329,192,99057,128,0,99182:0:0:0:0:
109,192,99307,1,0,0:0:0:0:
256,192,99307,1,0,0:0:0:0:
402,192,99307,1,0,0:0:0:0:
329,192,99307,128,0,99432:0:0:0:0:
182,192,99432,1,0,0:0:0:0:
36,192,99432,1,0,0:0:0:0:
329,192,99557,128,0,99682:0:0:0:0:
109,192,99682,1,0,0:0:0:0:
256,192,99682,1,0,0:0:0:0:
402,192,99682,1,0,0:0:0:0:
182,192,99682,128,0,99807:0:0:0:0:
329,192,99932,1,0,0:0:0:0:
475,192,99932,1,0,0:0:0:0:
182,192,99932,128,0,100182:0:0:0:0:
36,192,100182,1,0,0:0:0:0:
109,192,100182,1,0,0:0:0:0:
256,192,100182,1,0,0:0:0:0:
475,192,100182,1,0,0:0:0:0:
329,192,100182,128,0,100432:0:0:0:0:
36,192,100432,1,0,0:0:0:0:
402,192,100432,1,0,0:0:0:0:
475,192,100432,1,0,0:0:0:0:
109,192,100432,128,0,100682:0:0:0:0:
182,192,100432,1,0,0:0:0:0:
36,192,100682,1,0,0:0:0:0:
182,192,100682,1,0,0:0:0:0:
329,192,100682,1,0,0:0:0:0:
402,192,100682,128,0,100807:0:0:0:0:
256,192,100807,128,0,100932:0:0:0:0:
475,192,100932,1,0,0:0:0:0:
36,192,101057,1,0,0:0:0:0:
182,192,101057,1,0,0:0:0:0:
329,192,101057,1,0,0:0:0:0:
402,192,101057,128,0,101182:0:0:0:0:
402,192,101307,128,0,101432:0:0:0:0:
256,192,101432,1,0,0:0:0:0:
475,192,101432,1,0,0:0:0:0:
109,192,101557,1,0,0:0:0:0:
402,192,101557,128,0,101682:0:0:0:0:
36,192,101682,1,0,0:0:0:0:
182,192,101682,1,0,0:0:0:0:
329,192,101682,1,0,0:0:0:0:
256,192,101682,128,0,101807:0:0:0:0:
256,192,101932,1,0,0:0:0:0:
402,192,101932,1,0,0:0:0:0:
36,192,101932,128,0,102182:0:0:0:0:
109,192,102182,1,0,0:0:0:0:
256,192,102182,1,0,0:0:0:0:
402,192,102182,1,0,0:0:0:0:
329,192,102182,1,0,0:0:0:0:
182,192,102182,128,0,102432:0:0:0:0:
36,192,102432,1,0,0:0:0:0:
109,192,102432,1,0,0:0:0:0:
256,192,102432,1,0,0:0:0:0:
402,192,102432,1,0,0:0:0:0:
475,192,102432,1,0,0:0:0:0:
329,192,102432,128,0,102682:0:0:0:0:
182,192,102682,1,0,0:0:0:0:
36,192,102682,1,0,0:0:0:0:
402,192,102682,1,0,0:0:0:0:
475,192,102682,128,0,102807:0:0:0:0:
109,192,102807,128,0,102932:0:0:0:0:
36,192,103057,1,0,0:0:0:0:
182,192,103057,1,0,0:0:0:0:
329,192,103057,1,0,0:0:0:0:
475,192,103057,128,0,103182:0:0:0:0:
109,192,103307,1,0,0:0:0:0:
256,192,103307,1,0,0:0:0:0:
36,192,103307,1,0,0:0:0:0:
475,192,103307,128,0,103432:0:0:0:0:
402,192,103432,1,0,0:0:0:0:
182,192,103432,1,0,0:0:0:0:
475,192,103557,128,0,103682:0:0:0:0:
109,192,103682,128,0,104182:0:0:0:0:
329,192,103682,1,0,0:0:0:0:
182,192,103682,1,0,0:0:0:0:
36,192,103682,128,0,103807:0:0:0:0:
256,192,103932,1,0,0:0:0:0:
402,192,103932,1,0,0:0:0:0:
475,192,103932,128,0,104182:0:0:0:0:
36,192,104182,1,0,0:0:0:0:
182,192,104182,1,0,0:0:0:0:
256,192,104182,1,0,0:0:0:0:
329,192,104182,1,0,0:0:0:0:
402,192,104307,1,0,0:0:0:0:
475,192,104307,1,0,0:0:0:0:
109,192,104307,1,0,0:0:0:0:
256,192,104432,1,0,0:0:0:0:
36,192,104682,1,0,0:0:0:0:
329,192,104682,1,0,0:0:0:0:
402,192,104682,1,0,0:0:0:0:
182,192,104807,128,0,105307:0:0:0:0:
475,192,104932,1,0,0:0:0:0:
109,192,104932,1,0,0:0:0:0:
402,192,105057,1,0,0:0:0:0:
36,192,105057,1,0,0:0:0:0:
256,192,105057,1,0,0:0:0:0:
109,192,105307,128,0,105807:0:0:0:0:
329,192,105307,1,0,0:0:0:0:
475,192,105307,1,0,0:0:0:0:
256,192,105432,1,0,0:0:0:0:
402,192,105432,1,0,0:0:0:0:
182,192,105682,1,0,0:0:0:0:
329,192,105682,1,0,0:0:0:0:
475,192,105682,1,0,0:0:0:0:
36,192,105807,128,0,106182:0:0:0:0:
109,192,105932,1,0,0:0:0:0:
402,192,105932,1,0,0:0:0:0:
109,192,106182,1,0,0:0:0:0:
256,192,106182,1,0,0:0:0:0:
182,192,106182,1,0,0:0:0:0:
402,192,106182,1,0,0:0:0:0:
475,192,106182,1,0,0:0:0:0:
329,192,106182,128,0,106432:0:0:0:0:
109,192,106432,1,0,0:0:0:0:
182,192,106432,1,0,0:0:0:0:
256,192,106432,1,0,0:0:0:0:
402,192,106432,1,0,0:0:0:0:
475,192,106432,1,0,0:0:0:0:
36,192,106432,128,0,106682:0:0:0:0:
182,192,106682,1,0,0:0:0:0:
329,192,106682,1,0,0:0:0:0:
475,192,106682,1,0,0:0:0:0:
402,192,106682,128,0,106807:0:0:0:0:
256,192,106807,128,0,106932:0:0:0:0:
36,192,107057,1,0,0:0:0:0:
182,192,107057,1,0,0:0:0:0:
329,192,107057,1,0,0:0:0:0:
402,192,107057,128,0,107182:0:0:0:0:
36,192,107307,1,0,0:0:0:0:
182,192,107307,1,0,0:0:0:0:
329,192,107307,1,0,0:0:0:0:
402,192,107307,128,0,107432:0:0:0:0:
256,192,107432,1,0,0:0:0:0:
475,192,107432,1,0,0:0:0:0:
402,192,107557,128,0,107682:0:0:0:0:
36,192,107682,1,0,0:0:0:0:
109,192,107682,1,0,0:0:0:0:
329,192,107682,1,0,0:0:0:0:
182,192,107682,1,0,0:0:0:0:
256,192,107682,128,0,107807:0:0:0:0:
182,192,107932,1,0,0:0:0:0:
256,192,107932,1,0,0:0:0:0:
329,192,107932,128,0,108182:0:0:0:0:
402,192,108182,1,0,0:0:0:0:
475,192,108182,1,0,0:0:0:0:
109,192,108182,1,0,0:0:0:0:
36,192,108182,1,0,0:0:0:0:
182,192,108182,128,0,108432:0:0:0:0:
256,192,108182,1,0,0:0:0:0:
36,192,108432,1,0,0:0:0:0:
109,192,108432,1,0,0:0:0:0:
402,192,108432,1,0,0:0:0:0:
329,192,108432,1,0,0:0:0:0:
475,192,108432,1,0,0:0:0:0:
256,192,108432,128,0,108682:0:0:0:0:
109,192,108682,1,0,0:0:0:0:
182,192,108682,1,0,0:0:0:0:
329,192,108682,1,0,0:0:0:0:
402,192,108682,128,0,108807:0:0:0:0:
36,192,108807,128,0,108932:0:0:0:0:
109,192,109057,1,0,0:0:0:0:
182,192,109057,1,0,0:0:0:0:
329,192,109057,1,0,0:0:0:0:
402,192,109057,128,0,109182:0:0:0:0:
475,192,109182,1,0,0:0:0:0:
402,192,109307,128,0,109432:0:0:0:0:
256,192,109432,1,0,0:0:0:0:
329,192,109432,1,0,0:0:0:0:
109,192,109557,1,0,0:0:0:0:
182,192,109557,1,0,0:0:0:0:
402,192,109557,128,0,109682:0:0:0:0:
36,192,109682,1,0,0:0:0:0:
475,192,109682,1,0,0:0:0:0:
256,192,109682,1,0,0:0:0:0:
329,192,109682,128,0,109807:0:0:0:0:
402,192,109932,1,0,0:0:0:0:
182,192,109932,1,0,0:0:0:0:
329,192,109932,128,0,110182:0:0:0:0:
109,192,110182,1,0,0:0:0:0:
182,192,110182,1,0,0:0:0:0:
256,192,110182,1,0,0:0:0:0:
36,192,110182,1,0,0:0:0:0:
475,192,110182,1,0,0:0:0:0:
402,192,110182,128,0,110432:0:0:0:0:
36,192,110432,1,0,0:0:0:0:
109,192,110432,1,0,0:0:0:0:
182,192,110432,1,0,0:0:0:0:
256,192,110432,1,0,0:0:0:0:
475,192,110432,1,0,0:0:0:0:
329,192,110432,128,0,110682:0:0:0:0:
182,192,110682,1,0,0:0:0:0:
402,192,110682,1,0,0:0:0:0:
36,192,110682,1,0,0:0:0:0:
475,192,110682,128,0,110807:0:0:0:0:
329,192,110807,128,0,110932:0:0:0:0:
109,192,111057,1,0,0:0:0:0:
182,192,111057,1,0,0:0:0:0:
402,192,111057,1,0,0:0:0:0:
475,192,111057,128,0,111182:0:0:0:0:
109,192,111307,1,0,0:0:0:0:
182,192,111307,1,0,0:0:0:0:
402,192,111307,1,0,0:0:0:0:
475,192,111307,128,0,111432:0:0:0:0:
256,192,111432,1,0,0:0:0:0:
329,192,111432,1,0,0:0:0:0:
475,192,111557,128,0,111682:0:0:0:0:
36,192,111682,128,0,112182:0:0:0:0:
109,192,111682,128,0,112182:0:0:0:0:
329,192,111682,1,0,0:0:0:0:
182,192,111682,1,0,0:0:0:0:
256,192,111682,1,0,0:0:0:0:
402,192,111682,128,0,111807:0:0:0:0:
256,192,111932,1,0,0:0:0:0:
402,192,111932,1,0,0:0:0:0:
475,192,111932,128,0,112182:0:0:0:0:
182,192,112182,1,0,0:0:0:0:
256,192,112182,1,0,0:0:0:0:
329,192,112182,1,0,0:0:0:0:
402,192,112182,1,0,0:0:0:0:
182,192,112307,1,0,0:0:0:0:
329,192,112307,1,0,0:0:0:0:
256,192,112307,1,0,0:0:0:0:
402,192,112307,1,0,0:0:0:0:
36,192,112557,1,0,0:0:0:0:
109,192,112557,1,0,0:0:0:0:
329,192,112557,1,0,0:0:0:0:
182,192,112682,1,0,0:0:0:0:
256,192,112682,1,0,0:0:0:0:
402,192,112682,1,0,0:0:0:0:
475,192,112932,1,0,0:0:0:0:
402,192,112932,1,0,0:0:0:0:
109,192,112932,1,0,0:0:0:0:
36,192,112932,1,0,0:0:0:0:
109,192,113057,1,0,0:0:0:0:
402,192,113057,1,0,0:0:0:0:
475,192,113057,1,0,0:0:0:0:
36,192,113057,1,0,0:0:0:0:
109,192,113307,1,0,0:0:0:0:
182,192,113307,1,0,0:0:0:0:
329,192,113307,1,0,0:0:0:0:
402,192,113307,1,0,0:0:0:0:
402,192,113432,1,0,0:0:0:0:
329,192,113432,1,0,0:0:0:0:
182,192,113432,1,0,0:0:0:0:
109,192,113432,1,0,0:0:0:0:
109,192,113682,1,0,0:0:0:0:
182,192,113682,1,0,0:0:0:0:
329,192,113682,1,0,0:0:0:0:
402,192,113682,1,0,0:0:0:0:
256,192,113682,128,0,114182:0:0:0:0:
36,192,114182,5,0,0:0:0:0:
109,192,114432,1,0,0:0:0:0:
182,192,114682,1,0,0:0:0:0:
256,192,114932,1,0,0:0:0:0:
329,192,115182,1,0,0:0:0:0:
402,192,115432,1,0,0:0:0:0:
475,192,115682,1,0,0:0:0:0:
36,192,115682,1,0,0:0:0:0:
182,192,115682,1,0,0:0:0:0:
109,192,115807,1,0,0:0:0:0:
256,192,115807,1,0,0:0:0:0:
402,192,115807,1,0,0:0:0:0:
329,192,115932,1,0,0:0:0:0:
182,192,115932,1,0,0:0:0:0:
475,192,115932,1,0,0:0:0:0:
36,192,116057,1,0,0:0:0:0:
256,192,116057,1,0,0:0:0:0:
402,192,116057,1,0,0:0:0:0:
109,192,116182,1,0,0:0:0:0:
182,192,116182,1,0,0:0:0:0:
329,192,116182,1,0,0:0:0:0:
475,192,116182,128,0,116432:0:0:0:0:
402,192,116432,128,0,116682:0:0:0:0:
36,192,116432,1,0,0:0:0:0:
109,192,116432,1,0,0:0:0:0:
182,192,116432,1,0,0:0:0:0:
256,192,116682,128,0,116932:0:0:0:0:
109,192,116682,1,0,0:0:0:0:
182,192,116682,1,0,0:0:0:0:
475,192,116682,1,0,0:0:0:0:
36,192,116807,1,0,0:0:0:0:
109,192,116807,1,0,0:0:0:0:
402,192,116807,1,0,0:0:0:0:
329,192,116932,128,0,117057:0:0:0:0:
402,192,117057,128,0,117307:0:0:0:0:
182,192,117057,1,0,0:0:0:0:
475,192,117057,1,0,0:0:0:0:
36,192,117057,1,0,0:0:0:0:
109,192,117182,1,0,0:0:0:0:
182,192,117307,128,0,117432:0:0:0:0:
256,192,117307,1,0,0:0:0:0:
475,192,117432,128,0,117682:0:0:0:0:
329,192,117432,1,0,0:0:0:0:
36,192,117432,1,0,0:0:0:0:
402,192,117432,1,0,0:0:0:0:
256,192,117682,128,0,118057:0:0:0:0:
109,192,117682,1,0,0:0:0:0:
402,192,117682,1,0,0:0:0:0:
329,192,117682,1,0,0:0:0:0:
36,192,117807,1,0,0:0:0:0:
182,192,117807,1,0,0:0:0:0:
475,192,117807,1,0,0:0:0:0:
329,192,118182,128,0,118307:0:0:0:0:
109,192,118182,1,0,0:0:0:0:
475,192,118182,1,0,0:0:0:0:
256,192,118182,1,0,0:0:0:0:
182,192,118432,128,0,118557:0:0:0:0:
329,192,118432,1,0,0:0:0:0:
402,192,118432,1,0,0:0:0:0:
36,192,118432,1,0,0:0:0:0:
109,192,118557,128,0,118682:0:0:0:0:
36,192,118682,128,0,118807:0:0:0:0:
475,192,118682,1,0,0:0:0:0:
329,192,118682,1,0,0:0:0:0:
182,192,118682,1,0,0:0:0:0:
109,192,118807,128,0,118932:0:0:0:0:
256,192,118807,1,0,0:0:0:0:
402,192,118807,1,0,0:0:0:0:
475,192,118807,1,0,0:0:0:0:
182,192,118932,128,0,119057:0:0:0:0:
329,192,119057,128,0,119307:0:0:0:0:
36,192,119057,1,0,0:0:0:0:
109,192,119057,1,0,0:0:0:0:
475,192,119057,1,0,0:0:0:0:
182,192,119307,128,0,119432:0:0:0:0:
109,192,119307,1,0,0:0:0:0:
256,192,119307,1,0,0:0:0:0:
402,192,119432,128,0,119682:0:0:0:0:
329,192,119432,1,0,0:0:0:0:
36,192,119432,1,0,0:0:0:0:
475,192,119432,1,0,0:0:0:0:
109,192,119682,128,0,120057:0:0:0:0:
182,192,119682,1,0,0:0:0:0:
256,192,119682,1,0,0:0:0:0:
329,192,119682,1,0,0:0:0:0:
36,192,119807,1,0,0:0:0:0:
475,192,119807,1,0,0:0:0:0:
256,192,119807,1,0,0:0:0:0:
329,192,120057,1,0,0:0:0:0:
36,192,120057,1,0,0:0:0:0:
402,192,120182,128,0,120432:0:0:0:0:
109,192,120182,1,0,0:0:0:0:
182,192,120182,1,0,0:0:0:0:
256,192,120182,1,0,0:0:0:0:
475,192,120182,1,0,0:0:0:0:
109,192,120432,128,0,120557:0:0:0:0:
256,192,120432,1,0,0:0:0:0:
329,192,120432,1,0,0:0:0:0:
475,192,120432,1,0,0:0:0:0:
182,192,120557,128,0,120682:0:0:0:0:
329,192,120682,128,0,120932:0:0:0:0:
36,192,120682,1,0,0:0:0:0:
109,192,120682,1,0,0:0:0:0:
475,192,120682,1,0,0:0:0:0:
182,192,120807,1,0,0:0:0:0:
256,192,120807,1,0,0:0:0:0:
36,192,120807,1,0,0:0:0:0:
402,192,120932,128,0,121057:0:0:0:0:
475,192,120932,1,0,0:0:0:0:
109,192,121057,128,0,121307:0:0:0:0:
182,192,121057,1,0,0:0:0:0:
36,192,121057,1,0,0:0:0:0:
329,192,121057,1,0,0:0:0:0:
182,192,121307,128,0,121432:0:0:0:0:
402,192,121432,128,0,121682:0:0:0:0:
109,192,121432,1,0,0:0:0:0:
329,192,121432,1,0,0:0:0:0:
256,192,121432,1,0,0:0:0:0:
256,192,121682,128,0,121932:0:0:0:0:
36,192,121682,1,0,0:0:0:0:
109,192,121682,1,0,0:0:0:0:
182,192,121682,1,0,0:0:0:0:
402,192,121807,1,0,0:0:0:0:
475,192,121807,1,0,0:0:0:0:
36,192,121807,1,0,0:0:0:0:
329,192,121932,128,0,122182:0:0:0:0:
475,192,122182,128,0,122432:0:0:0:0:
109,192,122182,1,0,0:0:0:0:
402,192,122182,1,0,0:0:0:0:
256,192,122182,1,0,0:0:0:0:
36,192,122182,1,0,0:0:0:0:
329,192,122432,128,0,122682:0:0:0:0:
109,192,122432,1,0,0:0:0:0:
402,192,122432,1,0,0:0:0:0:
256,192,122432,1,0,0:0:0:0:
182,192,122682,128,0,122932:0:0:0:0:
36,192,122682,1,0,0:0:0:0:
256,192,122682,1,0,0:0:0:0:
475,192,122682,1,0,0:0:0:0:
402,192,122807,1,0,0:0:0:0:
329,192,122807,1,0,0:0:0:0:
109,192,122807,1,0,0:0:0:0:
36,192,122932,128,0,123057:0:0:0:0:
256,192,122932,1,0,0:0:0:0:
475,192,122932,1,0,0:0:0:0:
402,192,122932,1,0,0:0:0:0:
109,192,123057,128,0,123307:0:0:0:0:
256,192,123182,1,0,0:0:0:0:
329,192,123182,1,0,0:0:0:0:
475,192,123182,1,0,0:0:0:0:
36,192,123307,128,0,123432:0:0:0:0:
182,192,123307,1,0,0:0:0:0:
402,192,123307,1,0,0:0:0:0:
475,192,123307,1,0,0:0:0:0:
109,192,123432,128,0,123682:0:0:0:0:
256,192,123432,1,0,0:0:0:0:
329,192,123432,1,0,0:0:0:0:
402,192,123432,1,0,0:0:0:0:
182,192,123682,128,0,124057:0:0:0:0:
36,192,123682,1,0,0:0:0:0:
256,192,123682,1,0,0:0:0:0:
402,192,123682,1,0,0:0:0:0:
109,192,123932,1,0,0:0:0:0:
329,192,123932,1,0,0:0:0:0:
475,192,123932,1,0,0:0:0:0:
329,192,124182,128,0,124432:0:0:0:0:
36,192,124182,1,0,0:0:0:0:
109,192,124182,1,0,0:0:0:0:
256,192,124182,1,0,0:0:0:0:
475,192,124182,1,0,0:0:0:0:
256,192,124432,128,0,124682:0:0:0:0:
109,192,124432,1,0,0:0:0:0:
182,192,124432,1,0,0:0:0:0:
402,192,124432,1,0,0:0:0:0:
182,192,124682,128,0,124807:0:0:0:0:
475,192,124682,1,0,0:0:0:0:
402,192,124682,1,0,0:0:0:0:
36,192,124682,1,0,0:0:0:0:
109,192,124807,128,0,124932:0:0:0:0:
329,192,124807,1,0,0:0:0:0:
256,192,124807,1,0,0:0:0:0:
182,192,124932,128,0,125057:0:0:0:0:
36,192,124932,1,0,0:0:0:0:
329,192,124932,1,0,0:0:0:0:
475,192,124932,1,0,0:0:0:0:
402,192,125057,128,0,125307:0:0:0:0:
109,192,125057,1,0,0:0:0:0:
256,192,125057,1,0,0:0:0:0:
36,192,125057,1,0,0:0:0:0:
109,192,125307,128,0,125432:0:0:0:0:
475,192,125432,128,0,125682:0:0:0:0:
182,192,125432,1,0,0:0:0:0:
256,192,125432,1,0,0:0:0:0:
402,192,125432,1,0,0:0:0:0:
329,192,125682,128,0,126057:0:0:0:0:
36,192,125682,1,0,0:0:0:0:
109,192,125682,1,0,0:0:0:0:
256,192,125682,1,0,0:0:0:0:
402,192,125682,1,0,0:0:0:0:
109,192,125807,1,0,0:0:0:0:
182,192,125807,1,0,0:0:0:0:
475,192,125807,1,0,0:0:0:0:
402,192,126182,128,0,126432:0:0:0:0:
36,192,126182,1,0,0:0:0:0:
256,192,126182,1,0,0:0:0:0:
182,192,126182,1,0,0:0:0:0:
109,192,126432,1,0,0:0:0:0:
256,192,126432,1,0,0:0:0:0:
475,192,126432,1,0,0:0:0:0:
182,192,126432,128,0,126682:0:0:0:0:
109,192,126682,128,0,126807:0:0:0:0:
475,192,126682,1,0,0:0:0:0:
402,192,126682,1,0,0:0:0:0:
256,192,126682,1,0,0:0:0:0:
329,192,126807,1,0,0:0:0:0:
182,192,126807,1,0,0:0:0:0:
36,192,126932,128,0,127057:0:0:0:0:
109,192,126932,1,0,0:0:0:0:
402,192,126932,1,0,0:0:0:0:
475,192,126932,1,0,0:0:0:0:
256,192,127057,128,0,127307:0:0:0:0:
109,192,127057,1,0,0:0:0:0:
182,192,127057,1,0,0:0:0:0:
329,192,127057,1,0,0:0:0:0:
182,192,127307,128,0,127432:0:0:0:0:
475,192,127432,128,0,127557:0:0:0:0:
36,192,127432,1,0,0:0:0:0:
109,192,127432,1,0,0:0:0:0:
329,192,127432,1,0,0:0:0:0:
402,192,127682,128,0,128057:0:0:0:0:
109,192,127682,1,0,0:0:0:0:
182,192,127682,1,0,0:0:0:0:
256,192,127682,1,0,0:0:0:0:
329,192,127807,1,0,0:0:0:0:
475,192,127807,1,0,0:0:0:0:
36,192,127807,1,0,0:0:0:0:
36,192,128057,1,0,0:0:0:0:
182,192,128057,1,0,0:0:0:0:
475,192,128057,1,0,0:0:0:0:
329,192,128182,128,0,128432:0:0:0:0:
402,192,128182,1,0,0:0:0:0:
256,192,128182,1,0,0:0:0:0:
109,192,128182,1,0,0:0:0:0:
256,192,128432,128,0,128682:0:0:0:0:
36,192,128432,1,0,0:0:0:0:
109,192,128432,1,0,0:0:0:0:
475,192,128432,1,0,0:0:0:0:
182,192,128682,128,0,128932:0:0:0:0:
475,192,128682,1,0,0:0:0:0:
329,192,128682,1,0,0:0:0:0:
36,192,128682,1,0,0:0:0:0:
256,192,128807,1,0,0:0:0:0:
329,192,128807,1,0,0:0:0:0:
402,192,128807,1,0,0:0:0:0:
109,192,128932,128,0,129057:0:0:0:0:
475,192,128932,1,0,0:0:0:0:
329,192,129057,128,0,129307:0:0:0:0:
36,192,129057,1,0,0:0:0:0:
182,192,129057,1,0,0:0:0:0:
402,192,129057,1,0,0:0:0:0:
182,192,129307,128,0,129432:0:0:0:0:
402,192,129432,128,0,129557:0:0:0:0:
36,192,129432,1,0,0:0:0:0:
109,192,129432,1,0,0:0:0:0:
329,192,129432,1,0,0:0:0:0:
256,192,129682,128,0,129932:0:0:0:0:
109,192,129682,1,0,0:0:0:0:
182,192,129682,1,0,0:0:0:0:
475,192,129682,1,0,0:0:0:0:
36,192,129807,1,0,0:0:0:0:
329,192,129807,1,0,0:0:0:0:
182,192,129807,1,0,0:0:0:0:
402,192,129932,128,0,130182:0:0:0:0:
475,192,130182,128,0,130432:0:0:0:0:
36,192,130182,1,0,0:0:0:0:
109,192,130182,1,0,0:0:0:0:
329,192,130182,1,0,0:0:0:0:
402,192,130432,128,0,130682:0:0:0:0:
109,192,130432,1,0,0:0:0:0:
182,192,130432,1,0,0:0:0:0:
329,192,130432,1,0,0:0:0:0:
329,192,130682,128,0,130932:0:0:0:0:
36,192,130682,1,0,0:0:0:0:
475,192,130682,1,0,0:0:0:0:
182,192,130682,1,0,0:0:0:0:
109,192,130807,1,0,0:0:0:0:
256,192,130807,1,0,0:0:0:0:
402,192,130807,1,0,0:0:0:0:
182,192,130932,128,0,131057:0:0:0:0:
256,192,131057,128,0,131307:0:0:0:0:
36,192,131057,1,0,0:0:0:0:
329,192,131057,1,0,0:0:0:0:
475,192,131057,1,0,0:0:0:0:
109,192,131307,128,0,131432:0:0:0:0:
475,192,131307,1,0,0:0:0:0:
36,192,131307,1,0,0:0:0:0:
402,192,131307,1,0,0:0:0:0:
182,192,131432,128,0,131682:0:0:0:0:
329,192,131432,1,0,0:0:0:0:
256,192,131432,1,0,0:0:0:0:
475,192,131432,1,0,0:0:0:0:
402,192,131682,128,0,131807:0:0:0:0:
36,192,131682,1,0,0:0:0:0:
109,192,131682,1,0,0:0:0:0:
256,192,131807,1,0,0:0:0:0:
329,192,131807,1,0,0:0:0:0:
109,192,131932,128,0,132182:0:0:0:0:
475,192,131932,128,0,132182:0:0:0:0:
182,192,132182,5,0,0:0:0:0:
256,192,132182,128,0,134182:0:0:0:0:
36,192,132182,1,0,0:0:0:0:
402,192,132432,1,0,0:0:0:0:
109,192,132682,1,0,0:0:0:0:
402,192,133182,5,0,0:0:0:0:
36,192,134182,5,0,0:0:0:0:
109,192,134182,1,0,0:0:0:0:
402,192,134182,1,0,0:0:0:0:
475,192,134182,1,0,0:0:0:0:
329,192,134182,128,0,134307:0:0:0:0:
182,192,134432,1,0,0:0:0:0:
256,192,134682,128,0,134807:0:0:0:0:
475,192,134682,1,0,0:0:0:0:
402,192,134682,1,0,0:0:0:0:
36,192,134682,1,0,0:0:0:0:
109,192,134932,1,0,0:0:0:0:
256,192,135057,1,0,0:0:0:0:
182,192,135182,128,0,135307:0:0:0:0:
402,192,135182,1,0,0:0:0:0:
402,192,135432,1,0,0:0:0:0:
109,192,135682,128,0,135807:0:0:0:0:
182,192,135682,1,0,0:0:0:0:
329,192,135682,1,0,0:0:0:0:
475,192,135682,1,0,0:0:0:0:
36,192,135932,128,0,136182:0:0:0:0:
402,192,135932,1,0,0:0:0:0:
256,192,136057,1,0,0:0:0:0:
109,192,136182,128,0,136432:0:0:0:0:
475,192,136182,1,0,0:0:0:0:
182,192,136432,128,0,136682:0:0:0:0:
329,192,136432,1,0,0:0:0:0:
256,192,136682,128,0,136932:0:0:0:0:
36,192,136682,1,0,0:0:0:0:
109,192,136682,1,0,0:0:0:0:
475,192,136682,1,0,0:0:0:0:
329,192,136932,128,0,137182:0:0:0:0:
182,192,136932,1,0,0:0:0:0:
36,192,137057,1,0,0:0:0:0:
402,192,137182,128,0,137432:0:0:0:0:
109,192,137182,1,0,0:0:0:0:
182,192,137307,1,0,0:0:0:0:
109,192,137432,1,0,0:0:0:0:
182,192,137682,1,0,0:0:0:0:
329,192,137682,1,0,0:0:0:0:
475,192,137682,1,0,0:0:0:0:
256,192,137807,1,0,0:0:0:0:
109,192,137932,1,0,0:0:0:0:
256,192,138057,1,0,0:0:0:0:
475,192,138182,128,0,138307:0:0:0:0:
402,192,138182,1,0,0:0:0:0:
36,192,138432,128,0,138557:0:0:0:0:
109,192,138432,1,0,0:0:0:0:
402,192,138682,128,0,138807:0:0:0:0:
182,192,138682,1,0,0:0:0:0:
256,192,138682,1,0,0:0:0:0:
329,192,138682,1,0,0:0:0:0:
256,192,138932,128,0,139057:0:0:0:0:
36,192,138932,1,0,0:0:0:0:
402,192,139182,128,0,139307:0:0:0:0:
109,192,139182,1,0,0:0:0:0:
182,192,139307,1,0,0:0:0:0:
329,192,139432,128,0,139557:0:0:0:0:
109,192,139432,1,0,0:0:0:0:
256,192,139682,128,0,139807:0:0:0:0:
475,192,139682,1,0,0:0:0:0:
402,192,139682,1,0,0:0:0:0:
36,192,139682,1,0,0:0:0:0:
109,192,139932,128,0,140057:0:0:0:0:
329,192,139932,1,0,0:0:0:0:
402,192,140057,1,0,0:0:0:0:
182,192,140182,128,0,140682:0:0:0:0:
36,192,140182,1,0,0:0:0:0:
109,192,140432,1,0,0:0:0:0:
329,192,140682,128,0,141182:0:0:0:0:
256,192,140682,1,0,0:0:0:0:
402,192,140682,1,0,0:0:0:0:
475,192,140682,1,0,0:0:0:0:
36,192,140807,1,0,0:0:0:0:
182,192,141057,1,0,0:0:0:0:
475,192,141182,128,0,141432:0:0:0:0:
36,192,141182,1,0,0:0:0:0:
182,192,141307,1,0,0:0:0:0:
36,192,141432,1,0,0:0:0:0:
109,192,141682,1,0,0:0:0:0:
256,192,141682,1,0,0:0:0:0:
475,192,141682,1,0,0:0:0:0:
402,192,141807,1,0,0:0:0:0:
329,192,141932,1,0,0:0:0:0:
36,192,141932,1,0,0:0:0:0:
475,192,142057,1,0,0:0:0:0:
182,192,142182,1,0,0:0:0:0:
256,192,142182,1,0,0:0:0:0:
402,192,142182,1,0,0:0:0:0:
109,192,142182,128,0,142307:0:0:0:0:
329,192,142182,1,0,0:0:0:0:
256,192,142432,1,0,0:0:0:0:
402,192,142682,128,0,143182:0:0:0:0:
36,192,142682,1,0,0:0:0:0:
109,192,142682,1,0,0:0:0:0:
475,192,142682,1,0,0:0:0:0:
329,192,142932,1,0,0:0:0:0:
36,192,143057,1,0,0:0:0:0:
109,192,143182,128,0,143307:0:0:0:0:
182,192,143182,1,0,0:0:0:0:
182,192,143432,1,0,0:0:0:0:
36,192,143682,128,0,144182:0:0:0:0:
256,192,143682,1,0,0:0:0:0:
329,192,143682,1,0,0:0:0:0:
475,192,143682,1,0,0:0:0:0:
109,192,143932,1,0,0:0:0:0:
182,192,144057,1,0,0:0:0:0:
329,192,144182,128,0,144557:0:0:0:0:
475,192,144182,128,0,144557:0:0:0:0:
402,192,144182,1,0,0:0:0:0:
109,192,144432,1,0,0:0:0:0:
329,192,144682,128,0,145057:0:0:0:0:
475,192,144682,128,0,145057:0:0:0:0:
36,192,144682,1,0,0:0:0:0:
182,192,144682,1,0,0:0:0:0:
256,192,144682,1,0,0:0:0:0:
109,192,144932,1,0,0:0:0:0:
36,192,145057,1,0,0:0:0:0:
329,192,145182,128,0,145682:0:0:0:0:
475,192,145182,128,0,145682:0:0:0:0:
182,192,145182,1,0,0:0:0:0:
109,192,145307,1,0,0:0:0:0:
182,192,145432,1,0,0:0:0:0:
36,192,145682,1,0,0:0:0:0:
402,192,145682,1,0,0:0:0:0:
256,192,145682,1,0,0:0:0:0:
182,192,145807,1,0,0:0:0:0:
402,192,145932,1,0,0:0:0:0:
329,192,146057,1,0,0:0:0:0:
256,192,146057,1,0,0:0:0:0:
36,192,146057,1,0,0:0:0:0:
109,192,146182,128,0,146307:0:0:0:0:
475,192,146182,1,0,0:0:0:0:
182,192,146432,128,0,146557:0:0:0:0:
329,192,146432,1,0,0:0:0:0:
402,192,146682,128,0,146807:0:0:0:0:
36,192,146682,1,0,0:0:0:0:
109,192,146682,1,0,0:0:0:0:
256,192,146682,1,0,0:0:0:0:
329,192,146932,128,0,147057:0:0:0:0:
182,192,146932,1,0,0:0:0:0:
109,192,147057,1,0,0:0:0:0:
256,192,147182,128,0,147307:0:0:0:0:
402,192,147182,1,0,0:0:0:0:
109,192,147307,1,0,0:0:0:0:
182,192,147432,128,0,147557:0:0:0:0:
402,192,147432,1,0,0:0:0:0:
109,192,147682,128,0,147807:0:0:0:0:
256,192,147682,1,0,0:0:0:0:
329,192,147682,1,0,0:0:0:0:
475,192,147682,1,0,0:0:0:0:
36,192,147932,128,0,148057:0:0:0:0:
182,192,147932,1,0,0:0:0:0:
329,192,148057,1,0,0:0:0:0:
402,192,148182,128,0,148557:0:0:0:0:
475,192,148182,128,0,148557:0:0:0:0:
182,192,148182,1,0,0:0:0:0:
109,192,148432,1,0,0:0:0:0:
475,192,148682,128,0,149057:0:0:0:0:
402,192,148682,128,0,149057:0:0:0:0:
36,192,148682,1,0,0:0:0:0:
182,192,148682,1,0,0:0:0:0:
329,192,148682,1,0,0:0:0:0:
256,192,148807,1,0,0:0:0:0:
109,192,148932,1,0,0:0:0:0:
182,192,149057,1,0,0:0:0:0:
256,192,149057,1,0,0:0:0:0:
329,192,149057,1,0,0:0:0:0:
402,192,149182,128,0,149682:0:0:0:0:
475,192,149182,128,0,149682:0:0:0:0:
36,192,149182,1,0,0:0:0:0:
109,192,149307,1,0,0:0:0:0:
182,192,149307,1,0,0:0:0:0:
256,192,149307,1,0,0:0:0:0:
329,192,149432,1,0,0:0:0:0:
256,192,149682,1,0,0:0:0:0:
36,192,149932,128,0,150057:0:0:0:0:
182,192,150057,128,0,150182:0:0:0:0:
36,192,150182,128,0,150432:0:0:0:0:
402,192,150182,128,0,150432:0:0:0:0:
256,192,150182,1,0,0:0:0:0:
329,192,150182,1,0,0:0:0:0:
475,192,150182,1,0,0:0:0:0:
109,192,150182,1,0,0:0:0:0:
109,192,150432,128,0,150682:0:0:0:0:
256,192,150432,1,0,0:0:0:0:
329,192,150682,128,0,150932:0:0:0:0:
182,192,150682,128,0,150932:0:0:0:0:
475,192,150682,1,0,0:0:0:0:
402,192,150682,1,0,0:0:0:0:
36,192,150682,1,0,0:0:0:0:
109,192,150932,128,0,151182:0:0:0:0:
475,192,150932,1,0,0:0:0:0:
402,192,151057,1,0,0:0:0:0:
256,192,151182,128,0,151432:0:0:0:0:
182,192,151182,128,0,151432:0:0:0:0:
329,192,151182,1,0,0:0:0:0:
402,192,151432,128,0,151682:0:0:0:0:
329,192,151432,1,0,0:0:0:0:
182,192,151682,128,0,151932:0:0:0:0:
36,192,151682,1,0,0:0:0:0:
256,192,151682,1,0,0:0:0:0:
475,192,151682,1,0,0:0:0:0:
329,192,151932,128,0,152182:0:0:0:0:
109,192,151932,128,0,152057:0:0:0:0:
402,192,151932,1,0,0:0:0:0:
36,192,152057,128,0,152182:0:0:0:0:
475,192,152057,1,0,0:0:0:0:
182,192,152182,128,0,152432:0:0:0:0:
256,192,152182,128,0,152432:0:0:0:0:
402,192,152182,1,0,0:0:0:0:
402,192,152432,128,0,152682:0:0:0:0:
109,192,152432,128,0,152682:0:0:0:0:
36,192,152432,1,0,0:0:0:0:
329,192,152682,128,0,152932:0:0:0:0:
36,192,152682,128,0,152932:0:0:0:0:
182,192,152682,1,0,0:0:0:0:
256,192,152682,1,0,0:0:0:0:
475,192,152682,1,0,0:0:0:0:
182,192,152932,128,0,153182:0:0:0:0:
109,192,152932,128,0,153182:0:0:0:0:
402,192,152932,1,0,0:0:0:0:
475,192,153182,128,0,153307:0:0:0:0:
256,192,153182,128,0,153432:0:0:0:0:
329,192,153182,1,0,0:0:0:0:
402,192,153307,1,0,0:0:0:0:
182,192,153432,128,0,153682:0:0:0:0:
329,192,153432,1,0,0:0:0:0:
402,192,153682,1,0,0:0:0:0:
475,192,153682,1,0,0:0:0:0:
36,192,153682,1,0,0:0:0:0:
329,192,153807,1,0,0:0:0:0:
36,192,153932,128,0,154057:0:0:0:0:
256,192,153932,1,0,0:0:0:0:
182,192,154057,128,0,154182:0:0:0:0:
329,192,154057,1,0,0:0:0:0:
475,192,154182,128,0,154307:0:0:0:0:
109,192,154182,128,0,154432:0:0:0:0:
402,192,154182,1,0,0:0:0:0:
402,192,154432,128,0,154557:0:0:0:0:
182,192,154432,128,0,154682:0:0:0:0:
329,192,154432,1,0,0:0:0:0:
256,192,154682,128,0,154807:0:0:0:0:
109,192,154682,128,0,154932:0:0:0:0:
475,192,154682,1,0,0:0:0:0:
329,192,154682,1,0,0:0:0:0:
36,192,154682,1,0,0:0:0:0:
329,192,154932,128,0,155057:0:0:0:0:
36,192,154932,128,0,155182:0:0:0:0:
475,192,154932,1,0,0:0:0:0:
402,192,155057,1,0,0:0:0:0:
475,192,155182,128,0,155307:0:0:0:0:
109,192,155182,128,0,155432:0:0:0:0:
256,192,155182,1,0,0:0:0:0:
402,192,155432,128,0,155557:0:0:0:0:
182,192,155432,128,0,155682:0:0:0:0:
256,192,155432,1,0,0:0:0:0:
329,192,155682,128,0,155807:0:0:0:0:
109,192,155682,1,0,0:0:0:0:
36,192,155682,1,0,0:0:0:0:
475,192,155682,1,0,0:0:0:0:
256,192,155932,128,0,156057:0:0:0:0:
109,192,155932,128,0,156057:0:0:0:0:
36,192,155932,1,0,0:0:0:0:
402,192,156057,128,0,156182:0:0:0:0:
182,192,156057,1,0,0:0:0:0:
36,192,156182,128,0,156682:0:0:0:0:
329,192,156182,128,0,156432:0:0:0:0:
475,192,156182,1,0,0:0:0:0:
402,192,156432,128,0,156682:0:0:0:0:
109,192,156432,1,0,0:0:0:0:
256,192,156682,128,0,157182:0:0:0:0:
475,192,156682,128,0,156932:0:0:0:0:
329,192,156682,1,0,0:0:0:0:
182,192,156682,1,0,0:0:0:0:
109,192,156682,1,0,0:0:0:0:
182,192,156932,128,0,157182:0:0:0:0:
402,192,156932,1,0,0:0:0:0:
475,192,157057,1,0,0:0:0:0:
402,192,157182,128,0,157432:0:0:0:0:
36,192,157182,128,0,157432:0:0:0:0:
329,192,157182,1,0,0:0:0:0:
182,192,157307,1,0,0:0:0:0:
109,192,157432,128,0,157682:0:0:0:0:
329,192,157432,1,0,0:0:0:0:
182,192,157682,1,0,0:0:0:0:
36,192,157682,1,0,0:0:0:0:
475,192,157682,1,0,0:0:0:0:
402,192,157807,1,0,0:0:0:0:
182,192,157932,128,0,158057:0:0:0:0:
256,192,157932,1,0,0:0:0:0:
109,192,158057,128,0,158182:0:0:0:0:
329,192,158057,1,0,0:0:0:0:
256,192,158182,128,0,158307:0:0:0:0:
36,192,158182,128,0,158432:0:0:0:0:
475,192,158182,1,0,0:0:0:0:
109,192,158432,128,0,158682:0:0:0:0:
329,192,158432,1,0,0:0:0:0:
402,192,158682,128,0,159182:0:0:0:0:
182,192,158682,128,0,158932:0:0:0:0:
256,192,158682,1,0,0:0:0:0:
36,192,158682,1,0,0:0:0:0:
329,192,158682,1,0,0:0:0:0:
475,192,158807,1,0,0:0:0:0:
109,192,158932,128,0,159182:0:0:0:0:
329,192,158932,1,0,0:0:0:0:
182,192,159182,128,0,159307:0:0:0:0:
329,192,159182,128,0,159432:0:0:0:0:
475,192,159182,1,0,0:0:0:0:
256,192,159432,128,0,159682:0:0:0:0:
475,192,159432,1,0,0:0:0:0:
36,192,159682,128,0,159807:0:0:0:0:
109,192,159682,1,0,0:0:0:0:
182,192,159682,1,0,0:0:0:0:
402,192,159682,1,0,0:0:0:0:
182,192,159932,128,0,160057:0:0:0:0:
256,192,159932,1,0,0:0:0:0:
109,192,160057,128,0,160182:0:0:0:0:
402,192,160057,1,0,0:0:0:0:
329,192,160182,128,0,160557:0:0:0:0:
475,192,160182,128,0,160557:0:0:0:0:
182,192,160182,128,0,160432:0:0:0:0:
36,192,160182,1,0,0:0:0:0:
36,192,160432,128,0,160682:0:0:0:0:
109,192,160432,1,0,0:0:0:0:
329,192,160682,128,0,161057:0:0:0:0:
475,192,160682,128,0,161057:0:0:0:0:
182,192,160682,128,0,160932:0:0:0:0:
109,192,160682,1,0,0:0:0:0:
256,192,160682,1,0,0:0:0:0:
402,192,160682,1,0,0:0:0:0:
109,192,160932,128,0,161182:0:0:0:0:
36,192,160932,1,0,0:0:0:0:
475,192,161182,128,0,161682:0:0:0:0:
329,192,161182,128,0,161682:0:0:0:0:
36,192,161182,128,0,161432:0:0:0:0:
402,192,161182,1,0,0:0:0:0:
256,192,161307,1,0,0:0:0:0:
182,192,161432,128,0,161682:0:0:0:0:
109,192,161432,1,0,0:0:0:0:
402,192,161682,1,0,0:0:0:0:
109,192,161682,1,0,0:0:0:0:
36,192,161682,1,0,0:0:0:0:
256,192,161807,1,0,0:0:0:0:
36,192,161932,128,0,162057:0:0:0:0:
402,192,161932,1,0,0:0:0:0:
109,192,162057,128,0,162182:0:0:0:0:
256,192,162057,1,0,0:0:0:0:
329,192,162057,1,0,0:0:0:0:
475,192,162057,1,0,0:0:0:0:
402,192,162182,128,0,162307:0:0:0:0:
182,192,162182,128,0,162432:0:0:0:0:
36,192,162182,1,0,0:0:0:0:
475,192,162432,128,0,162557:0:0:0:0:
109,192,162432,128,0,162682:0:0:0:0:
256,192,162432,1,0,0:0:0:0:
329,192,162682,128,0,162807:0:0:0:0:
36,192,162682,128,0,162932:0:0:0:0:
402,192,162682,1,0,0:0:0:0:
256,192,162682,1,0,0:0:0:0:
475,192,162682,1,0,0:0:0:0:
256,192,162932,128,0,163057:0:0:0:0:
109,192,162932,128,0,163182:0:0:0:0:
182,192,162932,1,0,0:0:0:0:
329,192,163182,128,0,163307:0:0:0:0:
182,192,163182,128,0,163432:0:0:0:0:
475,192,163182,1,0,0:0:0:0:
256,192,163432,128,0,163557:0:0:0:0:
36,192,163432,128,0,163682:0:0:0:0:
475,192,163432,1,0,0:0:0:0:
182,192,163682,128,0,163807:0:0:0:0:
329,192,163682,1,0,0:0:0:0:
402,192,163682,1,0,0:0:0:0:
256,192,163682,1,0,0:0:0:0:
109,192,163932,128,0,164057:0:0:0:0:
402,192,163932,128,0,164057:0:0:0:0:
475,192,163932,1,0,0:0:0:0:
256,192,164057,128,0,164182:0:0:0:0:
36,192,164057,1,0,0:0:0:0:
329,192,164182,128,0,164557:0:0:0:0:
475,192,164182,128,0,164557:0:0:0:0:
182,192,164182,128,0,164432:0:0:0:0:
402,192,164182,1,0,0:0:0:0:
36,192,164432,128,0,164682:0:0:0:0:
256,192,164432,1,0,0:0:0:0:
475,192,164682,128,0,165057:0:0:0:0:
329,192,164682,128,0,165057:0:0:0:0:
182,192,164682,128,0,164932:0:0:0:0:
109,192,164682,1,0,0:0:0:0:
256,192,164682,1,0,0:0:0:0:
402,192,164682,1,0,0:0:0:0:
36,192,164807,1,0,0:0:0:0:
109,192,164932,128,0,165182:0:0:0:0:
256,192,164932,1,0,0:0:0:0:
182,192,165057,1,0,0:0:0:0:
329,192,165182,128,0,165682:0:0:0:0:
475,192,165182,128,0,165682:0:0:0:0:
36,192,165182,128,0,165432:0:0:0:0:
402,192,165182,1,0,0:0:0:0:
182,192,165307,1,0,0:0:0:0:
256,192,165307,1,0,0:0:0:0:
109,192,165432,128,0,165682:0:0:0:0:
402,192,165432,1,0,0:0:0:0:
182,192,165682,1,0,0:0:0:0:
402,192,165682,1,0,0:0:0:0:
36,192,165682,1,0,0:0:0:0:
36,192,166182,1,0,0:0:0:0:
109,192,166182,1,0,0:0:0:0:
256,192,166182,1,0,0:0:0:0:
402,192,166182,1,0,0:0:0:0:
475,192,166182,1,0,0:0:0:0:
329,192,166182,128,0,166432:0:0:0:0:
109,192,166432,1,0,0:0:0:0:
402,192,166432,1,0,0:0:0:0:
182,192,166432,128,0,166682:0:0:0:0:
256,192,166682,1,0,0:0:0:0:
329,192,166682,1,0,0:0:0:0:
36,192,166682,1,0,0:0:0:0:
475,192,166682,1,0,0:0:0:0:
109,192,166807,128,0,167182:0:0:0:0:
402,192,166807,1,0,0:0:0:0:
256,192,166807,1,0,0:0:0:0:
182,192,166807,1,0,0:0:0:0:
182,192,167182,128,0,167557:0:0:0:0:
256,192,167182,1,0,0:0:0:0:
329,192,167182,1,0,0:0:0:0:
402,192,167182,1,0,0:0:0:0:
475,192,167182,1,0,0:0:0:0:
475,192,167557,128,0,167932:0:0:0:0:
36,192,167557,1,0,0:0:0:0:
109,192,167557,1,0,0:0:0:0:
402,192,167557,1,0,0:0:0:0:
329,192,167682,1,0,0:0:0:0:
256,192,167682,1,0,0:0:0:0:
109,192,167682,1,0,0:0:0:0:
182,192,167682,1,0,0:0:0:0:
329,192,167932,128,0,168182:0:0:0:0:
109,192,167932,1,0,0:0:0:0:
182,192,167932,1,0,0:0:0:0:
256,192,167932,1,0,0:0:0:0:
402,192,167932,1,0,0:0:0:0:
36,192,168182,1,0,0:0:0:0:
109,192,168182,1,0,0:0:0:0:
256,192,168182,1,0,0:0:0:0:
402,192,168182,1,0,0:0:0:0:
182,192,168182,128,0,168432:0:0:0:0:
109,192,168432,1,0,0:0:0:0:
256,192,168432,1,0,0:0:0:0:
329,192,168432,1,0,0:0:0:0:
475,192,168432,1,0,0:0:0:0:
402,192,168432,128,0,168682:0:0:0:0:
36,192,168682,1,0,0:0:0:0:
182,192,168682,1,0,0:0:0:0:
329,192,168682,1,0,0:0:0:0:
475,192,168807,1,0,0:0:0:0:
329,192,168807,1,0,0:0:0:0:
256,192,168807,1,0,0:0:0:0:
109,192,168807,128,0,169182:0:0:0:0:
256,192,169182,128,0,169557:0:0:0:0:
36,192,169182,1,0,0:0:0:0:
182,192,169182,1,0,0:0:0:0:
475,192,169182,1,0,0:0:0:0:
402,192,169182,1,0,0:0:0:0:
475,192,169557,128,0,169932:0:0:0:0:
109,192,169682,1,0,0:0:0:0:
182,192,169682,1,0,0:0:0:0:
402,192,169682,1,0,0:0:0:0:
329,192,169932,128,0,170182:0:0:0:0:
109,192,169932,1,0,0:0:0:0:
182,192,169932,1,0,0:0:0:0:
402,192,169932,1,0,0:0:0:0:
36,192,170057,1,0,0:0:0:0:
256,192,170057,1,0,0:0:0:0:
182,192,170182,128,0,170432:0:0:0:0:
109,192,170182,1,0,0:0:0:0:
402,192,170182,1,0,0:0:0:0:
475,192,170182,1,0,0:0:0:0:
329,192,170432,128,0,170682:0:0:0:0:
36,192,170432,1,0,0:0:0:0:
109,192,170432,1,0,0:0:0:0:
256,192,170432,1,0,0:0:0:0:
475,192,170432,1,0,0:0:0:0:
182,192,170682,1,0,0:0:0:0:
256,192,170682,1,0,0:0:0:0:
402,192,170682,1,0,0:0:0:0:
109,192,170807,128,0,171182:0:0:0:0:
36,192,170807,1,0,0:0:0:0:
329,192,170807,1,0,0:0:0:0:
475,192,170807,1,0,0:0:0:0:
256,192,171182,128,0,171557:0:0:0:0:
182,192,171182,1,0,0:0:0:0:
329,192,171182,1,0,0:0:0:0:
402,192,171182,1,0,0:0:0:0:
36,192,171182,1,0,0:0:0:0:
475,192,171557,128,0,171932:0:0:0:0:
36,192,171557,1,0,0:0:0:0:
109,192,171557,1,0,0:0:0:0:
182,192,171682,1,0,0:0:0:0:
256,192,171682,1,0,0:0:0:0:
329,192,171682,1,0,0:0:0:0:
402,192,171682,1,0,0:0:0:0:
36,192,171932,1,0,0:0:0:0:
109,192,171932,1,0,0:0:0:0:
256,192,171932,1,0,0:0:0:0:
402,192,171932,1,0,0:0:0:0:
329,192,171932,128,0,172182:0:0:0:0:
109,192,172182,128,0,172432:0:0:0:0:
36,192,172182,1,0,0:0:0:0:
182,192,172182,1,0,0:0:0:0:
256,192,172182,1,0,0:0:0:0:
475,192,172182,1,0,0:0:0:0:
402,192,172432,128,0,172682:0:0:0:0:
475,192,172432,1,0,0:0:0:0:
329,192,172432,1,0,0:0:0:0:
256,192,172432,1,0,0:0:0:0:
36,192,172432,1,0,0:0:0:0:
36,192,172682,1,0,0:0:0:0:
109,192,172682,1,0,0:0:0:0:
182,192,172682,1,0,0:0:0:0:
329,192,172807,128,0,173182:0:0:0:0:
256,192,172807,1,0,0:0:0:0:
402,192,172807,1,0,0:0:0:0:
475,192,172807,1,0,0:0:0:0:
475,192,173182,128,0,173348:0:0:0:0:
36,192,173182,1,0,0:0:0:0:
109,192,173182,1,0,0:0:0:0:
182,192,173182,1,0,0:0:0:0:
256,192,173182,1,0,0:0:0:0:
402,192,173348,128,0,173432:0:0:0:0:
329,192,173432,128,0,173515:0:0:0:0:
36,192,173432,1,0,0:0:0:0:
256,192,173515,128,0,173682:0:0:0:0:
182,192,173557,1,0,0:0:0:0:
109,192,173682,128,0,173807:0:0:0:0:
329,192,173682,1,0,0:0:0:0:
475,192,173682,1,0,0:0:0:0:
402,192,173682,1,0,0:0:0:0:
182,192,173807,128,0,173932:0:0:0:0:
256,192,173807,1,0,0:0:0:0:
36,192,173932,128,0,174182:0:0:0:0:
402,192,173932,1,0,0:0:0:0:
109,192,174057,1,0,0:0:0:0:
182,192,174182,1,0,0:0:0:0:
329,192,174182,1,0,0:0:0:0:
402,192,174182,1,0,0:0:0:0:
475,192,174182,1,0,0:0:0:0:
256,192,174182,128,0,174432:0:0:0:0:
329,192,174432,1,0,0:0:0:0:
402,192,174432,1,0,0:0:0:0:
475,192,174432,1,0,0:0:0:0:
36,192,174432,1,0,0:0:0:0:
109,192,174432,1,0,0:0:0:0:
182,192,174432,128,0,174682:0:0:0:0:
36,192,174682,1,0,0:0:0:0:
109,192,174682,1,0,0:0:0:0:
402,192,174682,1,0,0:0:0:0:
182,192,174807,1,0,0:0:0:0:
256,192,174807,1,0,0:0:0:0:
475,192,174807,1,0,0:0:0:0:
109,192,174807,1,0,0:0:0:0:
329,192,174807,128,0,175182:0:0:0:0:
36,192,175182,1,0,0:0:0:0:
109,192,175182,1,0,0:0:0:0:
475,192,175182,1,0,0:0:0:0:
256,192,175182,1,0,0:0:0:0:
402,192,175182,128,0,175557:0:0:0:0:
109,192,175557,1,0,0:0:0:0:
256,192,175557,1,0,0:0:0:0:
329,192,175557,1,0,0:0:0:0:
36,192,175557,1,0,0:0:0:0:
475,192,175557,128,0,175932:0:0:0:0:
36,192,175682,1,0,0:0:0:0:
182,192,175682,1,0,0:0:0:0:
256,192,175682,1,0,0:0:0:0:
402,192,175682,1,0,0:0:0:0:
109,192,175932,1,0,0:0:0:0:
182,192,175932,1,0,0:0:0:0:
402,192,175932,1,0,0:0:0:0:
329,192,175932,128,0,176182:0:0:0:0:
256,192,175932,1,0,0:0:0:0:
36,192,176182,1,0,0:0:0:0:
109,192,176182,1,0,0:0:0:0:
256,192,176182,1,0,0:0:0:0:
402,192,176182,1,0,0:0:0:0:
475,192,176182,1,0,0:0:0:0:
182,192,176182,128,0,176432:0:0:0:0:
36,192,176432,1,0,0:0:0:0:
256,192,176432,1,0,0:0:0:0:
329,192,176432,1,0,0:0:0:0:
475,192,176432,1,0,0:0:0:0:
402,192,176432,1,0,0:0:0:0:
109,192,176432,128,0,176682:0:0:0:0:
36,192,176682,1,0,0:0:0:0:
182,192,176682,1,0,0:0:0:0:
329,192,176682,1,0,0:0:0:0:
475,192,176682,1,0,0:0:0:0:
36,192,176807,1,0,0:0:0:0:
109,192,176807,1,0,0:0:0:0:
402,192,176807,1,0,0:0:0:0:
256,192,176807,128,0,177182:0:0:0:0:
109,192,177182,1,0,0:0:0:0:
402,192,177182,1,0,0:0:0:0:
475,192,177182,1,0,0:0:0:0:
36,192,177182,1,0,0:0:0:0:
329,192,177182,128,0,177557:0:0:0:0:
36,192,177557,1,0,0:0:0:0:
182,192,177557,1,0,0:0:0:0:
402,192,177557,1,0,0:0:0:0:
109,192,177557,1,0,0:0:0:0:
475,192,177557,128,0,177932:0:0:0:0:
109,192,177682,1,0,0:0:0:0:
256,192,177682,1,0,0:0:0:0:
402,192,177682,1,0,0:0:0:0:
182,192,177682,1,0,0:0:0:0:
36,192,177932,1,0,0:0:0:0:
256,192,177932,1,0,0:0:0:0:
402,192,177932,1,0,0:0:0:0:
182,192,177932,128,0,178182:0:0:0:0:
109,192,178057,1,0,0:0:0:0:
329,192,178057,1,0,0:0:0:0:
475,192,178057,1,0,0:0:0:0:
402,192,178182,1,0,0:0:0:0:
329,192,178182,1,0,0:0:0:0:
256,192,178182,1,0,0:0:0:0:
475,192,178182,1,0,0:0:0:0:
109,192,178182,128,0,178432:0:0:0:0:
256,192,178432,1,0,0:0:0:0:
402,192,178432,1,0,0:0:0:0:
475,192,178432,1,0,0:0:0:0:
182,192,178432,1,0,0:0:0:0:
36,192,178432,128,0,178682:0:0:0:0:
182,192,178682,1,0,0:0:0:0:
329,192,178682,1,0,0:0:0:0:
475,192,178682,1,0,0:0:0:0:
402,192,178682,1,0,0:0:0:0:
109,192,178682,1,0,0:0:0:0:
36,192,178807,1,0,0:0:0:0:
109,192,178807,1,0,0:0:0:0:
256,192,178807,1,0,0:0:0:0:
475,192,178807,1,0,0:0:0:0:
329,192,178807,128,0,179182:0:0:0:0:
109,192,179182,1,0,0:0:0:0:
256,192,179182,1,0,0:0:0:0:
475,192,179182,1,0,0:0:0:0:
182,192,179182,1,0,0:0:0:0:
402,192,179182,128,0,179557:0:0:0:0:
36,192,179557,1,0,0:0:0:0:
182,192,179557,1,0,0:0:0:0:
329,192,179557,1,0,0:0:0:0:
256,192,179557,1,0,0:0:0:0:
109,192,179557,1,0,0:0:0:0:
475,192,179557,128,0,179932:0:0:0:0:
182,192,179682,1,0,0:0:0:0:
402,192,179682,1,0,0:0:0:0:
329,192,179682,1,0,0:0:0:0:
109,192,179682,1,0,0:0:0:0:
256,192,179682,1,0,0:0:0:0:
36,192,179932,1,0,0:0:0:0:
256,192,179932,1,0,0:0:0:0:
182,192,179932,1,0,0:0:0:0:
402,192,179932,1,0,0:0:0:0:
109,192,179932,1,0,0:0:0:0:
329,192,179932,128,0,180182:0:0:0:0:
256,192,180182,1,0,0:0:0:0:
36,192,180182,1,0,0:0:0:0:
109,192,180182,1,0,0:0:0:0:
475,192,180182,1,0,0:0:0:0:
182,192,180182,128,0,180432:0:0:0:0:
402,192,180182,1,0,0:0:0:0:
256,192,180432,1,0,0:0:0:0:
402,192,180432,1,0,0:0:0:0:
475,192,180432,1,0,0:0:0:0:
329,192,180432,1,0,0:0:0:0:
109,192,180432,128,0,180682:0:0:0:0:
36,192,180682,1,0,0:0:0:0:
182,192,180682,1,0,0:0:0:0:
329,192,180682,1,0,0:0:0:0:
402,192,180682,1,0,0:0:0:0:
109,192,180807,1,0,0:0:0:0:
182,192,180807,1,0,0:0:0:0:
329,192,180807,1,0,0:0:0:0:
475,192,180807,1,0,0:0:0:0:
256,192,180807,128,0,181182:0:0:0:0:
109,192,181057,1,0,0:0:0:0:
182,192,181057,1,0,0:0:0:0:
402,192,181057,1,0,0:0:0:0:
475,192,181057,1,0,0:0:0:0:
329,192,181182,1,0,0:0:0:0:
402,192,181182,1,0,0:0:0:0:
475,192,181182,1,0,0:0:0:0:
182,192,181182,1,0,0:0:0:0:
36,192,181182,128,0,181307:0:0:0:0:
109,192,181307,128,0,181432:0:0:0:0:
182,192,181432,128,0,181557:0:0:0:0:
256,192,181432,1,0,0:0:0:0:
475,192,181432,1,0,0:0:0:0:
109,192,181557,128,0,181682:0:0:0:0:
329,192,181682,128,0,181765:0:0:0:0:
182,192,181682,1,0,0:0:0:0:
36,192,181682,1,0,0:0:0:0:
402,192,181765,128,0,181848:0:0:0:0:
475,192,181848,128,0,181932:0:0:0:0:
402,192,181932,128,0,182057:0:0:0:0:
109,192,181932,1,0,0:0:0:0:
36,192,181932,1,0,0:0:0:0:
329,192,182057,128,0,182182:0:0:0:0:
475,192,182182,128,0,183682:0:0:0:0:
109,192,182182,1,0,0:0:0:0:
182,192,182182,1,0,0:0:0:0:
256,192,182182,1,0,0:0:0:0:
402,192,182182,1,0,0:0:0:0:
109,192,182432,1,0,0:0:0:0:
182,192,182432,1,0,0:0:0:0:
256,192,182432,1,0,0:0:0:0:
402,192,182432,1,0,0:0:0:0:
402,192,183682,128,0,183807:0:0:0:0:
329,192,183807,128,0,183932:0:0:0:0:
256,192,183932,128,0,184182:0:0:0:0:
329,192,184182,128,0,185682:0:0:0:0:
36,192,184182,1,0,0:0:0:0:
109,192,184182,1,0,0:0:0:0:
182,192,184182,1,0,0:0:0:0:
475,192,184182,1,0,0:0:0:0:
475,192,184432,1,0,0:0:0:0:
182,192,184432,1,0,0:0:0:0:
109,192,184432,1,0,0:0:0:0:
36,192,184432,1,0,0:0:0:0:
256,192,185682,128,0,185807:0:0:0:0:
182,192,185807,128,0,185932:0:0:0:0:
109,192,185932,128,0,186182:0:0:0:0:
182,192,186182,128,0,186932:0:0:0:0:
36,192,186182,1,0,0:0:0:0:
256,192,186182,1,0,0:0:0:0:
329,192,186182,1,0,0:0:0:0:
475,192,186182,1,0,0:0:0:0:
475,192,186432,1,0,0:0:0:0:
329,192,186432,1,0,0:0:0:0:
256,192,186432,1,0,0:0:0:0:
36,192,186432,1,0,0:0:0:0:
109,192,186932,128,0,188182:0:0:0:0:
36,192,188182,1,0,0:0:0:0:
182,192,188182,1,0,0:0:0:0:
256,192,188182,1,0,0:0:0:0:
475,192,188182,1,0,0:0:0:0:
329,192,188182,1,0,0:0:0:0:
475,192,188432,1,0,0:0:0:0:
329,192,188432,1,0,0:0:0:0:
256,192,188432,1,0,0:0:0:0:
36,192,188432,1,0,0:0:0:0:
182,192,188432,128,0,188557:0:0:0:0:
402,192,188432,1,0,0:0:0:0:
109,192,188557,128,0,188682:0:0:0:0:
36,192,188682,128,0,188807:0:0:0:0:
109,192,188807,128,0,188932:0:0:0:0:
182,192,188932,128,0,189057:0:0:0:0:
109,192,189057,128,0,189182:0:0:0:0:
182,192,189182,128,0,189307:0:0:0:0:
329,192,189182,1,0,0:0:0:0:
36,192,189182,1,0,0:0:0:0:
475,192,189182,1,0,0:0:0:0:
256,192,189307,128,0,189432:0:0:0:0:
402,192,189307,1,0,0:0:0:0:
329,192,189432,128,0,189557:0:0:0:0:
402,192,189432,1,0,0:0:0:0:
256,192,189557,128,0,189682:0:0:0:0:
475,192,189557,1,0,0:0:0:0:
109,192,189557,1,0,0:0:0:0:
36,192,189557,1,0,0:0:0:0:
329,192,189682,128,0,189807:0:0:0:0:
182,192,189682,1,0,0:0:0:0:
402,192,189807,128,0,189932:0:0:0:0:
182,192,189807,1,0,0:0:0:0:
329,192,189932,128,0,190057:0:0:0:0:
36,192,189932,1,0,0:0:0:0:
109,192,189932,1,0,0:0:0:0:
256,192,189932,1,0,0:0:0:0:
402,192,190057,128,0,190182:0:0:0:0:
475,192,190182,128,0,190932:0:0:0:0:
36,192,190182,1,0,0:0:0:0:
109,192,190182,1,0,0:0:0:0:
256,192,190182,1,0,0:0:0:0:
182,192,190182,1,0,0:0:0:0:
256,192,190432,1,0,0:0:0:0:
329,192,190432,128,0,190682:0:0:0:0:
109,192,190432,1,0,0:0:0:0:
36,192,190432,1,0,0:0:0:0:
109,192,190807,128,0,190932:0:0:0:0:
329,192,190932,128,0,191182:0:0:0:0:
182,192,190932,1,0,0:0:0:0:
109,192,191182,128,0,191432:0:0:0:0:
475,192,191182,1,0,0:0:0:0:
256,192,191307,1,0,0:0:0:0:
329,192,191432,128,0,191682:0:0:0:0:
36,192,191432,1,0,0:0:0:0:
475,192,191682,1,0,0:0:0:0:
109,192,191807,128,0,191932:0:0:0:0:
256,192,191807,1,0,0:0:0:0:
329,192,191932,128,0,192182:0:0:0:0:
36,192,191932,1,0,0:0:0:0:
109,192,192057,1,0,0:0:0:0:
36,192,192182,1,0,0:0:0:0:
182,192,192182,1,0,0:0:0:0:
256,192,192182,1,0,0:0:0:0:
402,192,192182,1,0,0:0:0:0:
475,192,192182,1,0,0:0:0:0:
36,192,192432,1,0,0:0:0:0:
109,192,192432,1,0,0:0:0:0:
256,192,192432,1,0,0:0:0:0:
329,192,192432,1,0,0:0:0:0:
475,192,192432,1,0,0:0:0:0:
402,192,192682,128,0,192932:0:0:0:0:
329,192,192682,1,0,0:0:0:0:
182,192,192932,128,0,193057:0:0:0:0:
256,192,192932,1,0,0:0:0:0:
36,192,193057,128,0,193432:0:0:0:0:
329,192,193057,1,0,0:0:0:0:
475,192,193182,1,0,0:0:0:0:
329,192,193432,128,0,193682:0:0:0:0:
182,192,193432,128,0,193682:0:0:0:0:
402,192,193432,1,0,0:0:0:0:
36,192,193807,128,0,193932:0:0:0:0:
256,192,193807,1,0,0:0:0:0:
182,192,193932,128,0,194182:0:0:0:0:
329,192,193932,1,0,0:0:0:0:
402,192,194057,1,0,0:0:0:0:
256,192,194182,1,0,0:0:0:0:
475,192,194182,1,0,0:0:0:0:
109,192,194182,1,0,0:0:0:0:
36,192,194182,1,0,0:0:0:0:
329,192,194182,128,0,194432:0:0:0:0:
36,192,194432,1,0,0:0:0:0:
109,192,194432,1,0,0:0:0:0:
256,192,194432,1,0,0:0:0:0:
402,192,194432,1,0,0:0:0:0:
475,192,194432,1,0,0:0:0:0:
182,192,194432,128,0,194682:0:0:0:0:
329,192,194807,128,0,194932:0:0:0:0:
402,192,194932,128,0,195182:0:0:0:0:
36,192,194932,1,0,0:0:0:0:
109,192,195182,128,0,195432:0:0:0:0:
329,192,195182,1,0,0:0:0:0:
256,192,195307,1,0,0:0:0:0:
402,192,195432,128,0,195682:0:0:0:0:
182,192,195432,1,0,0:0:0:0:
329,192,195682,1,0,0:0:0:0:
36,192,195807,1,0,0:0:0:0:
182,192,195807,1,0,0:0:0:0:
402,192,195807,1,0,0:0:0:0:
329,192,195932,1,0,0:0:0:0:
256,192,195932,1,0,0:0:0:0:
109,192,195932,1,0,0:0:0:0:
182,192,196057,1,0,0:0:0:0:
475,192,196057,1,0,0:0:0:0:
402,192,196057,1,0,0:0:0:0:
36,192,196182,1,0,0:0:0:0:
109,192,196182,1,0,0:0:0:0:
256,192,196182,1,0,0:0:0:0:
329,192,196182,1,0,0:0:0:0:
475,192,196182,128,0,197182:0:0:0:0:
182,192,196682,1,0,0:0:0:0:
402,192,196682,1,0,0:0:0:0:
36,192,197182,1,0,0:0:0:0:
329,192,197182,1,0,0:0:0:0:
109,192,197307,1,0,0:0:0:0:
256,192,197307,1,0,0:0:0:0:
475,192,197307,1,0,0:0:0:0:
402,192,197432,1,0,0:0:0:0:
182,192,197432,1,0,0:0:0:0:
109,192,197682,1,0,0:0:0:0:
182,192,197682,1,0,0:0:0:0:
475,192,197682,1,0,0:0:0:0:
329,192,197807,1,0,0:0:0:0:
402,192,197807,1,0,0:0:0:0:
256,192,197807,1,0,0:0:0:0:
182,192,197932,1,0,0:0:0:0:
36,192,197932,1,0,0:0:0:0:
475,192,197932,1,0,0:0:0:0:
329,192,198057,1,0,0:0:0:0:
402,192,198057,1,0,0:0:0:0:
109,192,198057,1,0,0:0:0:0:
36,192,198182,1,0,0:0:0:0:
182,192,198182,1,0,0:0:0:0:
329,192,198182,1,0,0:0:0:0:
475,192,198182,1,0,0:0:0:0:
256,192,198182,128,0,198432:0:0:0:0:
182,192,198432,128,0,198682:0:0:0:0:
36,192,198432,1,0,0:0:0:0:
329,192,198432,1,0,0:0:0:0:
402,192,198432,1,0,0:0:0:0:
475,192,198432,1,0,0:0:0:0:
109,192,198682,128,0,198807:0:0:0:0:
475,192,198682,1,0,0:0:0:0:
329,192,198682,1,0,0:0:0:0:
402,192,198682,1,0,0:0:0:0:
182,192,198807,128,0,198932:0:0:0:0:
256,192,198932,128,0,199057:0:0:0:0:
36,192,198932,1,0,0:0:0:0:
109,192,198932,1,0,0:0:0:0:
329,192,198932,1,0,0:0:0:0:
402,192,199057,128,0,199307:0:0:0:0:
109,192,199182,1,0,0:0:0:0:
182,192,199182,1,0,0:0:0:0:
36,192,199182,1,0,0:0:0:0:
475,192,199182,1,0,0:0:0:0:
329,192,199307,128,0,199432:0:0:0:0:
475,192,199432,128,0,199682:0:0:0:0:
36,192,199432,1,0,0:0:0:0:
109,192,199432,1,0,0:0:0:0:
256,192,199432,1,0,0:0:0:0:
402,192,199432,1,0,0:0:0:0:
256,192,199682,128,0,200182:0:0:0:0:
36,192,199682,1,0,0:0:0:0:
109,192,199682,1,0,0:0:0:0:
402,192,199682,1,0,0:0:0:0:
329,192,199682,1,0,0:0:0:0:
182,192,199807,1,0,0:0:0:0:
475,192,199807,1,0,0:0:0:0:
36,192,199807,1,0,0:0:0:0:
36,192,200182,1,0,0:0:0:0:
182,192,200182,1,0,0:0:0:0:
402,192,200182,1,0,0:0:0:0:
475,192,200182,1,0,0:0:0:0:
329,192,200182,128,0,200432:0:0:0:0:
182,192,200432,128,0,200682:0:0:0:0:
256,192,200432,1,0,0:0:0:0:
402,192,200432,1,0,0:0:0:0:
475,192,200432,1,0,0:0:0:0:
36,192,200432,1,0,0:0:0:0:
109,192,200682,128,0,200807:0:0:0:0:
256,192,200682,1,0,0:0:0:0:
329,192,200682,1,0,0:0:0:0:
402,192,200682,1,0,0:0:0:0:
475,192,200682,1,0,0:0:0:0:
475,192,200807,1,0,0:0:0:0:
329,192,200807,1,0,0:0:0:0:
36,192,200807,1,0,0:0:0:0:
109,192,200932,128,0,201057:0:0:0:0:
182,192,201057,128,0,201307:0:0:0:0:
256,192,201057,1,0,0:0:0:0:
329,192,201057,1,0,0:0:0:0:
402,192,201057,1,0,0:0:0:0:
36,192,201182,1,0,0:0:0:0:
329,192,201182,1,0,0:0:0:0:
402,192,201182,1,0,0:0:0:0:
475,192,201182,1,0,0:0:0:0:
109,192,201307,128,0,201432:0:0:0:0:
475,192,201432,128,0,201557:0:0:0:0:
256,192,201432,1,0,0:0:0:0:
182,192,201432,1,0,0:0:0:0:
36,192,201432,1,0,0:0:0:0:
402,192,201432,1,0,0:0:0:0:
329,192,201682,128,0,201932:0:0:0:0:
109,192,201682,1,0,0:0:0:0:
182,192,201682,1,0,0:0:0:0:
402,192,201682,1,0,0:0:0:0:
475,192,201682,1,0,0:0:0:0:
36,192,201807,1,0,0:0:0:0:
182,192,201807,1,0,0:0:0:0:
475,192,201807,1,0,0:0:0:0:
36,192,202057,1,0,0:0:0:0:
109,192,202057,1,0,0:0:0:0:
256,192,202057,1,0,0:0:0:0:
329,192,202057,1,0,0:0:0:0:
402,192,202182,128,0,202307:0:0:0:0:
182,192,202182,1,0,0:0:0:0:
256,192,202182,1,0,0:0:0:0:
475,192,202182,1,0,0:0:0:0:
36,192,202182,1,0,0:0:0:0:
329,192,202307,128,0,202432:0:0:0:0:
256,192,202432,128,0,202557:0:0:0:0:
36,192,202432,1,0,0:0:0:0:
109,192,202432,1,0,0:0:0:0:
402,192,202432,1,0,0:0:0:0:
475,192,202432,1,0,0:0:0:0:
182,192,202557,128,0,202682:0:0:0:0:
36,192,202682,128,0,202807:0:0:0:0:
256,192,202682,1,0,0:0:0:0:
329,192,202682,1,0,0:0:0:0:
475,192,202682,1,0,0:0:0:0:
402,192,202682,1,0,0:0:0:0:
109,192,202807,128,0,202932:0:0:0:0:
475,192,202807,1,0,0:0:0:0:
329,192,202807,1,0,0:0:0:0:
182,192,202932,128,0,203057:0:0:0:0:
256,192,202932,1,0,0:0:0:0:
402,192,202932,1,0,0:0:0:0:
36,192,202932,1,0,0:0:0:0:
109,192,203057,1,0,0:0:0:0:
475,192,203057,1,0,0:0:0:0:
402,192,203057,1,0,0:0:0:0:
329,192,203182,128,0,203432:0:0:0:0:
36,192,203182,1,0,0:0:0:0:
182,192,203182,1,0,0:0:0:0:
256,192,203182,1,0,0:0:0:0:
475,192,203182,1,0,0:0:0:0:
182,192,203432,128,0,203682:0:0:0:0:
109,192,203432,1,0,0:0:0:0:
402,192,203432,1,0,0:0:0:0:
475,192,203432,1,0,0:0:0:0:
36,192,203432,1,0,0:0:0:0:
256,192,203682,128,0,203932:0:0:0:0:
109,192,203682,1,0,0:0:0:0:
329,192,203682,1,0,0:0:0:0:
475,192,203682,1,0,0:0:0:0:
36,192,203682,1,0,0:0:0:0:
109,192,203807,1,0,0:0:0:0:
182,192,203807,1,0,0:0:0:0:
329,192,203807,1,0,0:0:0:0:
402,192,203932,128,0,204182:0:0:0:0:
475,192,204182,128,0,204432:0:0:0:0:
36,192,204182,1,0,0:0:0:0:
109,192,204182,1,0,0:0:0:0:
256,192,204182,1,0,0:0:0:0:
329,192,204182,1,0,0:0:0:0:
402,192,204432,128,0,204682:0:0:0:0:
109,192,204432,1,0,0:0:0:0:
182,192,204432,1,0,0:0:0:0:
256,192,204432,1,0,0:0:0:0:
329,192,204432,1,0,0:0:0:0:
256,192,204682,128,0,204932:0:0:0:0:
36,192,204682,1,0,0:0:0:0:
109,192,204682,1,0,0:0:0:0:
475,192,204682,1,0,0:0:0:0:
182,192,204682,1,0,0:0:0:0:
329,192,204807,1,0,0:0:0:0:
402,192,204807,1,0,0:0:0:0:
36,192,204807,1,0,0:0:0:0:
182,192,204932,128,0,205057:0:0:0:0:
329,192,205057,128,0,205307:0:0:0:0:
109,192,205057,1,0,0:0:0:0:
256,192,205057,1,0,0:0:0:0:
402,192,205057,1,0,0:0:0:0:
475,192,205057,1,0,0:0:0:0:
109,192,205307,128,0,205432:0:0:0:0:
402,192,205307,1,0,0:0:0:0:
182,192,205307,1,0,0:0:0:0:
36,192,205307,1,0,0:0:0:0:
329,192,205432,128,0,205682:0:0:0:0:
256,192,205432,1,0,0:0:0:0:
402,192,205432,1,0,0:0:0:0:
475,192,205432,1,0,0:0:0:0:
182,192,205432,1,0,0:0:0:0:
402,192,205682,128,0,205932:0:0:0:0:
36,192,205682,1,0,0:0:0:0:
182,192,205682,1,0,0:0:0:0:
109,192,205682,1,0,0:0:0:0:
475,192,205682,1,0,0:0:0:0:
329,192,205807,1,0,0:0:0:0:
256,192,205807,1,0,0:0:0:0:
36,192,205807,1,0,0:0:0:0:
109,192,205932,128,0,206182:0:0:0:0:
475,192,206182,128,0,206307:0:0:0:0:
36,192,206182,1,0,0:0:0:0:
182,192,206182,1,0,0:0:0:0:
256,192,206182,1,0,0:0:0:0:
402,192,206182,1,0,0:0:0:0:
329,192,206307,128,0,206432:0:0:0:0:
182,192,206432,128,0,206682:0:0:0:0:
36,192,206432,1,0,0:0:0:0:
109,192,206432,1,0,0:0:0:0:
256,192,206432,1,0,0:0:0:0:
475,192,206432,1,0,0:0:0:0:
36,192,206682,128,0,206932:0:0:0:0:
256,192,206682,1,0,0:0:0:0:
402,192,206682,1,0,0:0:0:0:
475,192,206682,1,0,0:0:0:0:
182,192,206807,1,0,0:0:0:0:
256,192,206807,1,0,0:0:0:0:
329,192,206807,1,0,0:0:0:0:
109,192,206932,128,0,207057:0:0:0:0:
329,192,207057,128,0,207307:0:0:0:0:
182,192,207057,1,0,0:0:0:0:
256,192,207057,1,0,0:0:0:0:
402,192,207057,1,0,0:0:0:0:
36,192,207182,1,0,0:0:0:0:
182,192,207182,1,0,0:0:0:0:
256,192,207182,1,0,0:0:0:0:
475,192,207182,1,0,0:0:0:0:
109,192,207307,128,0,207432:0:0:0:0:
475,192,207432,128,0,207682:0:0:0:0:
36,192,207432,1,0,0:0:0:0:
256,192,207432,1,0,0:0:0:0:
402,192,207432,1,0,0:0:0:0:
329,192,207432,1,0,0:0:0:0:
256,192,207682,128,0,207932:0:0:0:0:
36,192,207682,1,0,0:0:0:0:
109,192,207682,1,0,0:0:0:0:
329,192,207682,1,0,0:0:0:0:
402,192,207682,1,0,0:0:0:0:
475,192,207807,1,0,0:0:0:0:
182,192,207807,1,0,0:0:0:0:
402,192,207807,1,0,0:0:0:0:
36,192,207807,1,0,0:0:0:0:
475,192,208182,128,0,208307:0:0:0:0:
36,192,208182,1,0,0:0:0:0:
182,192,208182,1,0,0:0:0:0:
256,192,208182,1,0,0:0:0:0:
329,192,208182,1,0,0:0:0:0:
402,192,208307,128,0,208432:0:0:0:0:
109,192,208432,128,0,208682:0:0:0:0:
36,192,208432,1,0,0:0:0:0:
182,192,208432,1,0,0:0:0:0:
256,192,208432,1,0,0:0:0:0:
475,192,208432,1,0,0:0:0:0:
36,192,208682,128,0,208807:0:0:0:0:
475,192,208682,1,0,0:0:0:0:
329,192,208682,1,0,0:0:0:0:
402,192,208682,1,0,0:0:0:0:
182,192,208682,1,0,0:0:0:0:
109,192,208807,1,0,0:0:0:0:
256,192,208807,1,0,0:0:0:0:
402,192,208807,1,0,0:0:0:0:
475,192,208807,1,0,0:0:0:0:
36,192,208932,128,0,209057:0:0:0:0:
256,192,209057,128,0,209307:0:0:0:0:
109,192,209057,1,0,0:0:0:0:
329,192,209057,1,0,0:0:0:0:
475,192,209057,1,0,0:0:0:0:
402,192,209057,1,0,0:0:0:0:
109,192,209307,128,0,209432:0:0:0:0:
475,192,209432,128,0,209682:0:0:0:0:
36,192,209432,1,0,0:0:0:0:
182,192,209432,1,0,0:0:0:0:
256,192,209432,1,0,0:0:0:0:
402,192,209432,1,0,0:0:0:0:
402,192,209682,128,0,209932:0:0:0:0:
109,192,209682,1,0,0:0:0:0:
182,192,209682,1,0,0:0:0:0:
256,192,209682,1,0,0:0:0:0:
36,192,209682,1,0,0:0:0:0:
109,192,209807,1,0,0:0:0:0:
182,192,209807,1,0,0:0:0:0:
329,192,209807,1,0,0:0:0:0:
475,192,209807,1,0,0:0:0:0:
36,192,210057,1,0,0:0:0:0:
182,192,210057,1,0,0:0:0:0:
256,192,210057,1,0,0:0:0:0:
329,192,210182,128,0,210432:0:0:0:0:
109,192,210182,1,0,0:0:0:0:
182,192,210182,1,0,0:0:0:0:
256,192,210182,1,0,0:0:0:0:
402,192,210182,1,0,0:0:0:0:
475,192,210182,1,0,0:0:0:0:
256,192,210432,128,0,210557:0:0:0:0:
36,192,210432,1,0,0:0:0:0:
109,192,210432,1,0,0:0:0:0:
402,192,210432,1,0,0:0:0:0:
475,192,210432,1,0,0:0:0:0:
182,192,210557,128,0,210682:0:0:0:0:
109,192,210682,128,0,210932:0:0:0:0:
256,192,210682,1,0,0:0:0:0:
329,192,210682,1,0,0:0:0:0:
402,192,210682,1,0,0:0:0:0:
36,192,210682,1,0,0:0:0:0:
475,192,210807,1,0,0:0:0:0:
329,192,210807,1,0,0:0:0:0:
402,192,210807,1,0,0:0:0:0:
256,192,210807,1,0,0:0:0:0:
182,192,210932,128,0,211057:0:0:0:0:
256,192,211057,128,0,211307:0:0:0:0:
36,192,211057,1,0,0:0:0:0:
109,192,211057,1,0,0:0:0:0:
329,192,211057,1,0,0:0:0:0:
475,192,211057,1,0,0:0:0:0:
182,192,211307,128,0,211432:0:0:0:0:
402,192,211432,128,0,211682:0:0:0:0:
36,192,211432,1,0,0:0:0:0:
109,192,211432,1,0,0:0:0:0:
256,192,211432,1,0,0:0:0:0:
475,192,211432,1,0,0:0:0:0:
329,192,211682,128,0,211932:0:0:0:0:
109,192,211682,1,0,0:0:0:0:
182,192,211682,1,0,0:0:0:0:
475,192,211682,1,0,0:0:0:0:
36,192,211682,1,0,0:0:0:0:
256,192,211807,1,0,0:0:0:0:
182,192,211807,1,0,0:0:0:0:
36,192,211807,1,0,0:0:0:0:
475,192,211807,1,0,0:0:0:0:
402,192,211932,128,0,212182:0:0:0:0:
475,192,212182,128,0,212432:0:0:0:0:
36,192,212182,1,0,0:0:0:0:
109,192,212182,1,0,0:0:0:0:
182,192,212182,1,0,0:0:0:0:
329,192,212182,1,0,0:0:0:0:
402,192,212432,128,0,212682:0:0:0:0:
109,192,212432,1,0,0:0:0:0:
182,192,212432,1,0,0:0:0:0:
256,192,212432,1,0,0:0:0:0:
329,192,212432,1,0,0:0:0:0:
256,192,212682,128,0,212932:0:0:0:0:
36,192,212682,1,0,0:0:0:0:
109,192,212682,1,0,0:0:0:0:
475,192,212682,1,0,0:0:0:0:
329,192,212682,1,0,0:0:0:0:
182,192,212807,1,0,0:0:0:0:
329,192,212807,1,0,0:0:0:0:
402,192,212807,1,0,0:0:0:0:
36,192,212807,1,0,0:0:0:0:
109,192,212932,128,0,213057:0:0:0:0:
182,192,213057,128,0,213307:0:0:0:0:
256,192,213182,1,0,0:0:0:0:
329,192,213182,1,0,0:0:0:0:
475,192,213182,1,0,0:0:0:0:
109,192,213182,1,0,0:0:0:0:
36,192,213307,128,0,213432:0:0:0:0:
402,192,213307,1,0,0:0:0:0:
329,192,213307,1,0,0:0:0:0:
475,192,213307,1,0,0:0:0:0:
109,192,213432,128,0,213682:0:0:0:0:
329,192,213682,128,0,213932:0:0:0:0:
36,192,213682,1,0,0:0:0:0:
182,192,213682,1,0,0:0:0:0:
256,192,213682,1,0,0:0:0:0:
402,192,213682,1,0,0:0:0:0:
109,192,213932,1,0,0:0:0:0:
182,192,213932,1,0,0:0:0:0:
256,192,213932,1,0,0:0:0:0:
402,192,213932,1,0,0:0:0:0:
475,192,213932,1,0,0:0:0:0:
402,192,214182,128,0,214432:0:0:0:0:
36,192,214182,1,0,0:0:0:0:
109,192,214182,1,0,0:0:0:0:
182,192,214182,1,0,0:0:0:0:
329,192,214182,1,0,0:0:0:0:
475,192,214182,1,0,0:0:0:0:
256,192,214432,128,0,214682:0:0:0:0:
109,192,214432,1,0,0:0:0:0:
182,192,214432,1,0,0:0:0:0:
329,192,214432,1,0,0:0:0:0:
475,192,214432,1,0,0:0:0:0:
109,192,214682,128,0,214807:0:0:0:0:
182,192,214682,1,0,0:0:0:0:
402,192,214682,1,0,0:0:0:0:
475,192,214682,1,0,0:0:0:0:
329,192,214682,1,0,0:0:0:0:
36,192,214807,128,0,214932:0:0:0:0:
256,192,214807,1,0,0:0:0:0:
329,192,214807,1,0,0:0:0:0:
475,192,214807,1,0,0:0:0:0:
109,192,214932,128,0,215057:0:0:0:0:
402,192,215057,128,0,215307:0:0:0:0:
36,192,215057,1,0,0:0:0:0:
256,192,215057,1,0,0:0:0:0:
329,192,215057,1,0,0:0:0:0:
475,192,215057,1,0,0:0:0:0:
109,192,215182,1,0,0:0:0:0:
256,192,215182,1,0,0:0:0:0:
329,192,215182,1,0,0:0:0:0:
36,192,215182,1,0,0:0:0:0:
182,192,215307,128,0,215432:0:0:0:0:
475,192,215432,128,0,215682:0:0:0:0:
109,192,215432,1,0,0:0:0:0:
256,192,215432,1,0,0:0:0:0:
329,192,215432,1,0,0:0:0:0:
402,192,215432,1,0,0:0:0:0:
256,192,215682,128,0,215932:0:0:0:0:
36,192,215682,1,0,0:0:0:0:
109,192,215682,1,0,0:0:0:0:
329,192,215682,1,0,0:0:0:0:
402,192,215682,1,0,0:0:0:0:
182,192,215807,1,0,0:0:0:0:
475,192,215807,1,0,0:0:0:0:
36,192,215807,1,0,0:0:0:0:
402,192,215807,1,0,0:0:0:0:
402,192,216182,128,0,216432:0:0:0:0:
36,192,216182,1,0,0:0:0:0:
109,192,216182,1,0,0:0:0:0:
182,192,216182,1,0,0:0:0:0:
256,192,216182,1,0,0:0:0:0:
329,192,216432,128,0,216682:0:0:0:0:
182,192,216432,1,0,0:0:0:0:
256,192,216432,1,0,0:0:0:0:
475,192,216432,1,0,0:0:0:0:
36,192,216432,1,0,0:0:0:0:
256,192,216682,128,0,216807:0:0:0:0:
109,192,216682,1,0,0:0:0:0:
182,192,216682,1,0,0:0:0:0:
402,192,216682,1,0,0:0:0:0:
475,192,216682,1,0,0:0:0:0:
36,192,216807,1,0,0:0:0:0:
109,192,216807,1,0,0:0:0:0:
329,192,216807,1,0,0:0:0:0:
475,192,216807,1,0,0:0:0:0:
182,192,216932,128,0,217057:0:0:0:0:
329,192,217057,128,0,217307:0:0:0:0:
109,192,217057,1,0,0:0:0:0:
256,192,217057,1,0,0:0:0:0:
402,192,217057,1,0,0:0:0:0:
36,192,217057,1,0,0:0:0:0:
109,192,217307,128,0,217432:0:0:0:0:
402,192,217432,128,0,217557:0:0:0:0:
182,192,217432,1,0,0:0:0:0:
256,192,217432,1,0,0:0:0:0:
329,192,217432,1,0,0:0:0:0:
36,192,217432,1,0,0:0:0:0:
182,192,217682,128,0,217932:0:0:0:0:
475,192,217682,1,0,0:0:0:0:
329,192,217682,1,0,0:0:0:0:
109,192,217682,1,0,0:0:0:0:
36,192,217682,1,0,0:0:0:0:
402,192,217807,1,0,0:0:0:0:
256,192,217807,1,0,0:0:0:0:
36,192,217807,1,0,0:0:0:0:
109,192,218057,1,0,0:0:0:0:
182,192,218057,1,0,0:0:0:0:
329,192,218057,1,0,0:0:0:0:
475,192,218057,1,0,0:0:0:0:
402,192,218182,128,0,218432:0:0:0:0:
36,192,218182,1,0,0:0:0:0:
109,192,218182,1,0,0:0:0:0:
182,192,218182,1,0,0:0:0:0:
256,192,218182,1,0,0:0:0:0:
475,192,218182,1,0,0:0:0:0:
329,192,218432,128,0,218682:0:0:0:0:
109,192,218432,1,0,0:0:0:0:
182,192,218432,1,0,0:0:0:0:
36,192,218432,1,0,0:0:0:0:
475,192,218432,1,0,0:0:0:0:
256,192,218682,128,0,218932:0:0:0:0:
109,192,218682,1,0,0:0:0:0:
182,192,218682,1,0,0:0:0:0:
402,192,218682,1,0,0:0:0:0:
475,192,218682,1,0,0:0:0:0:
36,192,218807,1,0,0:0:0:0:
475,192,218807,1,0,0:0:0:0:
329,192,218807,1,0,0:0:0:0:
109,192,218932,128,0,219057:0:0:0:0:
329,192,219057,128,0,219307:0:0:0:0:
182,192,219057,1,0,0:0:0:0:
256,192,219057,1,0,0:0:0:0:
475,192,219057,1,0,0:0:0:0:
36,192,219057,1,0,0:0:0:0:
402,192,219307,128,0,219432:0:0:0:0:
109,192,219307,1,0,0:0:0:0:
182,192,219307,1,0,0:0:0:0:
36,192,219307,1,0,0:0:0:0:
256,192,219307,1,0,0:0:0:0:
475,192,219432,128,0,219557:0:0:0:0:
182,192,219432,1,0,0:0:0:0:
256,192,219432,1,0,0:0:0:0:
329,192,219432,1,0,0:0:0:0:
36,192,219432,1,0,0:0:0:0:
109,192,219682,128,0,219932:0:0:0:0:
182,192,219682,1,0,0:0:0:0:
256,192,219682,1,0,0:0:0:0:
329,192,219682,1,0,0:0:0:0:
36,192,219682,1,0,0:0:0:0:
475,192,219682,1,0,0:0:0:0:
402,192,219807,1,0,0:0:0:0:
329,192,219807,1,0,0:0:0:0:
182,192,219807,1,0,0:0:0:0:
256,192,219932,128,0,220182:0:0:0:0:
475,192,220182,128,0,220432:0:0:0:0:
36,192,220182,1,0,0:0:0:0:
109,192,220182,1,0,0:0:0:0:
182,192,220182,1,0,0:0:0:0:
402,192,220182,1,0,0:0:0:0:
329,192,220432,128,0,220682:0:0:0:0:
109,192,220432,1,0,0:0:0:0:
182,192,220432,1,0,0:0:0:0:
256,192,220432,1,0,0:0:0:0:
36,192,220432,1,0,0:0:0:0:
402,192,220432,1,0,0:0:0:0:
182,192,220682,128,0,220932:0:0:0:0:
36,192,220682,1,0,0:0:0:0:
109,192,220682,1,0,0:0:0:0:
256,192,220682,1,0,0:0:0:0:
402,192,220682,1,0,0:0:0:0:
475,192,220682,1,0,0:0:0:0:
475,192,220807,1,0,0:0:0:0:
329,192,220807,1,0,0:0:0:0:
36,192,220807,1,0,0:0:0:0:
109,192,220932,128,0,221057:0:0:0:0:
36,192,221057,128,0,221432:0:0:0:0:
182,192,221057,1,0,0:0:0:0:
256,192,221057,1,0,0:0:0:0:
402,192,221057,1,0,0:0:0:0:
475,192,221057,1,0,0:0:0:0:
329,192,221182,1,0,0:0:0:0:
475,192,221182,1,0,0:0:0:0:
329,192,221307,1,0,0:0:0:0:
109,192,221307,1,0,0:0:0:0:
256,192,221307,1,0,0:0:0:0:
402,192,221307,1,0,0:0:0:0:
182,192,221432,128,0,221682:0:0:0:0:
256,192,221432,1,0,0:0:0:0:
402,192,221432,1,0,0:0:0:0:
475,192,221432,1,0,0:0:0:0:
402,192,221682,128,0,221932:0:0:0:0:
329,192,221682,1,0,0:0:0:0:
475,192,221682,1,0,0:0:0:0:
36,192,221682,1,0,0:0:0:0:
256,192,221682,1,0,0:0:0:0:
109,192,221807,1,0,0:0:0:0:
182,192,221807,1,0,0:0:0:0:
329,192,221932,128,0,222182:0:0:0:0:
256,192,221932,1,0,0:0:0:0:
475,192,221932,1,0,0:0:0:0:
182,192,222057,1,0,0:0:0:0:
109,192,222057,1,0,0:0:0:0:
36,192,222182,5,0,0:0:0:0:
256,192,222182,128,0,222432:0:0:0:0:
109,192,222432,1,0,0:0:0:0:
182,192,222682,1,0,0:0:0:0:
256,192,222932,1,0,0:0:0:0:
256,192,223182,1,0,0:0:0:0:
329,192,223432,1,0,0:0:0:0:
402,192,223682,1,0,0:0:0:0:
475,192,223932,1,0,0:0:0:0:
36,192,224182,1,0,0:0:0:0:
329,192,224182,1,0,0:0:0:0:
475,192,224182,1,0,0:0:0:0:
182,192,224182,1,0,0:0:0:0:
256,192,224182,1,0,0:0:0:0:
402,192,224182,128,0,224432:0:0:0:0:
109,192,224432,1,0,0:0:0:0:
256,192,224432,1,0,0:0:0:0:
475,192,224432,1,0,0:0:0:0:
36,192,224557,1,0,0:0:0:0:
256,192,224557,1,0,0:0:0:0:
329,192,224557,1,0,0:0:0:0:
402,192,224557,1,0,0:0:0:0:
182,192,224557,128,0,224807:0:0:0:0:
475,192,224807,1,0,0:0:0:0:
402,192,224807,1,0,0:0:0:0:
256,192,224807,1,0,0:0:0:0:
109,192,224932,1,0,0:0:0:0:
329,192,224932,1,0,0:0:0:0:
402,192,224932,1,0,0:0:0:0:
182,192,224932,1,0,0:0:0:0:
36,192,224932,128,0,225765:0:0:0:0:
475,192,224932,128,0,225765:0:0:0:0:
402,192,225598,1,0,0:0:0:0:
109,192,225598,1,0,0:0:0:0:
329,192,225682,1,0,0:0:0:0:
182,192,225682,1,0,0:0:0:0:
109,192,225765,1,0,0:0:0:0:
402,192,225765,1,0,0:0:0:0:
