osu file format v14

[General]
AudioFilename: audio.mp3
AudioLeadIn: 0
PreviewTime: 95954
Countdown: 0
SampleSet: None
StackLeniency: 0.7
Mode: 3
LetterboxInBreaks: 0
SpecialStyle: 0
WidescreenStoryboard: 0

[Editor]
DistanceSpacing: 1.1
BeatDivisor: 6
GridSize: 4
TimelineZoom: 1.9

[Metadata]
Title:Corona -2014 MIX-
TitleUnicode:コロナ -2014 MIX-
Artist:Utsu-P
ArtistUnicode:鬱P
Creator:Cryolien
Version:Galactical
Source:
Tags:
BeatmapID:1736776
BeatmapSetID:828958

[Difficulty]
HPDrainRate:7
CircleSize:7
OverallDifficulty:7
ApproachRate:5
SliderMultiplier:1.4
SliderTickRate:1

[Events]
//Background and Video events
0,0,"corona.png",0,0
//Break Periods
//Storyboard Layer 0 (Background)
//Storyboard Layer 1 (Fail)
//Storyboard Layer 2 (Pass)
//Storyboard Layer 3 (Foreground)
//Storyboard Sound Samples

[TimingPoints]
3383,428.571428571429,4,2,0,13,1,0
3383,-500,4,2,0,13,0,0
3490,-444.444444444444,4,2,0,13,0,0
3597,-400,4,2,0,13,0,0
3704,-363.636363636364,4,2,0,13,0,0
3811,-333.333333333333,4,2,0,13,0,0
3918,-307.692307692308,4,2,0,13,0,0
4025,-285.714285714286,4,2,0,13,0,0
4133,-263.157894736842,4,2,0,13,0,0
4240,-250,4,2,0,13,0,0
4347,-235.294117647059,4,2,0,13,0,0
4454,-222.222222222222,4,2,0,13,0,0
4561,-200,4,2,0,13,0,0
4668,-190.47619047619,4,2,0,13,0,0
4775,-181.818181818182,4,2,0,13,0,0
4883,-173.913043478261,4,2,0,13,0,0
4990,-166.666666666667,4,2,0,13,0,0
5097,-158.730158730159,4,2,0,13,0,0
5204,-153.846153846154,4,2,0,13,0,0
5311,-147.058823529412,4,2,0,13,0,0
5418,-142.857142857143,4,2,0,13,0,0
5525,-136.986301369863,4,2,0,13,0,0
5633,-133.333333333333,4,2,0,13,0,0
5740,-128.205128205128,4,2,0,13,0,0
5847,-125,4,2,0,13,0,0
5954,-120.481927710843,4,2,0,13,0,0
6061,-117.647058823529,4,2,0,13,0,0
6168,-113.636363636364,4,2,0,13,0,0
6275,-111.111111111111,4,2,0,13,0,0
6383,-107.52688172043,4,2,0,13,0,0
6490,-105.263157894737,4,2,0,13,0,0
6597,-102.040816326531,4,2,0,13,0,0
6704,-100,4,2,0,13,0,0
6811,-500,4,2,0,13,0,0
6918,-434.782608695652,4,2,0,13,0,0
7025,-400,4,2,0,13,0,0
7133,-357.142857142857,4,2,0,13,0,0
7240,-333.333333333333,4,2,0,13,0,0
7347,-303.030303030303,4,2,0,13,0,0
7454,-285.714285714286,4,2,0,13,0,0
7561,-263.157894736842,4,2,0,13,0,0
7668,-250,4,2,0,13,0,0
7775,-232.558139534884,4,2,0,13,0,0
7883,-222.222222222222,4,2,0,13,0,0
7990,-208.333333333333,4,2,0,13,0,0
8097,-200,4,2,0,13,0,0
8204,-188.679245283019,4,2,0,13,0,0
8311,-181.818181818182,4,2,0,13,0,0
8418,-172.413793103448,4,2,0,13,0,0
8525,-166.666666666667,4,2,0,13,0,0
8633,-158.730158730159,4,2,0,13,0,0
8740,-153.846153846154,4,2,0,13,0,0
8847,-147.058823529412,4,2,0,13,0,0
8954,-142.857142857143,4,2,0,13,0,0
9061,-136.986301369863,4,2,0,13,0,0
9168,-133.333333333333,4,2,0,13,0,0
9275,-128.205128205128,4,2,0,13,0,0
9383,-125,4,2,0,13,0,0
9490,-120.048019207683,4,2,0,13,0,0
9597,-117.647058823529,4,2,0,13,0,0
9704,-113.636363636364,4,2,0,13,0,0
9811,-111.111111111111,4,2,0,13,0,0
9918,-107.52688172043,4,2,0,13,0,0
10025,-105.263157894737,4,2,0,13,0,0
10133,-102.040816326531,4,2,0,13,0,0
10240,-500,4,2,0,13,0,0
10347,-434.782608695652,4,2,0,13,0,0
10454,-400,4,2,0,13,0,0
10561,-357.142857142857,4,2,0,13,0,0
10668,-333.333333333333,4,2,0,13,0,0
10775,-303.030303030303,4,2,0,13,0,0
10883,-285.714285714286,4,2,0,13,0,0
10990,-263.157894736842,4,2,0,13,0,0
11097,-250,4,2,0,13,0,0
11204,-232.558139534884,4,2,0,13,0,0
11311,-222.222222222222,4,2,0,13,0,0
11418,-208.333333333333,4,2,0,13,0,0
11525,-200,4,2,0,13,0,0
11633,-188.679245283019,4,2,0,13,0,0
11740,-181.818181818182,4,2,0,13,0,0
11847,-172.413793103448,4,2,0,13,0,0
11954,-166.666666666667,4,2,0,13,0,0
12061,-158.730158730159,4,2,0,13,0,0
12168,-153.846153846154,4,2,0,13,0,0
12275,-147.058823529412,4,2,0,13,0,0
12383,-142.857142857143,4,2,0,13,0,0
12490,-136.986301369863,4,2,0,13,0,0
12597,-133.333333333333,4,2,0,13,0,0
12704,-128.205128205128,4,2,0,13,0,0
12811,-125,4,2,0,13,0,0
12918,-120.481927710843,4,2,0,13,0,0
13025,-117.647058823529,4,2,0,13,0,0
13133,-113.636363636364,4,2,0,13,0,0
13240,-111.111111111111,4,2,0,13,0,0
13347,-107.52688172043,4,2,0,13,0,0
13454,-105.263157894737,4,2,0,13,0,0
13561,-102.040816326531,4,2,0,13,0,0
13668,-500,4,2,0,13,0,0
13775,-434.782608695652,4,2,0,13,0,0
13883,-400,4,2,0,13,0,0
13990,-357.142857142857,4,2,0,13,0,0
14097,-333.333333333334,4,2,0,13,0,0
14204,-303.030303030303,4,2,0,13,0,0
14311,-285.714285714286,4,2,0,13,0,0
14418,-263.157894736842,4,2,0,13,0,0
14525,-250.000000000001,4,2,0,13,0,0
14633,-232.558139534884,4,2,0,13,0,0
14740,-222.222222222222,4,2,0,13,0,0
14847,-208.333333333333,4,2,0,13,0,0
14954,-200,4,2,0,13,0,0
15061,-188.679245283019,4,2,0,13,0,0
15168,-181.818181818182,4,2,0,13,0,0
15275,-172.413793103448,4,2,0,13,0,0
15383,-166.666666666667,4,2,0,13,0,0
15490,-158.730158730159,4,2,0,13,0,0
15597,-153.846153846154,4,2,0,13,0,0
15704,-147.058823529412,4,2,0,13,0,0
15811,-142.857142857143,4,2,0,13,0,0
15918,-136.986301369863,4,2,0,13,0,0
16025,-133.333333333333,4,2,0,13,0,0
16133,-128.205128205128,4,2,0,13,0,0
16240,-400,4,2,0,13,0,0
16668,-66.6666666666667,4,2,0,13,0,0
16775,-80,4,2,0,13,0,0
16883,-100,4,2,0,13,0,0
16990,-133.333333333333,4,2,0,13,0,0
17097,-100,4,2,0,13,0,0
71954,-133.333333333333,4,2,0,13,0,0
72811,-100,4,2,0,13,0,0
73240,-133.333333333333,4,2,0,13,0,0
73668,-76.9230769230769,4,2,0,13,0,0
73775,-133.333333333333,4,2,0,13,0,0
73883,-76.9230769230769,4,2,0,13,0,0
73990,-133.333333333333,4,2,0,13,0,0
74097,-76.9230769230769,4,2,0,13,0,0
74204,-133.333333333333,4,2,0,13,0,0
74525,-100,4,2,0,13,0,0
74954,-133.333333333333,4,2,0,13,0,0
75383,-100,4,2,0,13,0,0
75811,-133.333333333333,4,2,0,13,0,0
76240,-100,4,2,0,13,0,0
76668,-133.333333333333,4,2,0,13,0,0
77097,-76.9230769230769,4,2,0,13,0,0
77204,-133.333333333333,4,2,0,13,0,0
77525,-76.9230769230769,4,2,0,13,0,0
77633,-133.333333333333,4,2,0,13,0,0
77954,-100,4,2,0,13,0,0
78383,-133.333333333333,4,2,0,13,0,0
78811,-58.8235294117647,4,2,0,13,0,0
78865,-74.074074074074,4,2,0,13,0,0
78918,-100,4,2,0,13,0,0
78972,-133.333333333333,4,2,0,13,0,0
79025,-181.818181818181,4,2,0,13,0,0
79079,-285.714285714286,4,2,0,13,0,0
79133,-133.333333333333,4,2,0,13,0,0
79668,-100,4,2,0,13,0,0
80097,-133.333333333333,4,2,0,13,0,0
80525,-76.9230769230769,4,2,0,13,0,0
80633,-200,4,2,0,13,0,0
80740,-76.9230769230769,4,2,0,13,0,0
80847,-200,4,2,0,13,0,0
80954,-76.9230769230769,4,2,0,13,0,0
81061,-200,4,2,0,13,0,0
81168,-133.333333333333,4,2,0,13,0,0
81490,-100,4,2,0,13,0,0
81811,-133.333333333333,4,2,0,13,0,0
82240,-500,4,2,0,13,0,0
82347,-333.333333333333,4,2,0,13,0,0
82454,-250,4,2,0,13,0,0
82561,-200,4,2,0,13,0,0
82668,-166.666666666667,4,2,0,13,0,0
82775,-142.857142857143,4,2,0,13,0,0
82883,-125,4,2,0,13,0,0
82990,-111.111111111111,4,2,0,13,0,0
83097,-500,4,2,0,13,0,0
83204,-333.333333333333,4,2,0,13,0,0
83311,-250,4,2,0,13,0,0
83418,-200,4,2,0,13,0,0
83525,-166.666666666667,4,2,0,13,0,0
83633,-142.857142857143,4,2,0,13,0,0
83740,-125,4,2,0,13,0,0
83847,-111.111111111111,4,2,0,13,0,0
83954,-500,4,2,0,13,0,0
84061,-333.333333333333,4,2,0,13,0,0
84168,-250,4,2,0,13,0,0
84275,-200,4,2,0,13,0,0
84383,-166.666666666667,4,2,0,13,0,0
84490,-142.857142857143,4,2,0,13,0,0
84597,-125,4,2,0,13,0,0
84704,-111.111111111111,4,2,0,13,0,0
84811,-500,4,2,0,13,0,0
84918,-333.333333333333,4,2,0,13,0,0
85025,-250,4,2,0,13,0,0
85133,-200,4,2,0,13,0,0
85240,-166.666666666667,4,2,0,13,0,0
85347,-142.857142857143,4,2,0,13,0,0
85454,-125,4,2,0,13,0,0
85561,-111.111111111111,4,2,0,13,0,0
85668,-100,4,2,0,13,0,0
92525,-500,4,2,0,13,0,0
92633,-434.782608695652,4,2,0,13,0,0
92740,-400,4,2,0,13,0,0
92847,-357.142857142857,4,2,0,13,0,0
92954,-333.333333333333,4,2,0,13,0,0
93061,-303.030303030303,4,2,0,13,0,0
93168,-285.714285714286,4,2,0,13,0,0
93275,-263.157894736842,4,2,0,13,0,0
93383,-250,4,2,0,13,0,0
93490,-232.558139534884,4,2,0,13,0,0
93597,-222.222222222222,4,2,0,13,0,0
93704,-208.333333333333,4,2,0,13,0,0
93811,-200,4,2,0,13,0,0
93918,-188.679245283019,4,2,0,13,0,0
94025,-181.818181818182,4,2,0,13,0,0
94133,-172.413793103448,4,2,0,13,0,0
94240,-166.666666666667,4,2,0,13,0,0
94347,-158.730158730159,4,2,0,13,0,0
94454,-153.846153846154,4,2,0,13,0,0
94561,-147.058823529412,4,2,0,13,0,0
94668,-142.857142857143,4,2,0,13,0,0
94775,-136.986301369863,4,2,0,13,0,0
94883,-133.333333333333,4,2,0,13,0,0
94990,-128.205128205128,4,2,0,13,0,0
95097,-125,4,2,0,13,0,0
95204,-120.481927710843,4,2,0,13,0,0
95311,-117.647058823529,4,2,0,13,0,0
95418,-113.636363636364,4,2,0,13,0,0
95525,-111.111111111111,4,2,0,13,0,0
95633,-107.52688172043,4,2,0,13,0,0
95740,-105.263157894737,4,2,0,13,0,0
95847,-102.040816326531,4,2,0,13,0,0
95954,-100,4,2,0,13,0,0
98525,-500,4,2,0,13,0,0
98633,-333.333333333333,4,2,0,13,0,0
98740,-250,4,2,0,13,0,0
98847,-200,4,2,0,13,0,0
98954,-166.666666666667,4,2,0,13,0,0
99061,-142.857142857143,4,2,0,13,0,0
99168,-125,4,2,0,13,0,0
99275,-111.111111111111,4,2,0,13,0,0
99383,-100,4,2,0,13,0,0
112240,-250,4,2,0,13,0,0
112668,-66.6666666666667,4,2,0,13,0,0
112722,-250,4,2,0,13,0,0
112775,-66.6666666666667,4,2,0,13,0,0
112829,-250,4,2,0,13,0,0
112883,-66.6666666666667,4,2,0,13,0,0
112936,-250,4,2,0,13,0,0
112990,-66.6666666666667,4,2,0,13,0,0
113043,-250,4,2,0,13,0,0
113097,-100,4,2,0,13,0,0
125954,-111.111111111111,4,2,0,13,0,0
126061,-125,4,2,0,13,0,0
126168,-142.857142857143,4,2,0,13,0,0
126275,-166.666666666667,4,2,0,13,0,0
126383,-200,4,2,0,13,0,0
126490,-250,4,2,0,13,0,0
126597,-333.333333333333,4,2,0,13,0,0
126704,-500,4,2,0,13,0,0
126811,-100,4,2,0,13,0,0
167525,-66.6666666666667,4,2,0,13,0,0
167579,-250,4,2,0,13,0,0
167633,-66.6666666666667,4,2,0,13,0,0
167686,-250,4,2,0,13,0,0
167740,-66.6666666666667,4,2,0,13,0,0
167793,-250,4,2,0,13,0,0
167847,-66.6666666666667,4,2,0,13,0,0
167900,-250,4,2,0,13,0,0
167954,-133.333333333333,4,2,0,13,0,0
168918,-100,4,2,0,13,0,0
169240,-133.333333333333,4,2,0,13,0,0
169668,-76.9230769230769,4,2,0,13,0,0
169775,-133.333333333333,4,2,0,13,0,0
169883,-76.9230769230769,4,2,0,13,0,0
169990,-133.333333333333,4,2,0,13,0,0
170097,-76.9230769230769,4,2,0,13,0,0
170204,-133.333333333333,4,2,0,13,0,0
170525,-100,4,2,0,13,0,0
170954,-133.333333333333,4,2,0,13,0,0
171383,-100,4,2,0,13,0,0
171704,-133.333333333333,4,2,0,13,0,0
172347,-100,4,2,0,13,0,0
172668,-133.333333333333,4,2,0,13,0,0
173097,-76.9230769230769,4,2,0,13,0,0
173204,-133.333333333333,4,2,0,13,0,0
173311,-133.333333333333,4,2,0,13,0,0
173525,-76.9230769230769,4,2,0,13,0,0
173633,-133.333333333333,4,2,0,13,0,0
173954,-100,4,2,0,13,0,0
174383,-133.333333333333,4,2,0,13,0,0
174811,-100,4,2,0,13,0,0
175240,-133.333333333333,4,2,0,13,0,0
175775,-100,4,2,0,13,0,0
176097,-133.333333333333,4,2,0,13,0,0
176525,-100,4,2,0,13,0,0
177061,-133.333333333333,4,2,0,13,0,0
177383,-100,4,2,0,13,0,0
177811,-133.333333333333,4,2,0,13,0,0
178240,-500,4,2,0,13,0,0
178347,-333.333333333333,4,2,0,13,0,0
178454,-250,4,2,0,13,0,0
178561,-200,4,2,0,13,0,0
178668,-166.666666666667,4,2,0,13,0,0
178775,-142.857142857143,4,2,0,13,0,0
178883,-125,4,2,0,13,0,0
178990,-111.111111111111,4,2,0,13,0,0
179097,-500,4,2,0,13,0,0
179204,-333.333333333333,4,2,0,13,0,0
179311,-250,4,2,0,13,0,0
179418,-200,4,2,0,13,0,0
179525,-166.666666666667,4,2,0,13,0,0
179633,-142.857142857143,4,2,0,13,0,0
179740,-125,4,2,0,13,0,0
179847,-111.111111111111,4,2,0,13,0,0
179954,-500,4,2,0,13,0,0
180061,-333.333333333333,4,2,0,13,0,0
180168,-250,4,2,0,13,0,0
180275,-200,4,2,0,13,0,0
180383,-166.666666666667,4,2,0,13,0,0
180490,-142.857142857143,4,2,0,13,0,0
180597,-125,4,2,0,13,0,0
180704,-111.111111111111,4,2,0,13,0,0
180811,-500,4,2,0,13,0,0
180918,-333.333333333333,4,2,0,13,0,0
181025,-250,4,2,0,13,0,0
181133,-200,4,2,0,13,0,0
181240,-166.666666666667,4,2,0,13,0,0
181347,-142.857142857143,4,2,0,13,0,0
181454,-125,4,2,0,13,0,0
181561,-111.111111111111,4,2,0,13,0,0
181668,-100,4,2,0,13,0,0
188525,-500,4,2,0,13,0,0
188633,-434.782608695652,4,2,0,13,0,0
188740,-400,4,2,0,13,0,0
188847,-357.142857142857,4,2,0,13,0,0
188954,-333.333333333333,4,2,0,13,0,0
189061,-303.030303030303,4,2,0,13,0,0
189168,-285.714285714286,4,2,0,13,0,0
189275,-263.157894736842,4,2,0,13,0,0
189383,-250,4,2,0,13,0,0
189490,-232.558139534884,4,2,0,13,0,0
189597,-222.222222222222,4,2,0,13,0,0
189704,-208.333333333333,4,2,0,13,0,0
189811,-200,4,2,0,13,0,0
189918,-188.679245283019,4,2,0,13,0,0
190025,-181.818181818182,4,2,0,13,0,0
190133,-172.413793103448,4,2,0,13,0,0
190240,-166.666666666667,4,2,0,13,0,0
190347,-158.730158730159,4,2,0,13,0,0
190454,-153.846153846154,4,2,0,13,0,0
190561,-147.058823529412,4,2,0,13,0,0
190668,-142.857142857143,4,2,0,13,0,0
190775,-136.986301369863,4,2,0,13,0,0
190883,-133.333333333333,4,2,0,13,0,0
190990,-128.205128205128,4,2,0,13,0,0
191097,-125,4,2,0,13,0,0
191204,-120.481927710843,4,2,0,13,0,0
191311,-117.647058823529,4,2,0,13,0,0
191418,-113.636363636364,4,2,0,13,0,0
191525,-111.111111111111,4,2,0,13,0,0
191633,-107.52688172043,4,2,0,13,0,0
191740,-105.263157894737,4,2,0,13,0,0
191847,-102.040816326531,4,2,0,13,0,0
191954,-100,4,2,0,13,0,0
197954,-200,4,2,0,13,0,0
198811,-100,4,2,0,13,0,0
211668,-200,4,2,0,13,0,0
212097,-66.6666666666667,4,2,0,13,0,0
212150,-200,4,2,0,13,0,0
212204,-66.6666666666667,4,2,0,13,0,0
212258,-200,4,2,0,13,0,0
212311,-66.6666666666667,4,2,0,13,0,0
212365,-200,4,2,0,13,0,0
212418,-66.6666666666667,4,2,0,13,0,0
212472,-200,4,2,0,13,0,0
212525,-100,4,2,0,13,0,0
225383,-111.111111111111,4,2,0,13,0,0
225490,-125,4,2,0,13,0,0
225597,-142.857142857143,4,2,0,13,0,0
225704,-166.666666666667,4,2,0,13,0,0
225811,-200,4,2,0,13,0,0
225918,-250,4,2,0,13,0,0
226025,-333.333333333333,4,2,0,13,0,0
226133,-500,4,2,0,13,0,0
226240,-133.333333333333,4,2,0,13,0,0
227525,-100,4,2,0,13,0,0
227954,-133.333333333333,4,2,0,13,0,0
228811,-76.9230769230769,4,2,0,13,0,0
228918,-133.333333333333,4,2,0,13,0,0
229025,-76.9230769230769,4,2,0,13,0,0
229133,-133.333333333333,4,2,0,13,0,0
229454,-76.9230769230769,4,2,0,13,0,0
229561,-133.333333333333,4,2,0,13,0,0
230525,-100,4,2,0,13,0,0
230597,-133.333333333333,4,2,0,13,0,0
230668,-100,4,2,0,13,0,0
230740,-133.333333333333,4,2,0,13,0,0
230811,-100,4,2,0,13,0,0
230883,-133.333333333333,4,2,0,13,0,0
230954,-100,4,2,0,13,0,0
231025,-133.333333333333,4,2,0,13,0,0
231097,-100,4,2,0,13,0,0
231168,-133.333333333333,4,2,0,13,0,0
231240,-100,4,2,0,13,0,0
231311,-133.333333333333,4,2,0,13,0,0
231383,-100,4,2,0,13,0,0
231597,-133.333333333333,4,2,0,13,0,0
231811,-100,4,2,0,13,0,0
232025,-133.333333333333,4,2,0,13,0,0
232240,-76.9230769230769,4,2,0,13,0,0
232347,-133.333333333333,4,2,0,13,0,0
232454,-76.9230769230769,4,2,0,13,0,0
232561,-133.333333333333,4,2,0,13,0,0
232883,-76.9230769230769,4,2,0,13,0,0
232990,-133.333333333333,4,2,0,13,0,0
235668,-76.9230769230769,4,2,0,13,0,0
235775,-133.333333333333,4,2,0,13,0,0
235883,-76.9230769230769,4,2,0,13,0,0
235990,-133.333333333333,4,2,0,13,0,0
236311,-76.9230769230769,4,2,0,13,0,0
236418,-133.333333333333,4,2,0,13,0,0
237383,-100,4,2,0,13,0,0
237454,-133.333333333333,4,2,0,13,0,0
237525,-100,4,2,0,13,0,0
237597,-133.333333333333,4,2,0,13,0,0
237668,-100,4,2,0,13,0,0
237740,-133.333333333333,4,2,0,13,0,0
237811,-100,4,2,0,13,0,0
237883,-133.333333333333,4,2,0,13,0,0
237954,-100,4,2,0,13,0,0
238025,-133.333333333333,4,2,0,13,0,0
238097,-100,4,2,0,13,0,0
238168,-133.333333333333,4,2,0,13,0,0
239097,-76.9230769230769,4,2,0,13,0,0
239204,-100,4,2,0,13,0,0
239311,-133.333333333333,4,2,0,13,0,0
239418,-222.222222222221,4,2,0,13,0,0
239525,-76.9230769230769,4,2,0,13,0,0
239633,-100,4,2,0,13,0,0
239740,-133.333333333333,4,2,0,13,0,0
239847,-222.222222222221,4,2,0,13,0,0
239954,-133.333333333333,4,2,0,13,0,0
241347,-100,4,2,0,13,0,0
241668,-133.333333333333,4,2,0,13,0,0
242525,-76.9230769230769,4,2,0,13,0,0
242633,-133.333333333333,4,2,0,13,0,0
242740,-76.9230769230769,4,2,0,13,0,0
242847,-133.333333333333,4,2,0,13,0,0
243168,-76.9230769230769,4,2,0,13,0,0
243275,-133.333333333333,4,2,0,13,0,0
244240,-100,4,2,0,13,0,0
244311,-133.333333333333,4,2,0,13,0,0
244383,-100,4,2,0,13,0,0
244454,-133.333333333333,4,2,0,13,0,0
244525,-100,4,2,0,13,0,0
244597,-133.333333333333,4,2,0,13,0,0
244668,-100,4,2,0,13,0,0
244740,-133.333333333333,4,2,0,13,0,0
244811,-100,4,2,0,13,0,0
244883,-133.333333333333,4,2,0,13,0,0
244954,-100,4,2,0,13,0,0
245025,-133.333333333333,4,2,0,13,0,0
245097,-76.9230769230769,4,2,0,13,0,0
245311,-133.333333333333,4,2,0,13,0,0
245525,-76.9230769230769,4,2,0,13,0,0
245740,-133.333333333333,4,2,0,13,0,0
245954,-76.9230769230769,4,2,0,13,0,0
246061,-133.333333333333,4,2,0,13,0,0
246168,-76.9230769230769,4,2,0,13,0,0
246275,-133.333333333333,4,2,0,13,0,0
246597,-76.9230769230769,4,2,0,13,0,0
246704,-133.333333333333,4,2,0,13,0,0
248204,-100,4,2,0,13,0,0
248525,-133.333333333333,4,2,0,13,0,0
249383,-111.111111111111,4,2,0,13,0,0
249490,-125,4,2,0,13,0,0
249597,-142.857142857143,4,2,0,13,0,0
249704,-166.666666666667,4,2,0,13,0,0
249811,-200,4,2,0,13,0,0
249918,-250,4,2,0,13,0,0
250025,-333.333333333333,4,2,0,13,0,0
250133,-500,4,2,0,13,0,0
250240,-100,4,2,0,13,0,0
256240,-133.333333333333,4,2,0,13,0,0

[HitObjects]
36,192,3383,5,0,0:0:0:0:
256,192,3383,1,0,0:0:0:0:
475,192,3383,1,0,0:0:0:0:
329,192,3383,1,0,0:0:0:0:
182,192,3383,1,0,0:0:0:0:
36,192,5097,1,0,0:0:0:0:
256,192,5097,1,0,0:0:0:0:
475,192,5097,1,0,0:0:0:0:
182,192,5097,1,0,0:0:0:0:
329,192,5097,1,0,0:0:0:0:
36,192,6383,1,0,0:0:0:0:
109,192,6383,1,0,0:0:0:0:
475,192,6383,1,0,0:0:0:0:
402,192,6383,1,0,0:0:0:0:
36,192,6811,1,0,0:0:0:0:
256,192,6811,1,0,0:0:0:0:
475,192,6811,1,0,0:0:0:0:
182,192,6811,1,0,0:0:0:0:
329,192,6811,1,0,0:0:0:0:
36,192,8525,1,0,0:0:0:0:
182,192,8525,1,0,0:0:0:0:
256,192,8525,1,0,0:0:0:0:
329,192,8525,1,0,0:0:0:0:
475,192,8525,1,0,0:0:0:0:
36,192,9811,1,0,0:0:0:0:
109,192,9811,1,0,0:0:0:0:
402,192,9811,1,0,0:0:0:0:
475,192,9811,1,0,0:0:0:0:
475,192,10240,1,0,0:0:0:0:
329,192,10240,1,0,0:0:0:0:
256,192,10240,1,0,0:0:0:0:
36,192,10240,1,0,0:0:0:0:
182,192,10240,1,0,0:0:0:0:
256,192,10668,1,0,0:0:0:0:
256,192,11097,1,0,0:0:0:0:
256,192,11525,1,0,0:0:0:0:
36,192,11954,1,0,0:0:0:0:
182,192,11954,1,0,0:0:0:0:
256,192,11954,1,0,0:0:0:0:
329,192,11954,1,0,0:0:0:0:
475,192,11954,1,0,0:0:0:0:
256,192,12383,1,0,0:0:0:0:
256,192,12811,1,0,0:0:0:0:
256,192,13240,1,0,0:0:0:0:
36,192,13240,1,0,0:0:0:0:
109,192,13240,1,0,0:0:0:0:
402,192,13240,1,0,0:0:0:0:
475,192,13240,1,0,0:0:0:0:
475,192,13668,1,0,0:0:0:0:
329,192,13668,1,0,0:0:0:0:
256,192,13668,1,0,0:0:0:0:
182,192,13668,1,0,0:0:0:0:
36,192,13668,1,0,0:0:0:0:
256,192,14097,1,0,0:0:0:0:
256,192,14525,1,0,0:0:0:0:
256,192,14954,1,0,0:0:0:0:
256,192,15383,1,0,0:0:0:0:
182,192,15490,1,0,0:0:0:0:
256,192,15597,1,0,0:0:0:0:
329,192,15704,1,0,0:0:0:0:
256,192,15811,1,0,0:0:0:0:
182,192,15865,1,0,0:0:0:0:
109,192,15918,1,0,0:0:0:0:
36,192,15972,1,0,0:0:0:0:
475,192,16025,1,0,0:0:0:0:
402,192,16079,1,0,0:0:0:0:
329,192,16133,1,0,0:0:0:0:
256,192,16186,1,0,0:0:0:0:
182,192,16240,1,0,0:0:0:0:
109,192,16240,1,0,0:0:0:0:
36,192,16240,1,0,0:0:0:0:
36,192,16668,1,0,0:0:0:0:
109,192,16668,1,0,0:0:0:0:
256,192,16668,1,0,0:0:0:0:
402,192,16668,1,0,0:0:0:0:
475,192,16668,1,0,0:0:0:0:
36,192,17097,1,0,0:0:0:0:
182,192,17097,1,0,0:0:0:0:
256,192,17097,1,0,0:0:0:0:
329,192,17097,1,0,0:0:0:0:
475,192,17097,1,0,0:0:0:0:
109,192,17311,1,0,0:0:0:0:
475,192,17311,128,0,17525:0:0:0:0:
182,192,17525,1,0,0:0:0:0:
256,192,17525,1,0,0:0:0:0:
402,192,17525,128,0,17740:0:0:0:0:
329,192,17740,128,0,17954:0:0:0:0:
109,192,17740,1,0,0:0:0:0:
256,192,17954,128,0,18168:0:0:0:0:
475,192,17954,1,0,0:0:0:0:
36,192,17954,1,0,0:0:0:0:
182,192,18168,128,0,18383:0:0:0:0:
402,192,18168,1,0,0:0:0:0:
109,192,18383,128,0,18597:0:0:0:0:
329,192,18383,1,0,0:0:0:0:
475,192,18383,1,0,0:0:0:0:
36,192,18597,128,0,18811:0:0:0:0:
182,192,18597,1,0,0:0:0:0:
402,192,18597,128,0,18811:0:0:0:0:
475,192,18811,128,0,19025:0:0:0:0:
256,192,18811,1,0,0:0:0:0:
329,192,18811,1,0,0:0:0:0:
109,192,18811,128,0,19025:0:0:0:0:
402,192,19025,128,0,19240:0:0:0:0:
182,192,19025,1,0,0:0:0:0:
329,192,19240,128,0,19454:0:0:0:0:
36,192,19240,1,0,0:0:0:0:
475,192,19240,1,0,0:0:0:0:
256,192,19454,128,0,19668:0:0:0:0:
182,192,19454,1,0,0:0:0:0:
109,192,19668,128,0,19883:0:0:0:0:
329,192,19668,1,0,0:0:0:0:
402,192,19668,1,0,0:0:0:0:
182,192,19883,128,0,20097:0:0:0:0:
256,192,19883,1,0,0:0:0:0:
36,192,20097,128,0,20525:0:0:0:0:
109,192,20097,1,0,0:0:0:0:
329,192,20097,1,0,0:0:0:0:
402,192,20311,128,0,20525:0:0:0:0:
475,192,20311,1,0,0:0:0:0:
109,192,20525,128,0,20740:0:0:0:0:
182,192,20525,1,0,0:0:0:0:
256,192,20525,1,0,0:0:0:0:
36,192,20740,128,0,20954:0:0:0:0:
402,192,20740,1,0,0:0:0:0:
329,192,20954,128,0,21383:0:0:0:0:
475,192,20954,1,0,0:0:0:0:
256,192,20954,1,0,0:0:0:0:
109,192,21168,1,0,0:0:0:0:
182,192,21383,128,0,21597:0:0:0:0:
256,192,21383,1,0,0:0:0:0:
36,192,21383,1,0,0:0:0:0:
402,192,21597,128,0,21811:0:0:0:0:
109,192,21597,1,0,0:0:0:0:
256,192,21811,128,0,22025:0:0:0:0:
329,192,21811,1,0,0:0:0:0:
475,192,21811,1,0,0:0:0:0:
109,192,22025,128,0,22240:0:0:0:0:
402,192,22025,128,0,22240:0:0:0:0:
182,192,22025,1,0,0:0:0:0:
475,192,22240,128,0,22454:0:0:0:0:
36,192,22240,128,0,22454:0:0:0:0:
256,192,22240,1,0,0:0:0:0:
329,192,22240,1,0,0:0:0:0:
402,192,22454,128,0,22668:0:0:0:0:
109,192,22454,1,0,0:0:0:0:
329,192,22668,128,0,22883:0:0:0:0:
182,192,22668,1,0,0:0:0:0:
36,192,22668,1,0,0:0:0:0:
256,192,22883,128,0,23097:0:0:0:0:
475,192,22883,1,0,0:0:0:0:
109,192,23097,128,0,23311:0:0:0:0:
402,192,23097,1,0,0:0:0:0:
329,192,23097,1,0,0:0:0:0:
182,192,23311,128,0,23525:0:0:0:0:
475,192,23311,1,0,0:0:0:0:
109,192,23525,128,0,23954:0:0:0:0:
256,192,23525,1,0,0:0:0:0:
329,192,23525,1,0,0:0:0:0:
402,192,23740,128,0,23954:0:0:0:0:
36,192,23740,1,0,0:0:0:0:
182,192,23954,128,0,24168:0:0:0:0:
256,192,23954,1,0,0:0:0:0:
475,192,23954,1,0,0:0:0:0:
36,192,24168,128,0,24383:0:0:0:0:
329,192,24168,1,0,0:0:0:0:
182,192,24275,128,0,24383:0:0:0:0:
109,192,24383,128,0,24597:0:0:0:0:
256,192,24383,1,0,0:0:0:0:
402,192,24383,1,0,0:0:0:0:
182,192,24597,128,0,24811:0:0:0:0:
36,192,24597,1,0,0:0:0:0:
475,192,24597,128,0,24704:0:0:0:0:
402,192,24811,128,0,25025:0:0:0:0:
109,192,24811,1,0,0:0:0:0:
256,192,24811,1,0,0:0:0:0:
36,192,24811,128,0,24918:0:0:0:0:
329,192,25025,128,0,25240:0:0:0:0:
109,192,25025,128,0,25133:0:0:0:0:
475,192,25025,1,0,0:0:0:0:
182,192,25240,128,0,25454:0:0:0:0:
402,192,25240,128,0,25347:0:0:0:0:
36,192,25240,1,0,0:0:0:0:
109,192,25240,1,0,0:0:0:0:
256,192,25454,128,0,25668:0:0:0:0:
402,192,25454,128,0,25668:0:0:0:0:
475,192,25454,128,0,25561:0:0:0:0:
329,192,25454,1,0,0:0:0:0:
329,192,25668,128,0,25883:0:0:0:0:
109,192,25668,128,0,25883:0:0:0:0:
182,192,25668,1,0,0:0:0:0:
36,192,25668,1,0,0:0:0:0:
256,192,25883,128,0,26097:0:0:0:0:
402,192,25883,1,0,0:0:0:0:
36,192,25990,128,0,26097:0:0:0:0:
182,192,26097,128,0,26311:0:0:0:0:
329,192,26097,1,0,0:0:0:0:
109,192,26097,1,0,0:0:0:0:
36,192,26311,128,0,26525:0:0:0:0:
402,192,26311,128,0,26418:0:0:0:0:
475,192,26311,1,0,0:0:0:0:
475,192,26525,128,0,26740:0:0:0:0:
182,192,26525,1,0,0:0:0:0:
329,192,26525,1,0,0:0:0:0:
402,192,26740,128,0,26954:0:0:0:0:
109,192,26740,128,0,26847:0:0:0:0:
256,192,26740,1,0,0:0:0:0:
329,192,26954,128,0,27383:0:0:0:0:
182,192,26954,128,0,27061:0:0:0:0:
36,192,26954,1,0,0:0:0:0:
256,192,26954,1,0,0:0:0:0:
402,192,27168,128,0,27383:0:0:0:0:
475,192,27168,128,0,27275:0:0:0:0:
109,192,27168,1,0,0:0:0:0:
109,192,27383,128,0,27597:0:0:0:0:
256,192,27383,1,0,0:0:0:0:
182,192,27383,1,0,0:0:0:0:
475,192,27597,128,0,27811:0:0:0:0:
36,192,27597,1,0,0:0:0:0:
182,192,27704,128,0,27811:0:0:0:0:
402,192,27811,128,0,28025:0:0:0:0:
109,192,27811,1,0,0:0:0:0:
329,192,27811,1,0,0:0:0:0:
329,192,28025,128,0,28240:0:0:0:0:
475,192,28025,128,0,28133:0:0:0:0:
36,192,28025,1,0,0:0:0:0:
256,192,28240,128,0,28454:0:0:0:0:
402,192,28240,1,0,0:0:0:0:
182,192,28240,1,0,0:0:0:0:
109,192,28454,128,0,28668:0:0:0:0:
36,192,28454,128,0,28561:0:0:0:0:
475,192,28454,1,0,0:0:0:0:
329,192,28668,128,0,28883:0:0:0:0:
182,192,28668,128,0,28775:0:0:0:0:
402,192,28668,1,0,0:0:0:0:
256,192,28668,1,0,0:0:0:0:
109,192,28883,128,0,29097:0:0:0:0:
402,192,28883,128,0,29097:0:0:0:0:
475,192,28883,128,0,28990:0:0:0:0:
36,192,28883,1,0,0:0:0:0:
475,192,29097,128,0,29311:0:0:0:0:
182,192,29097,128,0,29311:0:0:0:0:
36,192,29097,1,0,0:0:0:0:
329,192,29097,1,0,0:0:0:0:
402,192,29311,128,0,29525:0:0:0:0:
256,192,29311,1,0,0:0:0:0:
36,192,29311,1,0,0:0:0:0:
109,192,29418,128,0,29525:0:0:0:0:
329,192,29525,128,0,29954:0:0:0:0:
182,192,29525,1,0,0:0:0:0:
475,192,29525,1,0,0:0:0:0:
402,192,29740,128,0,29847:0:0:0:0:
256,192,29740,1,0,0:0:0:0:
109,192,29740,1,0,0:0:0:0:
182,192,29954,128,0,30168:0:0:0:0:
475,192,29954,1,0,0:0:0:0:
402,192,30061,1,0,0:0:0:0:
329,192,30168,1,0,0:0:0:0:
256,192,30275,1,0,0:0:0:0:
36,192,30383,1,0,0:0:0:0:
109,192,30436,1,0,0:0:0:0:
182,192,30490,1,0,0:0:0:0:
256,192,30543,1,0,0:0:0:0:
329,192,30597,1,0,0:0:0:0:
256,192,30650,1,0,0:0:0:0:
182,192,30704,1,0,0:0:0:0:
109,192,30758,1,0,0:0:0:0:
36,192,30811,1,0,0:0:0:0:
256,192,30811,1,0,0:0:0:0:
329,192,30811,1,0,0:0:0:0:
475,192,30811,1,0,0:0:0:0:
402,192,30811,128,0,31133:0:0:0:0:
109,192,31025,1,0,0:0:0:0:
402,192,31240,128,0,31561:0:0:0:0:
36,192,31240,1,0,0:0:0:0:
182,192,31240,1,0,0:0:0:0:
256,192,31240,1,0,0:0:0:0:
329,192,31454,1,0,0:0:0:0:
402,192,31668,128,0,31883:0:0:0:0:
109,192,31668,1,0,0:0:0:0:
256,192,31668,1,0,0:0:0:0:
182,192,31883,1,0,0:0:0:0:
402,192,31990,128,0,32097:0:0:0:0:
36,192,32097,1,0,0:0:0:0:
329,192,32097,1,0,0:0:0:0:
475,192,32097,1,0,0:0:0:0:
109,192,32311,128,0,32525:0:0:0:0:
256,192,32311,1,0,0:0:0:0:
402,192,32525,128,0,32847:0:0:0:0:
182,192,32525,1,0,0:0:0:0:
475,192,32525,1,0,0:0:0:0:
329,192,32740,1,0,0:0:0:0:
402,192,32954,128,0,33275:0:0:0:0:
36,192,32954,1,0,0:0:0:0:
109,192,32954,1,0,0:0:0:0:
256,192,32954,1,0,0:0:0:0:
475,192,33168,1,0,0:0:0:0:
402,192,33383,128,0,33597:0:0:0:0:
109,192,33383,1,0,0:0:0:0:
329,192,33383,1,0,0:0:0:0:
36,192,33383,128,0,33597:0:0:0:0:
256,192,33597,1,0,0:0:0:0:
182,192,33597,128,0,33811:0:0:0:0:
402,192,33704,128,0,33811:0:0:0:0:
109,192,33811,1,0,0:0:0:0:
475,192,33811,1,0,0:0:0:0:
329,192,33811,1,0,0:0:0:0:
475,192,34025,128,0,34240:0:0:0:0:
36,192,34025,128,0,34240:0:0:0:0:
256,192,34025,1,0,0:0:0:0:
329,192,34240,1,0,0:0:0:0:
402,192,34240,128,0,34561:0:0:0:0:
182,192,34240,1,0,0:0:0:0:
109,192,34454,1,0,0:0:0:0:
402,192,34668,128,0,34990:0:0:0:0:
36,192,34668,1,0,0:0:0:0:
475,192,34668,1,0,0:0:0:0:
329,192,34668,1,0,0:0:0:0:
109,192,34883,1,0,0:0:0:0:
402,192,35097,128,0,35311:0:0:0:0:
182,192,35097,1,0,0:0:0:0:
329,192,35097,1,0,0:0:0:0:
109,192,35311,1,0,0:0:0:0:
402,192,35418,128,0,35525:0:0:0:0:
256,192,35525,1,0,0:0:0:0:
329,192,35525,1,0,0:0:0:0:
475,192,35525,1,0,0:0:0:0:
109,192,35740,128,0,35954:0:0:0:0:
182,192,35740,1,0,0:0:0:0:
402,192,35954,128,0,36168:0:0:0:0:
329,192,35954,1,0,0:0:0:0:
36,192,35954,1,0,0:0:0:0:
256,192,36168,1,0,0:0:0:0:
402,192,36275,128,0,36383:0:0:0:0:
36,192,36383,1,0,0:0:0:0:
329,192,36383,1,0,0:0:0:0:
182,192,36383,1,0,0:0:0:0:
109,192,36597,128,0,36811:0:0:0:0:
256,192,36597,1,0,0:0:0:0:
402,192,36811,128,0,37025:0:0:0:0:
36,192,36811,128,0,36918:0:0:0:0:
329,192,36811,1,0,0:0:0:0:
475,192,36811,1,0,0:0:0:0:
36,192,37025,128,0,37133:0:0:0:0:
182,192,37025,128,0,37133:0:0:0:0:
329,192,37025,1,0,0:0:0:0:
182,192,37240,128,0,37347:0:0:0:0:
475,192,37240,1,0,0:0:0:0:
36,192,37240,128,0,37347:0:0:0:0:
329,192,37347,1,0,0:0:0:0:
36,192,37454,128,0,37561:0:0:0:0:
182,192,37454,128,0,37561:0:0:0:0:
475,192,37454,1,0,0:0:0:0:
329,192,37561,1,0,0:0:0:0:
36,192,37668,1,0,0:0:0:0:
109,192,37668,1,0,0:0:0:0:
256,192,37668,1,0,0:0:0:0:
475,192,37668,1,0,0:0:0:0:
402,192,37668,128,0,37990:0:0:0:0:
182,192,37883,1,0,0:0:0:0:
402,192,38097,128,0,38418:0:0:0:0:
36,192,38097,1,0,0:0:0:0:
256,192,38097,1,0,0:0:0:0:
475,192,38097,1,0,0:0:0:0:
329,192,38311,1,0,0:0:0:0:
402,192,38525,128,0,38740:0:0:0:0:
109,192,38525,1,0,0:0:0:0:
182,192,38525,1,0,0:0:0:0:
36,192,38740,1,0,0:0:0:0:
402,192,38847,128,0,38954:0:0:0:0:
182,192,38954,1,0,0:0:0:0:
256,192,38954,1,0,0:0:0:0:
475,192,38954,1,0,0:0:0:0:
109,192,39168,128,0,39383:0:0:0:0:
36,192,39168,1,0,0:0:0:0:
402,192,39383,128,0,39704:0:0:0:0:
182,192,39383,1,0,0:0:0:0:
329,192,39383,1,0,0:0:0:0:
109,192,39597,1,0,0:0:0:0:
402,192,39811,128,0,40133:0:0:0:0:
182,192,39811,1,0,0:0:0:0:
256,192,39811,1,0,0:0:0:0:
329,192,39811,1,0,0:0:0:0:
36,192,40025,1,0,0:0:0:0:
402,192,40240,128,0,40454:0:0:0:0:
182,192,40240,128,0,40454:0:0:0:0:
329,192,40240,1,0,0:0:0:0:
475,192,40240,1,0,0:0:0:0:
36,192,40454,128,0,40668:0:0:0:0:
256,192,40454,1,0,0:0:0:0:
402,192,40561,128,0,40668:0:0:0:0:
109,192,40668,1,0,0:0:0:0:
256,192,40668,1,0,0:0:0:0:
329,192,40668,1,0,0:0:0:0:
182,192,40883,128,0,41097:0:0:0:0:
475,192,40883,128,0,41097:0:0:0:0:
36,192,40883,1,0,0:0:0:0:
402,192,41097,128,0,41418:0:0:0:0:
109,192,41097,1,0,0:0:0:0:
329,192,41097,1,0,0:0:0:0:
36,192,41311,1,0,0:0:0:0:
402,192,41525,128,0,41847:0:0:0:0:
109,192,41525,1,0,0:0:0:0:
256,192,41525,1,0,0:0:0:0:
475,192,41525,1,0,0:0:0:0:
329,192,41740,1,0,0:0:0:0:
402,192,41954,128,0,42168:0:0:0:0:
182,192,41954,1,0,0:0:0:0:
36,192,41954,1,0,0:0:0:0:
109,192,42168,1,0,0:0:0:0:
402,192,42275,128,0,42383:0:0:0:0:
256,192,42383,1,0,0:0:0:0:
36,192,42383,1,0,0:0:0:0:
475,192,42383,1,0,0:0:0:0:
109,192,42597,128,0,42811:0:0:0:0:
329,192,42597,1,0,0:0:0:0:
402,192,42811,128,0,43025:0:0:0:0:
182,192,42811,1,0,0:0:0:0:
36,192,42811,1,0,0:0:0:0:
256,192,43025,1,0,0:0:0:0:
402,192,43133,128,0,43240:0:0:0:0:
36,192,43240,1,0,0:0:0:0:
109,192,43240,1,0,0:0:0:0:
329,192,43240,1,0,0:0:0:0:
475,192,43454,128,0,43668:0:0:0:0:
182,192,43454,1,0,0:0:0:0:
402,192,43454,128,0,43561:0:0:0:0:
402,192,43668,128,0,43883:0:0:0:0:
36,192,43668,1,0,0:0:0:0:
329,192,43668,128,0,44097:0:0:0:0:
182,192,43883,1,0,0:0:0:0:
36,192,44097,128,0,44525:0:0:0:0:
109,192,44097,1,0,0:0:0:0:
256,192,44097,1,0,0:0:0:0:
402,192,44097,1,0,0:0:0:0:
475,192,44097,1,0,0:0:0:0:
329,192,44204,1,0,0:0:0:0:
182,192,44311,1,0,0:0:0:0:
329,192,44418,1,0,0:0:0:0:
109,192,44525,128,0,44740:0:0:0:0:
475,192,44525,1,0,0:0:0:0:
402,192,44525,1,0,0:0:0:0:
256,192,44525,1,0,0:0:0:0:
182,192,44525,1,0,0:0:0:0:
329,192,44740,128,0,44954:0:0:0:0:
36,192,44740,1,0,0:0:0:0:
475,192,44954,128,0,45168:0:0:0:0:
109,192,44954,1,0,0:0:0:0:
256,192,44954,1,0,0:0:0:0:
402,192,45168,128,0,45383:0:0:0:0:
182,192,45168,1,0,0:0:0:0:
329,192,45383,128,0,45597:0:0:0:0:
36,192,45383,1,0,0:0:0:0:
256,192,45383,1,0,0:0:0:0:
182,192,45597,128,0,45811:0:0:0:0:
402,192,45597,1,0,0:0:0:0:
109,192,45811,128,0,46025:0:0:0:0:
256,192,45811,1,0,0:0:0:0:
475,192,45811,1,0,0:0:0:0:
36,192,46025,128,0,46240:0:0:0:0:
402,192,46025,128,0,46240:0:0:0:0:
182,192,46025,1,0,0:0:0:0:
475,192,46240,128,0,46454:0:0:0:0:
109,192,46240,128,0,46454:0:0:0:0:
256,192,46240,1,0,0:0:0:0:
329,192,46240,1,0,0:0:0:0:
402,192,46454,128,0,46668:0:0:0:0:
182,192,46454,1,0,0:0:0:0:
329,192,46668,128,0,46883:0:0:0:0:
109,192,46668,1,0,0:0:0:0:
475,192,46668,1,0,0:0:0:0:
36,192,46883,128,0,47097:0:0:0:0:
182,192,46883,1,0,0:0:0:0:
109,192,47097,128,0,47311:0:0:0:0:
402,192,47097,1,0,0:0:0:0:
329,192,47097,1,0,0:0:0:0:
475,192,47311,128,0,47525:0:0:0:0:
182,192,47311,1,0,0:0:0:0:
402,192,47525,128,0,47954:0:0:0:0:
36,192,47525,1,0,0:0:0:0:
256,192,47525,1,0,0:0:0:0:
475,192,47740,128,0,47954:0:0:0:0:
109,192,47740,1,0,0:0:0:0:
36,192,47954,128,0,48168:0:0:0:0:
256,192,47954,1,0,0:0:0:0:
329,192,47954,1,0,0:0:0:0:
109,192,48168,128,0,48383:0:0:0:0:
182,192,48168,1,0,0:0:0:0:
475,192,48383,128,0,48597:0:0:0:0:
329,192,48383,1,0,0:0:0:0:
36,192,48383,1,0,0:0:0:0:
402,192,48597,128,0,48811:0:0:0:0:
109,192,48597,1,0,0:0:0:0:
475,192,48811,128,0,49025:0:0:0:0:
182,192,48811,1,0,0:0:0:0:
329,192,48811,1,0,0:0:0:0:
402,192,49025,128,0,49240:0:0:0:0:
109,192,49025,1,0,0:0:0:0:
256,192,49240,128,0,49454:0:0:0:0:
182,192,49240,1,0,0:0:0:0:
475,192,49240,1,0,0:0:0:0:
109,192,49454,128,0,49668:0:0:0:0:
36,192,49454,1,0,0:0:0:0:
402,192,49454,128,0,49668:0:0:0:0:
475,192,49668,128,0,49883:0:0:0:0:
329,192,49668,1,0,0:0:0:0:
256,192,49668,1,0,0:0:0:0:
36,192,49668,128,0,49883:0:0:0:0:
402,192,49883,128,0,50097:0:0:0:0:
182,192,49883,1,0,0:0:0:0:
329,192,50097,128,0,50311:0:0:0:0:
36,192,50097,1,0,0:0:0:0:
109,192,50097,1,0,0:0:0:0:
256,192,50311,128,0,50525:0:0:0:0:
402,192,50311,1,0,0:0:0:0:
109,192,50525,128,0,50740:0:0:0:0:
36,192,50525,1,0,0:0:0:0:
475,192,50525,1,0,0:0:0:0:
182,192,50740,128,0,50954:0:0:0:0:
329,192,50740,1,0,0:0:0:0:
109,192,50954,128,0,51383:0:0:0:0:
256,192,50954,1,0,0:0:0:0:
475,192,50954,1,0,0:0:0:0:
402,192,51168,128,0,51383:0:0:0:0:
329,192,51168,1,0,0:0:0:0:
36,192,51383,128,0,51597:0:0:0:0:
182,192,51383,1,0,0:0:0:0:
256,192,51383,1,0,0:0:0:0:
475,192,51597,128,0,51811:0:0:0:0:
329,192,51597,1,0,0:0:0:0:
109,192,51704,128,0,51811:0:0:0:0:
402,192,51811,128,0,52025:0:0:0:0:
36,192,51811,1,0,0:0:0:0:
182,192,51811,1,0,0:0:0:0:
256,192,52025,128,0,52240:0:0:0:0:
475,192,52025,128,0,52133:0:0:0:0:
109,192,52025,1,0,0:0:0:0:
182,192,52240,128,0,52454:0:0:0:0:
329,192,52240,1,0,0:0:0:0:
402,192,52240,1,0,0:0:0:0:
109,192,52454,128,0,52668:0:0:0:0:
256,192,52454,128,0,52561:0:0:0:0:
475,192,52454,1,0,0:0:0:0:
329,192,52668,128,0,52883:0:0:0:0:
402,192,52668,128,0,52775:0:0:0:0:
182,192,52668,1,0,0:0:0:0:
36,192,52668,1,0,0:0:0:0:
256,192,52883,128,0,53097:0:0:0:0:
109,192,52883,1,0,0:0:0:0:
36,192,52883,128,0,52990:0:0:0:0:
475,192,52883,128,0,53097:0:0:0:0:
182,192,53097,128,0,53311:0:0:0:0:
329,192,53097,1,0,0:0:0:0:
402,192,53097,1,0,0:0:0:0:
109,192,53097,128,0,53311:0:0:0:0:
475,192,53311,128,0,53525:0:0:0:0:
256,192,53311,1,0,0:0:0:0:
36,192,53418,128,0,53525:0:0:0:0:
402,192,53525,128,0,53740:0:0:0:0:
182,192,53525,1,0,0:0:0:0:
109,192,53525,1,0,0:0:0:0:
329,192,53740,128,0,53954:0:0:0:0:
256,192,53740,128,0,53847:0:0:0:0:
475,192,53740,1,0,0:0:0:0:
109,192,53954,128,0,54168:0:0:0:0:
182,192,53954,1,0,0:0:0:0:
402,192,53954,1,0,0:0:0:0:
256,192,54168,128,0,54383:0:0:0:0:
36,192,54168,128,0,54275:0:0:0:0:
475,192,54168,1,0,0:0:0:0:
329,192,54383,128,0,54490:0:0:0:0:
109,192,54383,128,0,54811:0:0:0:0:
182,192,54383,1,0,0:0:0:0:
36,192,54383,1,0,0:0:0:0:
402,192,54597,128,0,54811:0:0:0:0:
475,192,54597,128,0,54704:0:0:0:0:
256,192,54597,1,0,0:0:0:0:
182,192,54811,128,0,55025:0:0:0:0:
329,192,54811,1,0,0:0:0:0:
36,192,54811,1,0,0:0:0:0:
475,192,55025,128,0,55240:0:0:0:0:
256,192,55025,1,0,0:0:0:0:
109,192,55133,128,0,55240:0:0:0:0:
402,192,55240,128,0,55454:0:0:0:0:
329,192,55240,1,0,0:0:0:0:
36,192,55240,1,0,0:0:0:0:
329,192,55454,128,0,55668:0:0:0:0:
182,192,55454,128,0,55561:0:0:0:0:
109,192,55454,1,0,0:0:0:0:
256,192,55668,128,0,55883:0:0:0:0:
475,192,55668,1,0,0:0:0:0:
402,192,55668,1,0,0:0:0:0:
182,192,55883,128,0,56097:0:0:0:0:
36,192,55883,128,0,55990:0:0:0:0:
329,192,55883,1,0,0:0:0:0:
109,192,56097,128,0,56311:0:0:0:0:
256,192,56097,128,0,56204:0:0:0:0:
36,192,56097,1,0,0:0:0:0:
475,192,56097,1,0,0:0:0:0:
475,192,56311,128,0,56525:0:0:0:0:
402,192,56311,128,0,56418:0:0:0:0:
182,192,56311,128,0,56525:0:0:0:0:
329,192,56311,1,0,0:0:0:0:
329,192,56525,128,0,56740:0:0:0:0:
256,192,56525,1,0,0:0:0:0:
36,192,56525,128,0,56740:0:0:0:0:
182,192,56740,128,0,56954:0:0:0:0:
109,192,56740,1,0,0:0:0:0:
402,192,56740,1,0,0:0:0:0:
329,192,56954,128,0,57811:0:0:0:0:
475,192,56954,1,0,0:0:0:0:
256,192,56954,1,0,0:0:0:0:
36,192,57168,1,0,0:0:0:0:
182,192,57168,1,0,0:0:0:0:
475,192,57383,1,0,0:0:0:0:
402,192,57490,1,0,0:0:0:0:
36,192,57597,1,0,0:0:0:0:
109,192,57704,1,0,0:0:0:0:
256,192,57811,1,0,0:0:0:0:
182,192,57865,1,0,0:0:0:0:
109,192,57918,1,0,0:0:0:0:
36,192,57972,1,0,0:0:0:0:
475,192,58025,1,0,0:0:0:0:
402,192,58079,1,0,0:0:0:0:
329,192,58133,1,0,0:0:0:0:
256,192,58186,1,0,0:0:0:0:
182,192,58240,1,0,0:0:0:0:
109,192,58240,1,0,0:0:0:0:
475,192,58240,1,0,0:0:0:0:
36,192,58240,128,0,58561:0:0:0:0:
329,192,58454,1,0,0:0:0:0:
182,192,58561,128,0,58668:0:0:0:0:
109,192,58668,1,0,0:0:0:0:
256,192,58668,1,0,0:0:0:0:
475,192,58668,1,0,0:0:0:0:
402,192,58883,128,0,59097:0:0:0:0:
329,192,58883,1,0,0:0:0:0:
109,192,59097,128,0,59418:0:0:0:0:
182,192,59097,1,0,0:0:0:0:
475,192,59097,1,0,0:0:0:0:
256,192,59311,1,0,0:0:0:0:
329,192,59418,128,0,59525:0:0:0:0:
36,192,59525,1,0,0:0:0:0:
402,192,59525,1,0,0:0:0:0:
182,192,59525,1,0,0:0:0:0:
329,192,59740,128,0,59954:0:0:0:0:
109,192,59740,1,0,0:0:0:0:
402,192,59954,128,0,60275:0:0:0:0:
475,192,59954,1,0,0:0:0:0:
256,192,59954,1,0,0:0:0:0:
182,192,60168,1,0,0:0:0:0:
109,192,60275,128,0,60383:0:0:0:0:
36,192,60383,1,0,0:0:0:0:
256,192,60383,1,0,0:0:0:0:
329,192,60383,1,0,0:0:0:0:
475,192,60597,128,0,60811:0:0:0:0:
109,192,60597,1,0,0:0:0:0:
329,192,60811,128,0,61025:0:0:0:0:
36,192,60811,128,0,61025:0:0:0:0:
182,192,60811,1,0,0:0:0:0:
402,192,60811,1,0,0:0:0:0:
256,192,61025,128,0,61240:0:0:0:0:
109,192,61025,128,0,61240:0:0:0:0:
475,192,61025,1,0,0:0:0:0:
182,192,61240,128,0,61454:0:0:0:0:
329,192,61240,1,0,0:0:0:0:
402,192,61240,1,0,0:0:0:0:
475,192,61240,1,0,0:0:0:0:
36,192,61240,128,0,61347:0:0:0:0:
256,192,61347,128,0,61454:0:0:0:0:
109,192,61454,128,0,61668:0:0:0:0:
36,192,61454,128,0,61668:0:0:0:0:
402,192,61454,1,0,0:0:0:0:
182,192,61668,128,0,61990:0:0:0:0:
329,192,61668,1,0,0:0:0:0:
475,192,61668,1,0,0:0:0:0:
402,192,61883,1,0,0:0:0:0:
256,192,61990,128,0,62097:0:0:0:0:
36,192,62097,1,0,0:0:0:0:
109,192,62097,1,0,0:0:0:0:
329,192,62097,1,0,0:0:0:0:
402,192,62311,128,0,62525:0:0:0:0:
182,192,62311,1,0,0:0:0:0:
182,192,62525,128,0,62847:0:0:0:0:
109,192,62525,1,0,0:0:0:0:
256,192,62525,1,0,0:0:0:0:
402,192,62740,1,0,0:0:0:0:
329,192,62847,128,0,62954:0:0:0:0:
36,192,62954,1,0,0:0:0:0:
109,192,62954,1,0,0:0:0:0:
475,192,62954,1,0,0:0:0:0:
329,192,63168,128,0,63383:0:0:0:0:
182,192,63168,1,0,0:0:0:0:
402,192,63383,128,0,63704:0:0:0:0:
256,192,63383,1,0,0:0:0:0:
109,192,63383,1,0,0:0:0:0:
329,192,63597,1,0,0:0:0:0:
109,192,63704,128,0,63811:0:0:0:0:
182,192,63811,1,0,0:0:0:0:
256,192,63811,1,0,0:0:0:0:
475,192,63811,1,0,0:0:0:0:
475,192,64025,128,0,64240:0:0:0:0:
402,192,64025,1,0,0:0:0:0:
36,192,64240,128,0,64347:0:0:0:0:
182,192,64240,1,0,0:0:0:0:
36,192,64454,128,0,64561:0:0:0:0:
329,192,64454,128,0,64561:0:0:0:0:
182,192,64454,1,0,0:0:0:0:
36,192,64668,128,0,64775:0:0:0:0:
329,192,64668,128,0,64775:0:0:0:0:
182,192,64668,1,0,0:0:0:0:
475,192,64775,1,0,0:0:0:0:
36,192,64883,128,0,64990:0:0:0:0:
329,192,64883,128,0,64990:0:0:0:0:
182,192,64883,1,0,0:0:0:0:
475,192,64990,1,0,0:0:0:0:
36,192,65097,1,0,0:0:0:0:
256,192,65097,1,0,0:0:0:0:
329,192,65097,1,0,0:0:0:0:
402,192,65097,1,0,0:0:0:0:
109,192,65097,128,0,65418:0:0:0:0:
182,192,65097,1,0,0:0:0:0:
475,192,65311,1,0,0:0:0:0:
182,192,65418,128,0,65525:0:0:0:0:
256,192,65525,1,0,0:0:0:0:
36,192,65525,1,0,0:0:0:0:
402,192,65525,1,0,0:0:0:0:
329,192,65740,128,0,65954:0:0:0:0:
109,192,65740,1,0,0:0:0:0:
36,192,65954,128,0,66275:0:0:0:0:
182,192,65954,1,0,0:0:0:0:
402,192,65954,1,0,0:0:0:0:
256,192,66168,1,0,0:0:0:0:
182,192,66275,128,0,66383:0:0:0:0:
475,192,66383,1,0,0:0:0:0:
402,192,66383,1,0,0:0:0:0:
109,192,66383,1,0,0:0:0:0:
256,192,66597,128,0,66811:0:0:0:0:
182,192,66597,1,0,0:0:0:0:
402,192,66811,128,0,67133:0:0:0:0:
36,192,66811,1,0,0:0:0:0:
329,192,66811,1,0,0:0:0:0:
109,192,67025,1,0,0:0:0:0:
182,192,67133,128,0,67240:0:0:0:0:
256,192,67240,1,0,0:0:0:0:
329,192,67240,1,0,0:0:0:0:
36,192,67240,1,0,0:0:0:0:
475,192,67454,128,0,67668:0:0:0:0:
109,192,67454,1,0,0:0:0:0:
402,192,67668,128,0,67883:0:0:0:0:
182,192,67668,128,0,67883:0:0:0:0:
256,192,67668,1,0,0:0:0:0:
36,192,67668,1,0,0:0:0:0:
329,192,67883,128,0,68097:0:0:0:0:
109,192,67883,128,0,68097:0:0:0:0:
475,192,67883,1,0,0:0:0:0:
256,192,68097,128,0,68311:0:0:0:0:
402,192,68097,1,0,0:0:0:0:
182,192,68097,1,0,0:0:0:0:
36,192,68097,128,0,68204:0:0:0:0:
329,192,68204,128,0,68311:0:0:0:0:
182,192,68311,128,0,68525:0:0:0:0:
36,192,68311,128,0,68525:0:0:0:0:
475,192,68311,1,0,0:0:0:0:
109,192,68525,128,0,68847:0:0:0:0:
256,192,68525,1,0,0:0:0:0:
329,192,68525,1,0,0:0:0:0:
402,192,68740,1,0,0:0:0:0:
256,192,68847,128,0,68954:0:0:0:0:
182,192,68954,1,0,0:0:0:0:
36,192,68954,1,0,0:0:0:0:
475,192,68954,1,0,0:0:0:0:
329,192,69168,128,0,69383:0:0:0:0:
109,192,69168,1,0,0:0:0:0:
36,192,69383,128,0,69704:0:0:0:0:
182,192,69383,1,0,0:0:0:0:
402,192,69383,1,0,0:0:0:0:
109,192,69597,1,0,0:0:0:0:
256,192,69704,128,0,69811:0:0:0:0:
182,192,69811,1,0,0:0:0:0:
402,192,69811,1,0,0:0:0:0:
475,192,69811,1,0,0:0:0:0:
329,192,70025,128,0,70240:0:0:0:0:
256,192,70025,1,0,0:0:0:0:
402,192,70240,128,0,70561:0:0:0:0:
36,192,70240,1,0,0:0:0:0:
182,192,70240,1,0,0:0:0:0:
256,192,70454,1,0,0:0:0:0:
109,192,70561,128,0,70668:0:0:0:0:
182,192,70668,1,0,0:0:0:0:
329,192,70668,1,0,0:0:0:0:
36,192,70668,1,0,0:0:0:0:
475,192,70883,128,0,71097:0:0:0:0:
109,192,70883,1,0,0:0:0:0:
329,192,71097,128,0,71204:0:0:0:0:
182,192,71097,1,0,0:0:0:0:
329,192,71311,128,0,71418:0:0:0:0:
182,192,71311,1,0,0:0:0:0:
329,192,71525,128,0,71633:0:0:0:0:
182,192,71525,1,0,0:0:0:0:
402,192,71633,128,0,71740:0:0:0:0:
109,192,71633,1,0,0:0:0:0:
329,192,71740,128,0,71847:0:0:0:0:
182,192,71740,1,0,0:0:0:0:
402,192,71847,128,0,71954:0:0:0:0:
109,192,71847,1,0,0:0:0:0:
182,192,71954,1,0,0:0:0:0:
256,192,71954,1,0,0:0:0:0:
329,192,71954,1,0,0:0:0:0:
475,192,71954,1,0,0:0:0:0:
36,192,71954,128,0,72597:0:0:0:0:
402,192,72383,1,0,0:0:0:0:
182,192,72597,1,0,0:0:0:0:
329,192,72597,1,0,0:0:0:0:
36,192,72811,128,0,72918:0:0:0:0:
256,192,72811,1,0,0:0:0:0:
402,192,72811,1,0,0:0:0:0:
475,192,72811,1,0,0:0:0:0:
109,192,72918,128,0,73025:0:0:0:0:
182,192,73025,128,0,73133:0:0:0:0:
329,192,73133,128,0,73240:0:0:0:0:
182,192,73240,128,0,73454:0:0:0:0:
402,192,73240,1,0,0:0:0:0:
109,192,73454,128,0,73668:0:0:0:0:
329,192,73454,1,0,0:0:0:0:
36,192,73668,128,0,73883:0:0:0:0:
256,192,73668,1,0,0:0:0:0:
402,192,73668,1,0,0:0:0:0:
182,192,73668,128,0,73883:0:0:0:0:
475,192,73883,128,0,74097:0:0:0:0:
329,192,73883,128,0,74097:0:0:0:0:
36,192,74097,128,0,74311:0:0:0:0:
256,192,74097,1,0,0:0:0:0:
182,192,74097,128,0,74311:0:0:0:0:
329,192,74311,1,0,0:0:0:0:
475,192,74525,128,0,74740:0:0:0:0:
36,192,74525,128,0,74633:0:0:0:0:
256,192,74525,1,0,0:0:0:0:
182,192,74525,1,0,0:0:0:0:
402,192,74525,1,0,0:0:0:0:
329,192,74525,128,0,74740:0:0:0:0:
109,192,74633,128,0,74740:0:0:0:0:
182,192,74740,128,0,74847:0:0:0:0:
109,192,74847,128,0,74954:0:0:0:0:
402,192,74847,1,0,0:0:0:0:
36,192,74954,128,0,75383:0:0:0:0:
256,192,74954,1,0,0:0:0:0:
402,192,75168,1,0,0:0:0:0:
109,192,75383,128,0,75490:0:0:0:0:
329,192,75383,1,0,0:0:0:0:
475,192,75383,1,0,0:0:0:0:
182,192,75490,128,0,75597:0:0:0:0:
256,192,75597,128,0,75704:0:0:0:0:
329,192,75704,128,0,75811:0:0:0:0:
36,192,75811,128,0,76025:0:0:0:0:
182,192,75811,1,0,0:0:0:0:
402,192,75811,128,0,76025:0:0:0:0:
109,192,76025,1,0,0:0:0:0:
402,192,76240,128,0,76347:0:0:0:0:
36,192,76240,1,0,0:0:0:0:
182,192,76240,1,0,0:0:0:0:
256,192,76240,1,0,0:0:0:0:
475,192,76347,128,0,76454:0:0:0:0:
329,192,76454,128,0,76561:0:0:0:0:
402,192,76561,128,0,76668:0:0:0:0:
256,192,76668,128,0,77097:0:0:0:0:
109,192,76668,1,0,0:0:0:0:
402,192,76883,1,0,0:0:0:0:
182,192,77097,128,0,77311:0:0:0:0:
36,192,77097,128,0,77311:0:0:0:0:
329,192,77097,1,0,0:0:0:0:
475,192,77097,1,0,0:0:0:0:
256,192,77418,1,0,0:0:0:0:
329,192,77525,128,0,77740:0:0:0:0:
475,192,77525,128,0,77740:0:0:0:0:
36,192,77525,1,0,0:0:0:0:
182,192,77525,1,0,0:0:0:0:
256,192,77740,1,0,0:0:0:0:
109,192,77954,128,0,78061:0:0:0:0:
36,192,77954,1,0,0:0:0:0:
475,192,77954,1,0,0:0:0:0:
329,192,77954,1,0,0:0:0:0:
256,192,78061,128,0,78168:0:0:0:0:
402,192,78168,128,0,78275:0:0:0:0:
256,192,78275,128,0,78383:0:0:0:0:
182,192,78275,1,0,0:0:0:0:
109,192,78597,1,0,0:0:0:0:
182,192,78597,1,0,0:0:0:0:
402,192,78597,1,0,0:0:0:0:
36,192,78811,1,0,0:0:0:0:
256,192,78811,1,0,0:0:0:0:
329,192,78811,1,0,0:0:0:0:
402,192,78811,128,0,79668:0:0:0:0:
475,192,78811,128,0,79668:0:0:0:0:
109,192,79133,1,0,0:0:0:0:
182,192,79240,1,0,0:0:0:0:
182,192,79454,1,0,0:0:0:0:
109,192,79668,128,0,79775:0:0:0:0:
36,192,79668,1,0,0:0:0:0:
256,192,79668,1,0,0:0:0:0:
329,192,79668,1,0,0:0:0:0:
182,192,79775,128,0,79883:0:0:0:0:
256,192,79883,128,0,79990:0:0:0:0:
329,192,79990,128,0,80097:0:0:0:0:
402,192,79990,1,0,0:0:0:0:
36,192,80097,128,0,80525:0:0:0:0:
109,192,80097,1,0,0:0:0:0:
182,192,80311,1,0,0:0:0:0:
402,192,80311,1,0,0:0:0:0:
475,192,80525,128,0,80740:0:0:0:0:
256,192,80525,128,0,80740:0:0:0:0:
109,192,80525,1,0,0:0:0:0:
402,192,80740,128,0,80954:0:0:0:0:
182,192,80740,128,0,80954:0:0:0:0:
36,192,80847,1,0,0:0:0:0:
329,192,80954,128,0,81168:0:0:0:0:
109,192,80954,128,0,81168:0:0:0:0:
256,192,80954,1,0,0:0:0:0:
256,192,81168,128,0,81383:0:0:0:0:
475,192,81168,1,0,0:0:0:0:
109,192,81383,1,0,0:0:0:0:
402,192,81383,1,0,0:0:0:0:
329,192,81383,1,0,0:0:0:0:
182,192,81490,128,0,81597:0:0:0:0:
329,192,81597,128,0,81704:0:0:0:0:
475,192,81704,128,0,81811:0:0:0:0:
109,192,81704,1,0,0:0:0:0:
36,192,81811,128,0,82240:0:0:0:0:
402,192,81811,1,0,0:0:0:0:
182,192,82025,1,0,0:0:0:0:
256,192,82025,1,0,0:0:0:0:
329,192,82025,1,0,0:0:0:0:
109,192,82240,1,0,0:0:0:0:
329,192,82240,1,0,0:0:0:0:
475,192,82240,1,0,0:0:0:0:
402,192,82240,1,0,0:0:0:0:
182,192,82240,1,0,0:0:0:0:
182,192,82454,128,0,83097:0:0:0:0:
329,192,82454,128,0,83097:0:0:0:0:
36,192,83097,1,0,0:0:0:0:
475,192,83097,1,0,0:0:0:0:
256,192,83097,1,0,0:0:0:0:
109,192,83097,1,0,0:0:0:0:
402,192,83097,1,0,0:0:0:0:
109,192,83311,128,0,83954:0:0:0:0:
402,192,83311,128,0,83954:0:0:0:0:
182,192,83954,1,0,0:0:0:0:
329,192,83954,1,0,0:0:0:0:
256,192,83954,1,0,0:0:0:0:
475,192,83954,1,0,0:0:0:0:
36,192,83954,1,0,0:0:0:0:
36,192,84168,128,0,84811:0:0:0:0:
475,192,84168,128,0,84811:0:0:0:0:
109,192,84811,1,0,0:0:0:0:
402,192,84811,1,0,0:0:0:0:
256,192,84811,1,0,0:0:0:0:
329,192,84811,1,0,0:0:0:0:
182,192,84811,1,0,0:0:0:0:
256,192,85025,128,0,85668:0:0:0:0:
36,192,85668,1,0,0:0:0:0:
182,192,85668,1,0,0:0:0:0:
329,192,85668,1,0,0:0:0:0:
475,192,85668,1,0,0:0:0:0:
402,192,85668,128,0,86525:0:0:0:0:
256,192,85883,1,0,0:0:0:0:
36,192,86097,1,0,0:0:0:0:
109,192,86097,1,0,0:0:0:0:
475,192,86097,1,0,0:0:0:0:
182,192,86311,1,0,0:0:0:0:
329,192,86525,128,0,87383:0:0:0:0:
256,192,86525,1,0,0:0:0:0:
109,192,86525,1,0,0:0:0:0:
402,192,86740,1,0,0:0:0:0:
36,192,86954,1,0,0:0:0:0:
109,192,86954,1,0,0:0:0:0:
182,192,86954,1,0,0:0:0:0:
475,192,87168,1,0,0:0:0:0:
256,192,87383,128,0,87811:0:0:0:0:
36,192,87383,1,0,0:0:0:0:
182,192,87383,1,0,0:0:0:0:
402,192,87597,1,0,0:0:0:0:
182,192,87811,128,0,88240:0:0:0:0:
329,192,87811,1,0,0:0:0:0:
109,192,87811,1,0,0:0:0:0:
475,192,87811,1,0,0:0:0:0:
256,192,88025,1,0,0:0:0:0:
109,192,88240,128,0,88668:0:0:0:0:
329,192,88240,1,0,0:0:0:0:
402,192,88240,1,0,0:0:0:0:
182,192,88454,1,0,0:0:0:0:
36,192,88668,128,0,89097:0:0:0:0:
256,192,88668,1,0,0:0:0:0:
329,192,88668,1,0,0:0:0:0:
475,192,88668,1,0,0:0:0:0:
402,192,88883,1,0,0:0:0:0:
109,192,89097,128,0,89525:0:0:0:0:
182,192,89097,1,0,0:0:0:0:
329,192,89097,1,0,0:0:0:0:
475,192,89311,1,0,0:0:0:0:
182,192,89525,128,0,89954:0:0:0:0:
402,192,89525,1,0,0:0:0:0:
329,192,89525,1,0,0:0:0:0:
36,192,89525,1,0,0:0:0:0:
109,192,89740,1,0,0:0:0:0:
329,192,89954,128,0,90383:0:0:0:0:
402,192,89954,1,0,0:0:0:0:
256,192,89954,1,0,0:0:0:0:
109,192,90168,1,0,0:0:0:0:
182,192,90275,1,0,0:0:0:0:
402,192,90383,128,0,90811:0:0:0:0:
36,192,90383,1,0,0:0:0:0:
475,192,90383,1,0,0:0:0:0:
256,192,90383,1,0,0:0:0:0:
329,192,90597,1,0,0:0:0:0:
475,192,90811,128,0,91668:0:0:0:0:
36,192,90811,1,0,0:0:0:0:
182,192,90811,1,0,0:0:0:0:
329,192,91025,1,0,0:0:0:0:
256,192,91240,1,0,0:0:0:0:
109,192,91240,1,0,0:0:0:0:
402,192,91454,1,0,0:0:0:0:
109,192,91668,1,0,0:0:0:0:
329,192,91668,1,0,0:0:0:0:
475,192,91883,1,0,0:0:0:0:
36,192,92097,128,0,92525:0:0:0:0:
109,192,92097,1,0,0:0:0:0:
256,192,92097,1,0,0:0:0:0:
182,192,92097,1,0,0:0:0:0:
475,192,92311,1,0,0:0:0:0:
109,192,92525,1,0,0:0:0:0:
182,192,92525,1,0,0:0:0:0:
256,192,92525,1,0,0:0:0:0:
329,192,92525,1,0,0:0:0:0:
402,192,92525,1,0,0:0:0:0:
36,192,94240,1,0,0:0:0:0:
109,192,94240,1,0,0:0:0:0:
256,192,94240,1,0,0:0:0:0:
402,192,94240,1,0,0:0:0:0:
475,192,94240,1,0,0:0:0:0:
36,192,95097,1,0,0:0:0:0:
109,192,95097,1,0,0:0:0:0:
256,192,95097,1,0,0:0:0:0:
402,192,95097,1,0,0:0:0:0:
475,192,95097,1,0,0:0:0:0:
36,192,95954,1,0,0:0:0:0:
182,192,95954,1,0,0:0:0:0:
256,192,95954,1,0,0:0:0:0:
329,192,95954,1,0,0:0:0:0:
475,192,95954,1,0,0:0:0:0:
402,192,96168,1,0,0:0:0:0:
109,192,96383,1,0,0:0:0:0:
402,192,96597,1,0,0:0:0:0:
36,192,96811,1,0,0:0:0:0:
256,192,96811,1,0,0:0:0:0:
475,192,96811,1,0,0:0:0:0:
329,192,96811,1,0,0:0:0:0:
182,192,96811,1,0,0:0:0:0:
109,192,97025,1,0,0:0:0:0:
402,192,97240,1,0,0:0:0:0:
109,192,97454,1,0,0:0:0:0:
36,192,97668,1,0,0:0:0:0:
182,192,97668,1,0,0:0:0:0:
329,192,97668,1,0,0:0:0:0:
475,192,97668,1,0,0:0:0:0:
256,192,97668,1,0,0:0:0:0:
402,192,97775,1,0,0:0:0:0:
109,192,97883,1,0,0:0:0:0:
402,192,97990,1,0,0:0:0:0:
36,192,98097,1,0,0:0:0:0:
109,192,98150,1,0,0:0:0:0:
182,192,98204,1,0,0:0:0:0:
475,192,98258,1,0,0:0:0:0:
402,192,98311,1,0,0:0:0:0:
329,192,98365,1,0,0:0:0:0:
36,192,98365,1,0,0:0:0:0:
109,192,98418,1,0,0:0:0:0:
182,192,98472,1,0,0:0:0:0:
256,192,98525,1,0,0:0:0:0:
329,192,98525,1,0,0:0:0:0:
402,192,98525,1,0,0:0:0:0:
475,192,98525,1,0,0:0:0:0:
109,192,99383,1,0,0:0:0:0:
256,192,99383,1,0,0:0:0:0:
475,192,99383,1,0,0:0:0:0:
402,192,99383,1,0,0:0:0:0:
36,192,99383,128,0,99811:0:0:0:0:
329,192,99383,128,0,99597:0:0:0:0:
402,192,99597,128,0,99811:0:0:0:0:
475,192,99597,1,0,0:0:0:0:
182,192,99704,128,0,99811:0:0:0:0:
109,192,99704,1,0,0:0:0:0:
256,192,99811,128,0,100025:0:0:0:0:
329,192,99811,1,0,0:0:0:0:
475,192,99811,1,0,0:0:0:0:
329,192,100025,128,0,100240:0:0:0:0:
402,192,100025,128,0,100240:0:0:0:0:
36,192,100025,1,0,0:0:0:0:
109,192,100133,1,0,0:0:0:0:
182,192,100240,128,0,100454:0:0:0:0:
36,192,100240,128,0,100454:0:0:0:0:
475,192,100240,128,0,100668:0:0:0:0:
256,192,100240,1,0,0:0:0:0:
329,192,100454,1,0,0:0:0:0:
109,192,100561,128,0,100668:0:0:0:0:
36,192,100561,128,0,100668:0:0:0:0:
402,192,100561,1,0,0:0:0:0:
182,192,100668,128,0,100775:0:0:0:0:
329,192,100668,128,0,100883:0:0:0:0:
256,192,100668,1,0,0:0:0:0:
402,192,100775,128,0,100990:0:0:0:0:
182,192,100883,128,0,101097:0:0:0:0:
109,192,100883,128,0,101097:0:0:0:0:
36,192,100883,1,0,0:0:0:0:
475,192,101097,128,0,101311:0:0:0:0:
256,192,101097,128,0,101525:0:0:0:0:
329,192,101097,1,0,0:0:0:0:
402,192,101097,1,0,0:0:0:0:
36,192,101311,1,0,0:0:0:0:
475,192,101418,128,0,101525:0:0:0:0:
402,192,101525,128,0,101633:0:0:0:0:
329,192,101525,128,0,101954:0:0:0:0:
109,192,101525,1,0,0:0:0:0:
182,192,101525,1,0,0:0:0:0:
475,192,101740,128,0,101954:0:0:0:0:
36,192,101740,1,0,0:0:0:0:
36,192,101954,128,0,102168:0:0:0:0:
109,192,101954,128,0,102168:0:0:0:0:
402,192,101954,128,0,102168:0:0:0:0:
256,192,101954,128,0,102383:0:0:0:0:
182,192,101954,1,0,0:0:0:0:
329,192,102168,128,0,102383:0:0:0:0:
182,192,102168,128,0,102383:0:0:0:0:
475,192,102168,1,0,0:0:0:0:
36,192,102383,1,0,0:0:0:0:
402,192,102383,1,0,0:0:0:0:
109,192,102383,1,0,0:0:0:0:
475,192,102490,1,0,0:0:0:0:
36,192,102597,128,0,102811:0:0:0:0:
329,192,102597,128,0,102811:0:0:0:0:
109,192,102597,128,0,102811:0:0:0:0:
256,192,102597,1,0,0:0:0:0:
475,192,102811,128,0,103025:0:0:0:0:
182,192,102811,128,0,103025:0:0:0:0:
402,192,102811,128,0,103025:0:0:0:0:
256,192,102811,1,0,0:0:0:0:
256,192,103025,128,0,103240:0:0:0:0:
109,192,103025,1,0,0:0:0:0:
402,192,103133,128,0,103240:0:0:0:0:
109,192,103240,128,0,103454:0:0:0:0:
329,192,103240,1,0,0:0:0:0:
475,192,103240,1,0,0:0:0:0:
36,192,103240,1,0,0:0:0:0:
182,192,103454,128,0,103668:0:0:0:0:
329,192,103454,128,0,103668:0:0:0:0:
402,192,103454,1,0,0:0:0:0:
475,192,103668,128,0,103883:0:0:0:0:
109,192,103668,128,0,103883:0:0:0:0:
256,192,103668,1,0,0:0:0:0:
402,192,103883,128,0,104097:0:0:0:0:
182,192,103883,1,0,0:0:0:0:
109,192,103990,128,0,104097:0:0:0:0:
329,192,104097,128,0,104311:0:0:0:0:
36,192,104097,1,0,0:0:0:0:
256,192,104097,1,0,0:0:0:0:
475,192,104097,1,0,0:0:0:0:
256,192,104311,128,0,104525:0:0:0:0:
182,192,104311,128,0,104525:0:0:0:0:
402,192,104311,1,0,0:0:0:0:
36,192,104525,128,0,104954:0:0:0:0:
109,192,104525,128,0,104954:0:0:0:0:
475,192,104525,128,0,104740:0:0:0:0:
329,192,104525,1,0,0:0:0:0:
256,192,104740,1,0,0:0:0:0:
182,192,104847,128,0,104954:0:0:0:0:
402,192,104954,128,0,105383:0:0:0:0:
475,192,104954,128,0,105383:0:0:0:0:
256,192,104954,1,0,0:0:0:0:
329,192,104954,1,0,0:0:0:0:
182,192,105168,128,0,105383:0:0:0:0:
109,192,105168,1,0,0:0:0:0:
109,192,105383,128,0,105811:0:0:0:0:
36,192,105383,128,0,105811:0:0:0:0:
329,192,105383,128,0,105597:0:0:0:0:
256,192,105383,128,0,105597:0:0:0:0:
402,192,105597,1,0,0:0:0:0:
475,192,105597,128,0,105811:0:0:0:0:
182,192,105811,1,0,0:0:0:0:
256,192,105811,1,0,0:0:0:0:
402,192,105811,1,0,0:0:0:0:
329,192,105918,1,0,0:0:0:0:
402,192,106025,128,0,106240:0:0:0:0:
36,192,106025,1,0,0:0:0:0:
109,192,106025,1,0,0:0:0:0:
256,192,106025,1,0,0:0:0:0:
475,192,106025,128,0,106240:0:0:0:0:
182,192,106133,1,0,0:0:0:0:
36,192,106240,1,0,0:0:0:0:
256,192,106240,1,0,0:0:0:0:
109,192,106240,128,0,106347:0:0:0:0:
329,192,106240,128,0,106454:0:0:0:0:
182,192,106347,128,0,106454:0:0:0:0:
109,192,106454,128,0,106561:0:0:0:0:
402,192,106454,1,0,0:0:0:0:
256,192,106454,128,0,106668:0:0:0:0:
329,192,106561,1,0,0:0:0:0:
475,192,106668,1,0,0:0:0:0:
36,192,106668,1,0,0:0:0:0:
182,192,106668,128,0,106883:0:0:0:0:
256,192,106883,128,0,107097:0:0:0:0:
402,192,106883,1,0,0:0:0:0:
109,192,106990,128,0,107204:0:0:0:0:
475,192,107097,128,0,107311:0:0:0:0:
329,192,107097,1,0,0:0:0:0:
182,192,107204,128,0,107418:0:0:0:0:
329,192,107311,128,0,107525:0:0:0:0:
36,192,107311,1,0,0:0:0:0:
402,192,107418,128,0,107525:0:0:0:0:
109,192,107418,1,0,0:0:0:0:
182,192,107525,128,0,107740:0:0:0:0:
256,192,107525,1,0,0:0:0:0:
475,192,107525,1,0,0:0:0:0:
109,192,107740,128,0,107954:0:0:0:0:
402,192,107740,128,0,107954:0:0:0:0:
329,192,107740,1,0,0:0:0:0:
36,192,107954,128,0,108383:0:0:0:0:
475,192,107954,128,0,108168:0:0:0:0:
182,192,107954,1,0,0:0:0:0:
256,192,107954,1,0,0:0:0:0:
402,192,108168,1,0,0:0:0:0:
475,192,108275,128,0,108383:0:0:0:0:
329,192,108275,1,0,0:0:0:0:
109,192,108383,128,0,108811:0:0:0:0:
256,192,108383,1,0,0:0:0:0:
402,192,108383,1,0,0:0:0:0:
182,192,108383,1,0,0:0:0:0:
182,192,108597,128,0,108811:0:0:0:0:
475,192,108597,1,0,0:0:0:0:
402,192,108811,128,0,109240:0:0:0:0:
329,192,108811,128,0,109025:0:0:0:0:
36,192,108811,1,0,0:0:0:0:
256,192,108811,128,0,109025:0:0:0:0:
109,192,109025,1,0,0:0:0:0:
36,192,109025,128,0,109240:0:0:0:0:
475,192,109240,128,0,109668:0:0:0:0:
182,192,109240,128,0,109347:0:0:0:0:
329,192,109240,1,0,0:0:0:0:
256,192,109240,1,0,0:0:0:0:
109,192,109347,128,0,109454:0:0:0:0:
182,192,109454,128,0,109561:0:0:0:0:
256,192,109454,128,0,109668:0:0:0:0:
36,192,109454,1,0,0:0:0:0:
329,192,109668,128,0,110954:0:0:0:0:
402,192,109668,128,0,109883:0:0:0:0:
109,192,109668,1,0,0:0:0:0:
182,192,109668,1,0,0:0:0:0:
36,192,109883,1,0,0:0:0:0:
182,192,109990,128,0,110097:0:0:0:0:
256,192,109990,1,0,0:0:0:0:
475,192,110097,1,0,0:0:0:0:
402,192,110097,1,0,0:0:0:0:
109,192,110097,1,0,0:0:0:0:
109,192,110311,128,0,110525:0:0:0:0:
256,192,110311,1,0,0:0:0:0:
475,192,110525,128,0,110740:0:0:0:0:
36,192,110525,1,0,0:0:0:0:
182,192,110525,1,0,0:0:0:0:
109,192,110740,1,0,0:0:0:0:
402,192,110847,128,0,110954:0:0:0:0:
182,192,110954,1,0,0:0:0:0:
36,192,110954,1,0,0:0:0:0:
475,192,110954,1,0,0:0:0:0:
256,192,111168,128,0,111383:0:0:0:0:
402,192,111168,1,0,0:0:0:0:
475,192,111383,128,0,112240:0:0:0:0:
36,192,111383,128,0,111597:0:0:0:0:
182,192,111383,128,0,111490:0:0:0:0:
329,192,111383,1,0,0:0:0:0:
109,192,111597,128,0,111811:0:0:0:0:
256,192,111597,128,0,111704:0:0:0:0:
402,192,111597,1,0,0:0:0:0:
182,192,111811,128,0,112025:0:0:0:0:
329,192,111811,128,0,111918:0:0:0:0:
36,192,111811,1,0,0:0:0:0:
256,192,112025,128,0,112240:0:0:0:0:
402,192,112025,128,0,112133:0:0:0:0:
109,192,112025,1,0,0:0:0:0:
182,192,112240,1,0,0:0:0:0:
329,192,112240,1,0,0:0:0:0:
402,192,112240,1,0,0:0:0:0:
36,192,112240,1,0,0:0:0:0:
182,192,112668,128,0,112722:0:0:0:0:
329,192,112668,128,0,112722:0:0:0:0:
109,192,112775,128,0,112829:0:0:0:0:
402,192,112775,128,0,112829:0:0:0:0:
182,192,112883,128,0,112936:0:0:0:0:
329,192,112883,128,0,112936:0:0:0:0:
109,192,112990,128,0,113043:0:0:0:0:
402,192,112990,128,0,113043:0:0:0:0:
36,192,113097,1,0,0:0:0:0:
475,192,113097,1,0,0:0:0:0:
182,192,113097,1,0,0:0:0:0:
256,192,113097,128,0,113311:0:0:0:0:
329,192,113097,128,0,113204:0:0:0:0:
402,192,113204,128,0,113311:0:0:0:0:
109,192,113311,128,0,113525:0:0:0:0:
329,192,113311,128,0,113418:0:0:0:0:
182,192,113311,1,0,0:0:0:0:
256,192,113525,128,0,113740:0:0:0:0:
475,192,113525,1,0,0:0:0:0:
402,192,113525,1,0,0:0:0:0:
36,192,113525,1,0,0:0:0:0:
36,192,113740,128,0,113954:0:0:0:0:
402,192,113740,1,0,0:0:0:0:
475,192,113954,128,0,114168:0:0:0:0:
182,192,113954,128,0,114061:0:0:0:0:
256,192,113954,1,0,0:0:0:0:
329,192,113954,1,0,0:0:0:0:
109,192,114061,128,0,114168:0:0:0:0:
402,192,114168,128,0,114383:0:0:0:0:
182,192,114168,128,0,114275:0:0:0:0:
329,192,114168,1,0,0:0:0:0:
36,192,114275,128,0,114383:0:0:0:0:
329,192,114383,128,0,114597:0:0:0:0:
109,192,114383,1,0,0:0:0:0:
182,192,114383,1,0,0:0:0:0:
475,192,114383,1,0,0:0:0:0:
256,192,114597,128,0,114811:0:0:0:0:
36,192,114597,128,0,114811:0:0:0:0:
402,192,114597,128,0,114704:0:0:0:0:
109,192,114597,1,0,0:0:0:0:
109,192,114811,128,0,115240:0:0:0:0:
182,192,114811,128,0,115240:0:0:0:0:
329,192,114811,128,0,115025:0:0:0:0:
402,192,114811,1,0,0:0:0:0:
475,192,114811,1,0,0:0:0:0:
402,192,115025,1,0,0:0:0:0:
256,192,115133,128,0,115240:0:0:0:0:
402,192,115240,128,0,115668:0:0:0:0:
475,192,115240,128,0,115668:0:0:0:0:
36,192,115240,1,0,0:0:0:0:
329,192,115240,1,0,0:0:0:0:
36,192,115454,128,0,115668:0:0:0:0:
329,192,115454,128,0,115561:0:0:0:0:
182,192,115454,1,0,0:0:0:0:
109,192,115668,128,0,116097:0:0:0:0:
182,192,115668,128,0,116097:0:0:0:0:
329,192,115668,1,0,0:0:0:0:
256,192,115668,128,0,115883:0:0:0:0:
402,192,115883,1,0,0:0:0:0:
329,192,115883,128,0,116097:0:0:0:0:
475,192,116097,128,0,116204:0:0:0:0:
256,192,116097,1,0,0:0:0:0:
36,192,116097,1,0,0:0:0:0:
402,192,116097,1,0,0:0:0:0:
329,192,116204,128,0,116311:0:0:0:0:
109,192,116204,1,0,0:0:0:0:
182,192,116311,128,0,116525:0:0:0:0:
256,192,116311,1,0,0:0:0:0:
329,192,116525,128,0,116740:0:0:0:0:
109,192,116525,128,0,116633:0:0:0:0:
475,192,116525,1,0,0:0:0:0:
402,192,116525,1,0,0:0:0:0:
36,192,116633,128,0,116740:0:0:0:0:
402,192,116740,128,0,116954:0:0:0:0:
109,192,116740,128,0,116847:0:0:0:0:
182,192,116740,1,0,0:0:0:0:
475,192,116847,128,0,116954:0:0:0:0:
36,192,116954,128,0,117168:0:0:0:0:
329,192,116954,1,0,0:0:0:0:
256,192,116954,1,0,0:0:0:0:
256,192,117168,128,0,117383:0:0:0:0:
182,192,117168,1,0,0:0:0:0:
475,192,117383,128,0,117597:0:0:0:0:
109,192,117383,128,0,117490:0:0:0:0:
182,192,117383,1,0,0:0:0:0:
402,192,117383,1,0,0:0:0:0:
36,192,117490,128,0,117597:0:0:0:0:
329,192,117597,128,0,117811:0:0:0:0:
109,192,117597,128,0,117704:0:0:0:0:
256,192,117597,1,0,0:0:0:0:
402,192,117704,128,0,117811:0:0:0:0:
182,192,117811,128,0,118025:0:0:0:0:
36,192,117811,1,0,0:0:0:0:
475,192,117811,1,0,0:0:0:0:
109,192,118025,128,0,118240:0:0:0:0:
256,192,118025,128,0,118240:0:0:0:0:
402,192,118025,1,0,0:0:0:0:
36,192,118240,128,0,118668:0:0:0:0:
329,192,118240,128,0,118668:0:0:0:0:
402,192,118240,128,0,118561:0:0:0:0:
475,192,118240,1,0,0:0:0:0:
182,192,118454,1,0,0:0:0:0:
256,192,118561,128,0,118668:0:0:0:0:
475,192,118668,128,0,119097:0:0:0:0:
182,192,118668,128,0,119097:0:0:0:0:
402,192,118668,1,0,0:0:0:0:
109,192,118668,1,0,0:0:0:0:
109,192,118883,128,0,119097:0:0:0:0:
329,192,118883,1,0,0:0:0:0:
36,192,119097,128,0,119525:0:0:0:0:
329,192,119097,128,0,119525:0:0:0:0:
402,192,119097,128,0,119418:0:0:0:0:
256,192,119097,128,0,119311:0:0:0:0:
109,192,119311,128,0,119418:0:0:0:0:
475,192,119311,1,0,0:0:0:0:
109,192,119525,1,0,0:0:0:0:
256,192,119525,1,0,0:0:0:0:
182,192,119525,1,0,0:0:0:0:
402,192,119525,128,0,119633:0:0:0:0:
329,192,119633,1,0,0:0:0:0:
36,192,119633,128,0,119740:0:0:0:0:
402,192,119740,128,0,119954:0:0:0:0:
182,192,119740,1,0,0:0:0:0:
256,192,119740,128,0,119954:0:0:0:0:
475,192,119740,128,0,119847:0:0:0:0:
36,192,119954,128,0,120061:0:0:0:0:
109,192,119954,128,0,120168:0:0:0:0:
475,192,119954,1,0,0:0:0:0:
182,192,119954,1,0,0:0:0:0:
329,192,120061,128,0,120168:0:0:0:0:
36,192,120168,128,0,120275:0:0:0:0:
256,192,120168,128,0,120383:0:0:0:0:
402,192,120168,1,0,0:0:0:0:
109,192,120383,128,0,120597:0:0:0:0:
475,192,120383,1,0,0:0:0:0:
182,192,120383,1,0,0:0:0:0:
36,192,120383,1,0,0:0:0:0:
256,192,120597,128,0,120811:0:0:0:0:
402,192,120597,1,0,0:0:0:0:
475,192,120811,128,0,121025:0:0:0:0:
402,192,120811,128,0,120918:0:0:0:0:
182,192,120811,1,0,0:0:0:0:
329,192,120811,1,0,0:0:0:0:
109,192,120918,128,0,121025:0:0:0:0:
329,192,121025,128,0,121240:0:0:0:0:
402,192,121025,128,0,121133:0:0:0:0:
36,192,121025,1,0,0:0:0:0:
182,192,121240,128,0,121454:0:0:0:0:
402,192,121240,1,0,0:0:0:0:
475,192,121240,1,0,0:0:0:0:
109,192,121240,1,0,0:0:0:0:
109,192,121454,128,0,121668:0:0:0:0:
256,192,121454,128,0,121561:0:0:0:0:
329,192,121454,1,0,0:0:0:0:
36,192,121668,128,0,122097:0:0:0:0:
329,192,121668,128,0,121883:0:0:0:0:
182,192,121668,1,0,0:0:0:0:
402,192,121668,1,0,0:0:0:0:
256,192,121883,1,0,0:0:0:0:
182,192,122097,128,0,122525:0:0:0:0:
475,192,122097,1,0,0:0:0:0:
329,192,122097,1,0,0:0:0:0:
256,192,122097,1,0,0:0:0:0:
109,192,122311,128,0,122525:0:0:0:0:
402,192,122311,1,0,0:0:0:0:
329,192,122525,128,0,122954:0:0:0:0:
36,192,122525,128,0,122740:0:0:0:0:
256,192,122525,1,0,0:0:0:0:
475,192,122525,1,0,0:0:0:0:
402,192,122525,128,0,122740:0:0:0:0:
109,192,122740,1,0,0:0:0:0:
475,192,122740,1,0,0:0:0:0:
256,192,122740,128,0,122954:0:0:0:0:
182,192,122954,128,0,123383:0:0:0:0:
36,192,122954,1,0,0:0:0:0:
402,192,122954,1,0,0:0:0:0:
475,192,123061,1,0,0:0:0:0:
329,192,123061,1,0,0:0:0:0:
109,192,123168,128,0,123275:0:0:0:0:
402,192,123168,128,0,123383:0:0:0:0:
36,192,123168,1,0,0:0:0:0:
329,192,123275,1,0,0:0:0:0:
36,192,123383,128,0,125097:0:0:0:0:
256,192,123383,1,0,0:0:0:0:
109,192,123383,1,0,0:0:0:0:
475,192,123383,128,0,123704:0:0:0:0:
109,192,123704,128,0,124025:0:0:0:0:
329,192,123811,1,0,0:0:0:0:
182,192,124025,128,0,124240:0:0:0:0:
402,192,124025,1,0,0:0:0:0:
256,192,124240,128,0,124561:0:0:0:0:
402,192,124240,1,0,0:0:0:0:
109,192,124454,1,0,0:0:0:0:
329,192,124561,128,0,124883:0:0:0:0:
402,192,124668,1,0,0:0:0:0:
475,192,124883,128,0,125097:0:0:0:0:
109,192,124883,1,0,0:0:0:0:
402,192,125097,128,0,125418:0:0:0:0:
329,192,125097,1,0,0:0:0:0:
256,192,125097,1,0,0:0:0:0:
109,192,125204,1,0,0:0:0:0:
182,192,125204,1,0,0:0:0:0:
256,192,125311,1,0,0:0:0:0:
329,192,125311,1,0,0:0:0:0:
182,192,125418,1,0,0:0:0:0:
36,192,125418,128,0,125740:0:0:0:0:
109,192,125418,1,0,0:0:0:0:
475,192,125525,1,0,0:0:0:0:
402,192,125579,1,0,0:0:0:0:
329,192,125633,1,0,0:0:0:0:
256,192,125686,1,0,0:0:0:0:
109,192,125740,128,0,125954:0:0:0:0:
182,192,125740,1,0,0:0:0:0:
256,192,125793,1,0,0:0:0:0:
329,192,125847,1,0,0:0:0:0:
402,192,125900,1,0,0:0:0:0:
256,192,125954,1,0,0:0:0:0:
329,192,125954,128,0,126811:0:0:0:0:
182,192,125954,1,0,0:0:0:0:
475,192,125954,1,0,0:0:0:0:
36,192,125954,1,0,0:0:0:0:
36,192,126811,1,0,0:0:0:0:
256,192,126811,1,0,0:0:0:0:
109,192,126811,128,0,126918:0:0:0:0:
182,192,126811,1,0,0:0:0:0:
475,192,126811,1,0,0:0:0:0:
402,192,126811,128,0,127025:0:0:0:0:
329,192,127025,1,0,0:0:0:0:
109,192,127133,128,0,127240:0:0:0:0:
182,192,127240,1,0,0:0:0:0:
402,192,127240,1,0,0:0:0:0:
109,192,127454,128,0,127561:0:0:0:0:
329,192,127454,1,0,0:0:0:0:
109,192,127668,128,0,127775:0:0:0:0:
182,192,127668,1,0,0:0:0:0:
475,192,127668,1,0,0:0:0:0:
109,192,127883,128,0,127990:0:0:0:0:
402,192,127883,1,0,0:0:0:0:
109,192,128097,128,0,128204:0:0:0:0:
256,192,128097,1,0,0:0:0:0:
36,192,128097,1,0,0:0:0:0:
182,192,128311,128,0,128418:0:0:0:0:
402,192,128311,128,0,128525:0:0:0:0:
329,192,128311,1,0,0:0:0:0:
256,192,128525,128,0,128633:0:0:0:0:
109,192,128525,128,0,128740:0:0:0:0:
475,192,128525,1,0,0:0:0:0:
36,192,128525,1,0,0:0:0:0:
402,192,128740,1,0,0:0:0:0:
256,192,128847,128,0,128954:0:0:0:0:
329,192,128954,1,0,0:0:0:0:
109,192,128954,1,0,0:0:0:0:
256,192,129168,128,0,129275:0:0:0:0:
475,192,129168,1,0,0:0:0:0:
256,192,129383,128,0,129490:0:0:0:0:
36,192,129383,1,0,0:0:0:0:
182,192,129383,1,0,0:0:0:0:
256,192,129597,128,0,129704:0:0:0:0:
329,192,129597,1,0,0:0:0:0:
256,192,129811,128,0,129918:0:0:0:0:
402,192,129811,1,0,0:0:0:0:
109,192,129811,1,0,0:0:0:0:
329,192,130025,128,0,130133:0:0:0:0:
475,192,130025,128,0,130240:0:0:0:0:
36,192,130025,1,0,0:0:0:0:
402,192,130240,128,0,130347:0:0:0:0:
182,192,130240,128,0,130454:0:0:0:0:
109,192,130240,1,0,0:0:0:0:
256,192,130240,1,0,0:0:0:0:
329,192,130454,1,0,0:0:0:0:
402,192,130561,128,0,130668:0:0:0:0:
36,192,130668,1,0,0:0:0:0:
182,192,130668,1,0,0:0:0:0:
402,192,130883,128,0,130990:0:0:0:0:
329,192,130883,1,0,0:0:0:0:
402,192,131097,128,0,131204:0:0:0:0:
182,192,131097,1,0,0:0:0:0:
256,192,131097,1,0,0:0:0:0:
402,192,131311,128,0,131418:0:0:0:0:
109,192,131311,1,0,0:0:0:0:
402,192,131525,128,0,131633:0:0:0:0:
36,192,131525,1,0,0:0:0:0:
256,192,131525,1,0,0:0:0:0:
475,192,131740,128,0,131847:0:0:0:0:
329,192,131740,128,0,131954:0:0:0:0:
109,192,131740,1,0,0:0:0:0:
402,192,131954,128,0,132061:0:0:0:0:
36,192,131954,128,0,132168:0:0:0:0:
182,192,131954,1,0,0:0:0:0:
256,192,131954,1,0,0:0:0:0:
109,192,132168,1,0,0:0:0:0:
402,192,132275,128,0,132383:0:0:0:0:
182,192,132383,1,0,0:0:0:0:
475,192,132383,1,0,0:0:0:0:
402,192,132597,128,0,132704:0:0:0:0:
329,192,132597,1,0,0:0:0:0:
402,192,132811,128,0,132918:0:0:0:0:
256,192,132811,1,0,0:0:0:0:
36,192,132811,1,0,0:0:0:0:
329,192,133025,128,0,133133:0:0:0:0:
182,192,133025,1,0,0:0:0:0:
256,192,133240,128,0,133347:0:0:0:0:
36,192,133240,1,0,0:0:0:0:
402,192,133240,1,0,0:0:0:0:
182,192,133454,128,0,133561:0:0:0:0:
475,192,133454,128,0,133668:0:0:0:0:
329,192,133454,1,0,0:0:0:0:
109,192,133668,128,0,133775:0:0:0:0:
36,192,133668,128,0,133883:0:0:0:0:
256,192,133668,1,0,0:0:0:0:
402,192,133668,1,0,0:0:0:0:
329,192,133883,1,0,0:0:0:0:
182,192,134097,1,0,0:0:0:0:
256,192,134097,1,0,0:0:0:0:
109,192,134311,128,0,134418:0:0:0:0:
329,192,134311,1,0,0:0:0:0:
402,192,134525,128,0,134633:0:0:0:0:
36,192,134525,1,0,0:0:0:0:
182,192,134525,1,0,0:0:0:0:
329,192,134740,128,0,134847:0:0:0:0:
109,192,134740,1,0,0:0:0:0:
256,192,134954,128,0,135061:0:0:0:0:
475,192,134954,1,0,0:0:0:0:
36,192,134954,1,0,0:0:0:0:
182,192,135168,128,0,135275:0:0:0:0:
329,192,135168,128,0,135383:0:0:0:0:
402,192,135168,1,0,0:0:0:0:
109,192,135383,128,0,135490:0:0:0:0:
36,192,135383,128,0,135597:0:0:0:0:
256,192,135383,1,0,0:0:0:0:
475,192,135383,1,0,0:0:0:0:
402,192,135597,1,0,0:0:0:0:
109,192,135704,128,0,135811:0:0:0:0:
182,192,135811,1,0,0:0:0:0:
329,192,135811,1,0,0:0:0:0:
109,192,136025,128,0,136133:0:0:0:0:
475,192,136025,1,0,0:0:0:0:
36,192,136240,128,0,136347:0:0:0:0:
256,192,136240,1,0,0:0:0:0:
402,192,136240,1,0,0:0:0:0:
329,192,136454,1,0,0:0:0:0:
36,192,136668,128,0,136775:0:0:0:0:
109,192,136668,1,0,0:0:0:0:
256,192,136668,1,0,0:0:0:0:
475,192,136883,128,0,137097:0:0:0:0:
182,192,136883,1,0,0:0:0:0:
256,192,137097,128,0,137204:0:0:0:0:
329,192,137097,128,0,137311:0:0:0:0:
36,192,137097,1,0,0:0:0:0:
402,192,137097,1,0,0:0:0:0:
182,192,137204,128,0,137311:0:0:0:0:
109,192,137311,128,0,137418:0:0:0:0:
475,192,137311,1,0,0:0:0:0:
36,192,137418,128,0,137525:0:0:0:0:
256,192,137525,128,0,137633:0:0:0:0:
402,192,137525,1,0,0:0:0:0:
329,192,137525,1,0,0:0:0:0:
182,192,137633,128,0,137740:0:0:0:0:
109,192,137740,128,0,137847:0:0:0:0:
329,192,137740,1,0,0:0:0:0:
36,192,137847,128,0,137954:0:0:0:0:
256,192,137954,128,0,138061:0:0:0:0:
402,192,137954,1,0,0:0:0:0:
475,192,137954,1,0,0:0:0:0:
182,192,138061,128,0,138168:0:0:0:0:
109,192,138168,128,0,138275:0:0:0:0:
402,192,138168,1,0,0:0:0:0:
36,192,138275,128,0,138383:0:0:0:0:
256,192,138383,128,0,138490:0:0:0:0:
329,192,138383,1,0,0:0:0:0:
475,192,138383,1,0,0:0:0:0:
182,192,138490,128,0,138597:0:0:0:0:
109,192,138597,128,0,138704:0:0:0:0:
475,192,138597,128,0,138811:0:0:0:0:
329,192,138597,1,0,0:0:0:0:
36,192,138704,128,0,138811:0:0:0:0:
402,192,138811,128,0,138918:0:0:0:0:
182,192,138811,128,0,139025:0:0:0:0:
109,192,138811,1,0,0:0:0:0:
256,192,138811,1,0,0:0:0:0:
329,192,138918,128,0,139025:0:0:0:0:
256,192,139025,128,0,139133:0:0:0:0:
36,192,139025,1,0,0:0:0:0:
402,192,139133,128,0,139240:0:0:0:0:
329,192,139240,128,0,139347:0:0:0:0:
109,192,139240,1,0,0:0:0:0:
182,192,139240,1,0,0:0:0:0:
256,192,139347,128,0,139454:0:0:0:0:
402,192,139454,128,0,139561:0:0:0:0:
109,192,139454,1,0,0:0:0:0:
329,192,139561,128,0,139668:0:0:0:0:
475,192,139668,128,0,139775:0:0:0:0:
36,192,139668,1,0,0:0:0:0:
182,192,139668,1,0,0:0:0:0:
402,192,139775,128,0,139883:0:0:0:0:
109,192,139883,1,0,0:0:0:0:
475,192,139883,1,0,0:0:0:0:
182,192,139883,1,0,0:0:0:0:
329,192,139990,128,0,140097:0:0:0:0:
256,192,140097,128,0,140204:0:0:0:0:
36,192,140097,1,0,0:0:0:0:
182,192,140204,128,0,140311:0:0:0:0:
475,192,140204,128,0,140525:0:0:0:0:
109,192,140311,128,0,140418:0:0:0:0:
402,192,140311,1,0,0:0:0:0:
329,192,140311,1,0,0:0:0:0:
256,192,140311,1,0,0:0:0:0:
36,192,140418,128,0,140525:0:0:0:0:
256,192,140525,1,0,0:0:0:0:
329,192,140525,1,0,0:0:0:0:
402,192,140525,1,0,0:0:0:0:
182,192,140525,128,0,140740:0:0:0:0:
109,192,140525,1,0,0:0:0:0:
36,192,140740,128,0,140954:0:0:0:0:
475,192,140740,1,0,0:0:0:0:
329,192,140954,128,0,141168:0:0:0:0:
109,192,140954,1,0,0:0:0:0:
256,192,140954,1,0,0:0:0:0:
402,192,141168,128,0,141383:0:0:0:0:
182,192,141168,1,0,0:0:0:0:
329,192,141383,128,0,141597:0:0:0:0:
256,192,141383,1,0,0:0:0:0:
36,192,141383,1,0,0:0:0:0:
182,192,141597,128,0,141811:0:0:0:0:
402,192,141597,1,0,0:0:0:0:
109,192,141811,128,0,142025:0:0:0:0:
329,192,141811,1,0,0:0:0:0:
475,192,141811,1,0,0:0:0:0:
36,192,142025,128,0,142240:0:0:0:0:
256,192,142025,1,0,0:0:0:0:
402,192,142025,128,0,142240:0:0:0:0:
329,192,142240,128,0,142668:0:0:0:0:
109,192,142240,128,0,142454:0:0:0:0:
182,192,142240,1,0,0:0:0:0:
475,192,142240,1,0,0:0:0:0:
402,192,142454,1,0,0:0:0:0:
256,192,142668,128,0,142883:0:0:0:0:
36,192,142668,1,0,0:0:0:0:
109,192,142668,1,0,0:0:0:0:
182,192,142883,128,0,143097:0:0:0:0:
329,192,142883,1,0,0:0:0:0:
475,192,143097,128,0,143311:0:0:0:0:
402,192,143097,1,0,0:0:0:0:
256,192,143097,1,0,0:0:0:0:
329,192,143311,128,0,143525:0:0:0:0:
109,192,143311,1,0,0:0:0:0:
182,192,143525,128,0,143954:0:0:0:0:
36,192,143525,1,0,0:0:0:0:
475,192,143525,1,0,0:0:0:0:
402,192,143740,128,0,143954:0:0:0:0:
329,192,143740,1,0,0:0:0:0:
109,192,143954,128,0,144168:0:0:0:0:
256,192,143954,1,0,0:0:0:0:
475,192,143954,1,0,0:0:0:0:
36,192,144168,128,0,144383:0:0:0:0:
402,192,144168,1,0,0:0:0:0:
475,192,144383,128,0,144811:0:0:0:0:
182,192,144383,1,0,0:0:0:0:
329,192,144383,1,0,0:0:0:0:
256,192,144597,1,0,0:0:0:0:
329,192,144811,128,0,145240:0:0:0:0:
36,192,144811,1,0,0:0:0:0:
402,192,144811,1,0,0:0:0:0:
182,192,145025,1,0,0:0:0:0:
256,192,145240,128,0,145454:0:0:0:0:
109,192,145240,1,0,0:0:0:0:
475,192,145240,1,0,0:0:0:0:
182,192,145454,128,0,145668:0:0:0:0:
402,192,145454,128,0,145668:0:0:0:0:
329,192,145454,1,0,0:0:0:0:
36,192,145668,128,0,145883:0:0:0:0:
109,192,145668,128,0,145883:0:0:0:0:
256,192,145668,1,0,0:0:0:0:
475,192,145668,1,0,0:0:0:0:
256,192,145883,128,0,146097:0:0:0:0:
329,192,145883,1,0,0:0:0:0:
402,192,146097,128,0,146311:0:0:0:0:
36,192,146097,1,0,0:0:0:0:
109,192,146097,1,0,0:0:0:0:
256,192,146311,128,0,146525:0:0:0:0:
329,192,146311,1,0,0:0:0:0:
182,192,146525,128,0,146740:0:0:0:0:
475,192,146525,1,0,0:0:0:0:
36,192,146525,1,0,0:0:0:0:
109,192,146740,128,0,146954:0:0:0:0:
329,192,146740,1,0,0:0:0:0:
36,192,146954,128,0,147168:0:0:0:0:
256,192,146954,1,0,0:0:0:0:
182,192,146954,1,0,0:0:0:0:
402,192,147168,128,0,147383:0:0:0:0:
329,192,147168,1,0,0:0:0:0:
109,192,147383,128,0,147597:0:0:0:0:
256,192,147383,1,0,0:0:0:0:
36,192,147383,128,0,147490:0:0:0:0:
475,192,147383,1,0,0:0:0:0:
182,192,147490,128,0,147597:0:0:0:0:
402,192,147597,128,0,147704:0:0:0:0:
36,192,147597,1,0,0:0:0:0:
329,192,147704,128,0,147811:0:0:0:0:
475,192,147704,128,0,147811:0:0:0:0:
256,192,147811,128,0,147918:0:0:0:0:
109,192,147811,1,0,0:0:0:0:
36,192,147811,1,0,0:0:0:0:
182,192,147918,128,0,148025:0:0:0:0:
109,192,148025,128,0,148133:0:0:0:0:
475,192,148025,128,0,148133:0:0:0:0:
402,192,148025,1,0,0:0:0:0:
36,192,148133,128,0,148347:0:0:0:0:
256,192,148240,1,0,0:0:0:0:
182,192,148240,1,0,0:0:0:0:
402,192,148347,128,0,148454:0:0:0:0:
329,192,148454,128,0,148561:0:0:0:0:
36,192,148454,128,0,148561:0:0:0:0:
475,192,148454,1,0,0:0:0:0:
402,192,148561,128,0,148668:0:0:0:0:
329,192,148668,128,0,148775:0:0:0:0:
109,192,148668,128,0,148775:0:0:0:0:
182,192,148668,1,0,0:0:0:0:
36,192,148668,1,0,0:0:0:0:
402,192,148775,128,0,148883:0:0:0:0:
256,192,148883,128,0,148990:0:0:0:0:
475,192,148883,128,0,149097:0:0:0:0:
329,192,148883,128,0,148990:0:0:0:0:
182,192,148883,1,0,0:0:0:0:
109,192,148990,128,0,149097:0:0:0:0:
182,192,149097,128,0,149204:0:0:0:0:
36,192,149097,128,0,149311:0:0:0:0:
402,192,149097,128,0,149204:0:0:0:0:
256,192,149097,1,0,0:0:0:0:
329,192,149204,128,0,149418:0:0:0:0:
402,192,149311,1,0,0:0:0:0:
256,192,149418,128,0,149525:0:0:0:0:
109,192,149418,128,0,149525:0:0:0:0:
182,192,149525,128,0,149633:0:0:0:0:
475,192,149525,1,0,0:0:0:0:
36,192,149525,1,0,0:0:0:0:
329,192,149633,128,0,149740:0:0:0:0:
256,192,149740,128,0,149847:0:0:0:0:
475,192,149740,128,0,149847:0:0:0:0:
402,192,149740,1,0,0:0:0:0:
109,192,149847,128,0,150061:0:0:0:0:
182,192,149954,1,0,0:0:0:0:
329,192,149954,1,0,0:0:0:0:
402,192,150061,128,0,150168:0:0:0:0:
329,192,150168,128,0,150275:0:0:0:0:
36,192,150168,128,0,150275:0:0:0:0:
109,192,150168,1,0,0:0:0:0:
256,192,150275,128,0,150383:0:0:0:0:
402,192,150383,128,0,150490:0:0:0:0:
109,192,150383,128,0,150490:0:0:0:0:
182,192,150383,1,0,0:0:0:0:
36,192,150383,1,0,0:0:0:0:
329,192,150490,128,0,150597:0:0:0:0:
256,192,150597,128,0,150704:0:0:0:0:
475,192,150597,128,0,150811:0:0:0:0:
402,192,150597,128,0,150704:0:0:0:0:
109,192,150597,1,0,0:0:0:0:
182,192,150704,128,0,150811:0:0:0:0:
36,192,150811,128,0,151025:0:0:0:0:
256,192,150811,128,0,150918:0:0:0:0:
329,192,150811,1,0,0:0:0:0:
402,192,150811,1,0,0:0:0:0:
109,192,151025,128,0,151454:0:0:0:0:
182,192,151025,1,0,0:0:0:0:
329,192,151133,128,0,151240:0:0:0:0:
475,192,151240,1,0,0:0:0:0:
256,192,151240,1,0,0:0:0:0:
182,192,151454,128,0,151668:0:0:0:0:
402,192,151454,128,0,151561:0:0:0:0:
329,192,151454,1,0,0:0:0:0:
329,192,151668,128,0,151883:0:0:0:0:
36,192,151668,1,0,0:0:0:0:
256,192,151668,1,0,0:0:0:0:
402,192,151883,128,0,152311:0:0:0:0:
36,192,151883,128,0,151990:0:0:0:0:
109,192,151883,1,0,0:0:0:0:
182,192,152097,128,0,152204:0:0:0:0:
329,192,152097,1,0,0:0:0:0:
36,192,152097,1,0,0:0:0:0:
475,192,152311,128,0,152740:0:0:0:0:
329,192,152311,128,0,152525:0:0:0:0:
256,192,152311,128,0,152418:0:0:0:0:
182,192,152311,1,0,0:0:0:0:
36,192,152525,128,0,152740:0:0:0:0:
109,192,152525,128,0,152633:0:0:0:0:
182,192,152525,1,0,0:0:0:0:
402,192,152525,1,0,0:0:0:0:
329,192,152740,128,0,152954:0:0:0:0:
109,192,152740,1,0,0:0:0:0:
256,192,152740,1,0,0:0:0:0:
182,192,152954,128,0,153168:0:0:0:0:
402,192,152954,1,0,0:0:0:0:
475,192,152954,1,0,0:0:0:0:
109,192,153168,1,0,0:0:0:0:
36,192,153168,1,0,0:0:0:0:
402,192,153383,1,0,0:0:0:0:
475,192,153383,1,0,0:0:0:0:
109,192,153490,1,0,0:0:0:0:
36,192,153490,1,0,0:0:0:0:
402,192,153597,1,0,0:0:0:0:
475,192,153597,1,0,0:0:0:0:
109,192,153704,1,0,0:0:0:0:
36,192,153704,1,0,0:0:0:0:
402,192,153811,1,0,0:0:0:0:
329,192,153865,1,0,0:0:0:0:
109,192,153918,1,0,0:0:0:0:
182,192,153972,1,0,0:0:0:0:
402,192,154025,1,0,0:0:0:0:
329,192,154079,1,0,0:0:0:0:
109,192,154133,1,0,0:0:0:0:
182,192,154186,1,0,0:0:0:0:
329,192,154240,1,0,0:0:0:0:
256,192,154240,1,0,0:0:0:0:
475,192,154240,1,0,0:0:0:0:
402,192,154240,128,0,154561:0:0:0:0:
109,192,154240,1,0,0:0:0:0:
36,192,154240,128,0,154561:0:0:0:0:
182,192,154454,1,0,0:0:0:0:
109,192,154561,128,0,154668:0:0:0:0:
402,192,154668,128,0,154990:0:0:0:0:
329,192,154668,1,0,0:0:0:0:
182,192,154668,1,0,0:0:0:0:
475,192,154668,1,0,0:0:0:0:
256,192,154883,128,0,155097:0:0:0:0:
329,192,154883,1,0,0:0:0:0:
402,192,155097,128,0,155311:0:0:0:0:
182,192,155097,128,0,155418:0:0:0:0:
36,192,155097,1,0,0:0:0:0:
109,192,155097,1,0,0:0:0:0:
256,192,155311,1,0,0:0:0:0:
402,192,155418,128,0,155525:0:0:0:0:
329,192,155418,128,0,155525:0:0:0:0:
109,192,155525,1,0,0:0:0:0:
182,192,155525,1,0,0:0:0:0:
475,192,155525,1,0,0:0:0:0:
109,192,155740,128,0,155954:0:0:0:0:
256,192,155740,128,0,155954:0:0:0:0:
329,192,155740,1,0,0:0:0:0:
402,192,155954,128,0,156275:0:0:0:0:
329,192,155954,128,0,156275:0:0:0:0:
182,192,155954,1,0,0:0:0:0:
36,192,155954,1,0,0:0:0:0:
109,192,156168,1,0,0:0:0:0:
182,192,156275,128,0,156383:0:0:0:0:
402,192,156383,128,0,156704:0:0:0:0:
36,192,156383,1,0,0:0:0:0:
256,192,156383,1,0,0:0:0:0:
329,192,156383,1,0,0:0:0:0:
475,192,156597,128,0,156811:0:0:0:0:
256,192,156597,1,0,0:0:0:0:
402,192,156811,128,0,157025:0:0:0:0:
36,192,156811,128,0,156918:0:0:0:0:
329,192,156811,128,0,157025:0:0:0:0:
182,192,156811,1,0,0:0:0:0:
109,192,156811,1,0,0:0:0:0:
36,192,157025,128,0,157240:0:0:0:0:
256,192,157025,128,0,157240:0:0:0:0:
475,192,157025,1,0,0:0:0:0:
402,192,157133,128,0,157240:0:0:0:0:
182,192,157240,128,0,157454:0:0:0:0:
329,192,157240,1,0,0:0:0:0:
475,192,157240,1,0,0:0:0:0:
109,192,157240,128,0,157347:0:0:0:0:
256,192,157347,128,0,157454:0:0:0:0:
475,192,157454,128,0,157668:0:0:0:0:
109,192,157454,128,0,157668:0:0:0:0:
36,192,157454,128,0,157668:0:0:0:0:
402,192,157454,1,0,0:0:0:0:
402,192,157668,128,0,157990:0:0:0:0:
182,192,157668,128,0,157990:0:0:0:0:
329,192,157668,1,0,0:0:0:0:
256,192,157668,1,0,0:0:0:0:
109,192,157883,1,0,0:0:0:0:
256,192,157990,128,0,158097:0:0:0:0:
402,192,158097,128,0,158418:0:0:0:0:
36,192,158097,1,0,0:0:0:0:
109,192,158097,1,0,0:0:0:0:
475,192,158097,1,0,0:0:0:0:
329,192,158311,128,0,158525:0:0:0:0:
256,192,158311,1,0,0:0:0:0:
402,192,158525,128,0,158740:0:0:0:0:
36,192,158525,128,0,158847:0:0:0:0:
109,192,158525,1,0,0:0:0:0:
182,192,158525,1,0,0:0:0:0:
329,192,158740,1,0,0:0:0:0:
402,192,158847,128,0,158954:0:0:0:0:
182,192,158847,128,0,158954:0:0:0:0:
256,192,158954,1,0,0:0:0:0:
36,192,158954,1,0,0:0:0:0:
475,192,158954,1,0,0:0:0:0:
109,192,159168,128,0,159383:0:0:0:0:
256,192,159168,128,0,159383:0:0:0:0:
402,192,159168,1,0,0:0:0:0:
402,192,159383,128,0,159597:0:0:0:0:
329,192,159383,128,0,159704:0:0:0:0:
182,192,159383,1,0,0:0:0:0:
36,192,159383,1,0,0:0:0:0:
256,192,159597,1,0,0:0:0:0:
402,192,159704,128,0,159811:0:0:0:0:
109,192,159704,128,0,159811:0:0:0:0:
182,192,159811,1,0,0:0:0:0:
256,192,159811,1,0,0:0:0:0:
36,192,159811,1,0,0:0:0:0:
402,192,160025,128,0,160133:0:0:0:0:
475,192,160025,128,0,160240:0:0:0:0:
329,192,160025,1,0,0:0:0:0:
402,192,160240,128,0,160454:0:0:0:0:
109,192,160240,128,0,160347:0:0:0:0:
36,192,160240,1,0,0:0:0:0:
256,192,160240,1,0,0:0:0:0:
109,192,160454,128,0,160561:0:0:0:0:
329,192,160454,128,0,160668:0:0:0:0:
256,192,160454,1,0,0:0:0:0:
36,192,160454,1,0,0:0:0:0:
109,192,160668,128,0,160775:0:0:0:0:
256,192,160668,128,0,160883:0:0:0:0:
402,192,160668,1,0,0:0:0:0:
475,192,160775,1,0,0:0:0:0:
109,192,160883,128,0,160990:0:0:0:0:
182,192,160883,128,0,160990:0:0:0:0:
402,192,160883,1,0,0:0:0:0:
329,192,160990,1,0,0:0:0:0:
475,192,161097,1,0,0:0:0:0:
109,192,161097,1,0,0:0:0:0:
256,192,161097,1,0,0:0:0:0:
402,192,161097,128,0,161418:0:0:0:0:
36,192,161097,128,0,161418:0:0:0:0:
182,192,161097,1,0,0:0:0:0:
329,192,161311,1,0,0:0:0:0:
182,192,161418,128,0,161740:0:0:0:0:
402,192,161525,128,0,161847:0:0:0:0:
109,192,161525,1,0,0:0:0:0:
256,192,161525,1,0,0:0:0:0:
475,192,161525,1,0,0:0:0:0:
329,192,161740,128,0,161954:0:0:0:0:
36,192,161740,1,0,0:0:0:0:
402,192,161954,128,0,162168:0:0:0:0:
36,192,161954,128,0,162275:0:0:0:0:
182,192,161954,1,0,0:0:0:0:
256,192,161954,1,0,0:0:0:0:
109,192,162168,1,0,0:0:0:0:
402,192,162275,128,0,162383:0:0:0:0:
182,192,162275,128,0,162383:0:0:0:0:
475,192,162383,1,0,0:0:0:0:
36,192,162383,1,0,0:0:0:0:
329,192,162383,1,0,0:0:0:0:
109,192,162597,128,0,162811:0:0:0:0:
182,192,162597,128,0,162811:0:0:0:0:
256,192,162597,1,0,0:0:0:0:
402,192,162811,128,0,163133:0:0:0:0:
329,192,162811,128,0,163133:0:0:0:0:
36,192,162811,1,0,0:0:0:0:
475,192,162811,1,0,0:0:0:0:
182,192,163025,1,0,0:0:0:0:
36,192,163133,128,0,163240:0:0:0:0:
402,192,163240,128,0,163561:0:0:0:0:
109,192,163240,1,0,0:0:0:0:
182,192,163240,1,0,0:0:0:0:
256,192,163240,1,0,0:0:0:0:
475,192,163454,128,0,163668:0:0:0:0:
329,192,163454,1,0,0:0:0:0:
402,192,163668,128,0,163883:0:0:0:0:
329,192,163668,128,0,163883:0:0:0:0:
36,192,163668,1,0,0:0:0:0:
182,192,163668,128,0,163883:0:0:0:0:
256,192,163883,128,0,164097:0:0:0:0:
109,192,163883,128,0,164097:0:0:0:0:
475,192,163883,1,0,0:0:0:0:
402,192,163990,128,0,164097:0:0:0:0:
182,192,164097,128,0,164311:0:0:0:0:
36,192,164097,1,0,0:0:0:0:
475,192,164097,1,0,0:0:0:0:
329,192,164097,128,0,164204:0:0:0:0:
402,192,164204,128,0,164311:0:0:0:0:
475,192,164311,128,0,164525:0:0:0:0:
109,192,164311,128,0,164525:0:0:0:0:
329,192,164311,128,0,164525:0:0:0:0:
256,192,164311,1,0,0:0:0:0:
402,192,164525,128,0,164847:0:0:0:0:
36,192,164525,128,0,164847:0:0:0:0:
182,192,164525,1,0,0:0:0:0:
256,192,164525,1,0,0:0:0:0:
109,192,164740,1,0,0:0:0:0:
256,192,164847,128,0,164954:0:0:0:0:
402,192,164954,128,0,165275:0:0:0:0:
182,192,164954,1,0,0:0:0:0:
329,192,164954,1,0,0:0:0:0:
475,192,164954,1,0,0:0:0:0:
329,192,165168,128,0,165383:0:0:0:0:
36,192,165168,1,0,0:0:0:0:
402,192,165383,128,0,165597:0:0:0:0:
109,192,165383,128,0,165704:0:0:0:0:
256,192,165383,1,0,0:0:0:0:
182,192,165383,1,0,0:0:0:0:
329,192,165597,1,0,0:0:0:0:
402,192,165704,128,0,165811:0:0:0:0:
256,192,165704,128,0,165811:0:0:0:0:
36,192,165811,1,0,0:0:0:0:
182,192,165811,1,0,0:0:0:0:
475,192,165811,1,0,0:0:0:0:
109,192,166025,128,0,166240:0:0:0:0:
182,192,166025,128,0,166240:0:0:0:0:
329,192,166025,1,0,0:0:0:0:
402,192,166240,128,0,166454:0:0:0:0:
475,192,166240,128,0,166561:0:0:0:0:
256,192,166240,1,0,0:0:0:0:
36,192,166240,1,0,0:0:0:0:
329,192,166454,1,0,0:0:0:0:
402,192,166561,128,0,166668:0:0:0:0:
36,192,166561,128,0,166668:0:0:0:0:
182,192,166668,1,0,0:0:0:0:
256,192,166668,1,0,0:0:0:0:
329,192,166668,1,0,0:0:0:0:
402,192,166883,128,0,166990:0:0:0:0:
475,192,166883,128,0,167097:0:0:0:0:
109,192,166883,1,0,0:0:0:0:
402,192,167097,128,0,167311:0:0:0:0:
182,192,167097,128,0,167204:0:0:0:0:
329,192,167097,1,0,0:0:0:0:
36,192,167097,1,0,0:0:0:0:
182,192,167311,1,0,0:0:0:0:
475,192,167311,1,0,0:0:0:0:
109,192,167525,128,0,167579:0:0:0:0:
329,192,167525,128,0,167579:0:0:0:0:
182,192,167633,128,0,167686:0:0:0:0:
402,192,167633,128,0,167686:0:0:0:0:
109,192,167740,128,0,167793:0:0:0:0:
329,192,167740,128,0,167793:0:0:0:0:
182,192,167847,128,0,167900:0:0:0:0:
402,192,167847,128,0,167900:0:0:0:0:
109,192,167954,1,0,0:0:0:0:
256,192,167954,1,0,0:0:0:0:
329,192,167954,1,0,0:0:0:0:
475,192,167954,1,0,0:0:0:0:
36,192,167954,128,0,168811:0:0:0:0:
402,192,168383,1,0,0:0:0:0:
329,192,168597,1,0,0:0:0:0:
256,192,168597,1,0,0:0:0:0:
475,192,168811,1,0,0:0:0:0:
402,192,168811,1,0,0:0:0:0:
182,192,168811,128,0,168918:0:0:0:0:
329,192,168811,1,0,0:0:0:0:
109,192,168918,128,0,169025:0:0:0:0:
182,192,169025,128,0,169133:0:0:0:0:
256,192,169133,128,0,169240:0:0:0:0:
182,192,169240,128,0,169454:0:0:0:0:
402,192,169240,1,0,0:0:0:0:
109,192,169454,128,0,169668:0:0:0:0:
36,192,169454,1,0,0:0:0:0:
256,192,169454,1,0,0:0:0:0:
402,192,169668,128,0,169883:0:0:0:0:
256,192,169668,128,0,169883:0:0:0:0:
475,192,169668,1,0,0:0:0:0:
182,192,169668,1,0,0:0:0:0:
36,192,169775,128,0,169883:0:0:0:0:
329,192,169883,128,0,170097:0:0:0:0:
182,192,169883,128,0,170097:0:0:0:0:
475,192,169883,128,0,169990:0:0:0:0:
402,192,169990,128,0,170097:0:0:0:0:
256,192,170097,128,0,170311:0:0:0:0:
109,192,170097,128,0,170311:0:0:0:0:
36,192,170097,128,0,170204:0:0:0:0:
475,192,170097,1,0,0:0:0:0:
36,192,170311,1,0,0:0:0:0:
182,192,170311,128,0,170525:0:0:0:0:
329,192,170311,1,0,0:0:0:0:
256,192,170525,128,0,170633:0:0:0:0:
475,192,170525,1,0,0:0:0:0:
402,192,170525,1,0,0:0:0:0:
109,192,170525,1,0,0:0:0:0:
329,192,170633,128,0,170740:0:0:0:0:
402,192,170740,128,0,170847:0:0:0:0:
329,192,170847,128,0,170954:0:0:0:0:
256,192,170954,128,0,171383:0:0:0:0:
36,192,170954,1,0,0:0:0:0:
329,192,171168,1,0,0:0:0:0:
475,192,171168,1,0,0:0:0:0:
109,192,171383,128,0,171704:0:0:0:0:
182,192,171383,128,0,171490:0:0:0:0:
402,192,171383,1,0,0:0:0:0:
36,192,171383,1,0,0:0:0:0:
329,192,171490,128,0,171597:0:0:0:0:
475,192,171597,128,0,171704:0:0:0:0:
329,192,171704,128,0,171918:0:0:0:0:
109,192,171811,128,0,172133:0:0:0:0:
182,192,171811,1,0,0:0:0:0:
475,192,172025,1,0,0:0:0:0:
402,192,172025,1,0,0:0:0:0:
36,192,172240,1,0,0:0:0:0:
109,192,172240,1,0,0:0:0:0:
256,192,172240,1,0,0:0:0:0:
182,192,172347,128,0,172454:0:0:0:0:
329,192,172454,128,0,172561:0:0:0:0:
475,192,172561,128,0,172668:0:0:0:0:
329,192,172668,128,0,173097:0:0:0:0:
182,192,172668,1,0,0:0:0:0:
256,192,172883,1,0,0:0:0:0:
402,192,172883,1,0,0:0:0:0:
109,192,173097,128,0,173311:0:0:0:0:
182,192,173097,128,0,173311:0:0:0:0:
36,192,173097,1,0,0:0:0:0:
475,192,173097,1,0,0:0:0:0:
256,192,173418,1,0,0:0:0:0:
329,192,173525,128,0,173740:0:0:0:0:
402,192,173525,128,0,173740:0:0:0:0:
109,192,173525,1,0,0:0:0:0:
182,192,173740,1,0,0:0:0:0:
256,192,173740,1,0,0:0:0:0:
36,192,173954,128,0,174061:0:0:0:0:
475,192,173954,1,0,0:0:0:0:
402,192,173954,1,0,0:0:0:0:
329,192,173954,1,0,0:0:0:0:
182,192,174061,128,0,174168:0:0:0:0:
256,192,174168,128,0,174275:0:0:0:0:
182,192,174275,128,0,174383:0:0:0:0:
109,192,174275,1,0,0:0:0:0:
475,192,174275,1,0,0:0:0:0:
36,192,174383,128,0,174811:0:0:0:0:
329,192,174383,1,0,0:0:0:0:
475,192,174597,1,0,0:0:0:0:
329,192,174597,1,0,0:0:0:0:
402,192,174597,1,0,0:0:0:0:
402,192,174811,128,0,175668:0:0:0:0:
182,192,174811,128,0,174918:0:0:0:0:
256,192,174811,1,0,0:0:0:0:
109,192,174811,1,0,0:0:0:0:
329,192,174918,128,0,175025:0:0:0:0:
475,192,175025,128,0,175133:0:0:0:0:
329,192,175133,128,0,175240:0:0:0:0:
36,192,175133,1,0,0:0:0:0:
109,192,175133,1,0,0:0:0:0:
182,192,175240,128,0,175454:0:0:0:0:
256,192,175240,1,0,0:0:0:0:
36,192,175454,128,0,175668:0:0:0:0:
329,192,175454,1,0,0:0:0:0:
475,192,175454,1,0,0:0:0:0:
109,192,175668,1,0,0:0:0:0:
182,192,175668,1,0,0:0:0:0:
256,192,175668,1,0,0:0:0:0:
329,192,175775,128,0,175883:0:0:0:0:
475,192,175883,128,0,175990:0:0:0:0:
329,192,175990,128,0,176097:0:0:0:0:
36,192,175990,1,0,0:0:0:0:
256,192,176097,1,0,0:0:0:0:
182,192,176097,128,0,176311:0:0:0:0:
329,192,176311,128,0,176525:0:0:0:0:
109,192,176311,1,0,0:0:0:0:
475,192,176311,1,0,0:0:0:0:
402,192,176525,128,0,176740:0:0:0:0:
109,192,176525,128,0,176740:0:0:0:0:
36,192,176525,128,0,176633:0:0:0:0:
182,192,176525,1,0,0:0:0:0:
475,192,176525,1,0,0:0:0:0:
256,192,176633,128,0,176740:0:0:0:0:
182,192,176740,128,0,176954:0:0:0:0:
329,192,176740,128,0,176954:0:0:0:0:
475,192,176740,128,0,176847:0:0:0:0:
256,192,176847,128,0,176954:0:0:0:0:
36,192,176847,1,0,0:0:0:0:
109,192,176954,128,0,177168:0:0:0:0:
402,192,176954,128,0,177168:0:0:0:0:
36,192,176954,128,0,177061:0:0:0:0:
475,192,176954,1,0,0:0:0:0:
36,192,177168,128,0,177383:0:0:0:0:
256,192,177168,1,0,0:0:0:0:
329,192,177383,1,0,0:0:0:0:
475,192,177383,1,0,0:0:0:0:
182,192,177383,1,0,0:0:0:0:
109,192,177490,128,0,177597:0:0:0:0:
256,192,177597,128,0,177704:0:0:0:0:
402,192,177704,128,0,177811:0:0:0:0:
182,192,177704,1,0,0:0:0:0:
475,192,177704,1,0,0:0:0:0:
256,192,177811,128,0,178240:0:0:0:0:
109,192,177811,1,0,0:0:0:0:
36,192,178025,1,0,0:0:0:0:
109,192,178025,1,0,0:0:0:0:
475,192,178025,1,0,0:0:0:0:
36,192,178240,1,0,0:0:0:0:
182,192,178240,1,0,0:0:0:0:
329,192,178240,1,0,0:0:0:0:
402,192,178240,1,0,0:0:0:0:
475,192,178240,1,0,0:0:0:0:
256,192,178454,128,0,179097:0:0:0:0:
402,192,178454,128,0,179097:0:0:0:0:
36,192,179097,1,0,0:0:0:0:
109,192,179097,1,0,0:0:0:0:
182,192,179097,1,0,0:0:0:0:
329,192,179097,1,0,0:0:0:0:
475,192,179097,1,0,0:0:0:0:
36,192,179311,128,0,179954:0:0:0:0:
475,192,179311,128,0,179954:0:0:0:0:
109,192,179954,1,0,0:0:0:0:
182,192,179954,1,0,0:0:0:0:
256,192,179954,1,0,0:0:0:0:
329,192,179954,1,0,0:0:0:0:
402,192,179954,1,0,0:0:0:0:
182,192,180168,128,0,180811:0:0:0:0:
329,192,180168,128,0,180811:0:0:0:0:
36,192,180811,1,0,0:0:0:0:
109,192,180811,1,0,0:0:0:0:
256,192,180811,1,0,0:0:0:0:
402,192,180811,1,0,0:0:0:0:
475,192,180811,1,0,0:0:0:0:
256,192,181025,128,0,181668:0:0:0:0:
36,192,181668,1,0,0:0:0:0:
109,192,181668,1,0,0:0:0:0:
475,192,181668,1,0,0:0:0:0:
182,192,181668,1,0,0:0:0:0:
329,192,181668,1,0,0:0:0:0:
402,192,181668,128,0,182525:0:0:0:0:
256,192,181883,1,0,0:0:0:0:
182,192,182097,1,0,0:0:0:0:
475,192,182097,1,0,0:0:0:0:
36,192,182311,1,0,0:0:0:0:
329,192,182525,128,0,183383:0:0:0:0:
109,192,182525,1,0,0:0:0:0:
256,192,182525,1,0,0:0:0:0:
402,192,182740,1,0,0:0:0:0:
109,192,182847,1,0,0:0:0:0:
475,192,182954,1,0,0:0:0:0:
36,192,182954,1,0,0:0:0:0:
182,192,182954,1,0,0:0:0:0:
109,192,183168,1,0,0:0:0:0:
256,192,183383,128,0,183811:0:0:0:0:
36,192,183383,1,0,0:0:0:0:
475,192,183383,1,0,0:0:0:0:
402,192,183597,1,0,0:0:0:0:
182,192,183811,128,0,184240:0:0:0:0:
109,192,183811,1,0,0:0:0:0:
329,192,183811,1,0,0:0:0:0:
402,192,184025,1,0,0:0:0:0:
109,192,184240,128,0,184668:0:0:0:0:
475,192,184240,1,0,0:0:0:0:
329,192,184240,1,0,0:0:0:0:
256,192,184454,1,0,0:0:0:0:
36,192,184668,128,0,185097:0:0:0:0:
182,192,184668,1,0,0:0:0:0:
329,192,184668,1,0,0:0:0:0:
475,192,184668,1,0,0:0:0:0:
402,192,184883,1,0,0:0:0:0:
109,192,185097,128,0,185525:0:0:0:0:
182,192,185097,1,0,0:0:0:0:
329,192,185097,1,0,0:0:0:0:
402,192,185311,1,0,0:0:0:0:
182,192,185525,128,0,185954:0:0:0:0:
329,192,185525,1,0,0:0:0:0:
36,192,185525,1,0,0:0:0:0:
475,192,185740,1,0,0:0:0:0:
256,192,185954,128,0,186383:0:0:0:0:
109,192,185954,1,0,0:0:0:0:
402,192,185954,1,0,0:0:0:0:
182,192,186168,1,0,0:0:0:0:
329,192,186383,128,0,186811:0:0:0:0:
36,192,186383,1,0,0:0:0:0:
109,192,186383,1,0,0:0:0:0:
475,192,186383,1,0,0:0:0:0:
256,192,186597,1,0,0:0:0:0:
402,192,186811,128,0,187668:0:0:0:0:
182,192,186811,1,0,0:0:0:0:
475,192,186811,1,0,0:0:0:0:
109,192,187025,1,0,0:0:0:0:
36,192,187240,1,0,0:0:0:0:
329,192,187240,1,0,0:0:0:0:
182,192,187454,5,0,0:0:0:0:
36,192,187668,5,0,0:0:0:0:
256,192,187668,1,0,0:0:0:0:
109,192,187883,1,0,0:0:0:0:
475,192,188097,1,0,0:0:0:0:
256,192,188097,1,0,0:0:0:0:
402,192,188097,1,0,0:0:0:0:
36,192,188311,1,0,0:0:0:0:
109,192,188525,5,0,0:0:0:0:
256,192,188525,1,0,0:0:0:0:
182,192,188525,1,0,0:0:0:0:
329,192,188525,1,0,0:0:0:0:
402,192,188525,1,0,0:0:0:0:
36,192,190240,1,0,0:0:0:0:
109,192,190240,1,0,0:0:0:0:
182,192,190240,1,0,0:0:0:0:
329,192,190240,1,0,0:0:0:0:
402,192,190240,1,0,0:0:0:0:
475,192,190240,1,0,0:0:0:0:
36,192,191097,1,0,0:0:0:0:
109,192,191097,1,0,0:0:0:0:
402,192,191097,1,0,0:0:0:0:
475,192,191097,1,0,0:0:0:0:
182,192,191097,1,0,0:0:0:0:
329,192,191097,1,0,0:0:0:0:
36,192,191954,1,0,0:0:0:0:
182,192,191954,1,0,0:0:0:0:
256,192,191954,1,0,0:0:0:0:
329,192,191954,1,0,0:0:0:0:
475,192,191954,1,0,0:0:0:0:
329,192,192168,1,0,0:0:0:0:
402,192,192275,128,0,192597:0:0:0:0:
36,192,192383,1,0,0:0:0:0:
256,192,192383,1,0,0:0:0:0:
109,192,192597,128,0,192811:0:0:0:0:
329,192,192597,1,0,0:0:0:0:
36,192,192811,128,0,193025:0:0:0:0:
256,192,192811,1,0,0:0:0:0:
475,192,192811,1,0,0:0:0:0:
329,192,193025,1,0,0:0:0:0:
402,192,193133,128,0,193454:0:0:0:0:
182,192,193240,1,0,0:0:0:0:
475,192,193240,1,0,0:0:0:0:
109,192,193454,128,0,193668:0:0:0:0:
256,192,193454,1,0,0:0:0:0:
36,192,193668,128,0,193883:0:0:0:0:
329,192,193668,1,0,0:0:0:0:
182,192,193668,1,0,0:0:0:0:
256,192,193883,1,0,0:0:0:0:
402,192,193990,128,0,194311:0:0:0:0:
475,192,194097,1,0,0:0:0:0:
182,192,194097,1,0,0:0:0:0:
109,192,194311,128,0,194525:0:0:0:0:
329,192,194311,1,0,0:0:0:0:
36,192,194525,128,0,194740:0:0:0:0:
182,192,194525,1,0,0:0:0:0:
402,192,194525,1,0,0:0:0:0:
256,192,194740,1,0,0:0:0:0:
402,192,194847,128,0,195168:0:0:0:0:
36,192,194954,1,0,0:0:0:0:
182,192,194954,1,0,0:0:0:0:
109,192,195168,128,0,195383:0:0:0:0:
256,192,195168,1,0,0:0:0:0:
36,192,195383,1,0,0:0:0:0:
182,192,195383,1,0,0:0:0:0:
329,192,195383,1,0,0:0:0:0:
475,192,195383,1,0,0:0:0:0:
402,192,195383,1,0,0:0:0:0:
256,192,195597,1,0,0:0:0:0:
256,192,195811,1,0,0:0:0:0:
256,192,196025,1,0,0:0:0:0:
36,192,196240,1,0,0:0:0:0:
182,192,196240,1,0,0:0:0:0:
256,192,196240,1,0,0:0:0:0:
329,192,196240,1,0,0:0:0:0:
475,192,196240,1,0,0:0:0:0:
256,192,196454,1,0,0:0:0:0:
256,192,196668,1,0,0:0:0:0:
256,192,196883,1,0,0:0:0:0:
36,192,197097,1,0,0:0:0:0:
109,192,197097,1,0,0:0:0:0:
256,192,197097,1,0,0:0:0:0:
402,192,197097,1,0,0:0:0:0:
475,192,197097,1,0,0:0:0:0:
329,192,197204,1,0,0:0:0:0:
182,192,197311,1,0,0:0:0:0:
329,192,197418,1,0,0:0:0:0:
182,192,197525,1,0,0:0:0:0:
256,192,197579,1,0,0:0:0:0:
329,192,197633,1,0,0:0:0:0:
402,192,197686,1,0,0:0:0:0:
475,192,197740,1,0,0:0:0:0:
402,192,197793,1,0,0:0:0:0:
329,192,197847,1,0,0:0:0:0:
256,192,197900,1,0,0:0:0:0:
182,192,197954,1,0,0:0:0:0:
109,192,197954,1,0,0:0:0:0:
36,192,197954,1,0,0:0:0:0:
475,192,197954,1,0,0:0:0:0:
36,192,198811,1,0,0:0:0:0:
182,192,198811,1,0,0:0:0:0:
329,192,198811,1,0,0:0:0:0:
475,192,198811,1,0,0:0:0:0:
109,192,198811,128,0,199025:0:0:0:0:
256,192,198811,128,0,198918:0:0:0:0:
402,192,198918,128,0,199025:0:0:0:0:
329,192,199025,128,0,199240:0:0:0:0:
256,192,199025,128,0,199133:0:0:0:0:
36,192,199025,1,0,0:0:0:0:
475,192,199133,128,0,199240:0:0:0:0:
109,192,199240,128,0,199454:0:0:0:0:
182,192,199240,1,0,0:0:0:0:
256,192,199240,1,0,0:0:0:0:
402,192,199240,1,0,0:0:0:0:
329,192,199454,128,0,199668:0:0:0:0:
36,192,199454,128,0,199668:0:0:0:0:
256,192,199454,1,0,0:0:0:0:
402,192,199668,128,0,200097:0:0:0:0:
109,192,199668,128,0,199775:0:0:0:0:
182,192,199668,1,0,0:0:0:0:
475,192,199668,1,0,0:0:0:0:
256,192,199775,128,0,199883:0:0:0:0:
109,192,199883,128,0,199990:0:0:0:0:
329,192,199883,1,0,0:0:0:0:
182,192,199990,128,0,200097:0:0:0:0:
329,192,200097,128,0,200311:0:0:0:0:
36,192,200097,1,0,0:0:0:0:
109,192,200097,1,0,0:0:0:0:
475,192,200097,1,0,0:0:0:0:
182,192,200311,128,0,200525:0:0:0:0:
256,192,200311,128,0,200525:0:0:0:0:
402,192,200311,1,0,0:0:0:0:
109,192,200525,128,0,200740:0:0:0:0:
329,192,200525,128,0,200633:0:0:0:0:
36,192,200525,1,0,0:0:0:0:
402,192,200525,1,0,0:0:0:0:
475,192,200633,128,0,200740:0:0:0:0:
329,192,200740,128,0,200847:0:0:0:0:
182,192,200740,1,0,0:0:0:0:
402,192,200847,128,0,200954:0:0:0:0:
475,192,200954,128,0,201383:0:0:0:0:
109,192,200954,1,0,0:0:0:0:
256,192,200954,1,0,0:0:0:0:
36,192,200954,1,0,0:0:0:0:
36,192,201168,128,0,201383:0:0:0:0:
329,192,201168,1,0,0:0:0:0:
329,192,201383,128,0,201811:0:0:0:0:
182,192,201383,128,0,201490:0:0:0:0:
256,192,201383,1,0,0:0:0:0:
402,192,201383,1,0,0:0:0:0:
109,192,201383,128,0,201597:0:0:0:0:
36,192,201597,1,0,0:0:0:0:
402,192,201597,128,0,201704:0:0:0:0:
475,192,201597,128,0,201811:0:0:0:0:
109,192,201811,1,0,0:0:0:0:
256,192,201811,1,0,0:0:0:0:
182,192,201811,128,0,201918:0:0:0:0:
36,192,201918,128,0,202025:0:0:0:0:
402,192,202025,128,0,202133:0:0:0:0:
475,192,202025,128,0,202240:0:0:0:0:
329,192,202025,128,0,202240:0:0:0:0:
182,192,202025,128,0,202133:0:0:0:0:
109,192,202025,1,0,0:0:0:0:
109,192,202240,128,0,202454:0:0:0:0:
256,192,202240,128,0,202347:0:0:0:0:
36,192,202240,1,0,0:0:0:0:
402,192,202240,1,0,0:0:0:0:
475,192,202347,128,0,202454:0:0:0:0:
182,192,202454,128,0,202668:0:0:0:0:
256,192,202454,128,0,202561:0:0:0:0:
329,192,202454,1,0,0:0:0:0:
402,192,202561,128,0,202668:0:0:0:0:
36,192,202668,128,0,202883:0:0:0:0:
475,192,202668,1,0,0:0:0:0:
329,192,202668,1,0,0:0:0:0:
256,192,202668,1,0,0:0:0:0:
182,192,202883,128,0,203097:0:0:0:0:
109,192,202883,128,0,203097:0:0:0:0:
329,192,202883,1,0,0:0:0:0:
475,192,203097,128,0,203311:0:0:0:0:
36,192,203097,128,0,203204:0:0:0:0:
256,192,203097,1,0,0:0:0:0:
402,192,203097,1,0,0:0:0:0:
329,192,203204,128,0,203311:0:0:0:0:
402,192,203311,128,0,203525:0:0:0:0:
36,192,203311,128,0,203418:0:0:0:0:
182,192,203311,1,0,0:0:0:0:
256,192,203418,128,0,203525:0:0:0:0:
329,192,203525,128,0,203740:0:0:0:0:
36,192,203525,1,0,0:0:0:0:
109,192,203525,1,0,0:0:0:0:
475,192,203525,1,0,0:0:0:0:
182,192,203740,128,0,203954:0:0:0:0:
402,192,203740,128,0,203954:0:0:0:0:
109,192,203740,1,0,0:0:0:0:
109,192,203954,128,0,204383:0:0:0:0:
256,192,203954,128,0,204383:0:0:0:0:
475,192,203954,128,0,204168:0:0:0:0:
329,192,203954,1,0,0:0:0:0:
36,192,203954,1,0,0:0:0:0:
402,192,204168,1,0,0:0:0:0:
36,192,204275,128,0,204383:0:0:0:0:
329,192,204383,128,0,204811:0:0:0:0:
475,192,204383,128,0,204811:0:0:0:0:
182,192,204383,1,0,0:0:0:0:
402,192,204383,1,0,0:0:0:0:
182,192,204597,128,0,204811:0:0:0:0:
109,192,204597,1,0,0:0:0:0:
109,192,204811,128,0,205240:0:0:0:0:
256,192,204811,128,0,205240:0:0:0:0:
402,192,204811,128,0,205025:0:0:0:0:
36,192,204811,128,0,205025:0:0:0:0:
182,192,205025,128,0,205133:0:0:0:0:
475,192,205025,1,0,0:0:0:0:
329,192,205025,128,0,205240:0:0:0:0:
402,192,205133,128,0,205240:0:0:0:0:
475,192,205240,1,0,0:0:0:0:
36,192,205240,1,0,0:0:0:0:
182,192,205240,128,0,205347:0:0:0:0:
329,192,205347,128,0,205454:0:0:0:0:
109,192,205347,1,0,0:0:0:0:
36,192,205454,128,0,205561:0:0:0:0:
182,192,205454,1,0,0:0:0:0:
402,192,205454,1,0,0:0:0:0:
475,192,205454,128,0,205668:0:0:0:0:
329,192,205561,1,0,0:0:0:0:
182,192,205668,128,0,205775:0:0:0:0:
36,192,205668,128,0,205883:0:0:0:0:
402,192,205668,1,0,0:0:0:0:
256,192,205668,1,0,0:0:0:0:
329,192,205775,128,0,205883:0:0:0:0:
182,192,205883,128,0,205990:0:0:0:0:
109,192,205883,128,0,206097:0:0:0:0:
475,192,205883,1,0,0:0:0:0:
402,192,205990,128,0,206097:0:0:0:0:
329,192,205990,1,0,0:0:0:0:
36,192,206097,128,0,206311:0:0:0:0:
182,192,206097,1,0,0:0:0:0:
256,192,206097,1,0,0:0:0:0:
475,192,206097,1,0,0:0:0:0:
182,192,206311,128,0,206525:0:0:0:0:
256,192,206311,128,0,206525:0:0:0:0:
329,192,206311,1,0,0:0:0:0:
475,192,206525,128,0,206740:0:0:0:0:
109,192,206525,128,0,206633:0:0:0:0:
36,192,206525,1,0,0:0:0:0:
402,192,206525,1,0,0:0:0:0:
329,192,206633,128,0,206740:0:0:0:0:
402,192,206740,128,0,206954:0:0:0:0:
109,192,206740,128,0,206847:0:0:0:0:
182,192,206740,1,0,0:0:0:0:
256,192,206847,128,0,206954:0:0:0:0:
329,192,206954,128,0,207168:0:0:0:0:
36,192,206954,1,0,0:0:0:0:
109,192,206954,1,0,0:0:0:0:
475,192,206954,1,0,0:0:0:0:
256,192,207168,128,0,207383:0:0:0:0:
182,192,207168,128,0,207383:0:0:0:0:
402,192,207168,1,0,0:0:0:0:
36,192,207383,128,0,207811:0:0:0:0:
475,192,207383,128,0,207597:0:0:0:0:
109,192,207383,1,0,0:0:0:0:
329,192,207383,1,0,0:0:0:0:
256,192,207597,1,0,0:0:0:0:
402,192,207704,128,0,207811:0:0:0:0:
109,192,207811,128,0,208240:0:0:0:0:
182,192,207811,1,0,0:0:0:0:
329,192,207811,1,0,0:0:0:0:
475,192,207811,1,0,0:0:0:0:
402,192,208025,1,0,0:0:0:0:
256,192,208133,128,0,208240:0:0:0:0:
182,192,208240,128,0,208668:0:0:0:0:
402,192,208240,128,0,208454:0:0:0:0:
329,192,208240,1,0,0:0:0:0:
475,192,208240,1,0,0:0:0:0:
36,192,208240,128,0,208454:0:0:0:0:
256,192,208454,1,0,0:0:0:0:
329,192,208454,128,0,208668:0:0:0:0:
402,192,208561,128,0,208668:0:0:0:0:
475,192,208668,128,0,209097:0:0:0:0:
36,192,208668,128,0,208775:0:0:0:0:
109,192,208668,1,0,0:0:0:0:
256,192,208775,128,0,208883:0:0:0:0:
402,192,208775,1,0,0:0:0:0:
329,192,208883,128,0,209097:0:0:0:0:
36,192,208883,1,0,0:0:0:0:
182,192,208883,128,0,209097:0:0:0:0:
256,192,209097,128,0,210383:0:0:0:0:
402,192,209097,128,0,209418:0:0:0:0:
36,192,209097,1,0,0:0:0:0:
109,192,209097,1,0,0:0:0:0:
182,192,209311,1,0,0:0:0:0:
329,192,209418,128,0,209525:0:0:0:0:
36,192,209525,1,0,0:0:0:0:
109,192,209525,1,0,0:0:0:0:
475,192,209525,1,0,0:0:0:0:
109,192,209740,128,0,209954:0:0:0:0:
329,192,209740,1,0,0:0:0:0:
402,192,209954,128,0,210275:0:0:0:0:
182,192,209954,1,0,0:0:0:0:
475,192,209954,1,0,0:0:0:0:
36,192,210168,1,0,0:0:0:0:
329,192,210275,128,0,210383:0:0:0:0:
109,192,210383,1,0,0:0:0:0:
182,192,210383,1,0,0:0:0:0:
475,192,210383,1,0,0:0:0:0:
402,192,210597,128,0,210811:0:0:0:0:
329,192,210597,1,0,0:0:0:0:
475,192,210811,128,0,211668:0:0:0:0:
36,192,210811,128,0,211668:0:0:0:0:
109,192,210811,128,0,211025:0:0:0:0:
256,192,210811,128,0,210918:0:0:0:0:
182,192,210811,1,0,0:0:0:0:
182,192,211025,128,0,211240:0:0:0:0:
329,192,211025,128,0,211133:0:0:0:0:
402,192,211025,1,0,0:0:0:0:
256,192,211240,128,0,211454:0:0:0:0:
402,192,211240,128,0,211347:0:0:0:0:
109,192,211240,1,0,0:0:0:0:
329,192,211454,128,0,211668:0:0:0:0:
182,192,211454,128,0,211561:0:0:0:0:
402,192,211454,1,0,0:0:0:0:
402,192,211668,1,0,0:0:0:0:
256,192,211668,1,0,0:0:0:0:
182,192,211668,1,0,0:0:0:0:
109,192,211668,1,0,0:0:0:0:
182,192,212097,128,0,212150:0:0:0:0:
329,192,212097,128,0,212150:0:0:0:0:
475,192,212204,128,0,212258:0:0:0:0:
36,192,212204,128,0,212258:0:0:0:0:
329,192,212311,128,0,212365:0:0:0:0:
182,192,212311,128,0,212365:0:0:0:0:
36,192,212418,128,0,212472:0:0:0:0:
475,192,212418,128,0,212472:0:0:0:0:
109,192,212525,1,0,0:0:0:0:
256,192,212525,1,0,0:0:0:0:
329,192,212525,1,0,0:0:0:0:
182,192,212525,128,0,212740:0:0:0:0:
402,192,212525,128,0,212633:0:0:0:0:
475,192,212633,128,0,212740:0:0:0:0:
329,192,212740,128,0,212954:0:0:0:0:
402,192,212740,128,0,212847:0:0:0:0:
36,192,212740,1,0,0:0:0:0:
256,192,212847,128,0,212954:0:0:0:0:
109,192,212954,128,0,213168:0:0:0:0:
182,192,212954,1,0,0:0:0:0:
475,192,212954,1,0,0:0:0:0:
402,192,213168,128,0,213383:0:0:0:0:
36,192,213168,128,0,213383:0:0:0:0:
256,192,213168,1,0,0:0:0:0:
475,192,213383,128,0,213597:0:0:0:0:
256,192,213383,128,0,213490:0:0:0:0:
182,192,213383,128,0,213597:0:0:0:0:
329,192,213383,1,0,0:0:0:0:
109,192,213490,128,0,213597:0:0:0:0:
329,192,213597,128,0,213811:0:0:0:0:
256,192,213597,128,0,213704:0:0:0:0:
36,192,213597,1,0,0:0:0:0:
402,192,213704,128,0,213811:0:0:0:0:
182,192,213811,128,0,214025:0:0:0:0:
109,192,213811,1,0,0:0:0:0:
256,192,213811,1,0,0:0:0:0:
475,192,213811,1,0,0:0:0:0:
36,192,214025,128,0,214240:0:0:0:0:
256,192,214025,128,0,214240:0:0:0:0:
402,192,214025,1,0,0:0:0:0:
329,192,214240,128,0,214668:0:0:0:0:
109,192,214240,128,0,214668:0:0:0:0:
182,192,214240,128,0,214454:0:0:0:0:
475,192,214240,1,0,0:0:0:0:
402,192,214240,1,0,0:0:0:0:
256,192,214454,1,0,0:0:0:0:
402,192,214561,128,0,214668:0:0:0:0:
475,192,214668,128,0,215097:0:0:0:0:
256,192,214668,128,0,215097:0:0:0:0:
36,192,214668,1,0,0:0:0:0:
182,192,214668,1,0,0:0:0:0:
36,192,214883,128,0,215097:0:0:0:0:
329,192,214883,1,0,0:0:0:0:
329,192,215097,128,0,215525:0:0:0:0:
402,192,215097,128,0,215418:0:0:0:0:
109,192,215097,128,0,215525:0:0:0:0:
182,192,215097,128,0,215311:0:0:0:0:
475,192,215311,128,0,215525:0:0:0:0:
36,192,215311,1,0,0:0:0:0:
182,192,215418,128,0,215525:0:0:0:0:
36,192,215525,128,0,215633:0:0:0:0:
256,192,215525,1,0,0:0:0:0:
402,192,215525,1,0,0:0:0:0:
329,192,215633,128,0,215740:0:0:0:0:
36,192,215740,128,0,215847:0:0:0:0:
182,192,215740,128,0,215954:0:0:0:0:
475,192,215740,1,0,0:0:0:0:
329,192,215847,128,0,215954:0:0:0:0:
109,192,215954,128,0,216168:0:0:0:0:
475,192,215954,128,0,216168:0:0:0:0:
256,192,215954,1,0,0:0:0:0:
402,192,216168,128,0,216383:0:0:0:0:
182,192,216168,1,0,0:0:0:0:
256,192,216275,128,0,216383:0:0:0:0:
36,192,216383,128,0,216597:0:0:0:0:
182,192,216383,1,0,0:0:0:0:
475,192,216383,1,0,0:0:0:0:
329,192,216597,128,0,216811:0:0:0:0:
109,192,216597,128,0,216811:0:0:0:0:
402,192,216597,1,0,0:0:0:0:
475,192,216811,128,0,217025:0:0:0:0:
256,192,216811,128,0,217025:0:0:0:0:
182,192,216811,1,0,0:0:0:0:
36,192,216811,1,0,0:0:0:0:
402,192,217025,128,0,217240:0:0:0:0:
109,192,217025,1,0,0:0:0:0:
329,192,217133,128,0,217240:0:0:0:0:
182,192,217240,128,0,217454:0:0:0:0:
256,192,217240,1,0,0:0:0:0:
475,192,217240,1,0,0:0:0:0:
109,192,217454,128,0,217668:0:0:0:0:
329,192,217454,128,0,217668:0:0:0:0:
36,192,217454,1,0,0:0:0:0:
36,192,217668,128,0,218097:0:0:0:0:
182,192,217668,128,0,218097:0:0:0:0:
475,192,217668,128,0,217883:0:0:0:0:
256,192,217668,1,0,0:0:0:0:
402,192,217668,1,0,0:0:0:0:
329,192,217883,1,0,0:0:0:0:
402,192,217990,128,0,218097:0:0:0:0:
329,192,218097,128,0,218525:0:0:0:0:
475,192,218097,128,0,218525:0:0:0:0:
109,192,218097,1,0,0:0:0:0:
256,192,218097,1,0,0:0:0:0:
36,192,218311,128,0,218525:0:0:0:0:
182,192,218311,1,0,0:0:0:0:
109,192,218525,128,0,218954:0:0:0:0:
256,192,218525,128,0,218954:0:0:0:0:
402,192,218525,128,0,218740:0:0:0:0:
182,192,218525,128,0,218740:0:0:0:0:
36,192,218740,128,0,218954:0:0:0:0:
475,192,218740,1,0,0:0:0:0:
329,192,218847,128,0,218954:0:0:0:0:
182,192,218954,128,0,219061:0:0:0:0:
475,192,218954,1,0,0:0:0:0:
402,192,218954,1,0,0:0:0:0:
402,192,219061,128,0,219168:0:0:0:0:
329,192,219061,1,0,0:0:0:0:
109,192,219168,128,0,219275:0:0:0:0:
36,192,219168,128,0,219383:0:0:0:0:
256,192,219168,1,0,0:0:0:0:
475,192,219275,128,0,219383:0:0:0:0:
256,192,219383,128,0,219597:0:0:0:0:
329,192,219383,128,0,219490:0:0:0:0:
402,192,219383,1,0,0:0:0:0:
182,192,219490,128,0,219597:0:0:0:0:
402,192,219597,128,0,219811:0:0:0:0:
329,192,219597,128,0,219704:0:0:0:0:
109,192,219597,1,0,0:0:0:0:
36,192,219704,128,0,219811:0:0:0:0:
182,192,219811,128,0,220025:0:0:0:0:
256,192,219811,1,0,0:0:0:0:
475,192,219811,1,0,0:0:0:0:
329,192,220025,128,0,220240:0:0:0:0:
109,192,220025,128,0,220240:0:0:0:0:
36,192,220025,1,0,0:0:0:0:
475,192,220240,128,0,220454:0:0:0:0:
182,192,220240,128,0,220347:0:0:0:0:
256,192,220240,1,0,0:0:0:0:
402,192,220240,1,0,0:0:0:0:
36,192,220347,128,0,220454:0:0:0:0:
329,192,220454,128,0,220668:0:0:0:0:
182,192,220454,128,0,220561:0:0:0:0:
109,192,220454,1,0,0:0:0:0:
402,192,220561,128,0,220668:0:0:0:0:
256,192,220668,128,0,220883:0:0:0:0:
36,192,220668,1,0,0:0:0:0:
182,192,220668,1,0,0:0:0:0:
475,192,220668,1,0,0:0:0:0:
109,192,220883,128,0,221097:0:0:0:0:
329,192,220883,128,0,221097:0:0:0:0:
402,192,220883,1,0,0:0:0:0:
36,192,221097,128,0,221525:0:0:0:0:
182,192,221097,128,0,221525:0:0:0:0:
402,192,221097,128,0,221311:0:0:0:0:
256,192,221097,1,0,0:0:0:0:
475,192,221097,1,0,0:0:0:0:
329,192,221311,1,0,0:0:0:0:
402,192,221418,128,0,221525:0:0:0:0:
109,192,221525,128,0,221954:0:0:0:0:
256,192,221525,128,0,221954:0:0:0:0:
475,192,221525,1,0,0:0:0:0:
329,192,221525,1,0,0:0:0:0:
36,192,221740,128,0,221954:0:0:0:0:
402,192,221740,1,0,0:0:0:0:
182,192,221954,128,0,222383:0:0:0:0:
329,192,221954,128,0,222383:0:0:0:0:
402,192,221954,128,0,222168:0:0:0:0:
475,192,221954,128,0,222168:0:0:0:0:
109,192,222168,128,0,222383:0:0:0:0:
36,192,222168,1,0,0:0:0:0:
256,192,222168,1,0,0:0:0:0:
256,192,222383,128,0,222811:0:0:0:0:
402,192,222383,128,0,222811:0:0:0:0:
36,192,222383,128,0,222490:0:0:0:0:
475,192,222383,1,0,0:0:0:0:
182,192,222490,128,0,222597:0:0:0:0:
36,192,222597,128,0,222811:0:0:0:0:
475,192,222597,128,0,222811:0:0:0:0:
329,192,222597,128,0,222704:0:0:0:0:
109,192,222597,1,0,0:0:0:0:
109,192,222811,128,0,224525:0:0:0:0:
182,192,222811,128,0,224525:0:0:0:0:
329,192,222811,128,0,223133:0:0:0:0:
402,192,223025,1,0,0:0:0:0:
256,192,223133,128,0,223240:0:0:0:0:
475,192,223240,1,0,0:0:0:0:
402,192,223240,1,0,0:0:0:0:
329,192,223454,128,0,223668:0:0:0:0:
256,192,223454,1,0,0:0:0:0:
475,192,223668,128,0,223990:0:0:0:0:
36,192,223668,1,0,0:0:0:0:
402,192,223668,1,0,0:0:0:0:
256,192,223883,1,0,0:0:0:0:
329,192,223990,128,0,224097:0:0:0:0:
402,192,224097,1,0,0:0:0:0:
475,192,224097,1,0,0:0:0:0:
36,192,224097,1,0,0:0:0:0:
329,192,224311,128,0,224525:0:0:0:0:
256,192,224311,1,0,0:0:0:0:
36,192,224525,128,0,225383:0:0:0:0:
475,192,224525,1,0,0:0:0:0:
256,192,224525,128,0,224740:0:0:0:0:
402,192,224525,1,0,0:0:0:0:
329,192,224740,1,0,0:0:0:0:
402,192,224740,128,0,224954:0:0:0:0:
109,192,224740,1,0,0:0:0:0:
182,192,224954,1,0,0:0:0:0:
329,192,225061,1,0,0:0:0:0:
182,192,225168,1,0,0:0:0:0:
402,192,225168,128,0,225383:0:0:0:0:
329,192,225275,1,0,0:0:0:0:
182,192,225383,1,0,0:0:0:0:
475,192,225383,1,0,0:0:0:0:
109,192,225383,1,0,0:0:0:0:
256,192,225383,1,0,0:0:0:0:
36,192,225811,1,0,0:0:0:0:
475,192,225811,1,0,0:0:0:0:
256,192,225811,1,0,0:0:0:0:
109,192,226240,1,0,0:0:0:0:
256,192,226240,1,0,0:0:0:0:
402,192,226240,1,0,0:0:0:0:
475,192,226240,1,0,0:0:0:0:
182,192,226240,128,0,226454:0:0:0:0:
36,192,226240,128,0,227525:0:0:0:0:
329,192,226454,128,0,226668:0:0:0:0:
109,192,226668,128,0,226883:0:0:0:0:
256,192,226883,128,0,227097:0:0:0:0:
329,192,226883,1,0,0:0:0:0:
475,192,226883,1,0,0:0:0:0:
402,192,227097,128,0,227525:0:0:0:0:
109,192,227097,1,0,0:0:0:0:
182,192,227097,1,0,0:0:0:0:
329,192,227097,1,0,0:0:0:0:
329,192,227525,128,0,227740:0:0:0:0:
109,192,227633,128,0,227954:0:0:0:0:
182,192,227740,128,0,227954:0:0:0:0:
475,192,227740,1,0,0:0:0:0:
36,192,227740,1,0,0:0:0:0:
329,192,227954,128,0,228383:0:0:0:0:
475,192,227954,1,0,0:0:0:0:
256,192,227954,128,0,228168:0:0:0:0:
36,192,227954,1,0,0:0:0:0:
109,192,228275,128,0,228490:0:0:0:0:
475,192,228383,128,0,228811:0:0:0:0:
182,192,228597,128,0,228811:0:0:0:0:
402,192,228597,1,0,0:0:0:0:
329,192,228597,1,0,0:0:0:0:
329,192,228811,128,0,229240:0:0:0:0:
36,192,228811,128,0,229240:0:0:0:0:
402,192,228811,128,0,229025:0:0:0:0:
256,192,228811,1,0,0:0:0:0:
109,192,228811,1,0,0:0:0:0:
109,192,229025,128,0,229240:0:0:0:0:
475,192,229240,128,0,229668:0:0:0:0:
256,192,229240,128,0,229347:0:0:0:0:
402,192,229240,1,0,0:0:0:0:
182,192,229347,128,0,229454:0:0:0:0:
402,192,229454,128,0,229668:0:0:0:0:
329,192,229454,128,0,229668:0:0:0:0:
36,192,229454,1,0,0:0:0:0:
109,192,229454,1,0,0:0:0:0:
36,192,229668,128,0,230954:0:0:0:0:
256,192,229668,128,0,229883:0:0:0:0:
109,192,229668,128,0,230525:0:0:0:0:
182,192,229668,1,0,0:0:0:0:
402,192,229883,128,0,230097:0:0:0:0:
182,192,230097,128,0,230311:0:0:0:0:
329,192,230311,128,0,230525:0:0:0:0:
475,192,230311,1,0,0:0:0:0:
402,192,230311,1,0,0:0:0:0:
475,192,230525,128,0,230740:0:0:0:0:
182,192,230525,1,0,0:0:0:0:
402,192,230525,1,0,0:0:0:0:
256,192,230525,128,0,230597:0:0:0:0:
256,192,230668,128,0,230740:0:0:0:0:
402,192,230740,128,0,230954:0:0:0:0:
256,192,230811,128,0,230883:0:0:0:0:
329,192,230954,128,0,231168:0:0:0:0:
256,192,230954,128,0,231025:0:0:0:0:
256,192,231097,128,0,231168:0:0:0:0:
475,192,231168,1,0,0:0:0:0:
182,192,231168,1,0,0:0:0:0:
109,192,231168,128,0,231383:0:0:0:0:
256,192,231240,128,0,231311:0:0:0:0:
36,192,231383,128,0,232240:0:0:0:0:
329,192,231383,1,0,0:0:0:0:
402,192,231383,1,0,0:0:0:0:
182,192,231383,128,0,231811:0:0:0:0:
109,192,231704,1,0,0:0:0:0:
402,192,231704,1,0,0:0:0:0:
475,192,231811,128,0,232240:0:0:0:0:
329,192,231811,128,0,232240:0:0:0:0:
109,192,232025,1,0,0:0:0:0:
256,192,232025,1,0,0:0:0:0:
182,192,232240,128,0,232668:0:0:0:0:
109,192,232240,128,0,232668:0:0:0:0:
402,192,232240,128,0,232668:0:0:0:0:
256,192,232240,1,0,0:0:0:0:
329,192,232454,128,0,232668:0:0:0:0:
475,192,232668,128,0,233097:0:0:0:0:
256,192,232668,128,0,232775:0:0:0:0:
36,192,232775,128,0,232883:0:0:0:0:
402,192,232883,128,0,233097:0:0:0:0:
182,192,232883,1,0,0:0:0:0:
109,192,232883,1,0,0:0:0:0:
36,192,233097,128,0,234383:0:0:0:0:
182,192,233097,128,0,233311:0:0:0:0:
256,192,233097,1,0,0:0:0:0:
329,192,233097,1,0,0:0:0:0:
329,192,233311,128,0,233525:0:0:0:0:
256,192,233525,128,0,233740:0:0:0:0:
402,192,233740,128,0,233954:0:0:0:0:
109,192,233740,1,0,0:0:0:0:
329,192,233740,1,0,0:0:0:0:
475,192,233954,128,0,234383:0:0:0:0:
329,192,233954,1,0,0:0:0:0:
256,192,233954,1,0,0:0:0:0:
182,192,233954,1,0,0:0:0:0:
402,192,234383,128,0,234597:0:0:0:0:
109,192,234597,128,0,234811:0:0:0:0:
256,192,234597,128,0,234811:0:0:0:0:
475,192,234597,1,0,0:0:0:0:
329,192,234597,1,0,0:0:0:0:
36,192,234811,128,0,235240:0:0:0:0:
182,192,234811,128,0,235240:0:0:0:0:
329,192,234811,1,0,0:0:0:0:
475,192,234811,1,0,0:0:0:0:
475,192,235025,128,0,235240:0:0:0:0:
256,192,235240,128,0,235668:0:0:0:0:
109,192,235240,128,0,235668:0:0:0:0:
402,192,235240,128,0,235454:0:0:0:0:
475,192,235454,1,0,0:0:0:0:
182,192,235668,128,0,236097:0:0:0:0:
329,192,235668,128,0,236097:0:0:0:0:
36,192,235668,128,0,235883:0:0:0:0:
475,192,235668,128,0,236097:0:0:0:0:
402,192,235668,1,0,0:0:0:0:
109,192,235883,128,0,236097:0:0:0:0:
256,192,236097,128,0,236525:0:0:0:0:
402,192,236097,128,0,236525:0:0:0:0:
36,192,236097,128,0,236204:0:0:0:0:
182,192,236204,128,0,236311:0:0:0:0:
36,192,236311,128,0,236525:0:0:0:0:
109,192,236311,1,0,0:0:0:0:
329,192,236311,1,0,0:0:0:0:
329,192,236525,128,0,237811:0:0:0:0:
182,192,236525,128,0,238240:0:0:0:0:
475,192,236525,128,0,236954:0:0:0:0:
109,192,236525,128,0,237383:0:0:0:0:
36,192,236954,128,0,237811:0:0:0:0:
256,192,237168,1,0,0:0:0:0:
402,192,237383,128,0,237454:0:0:0:0:
475,192,237383,1,0,0:0:0:0:
256,192,237383,1,0,0:0:0:0:
402,192,237525,128,0,237597:0:0:0:0:
402,192,237668,128,0,237740:0:0:0:0:
402,192,237811,128,0,237883:0:0:0:0:
402,192,237954,128,0,238025:0:0:0:0:
329,192,238025,1,0,0:0:0:0:
256,192,238025,1,0,0:0:0:0:
402,192,238097,128,0,238168:0:0:0:0:
475,192,238240,128,0,239097:0:0:0:0:
36,192,238240,1,0,0:0:0:0:
329,192,238240,1,0,0:0:0:0:
109,192,238240,128,0,238454:0:0:0:0:
109,192,238561,128,0,238668:0:0:0:0:
182,192,238561,1,0,0:0:0:0:
402,192,238561,1,0,0:0:0:0:
36,192,238883,1,0,0:0:0:0:
329,192,238883,128,0,239097:0:0:0:0:
256,192,238883,1,0,0:0:0:0:
402,192,239097,128,0,239525:0:0:0:0:
256,192,239097,1,0,0:0:0:0:
109,192,239097,1,0,0:0:0:0:
36,192,239097,128,0,239525:0:0:0:0:
182,192,239097,1,0,0:0:0:0:
109,192,239525,128,0,239954:0:0:0:0:
329,192,239525,128,0,239954:0:0:0:0:
402,192,239740,1,0,0:0:0:0:
182,192,239740,1,0,0:0:0:0:
182,192,239954,1,0,0:0:0:0:
475,192,239954,1,0,0:0:0:0:
36,192,239954,128,0,240811:0:0:0:0:
402,192,239954,128,0,240168:0:0:0:0:
256,192,239954,1,0,0:0:0:0:
329,192,240168,128,0,240383:0:0:0:0:
256,192,240383,128,0,240597:0:0:0:0:
329,192,240597,128,0,240811:0:0:0:0:
402,192,240597,1,0,0:0:0:0:
109,192,240597,1,0,0:0:0:0:
109,192,240811,128,0,240918:0:0:0:0:
475,192,240811,128,0,241025:0:0:0:0:
256,192,240811,1,0,0:0:0:0:
182,192,240811,1,0,0:0:0:0:
109,192,241025,128,0,241240:0:0:0:0:
402,192,241025,128,0,241240:0:0:0:0:
329,192,241240,128,0,241454:0:0:0:0:
475,192,241347,128,0,241668:0:0:0:0:
182,192,241454,128,0,241668:0:0:0:0:
109,192,241454,1,0,0:0:0:0:
36,192,241454,1,0,0:0:0:0:
109,192,241668,128,0,241883:0:0:0:0:
256,192,241668,128,0,242097:0:0:0:0:
402,192,241668,1,0,0:0:0:0:
36,192,241668,1,0,0:0:0:0:
475,192,242097,128,0,242525:0:0:0:0:
182,192,242311,128,0,242525:0:0:0:0:
36,192,242311,1,0,0:0:0:0:
256,192,242311,1,0,0:0:0:0:
36,192,242525,128,0,242954:0:0:0:0:
109,192,242525,128,0,242954:0:0:0:0:
329,192,242525,128,0,242740:0:0:0:0:
256,192,242525,1,0,0:0:0:0:
402,192,242525,1,0,0:0:0:0:
256,192,242740,128,0,242954:0:0:0:0:
475,192,242954,128,0,243383:0:0:0:0:
329,192,242954,128,0,243061:0:0:0:0:
182,192,243061,128,0,243168:0:0:0:0:
329,192,243168,128,0,243383:0:0:0:0:
109,192,243168,1,0,0:0:0:0:
256,192,243168,1,0,0:0:0:0:
109,192,243383,128,0,244668:0:0:0:0:
36,192,243383,128,0,243597:0:0:0:0:
182,192,243383,1,0,0:0:0:0:
402,192,243383,1,0,0:0:0:0:
329,192,243597,128,0,243811:0:0:0:0:
182,192,243811,128,0,244025:0:0:0:0:
329,192,244025,128,0,244240:0:0:0:0:
475,192,244025,1,0,0:0:0:0:
402,192,244025,1,0,0:0:0:0:
475,192,244240,128,0,244454:0:0:0:0:
182,192,244240,128,0,244311:0:0:0:0:
36,192,244240,1,0,0:0:0:0:
256,192,244240,1,0,0:0:0:0:
182,192,244383,128,0,244454:0:0:0:0:
402,192,244454,128,0,244668:0:0:0:0:
182,192,244525,128,0,244597:0:0:0:0:
329,192,244668,128,0,244883:0:0:0:0:
182,192,244668,128,0,244740:0:0:0:0:
182,192,244811,128,0,244883:0:0:0:0:
256,192,244883,128,0,245097:0:0:0:0:
109,192,244883,1,0,0:0:0:0:
402,192,244883,1,0,0:0:0:0:
182,192,244954,128,0,245025:0:0:0:0:
109,192,245097,128,0,245525:0:0:0:0:
36,192,245097,128,0,245525:0:0:0:0:
402,192,245097,1,0,0:0:0:0:
475,192,245097,1,0,0:0:0:0:
475,192,245418,1,0,0:0:0:0:
256,192,245418,1,0,0:0:0:0:
402,192,245525,128,0,245954:0:0:0:0:
329,192,245525,128,0,245954:0:0:0:0:
182,192,245740,1,0,0:0:0:0:
109,192,245740,1,0,0:0:0:0:
109,192,245954,128,0,246383:0:0:0:0:
256,192,245954,128,0,246383:0:0:0:0:
475,192,245954,128,0,246168:0:0:0:0:
182,192,245954,1,0,0:0:0:0:
36,192,245954,1,0,0:0:0:0:
402,192,246168,128,0,246383:0:0:0:0:
475,192,246383,128,0,246811:0:0:0:0:
329,192,246383,128,0,246490:0:0:0:0:
109,192,246490,128,0,246597:0:0:0:0:
329,192,246597,128,0,246811:0:0:0:0:
256,192,246597,1,0,0:0:0:0:
182,192,246597,1,0,0:0:0:0:
36,192,246811,128,0,248097:0:0:0:0:
109,192,246811,128,0,247025:0:0:0:0:
182,192,246811,1,0,0:0:0:0:
402,192,246811,1,0,0:0:0:0:
329,192,247025,128,0,247240:0:0:0:0:
182,192,247240,128,0,247454:0:0:0:0:
402,192,247454,128,0,247668:0:0:0:0:
256,192,247454,1,0,0:0:0:0:
109,192,247454,1,0,0:0:0:0:
475,192,247668,128,0,247883:0:0:0:0:
182,192,247668,128,0,248097:0:0:0:0:
256,192,247668,1,0,0:0:0:0:
329,192,247668,1,0,0:0:0:0:
402,192,247883,128,0,248097:0:0:0:0:
256,192,248097,128,0,248311:0:0:0:0:
329,192,248097,128,0,248525:0:0:0:0:
109,192,248204,128,0,248525:0:0:0:0:
402,192,248311,1,0,0:0:0:0:
475,192,248311,128,0,248525:0:0:0:0:
182,192,248311,1,0,0:0:0:0:
36,192,248525,128,0,248954:0:0:0:0:
182,192,248525,128,0,248954:0:0:0:0:
402,192,248525,128,0,248954:0:0:0:0:
256,192,248525,1,0,0:0:0:0:
109,192,248954,128,0,249383:0:0:0:0:
256,192,248954,128,0,249383:0:0:0:0:
402,192,249168,128,0,249383:0:0:0:0:
475,192,249168,1,0,0:0:0:0:
329,192,249168,1,0,0:0:0:0:
182,192,249383,128,0,249811:0:0:0:0:
329,192,249383,128,0,249811:0:0:0:0:
36,192,249383,128,0,250240:0:0:0:0:
475,192,249383,1,0,0:0:0:0:
256,192,249811,128,0,250240:0:0:0:0:
402,192,249811,128,0,250240:0:0:0:0:
475,192,250240,128,0,253668:0:0:0:0:
329,192,250240,128,0,253668:0:0:0:0:
182,192,250240,128,0,250561:0:0:0:0:
109,192,250240,1,0,0:0:0:0:
256,192,250454,1,0,0:0:0:0:
36,192,250561,128,0,250883:0:0:0:0:
109,192,250668,1,0,0:0:0:0:
402,192,250668,1,0,0:0:0:0:
109,192,250883,128,0,251097:0:0:0:0:
256,192,250883,1,0,0:0:0:0:
182,192,251097,128,0,251418:0:0:0:0:
36,192,251097,1,0,0:0:0:0:
402,192,251097,1,0,0:0:0:0:
109,192,251311,1,0,0:0:0:0:
256,192,251418,128,0,251740:0:0:0:0:
36,192,251525,1,0,0:0:0:0:
109,192,251525,1,0,0:0:0:0:
402,192,251740,128,0,251954:0:0:0:0:
182,192,251740,1,0,0:0:0:0:
256,192,251954,128,0,252275:0:0:0:0:
36,192,251954,1,0,0:0:0:0:
182,192,251954,1,0,0:0:0:0:
109,192,252168,1,0,0:0:0:0:
36,192,252275,128,0,252597:0:0:0:0:
182,192,252383,1,0,0:0:0:0:
402,192,252383,1,0,0:0:0:0:
109,192,252597,128,0,252811:0:0:0:0:
256,192,252597,1,0,0:0:0:0:
182,192,252811,128,0,253133:0:0:0:0:
402,192,252811,1,0,0:0:0:0:
36,192,252811,1,0,0:0:0:0:
109,192,253025,1,0,0:0:0:0:
256,192,253133,128,0,253454:0:0:0:0:
36,192,253240,1,0,0:0:0:0:
182,192,253240,1,0,0:0:0:0:
402,192,253454,128,0,253668:0:0:0:0:
109,192,253454,1,0,0:0:0:0:
256,192,253668,128,0,253990:0:0:0:0:
36,192,253668,1,0,0:0:0:0:
109,192,253668,1,0,0:0:0:0:
182,192,253668,1,0,0:0:0:0:
402,192,253883,1,0,0:0:0:0:
36,192,253990,128,0,254311:0:0:0:0:
329,192,254097,1,0,0:0:0:0:
182,192,254311,128,0,254525:0:0:0:0:
256,192,254311,1,0,0:0:0:0:
329,192,254525,128,0,254847:0:0:0:0:
36,192,254525,1,0,0:0:0:0:
109,192,254525,1,0,0:0:0:0:
402,192,254525,1,0,0:0:0:0:
475,192,254525,1,0,0:0:0:0:
256,192,254740,1,0,0:0:0:0:
402,192,254847,128,0,255168:0:0:0:0:
182,192,254954,1,0,0:0:0:0:
475,192,255168,128,0,255383:0:0:0:0:
109,192,255168,1,0,0:0:0:0:
256,192,255383,128,0,255704:0:0:0:0:
36,192,255383,1,0,0:0:0:0:
109,192,255383,1,0,0:0:0:0:
329,192,255383,1,0,0:0:0:0:
402,192,255383,1,0,0:0:0:0:
182,192,255490,1,0,0:0:0:0:
329,192,255597,1,0,0:0:0:0:
36,192,255704,128,0,256025:0:0:0:0:
182,192,255704,1,0,0:0:0:0:
475,192,255811,1,0,0:0:0:0:
402,192,255865,1,0,0:0:0:0:
329,192,255918,1,0,0:0:0:0:
256,192,255972,1,0,0:0:0:0:
109,192,256025,128,0,256240:0:0:0:0:
182,192,256025,1,0,0:0:0:0:
256,192,256079,1,0,0:0:0:0:
329,192,256133,1,0,0:0:0:0:
402,192,256186,1,0,0:0:0:0:
256,192,256240,128,0,256454:0:0:0:0:
475,192,256240,1,0,0:0:0:0:
182,192,256240,1,0,0:0:0:0:
36,192,256240,1,0,0:0:0:0:
329,192,256240,1,0,0:0:0:0:
