osu file format v14

[General]
AudioFilename: audio.mp3
AudioLeadIn: 0
PreviewTime: 14915
Countdown: 0
SampleSet: Normal
StackLeniency: 0.4
Mode: 0
LetterboxInBreaks: 0
WidescreenStoryboard: 0

[Editor]
Bookmarks: 4106,4988,8518,12047,12929,13812,15577,19105,20871,22635,26165
DistanceSpacing: 1.1
BeatDivisor: 4
GridSize: 4
TimelineZoom: 2.999999

[Metadata]
Title:Baby Deathmatch
TitleUnicode:ベイビー・デスマッチ
Artist:Utsu-P
ArtistUnicode:鬱P
Creator:Net0
Version:Advanced
Source:
Tags:Kagamine Rin Vocaloid Metal ALGORITHM Trynna Tarrasky DJPop Ataraxia Kalindraz
BeatmapID:1374717
BeatmapSetID:646368

[Difficulty]
HPDrainRate:3
CircleSize:3.2
OverallDifficulty:3.5
ApproachRate:6
SliderMultiplier:0.800000005960464
SliderTickRate:1

[Events]
//Background and Video events
0,0,"re-size.jpg",0,0
//Break Periods
//Storyboard Layer 0 (Background)
//Storyboard Layer 1 (Fail)
//Storyboard Layer 2 (Pass)
//Storyboard Layer 3 (Foreground)
//Storyboard Sound Samples

[TimingPoints]
577,220.588235294118,4,1,2,60,1,0
1459,-100,4,1,2,50,0,0
15577,-100,4,1,2,60,0,1
28812,-100,4,1,4,80,0,0
29694,-100,4,1,2,45,0,0
43812,-100,4,1,2,60,0,1
57047,-100,4,1,2,80,0,0

[Colours]
Combo1 : 255,0,128
Combo2 : 0,204,0
Combo3 : 48,186,252
Combo4 : 65,56,226
Combo5 : 179,0,179
Combo6 : 254,131,7
Combo7 : 254,218,14
Combo8 : 255,0,37

[HitObjects]
19,345,1459,6,0,P|15:302|22:257,1,80.0000005960464,6|0,0:0|0:0,0:0:0:0:
100,230,1900,2,0,P|104:187|97:142,1,80.0000005960464,0|0,0:0|0:0,0:0:0:0:
189,145,2341,2,0,P|232:149|277:142,1,80.0000005960464,4|0,0:0|0:0,0:0:0:0:
304,64,2782,2,0,P|347:60|392:67,1,80.0000005960464,0|2,0:0|0:0,0:0:0:0:
472,38,3224,5,4,0:0:0:0:
455,125,3444,2,0,L|455:212,1,80.0000005960464,0|0,0:0|0:0,0:0:0:0:
438,292,3885,1,0,0:0:0:0:
351,275,4106,2,0,P|353:314|370:350,2,80.0000005960464,4|2|2,0:0|0:0|0:0,0:0:0:0:
359,187,4768,1,2,0:0:0:0:
289,132,4988,102,0,P|255:159|228:196,1,80.0000005960464,4|0,0:0|0:0,0:0:0:0:
265,271,5429,2,0,P|237:304|200:331,1,80.0000005960464,0|0,0:0|0:0,0:0:0:0:
121,342,5870,2,0,P|125:299|118:254,1,80.0000005960464,6|2,0:0|0:0,0:0:0:0:
40,227,6311,2,0,P|36:183|43:138,1,80.0000005960464,2|2,0:0|0:0,0:0:0:0:
63,62,6753,5,4,0:0:0:0:
125,124,6974,2,0,P|162:139|202:145,1,80.0000005960464,0|0,0:0|0:0,0:0:0:0:
289,132,7415,1,0,0:0:0:0:
263,215,7635,1,4,0:0:0:0:
256,302,7856,2,0,L|256:385,1,80.0000005960464,2|10,0:0|0:3,0:0:0:0:
429,349,8518,102,0,P|452:302|450:267,1,80.0000005960464,4|0,0:0|0:0,0:0:0:0:
421,192,8959,1,2,0:0:0:0:
465,116,9179,1,0,0:0:0:0:
376,112,9400,2,0,P|323:108|294:89,1,80.0000005960464,4|0,0:0|0:0,0:0:0:0:
245,26,9841,1,2,0:0:0:0:
157,26,10061,1,0,0:0:0:0:
101,94,10282,6,0,P|78:141|80:176,1,80.0000005960464,4|0,0:0|0:0,0:0:0:0:
109,251,10723,1,2,0:0:0:0:
65,327,10943,1,0,0:0:0:0:
153,327,11165,2,0,L|239:327,2,80.0000005960464,4|2|2,0:0|0:0|0:0,0:0:0:0:
109,251,11827,1,2,0:0:0:0:
181,200,12047,102,0,P|220:218|255:246,1,80.0000005960464,4|0,0:0|0:0,0:0:0:0:
237,327,12488,2,0,P|272:351|314:368,1,80.0000005960464,0|2,0:0|0:0,0:0:0:0:
391,342,12929,2,0,P|387:299|394:254,1,80.0000005960464,6|2,0:0|0:0,0:0:0:0:
472,227,13370,2,0,P|476:183|469:138,1,80.0000005960464,2|2,0:0|0:0,0:0:0:0:
449,62,13812,5,4,0:0:0:0:
387,124,14033,2,0,P|350:139|310:145,1,80.0000005960464,0|0,0:0|0:0,0:0:0:0:
223,132,14474,1,2,0:0:0:0:
249,215,14694,1,6,0:3:0:0:
256,302,14915,2,0,L|256:354,1,40.0000002980232,8|0,0:3|0:0,0:0:0:0:
215,357,15135,2,0,P|158:356|96:329,1,120.00000089407,8|0,3:0|0:0,0:0:0:0:
65,304,15577,37,4,1:0:0:0:
61,216,15797,2,0,B|87:157|47:157|70:94,1,120.00000089407,10|0,0:0|0:0,0:0:0:0:
97,65,16238,1,10,0:0:0:0:
164,8,16459,6,0,L|235:49,1,80.0000005960464,14|8,0:0|0:0,0:0:0:0:
233,92,16790,2,0,L|274:163,1,80.0000005960464,2|0,0:0|0:0,0:0:0:0:
273,205,17121,2,0,L|273:286,1,80.0000005960464,10|4,0:0|1:0,0:0:0:0:
320,360,17562,102,0,B|379:386|379:346|442:369,1,120.00000089407,10|0,0:0|0:0,0:0:0:0:
481,373,18003,1,8,0:0:0:0:
459,288,18224,6,0,L|459:208,1,80.0000005960464,14|8,0:0|0:0,0:0:0:0:
460,164,18554,2,0,L|420:94,1,80.0000005960464,2|0,0:0|0:0,0:0:0:0:
420,50,18885,2,0,L|350:9,1,80.0000005960464,10|4,0:0|1:0,0:0:0:0:
284,68,19327,102,0,P|227:67|165:40,1,120.00000089407,10|0,0:0|0:0,0:0:0:0:
134,16,19768,1,10,0:0:0:0:
84,88,19988,1,2,3:0:0:0:
136,158,20209,2,0,L|136:244,1,80.0000005960464,10|2,0:0|3:0,0:0:0:0:
80,308,20650,6,0,L|-9:308,2,80.0000005960464,10|6|8,0:0|1:0|0:0,0:0:0:0:
168,328,21312,1,2,3:0:0:0:
253,347,21532,1,10,0:0:0:0:
256,259,21753,2,0,L|256:174,1,80.0000005960464,14|8,3:0|0:0,0:0:0:0:
302,104,22194,2,0,L|343:75,1,40.0000002980232,6|8,3:0|0:0,0:0:0:0:
369,61,22415,2,0,L|419:56,1,40.0000002980232,8|8,0:0|0:0,0:0:0:0:
447,80,22635,101,4,1:0:0:0:
451,168,22856,2,0,B|425:227|465:227|444:286,1,120.00000089407,10|0,0:0|0:0,0:0:0:0:
415,319,23296,1,10,0:0:0:0:
348,376,23517,6,0,L|277:335,1,80.0000005960464,14|8,0:0|0:0,0:0:0:0:
279,292,23848,2,0,L|238:221,1,80.0000005960464,2|8,0:0|3:0,0:0:0:0:
239,179,24179,2,0,L|239:98,1,80.0000005960464,10|4,0:0|1:0,0:0:0:0:
192,24,24621,102,0,B|133:-2|133:38|70:15,1,120.00000089407,10|0,0:0|0:0,0:0:0:0:
32,8,25061,1,8,0:0:0:0:
53,96,25282,6,0,L|53:176,1,80.0000005960464,14|8,0:0|0:0,0:0:0:0:
52,220,25613,2,0,L|92:290,1,80.0000005960464,2|0,0:0|0:0,0:0:0:0:
92,334,25944,2,0,L|162:375,1,80.0000005960464,10|4,0:0|1:0,0:0:0:0:
181,288,26385,102,0,P|214:278|271:277,1,80.0000005960464,10|2,0:0|3:0,0:0:0:0:
251,187,26827,2,0,P|284:194|334:222,1,80.0000005960464,10|2,0:0|3:0,0:0:0:0:
362,134,27268,2,0,P|387:157|416:206,1,80.0000005960464,10|2,0:0|3:0,0:0:0:0:
484,143,27709,2,0,P|493:176|494:233,2,80.0000005960464,10|6|10,0:0|1:0|0:0,0:0:0:0:
465,56,28371,22,0,L|410:56,1,40.0000002980232,2|8,3:0|0:0,0:0:0:0:
384,38,28591,2,0,L|329:38,1,40.0000002980232,10|8,3:1|3:0,0:0:0:0:
299,33,28812,2,0,P|270:82|261:149,1,120.00000089407,14|0,3:0|0:0,0:0:0:0:
251,187,29253,1,0,0:0:0:0:
80,142,29694,6,0,P|108:191|117:258,1,120.00000089407,4|0,1:0|0:0,0:0:0:0:
121,297,30135,1,4,2:0:0:0:
195,343,30356,2,0,L|291:345,1,80.0000005960464,2|8,0:0|0:0,0:0:0:0:
356,377,30797,1,2,0:0:0:0:
427,324,31018,2,0,L|428:276,1,40.0000002980232,2|2,0:0|0:0,0:0:0:0:
459,253,31238,2,0,L|460:205,1,40.0000002980232,2|2,0:0|0:0,0:0:0:0:
486,177,31459,1,4,2:0:0:0:
310,193,31900,38,0,L|309:272,1,80.0000005960464,2|0,2:0|0:0,0:0:0:0:
256,343,32341,1,12,0:0:0:0:
202,193,32782,2,0,P|255:170|315:198,1,120.00000089407,2|0,2:0|0:0,0:0:0:0:
351,208,33224,70,0,P|379:159|388:92,1,120.00000089407,4|0,1:0|0:0,0:0:0:0:
392,53,33665,1,4,2:0:0:0:
311,19,33885,2,0,L|214:21,1,80.0000005960464,2|8,0:0|0:0,0:0:0:0:
156,68,34326,1,2,0:0:0:0:
85,121,34547,2,0,L|84:169,1,40.0000002980232,2|2,0:0|0:0,0:0:0:0:
53,192,34767,2,0,L|52:240,1,40.0000002980232,2|2,0:0|0:0,0:0:0:0:
26,268,34988,1,4,2:0:0:0:
201,277,35429,38,0,L|294:277,1,80.0000005960464,4|0,2:0|0:0,0:0:0:0:
322,355,35871,2,0,L|229:355,1,80.0000005960464,10|0,0:0|0:0,0:0:0:0:
153,354,36312,1,4,2:0:0:0:
27,235,36753,70,0,P|55:186|64:119,1,120.00000089407,4|0,1:0|0:0,0:0:0:0:
68,80,37194,1,4,2:0:0:0:
142,34,37415,2,0,L|238:32,1,80.0000005960464,2|8,0:0|0:0,0:0:0:0:
303,0,37856,1,2,0:0:0:0:
374,53,38077,2,0,L|375:101,1,40.0000002980232,2|2,0:0|0:0,0:0:0:0:
406,124,38297,2,0,L|407:172,1,40.0000002980232,2|2,0:0|0:0,0:0:0:0:
433,200,38518,1,4,2:0:0:0:
337,347,38959,38,0,L|258:346,1,80.0000005960464,2|0,2:0|0:0,0:0:0:0:
176,309,39400,1,12,2:0:0:0:
337,239,39841,2,0,P|360:292|332:352,1,120.00000089407,2|0,2:0|0:0,0:0:0:0:
308,376,40282,70,0,P|259:348|192:339,1,120.00000089407,4|0,1:0|0:0,0:0:0:0:
153,335,40723,1,4,2:0:0:0:
68,356,40944,2,0,L|70:266,1,80.0000005960464,2|0,0:0|0:0,0:0:0:0:
102,195,41384,1,2,0:0:0:0:
155,124,41605,2,0,L|203:123,1,40.0000002980232,2|2,0:0|0:0,0:0:0:0:
226,92,41827,2,0,L|274:91,1,40.0000002980232,2|2,0:0|0:0,0:0:0:0:
295,123,42046,1,4,2:0:0:0:
457,190,42488,21,2,0:0:0:0:
318,298,42929,1,2,3:1:0:0:
156,231,43371,2,0,P|149:171|156:99,1,120.00000089407,8|0,3:0|0:0,0:0:0:0:
192,89,43812,37,0,0:0:0:0:
141,17,44032,2,0,B|82:-9|82:31|19:8,1,120.00000089407,10|0,0:0|0:0,0:0:0:0:
4,49,44474,1,10,0:0:0:0:
0,136,44694,6,0,L|0:217,1,80.0000005960464,14|8,0:0|0:0,0:0:0:0:
38,237,45025,2,0,L|78:308,1,80.0000005960464,2|8,0:0|3:0,0:0:0:0:
116,328,45356,2,0,L|186:368,1,80.0000005960464,10|4,0:0|1:0,0:0:0:0:
273,360,45797,102,0,B|332:386|332:346|395:369,1,120.00000089407,10|0,0:0|0:0,0:0:0:0:
410,328,46239,1,8,0:0:0:0:
414,241,46459,6,0,L|414:160,1,80.0000005960464,14|8,0:0|0:0,0:0:0:0:
376,140,46790,2,0,L|336:69,1,80.0000005960464,2|0,0:0|0:0,0:0:0:0:
298,49,47121,2,0,L|228:9,1,80.0000005960464,10|4,0:0|1:0,0:0:0:0:
141,17,47562,102,0,P|142:74|169:136,1,120.00000089407,10|0,0:0|0:0,0:0:0:0:
193,165,48003,1,10,0:0:0:0:
155,244,48224,1,2,3:0:0:0:
193,322,48444,2,0,L|274:322,1,80.0000005960464,10|2,0:0|3:0,0:0:0:0:
339,264,48885,6,0,L|420:264,2,80.0000005960464,10|6|8,0:0|1:0|0:0,0:0:0:0:
262,220,49547,1,2,3:0:0:0:
193,165,49768,1,10,0:0:0:0:
105,163,49988,2,0,L|103:247,1,80.0000005960464,14|8,3:0|0:0,0:0:0:0:
148,319,50429,2,0,L|188:348,1,40.0000002980232,4|8,3:0|0:0,0:0:0:0:
216,368,50650,2,0,L|265:373,1,40.0000002980232,8|8,0:0|0:0,0:0:0:0:
287,340,50871,101,4,1:0:0:0:
371,367,51091,2,0,B|430:393|430:353|493:376,1,120.00000089407,10|0,0:0|0:0,0:0:0:0:
508,335,51533,1,10,0:0:0:0:
512,248,51753,6,0,L|512:167,1,80.0000005960464,14|8,0:0|0:0,0:0:0:0:
474,147,52084,2,0,L|434:76,1,80.0000005960464,2|8,0:0|3:0,0:0:0:0:
396,56,52415,2,0,L|326:16,1,80.0000005960464,10|4,0:0|1:0,0:0:0:0:
239,24,52856,102,0,B|180:-2|180:38|117:15,1,120.00000089407,10|0,0:0|0:0,0:0:0:0:
102,56,53298,1,8,0:0:0:0:
98,143,53518,6,0,L|98:224,1,80.0000005960464,14|8,0:0|0:0,0:0:0:0:
136,244,53849,2,0,L|176:315,1,80.0000005960464,2|0,0:0|0:0,0:0:0:0:
214,335,54180,2,0,L|284:375,1,80.0000005960464,10|4,0:0|1:0,0:0:0:0:
371,364,54621,102,0,P|410:362|449:352,1,80.0000005960464,10|2,0:0|3:0,0:0:0:0:
396,280,55062,2,0,P|429:259|457:230,1,80.0000005960464,10|2,0:0|3:0,0:0:0:0:
376,192,55503,2,0,P|394:157|404:119,1,80.0000005960464,10|2,0:0|3:0,0:0:0:0:
316,128,55944,2,0,P|314:88|304:50,2,80.0000005960464,10|6|10,0:0|1:0|0:0,0:0:0:0:
279,208,56606,22,0,L|224:208,1,40.0000002980232,8|8,3:0|0:0,0:0:0:0:
199,226,56826,2,0,L|144:226,1,40.0000002980232,8|8,3:0|3:0,0:0:0:0:
114,231,57047,2,0,P|85:182|76:115,1,120.00000089407,14|0,3:0|0:0,0:0:0:0:
97,81,57488,2,0,L|221:81,1,120.00000089407,10|8,0:0|0:0,0:0:0:0:
256,62,57929,1,6,3:2:0:0:
