osu file format v14

[General]
AudioFilename: audio.mp3
AudioLeadIn: 0
PreviewTime: 143861
Countdown: 1
SampleSet: None
StackLeniency: 0.7
Mode: 0
LetterboxInBreaks: 0
WidescreenStoryboard: 0

[Editor]
DistanceSpacing: 0.5
BeatDivisor: 4
GridSize: 32
TimelineZoom: 1

[Metadata]
Title:Absolute Music Dance feat. flower
TitleUnicode:絶対音楽で踊れ feat. flower
Artist:Utsu-P
ArtistUnicode:鬱P
Creator:Bara-
Version:Death Dance
Source:
Tags:vocaloid Death Metal Zettai Ongaku de Odore
BeatmapID:1288953
BeatmapSetID:610458

[Difficulty]
HPDrainRate:5.9
CircleSize:3.4
OverallDifficulty:8.5
ApproachRate:8.9
SliderMultiplier:2.4
SliderTickRate:2

[Events]
//Background and Video events
0,0,"maxresdefault.jpg",0,0
//Break Periods
2,173418,185889
2,214561,221032
2,221847,222746
2,223561,224461
2,225276,226175
//Storyboard Layer 0 (Background)
//Storyboard Layer 1 (Fail)
//Storyboard Layer 2 (Pass)
//Storyboard Layer 3 (Foreground)
//Storyboard Sound Samples

[TimingPoints]
1790.40616067608,428.571428571429,4,2,0,70,1,0
15504,-66.6666666666667,4,2,0,70,0,0
20433,-100,4,2,0,70,0,0
22361,-83.3333333333333,4,1,0,70,0,1
28361,-133.333333333333,4,1,0,70,0,1
28790,-66.6666666666667,4,1,0,70,0,1
29218,-83.3333333333333,4,1,0,70,0,1
36076,-100,4,1,0,70,0,0
49790,-133.333333333333,4,1,0,70,0,0
63504,-86.9565217391303,4,1,0,70,0,0
69504,-200,4,1,0,70,0,0
69933,-133.333333333333,4,1,0,70,0,0
70361,-86.9565217391303,4,1,0,70,0,0
77218,-133.333333333333,4,2,0,70,0,0
84076,-66.6666666666667,4,1,0,70,0,0
89004,-100,4,1,0,70,0,0
90933,-83.3333333333333,4,1,0,70,0,1
96933,-133.333333333333,4,1,0,70,0,1
97361,-66.6666666666667,4,1,0,70,0,1
97790,-83.3333333333333,4,1,0,70,0,1
104647,-125,4,1,0,70,0,0
111504,-133.333333333333,4,1,0,70,0,0
118361,-86.9565217391304,4,1,0,70,0,0
124361,-200,4,1,0,70,0,0
124790,-133.333333333333,4,1,0,70,0,0
125218,-86.9565217391303,4,1,0,70,0,0
132076,-133.333333333333,4,2,0,70,0,0
138933,-66.6666666666667,4,1,0,70,0,0
143861,-100,4,1,0,70,0,0
144933,-66.6666666666667,4,1,0,70,0,0
145790,-83.3333333333333,4,1,0,70,0,1
151790,-133.333333333333,4,1,0,70,0,1
152218,-66.6666666666667,4,1,0,70,0,1
152647,-83.3333333333333,4,1,0,70,0,1
159504,-76.9230769230769,4,1,0,70,0,1
171504,-100,4,1,0,70,0,0
173218,-200,4,2,0,70,0,0
186504,-200,4,2,0,40,0,0
186933,-58.8235294117647,4,1,0,70,0,1
188218,-100,4,1,0,70,0,1
188647,-133.333333333333,4,1,0,40,0,1
189076,-100,4,1,0,70,0,1
190361,-166.666666666667,4,2,0,40,0,1
191218,-66.6666666666667,4,1,0,70,0,1
191647,-100,4,1,0,70,0,1
192076,-133.333333333333,4,1,0,70,0,1
192504,-100,4,1,0,70,0,1
192933,-66.6666666666667,4,1,0,70,0,1
193361,-100,4,1,0,70,0,1
193790,-200,4,1,0,70,0,1
194433,-50,4,1,0,70,0,1
194647,-200,4,1,0,70,0,1
195290,-50,4,1,0,70,0,1
195718,-76.9230769230769,4,1,0,70,0,1
198076,-133.333333333333,4,1,0,70,0,1
198504,-66.6666666666667,4,1,0,70,0,1
198933,-200,4,1,0,70,0,1
199790,-133.333333333333,4,1,0,70,0,1
200647,-66.6666666666667,4,1,0,70,0,1
201611,-100,4,1,0,70,0,1
201933,-200,4,1,0,70,0,1
202361,-200,4,1,0,40,0,1
202790,-100,4,1,0,70,0,1
204076,-200,4,1,0,40,0,1
204933,-66.6666666666667,4,1,0,70,0,1
205790,-200,4,1,0,70,0,1
206218,-66.6666666666667,4,1,0,70,0,1
206647,-200,4,1,0,70,0,1
207076,-66.6666666666667,4,1,0,70,0,1
207504,-200,4,1,0,70,0,1
208147,-50,4,1,0,70,0,1
208361,-200,4,1,0,70,0,1
209004,-50,4,1,0,70,0,1
209218,-200,4,1,0,70,0,1
209433,-66.6666666666667,4,1,0,70,0,1
210933,-200,4,1,0,70,0,1
211790,-100,4,1,0,70,0,1
212647,-200,4,1,0,70,0,1
213504,-400,4,1,0,70,0,1
214361,-100,4,1,0,70,0,0
228076,-83.3333333333333,4,1,0,70,0,0
234933,-71.4285714285714,4,1,0,70,0,0
240076,-400,4,1,0,70,0,0
241361,-66.6666666666667,4,1,0,70,0,0
241790,-62.5,4,1,0,70,0,1
248647,-55.5555555555556,4,1,0,70,0,1
255504,-40,4,1,0,70,0,1
260433,-100,4,1,0,70,0,1
262361,-100,4,1,0,70,0,0

[Colours]
Combo1 : 128,128,128
Combo2 : 0,0,255
Combo3 : 0,255,255
Combo4 : 255,128,192
Combo5 : 255,0,128
Combo6 : 255,0,0
Combo7 : 128,0,255
Combo8 : 192,192,192

[HitObjects]
39,94,1790,6,0,B|85:85|85:85|204:100,1,120,4|0,1:0|0:0,0:0:0:0:
179,116,2111,2,0,B|251:125|251:125|297:116,1,120
323,98,2433,2,0,P|301:162|312:244,1,120
277,229,2754,2,0,P|277:288|256:344,1,120
230,359,3076,2,0,L|361:349,1,120
463,284,3504,5,0,0:0:0:0:
356,203,3718,2,0,B|340:136|340:136|356:16,1,180
381,11,4147,2,0,P|290:31|255:32,1,120
95,110,4683,1,0,0:0:0:0:
95,110,4790,2,0,P|90:143|106:239,1,120
225,329,5218,102,0,L|465:320,1,240,4|0,1:0|0:0,0:0:0:0:
442,300,5754,1,0,0:0:0:0:
421,278,5861,2,0,P|397:207|401:149,1,120
369,154,6183,2,0,P|367:94|346:38,1,120
318,26,6504,2,0,L|179:37,1,120
256,192,6933,12,0,8218,0:0:0:0:
75,42,8647,6,0,L|91:239,1,180,4|0,1:0|0:0,0:0:0:0:
89,221,9076,1,0,1:0:0:0:
89,221,9504,1,0,1:0:0:0:
89,221,9933,1,0,1:0:0:0:
108,255,10361,102,0,P|173:213|286:244,1,180,0|0,1:0|0:0,0:0:0:0:
269,230,10790,1,0,1:0:0:0:
269,230,11218,1,0,1:0:0:0:
269,230,11647,1,0,1:0:0:0:
437,342,12076,6,0,L|421:145,1,180,4|0,1:0|0:0,0:0:0:0:
422,162,12505,1,0,1:0:0:0:
422,162,12933,1,0,1:0:0:0:
422,162,13362,1,0,1:0:0:0:
404,129,13790,102,0,P|339:171|226:140,1,180,0|0,1:0|0:0,0:0:0:0:
242,153,14219,1,0,1:0:0:0:
242,153,14647,1,0,1:0:0:0:
242,153,15076,1,0,1:0:0:0:
48,44,15504,5,12,0:0:0:0:
48,44,15611,2,0,P|40:85|56:153,1,90.0000034332277,8|0,1:0|0:0,0:0:0:0:
240,91,15826,101,8,0:0:0:0:
240,91,15933,2,0,P|196:82|152:90,1,90.0000034332277,8|0,1:0|0:0,0:0:0:0:
193,283,16147,5,8,0:0:0:0:
192,283,16254,2,0,P|200:238|193:194,1,90.0000034332277,8|0,1:0|0:0,0:0:0:0:
0,235,16469,101,8,0:0:0:0:
0,234,16576,2,0,P|44:242|88:235,1,90.0000034332277,8|0,1:0|0:0,0:0:0:0:
240,91,16790,22,0,B|330:76|330:76|388:97,1,135.000005149842,8|0,1:0|0:0,0:0:0:0:
392,123,17005,6,0,B|302:138|302:138|244:117,1,135.000005149842,8|0,1:0|0:0,0:0:0:0:
240,91,17218,69,12,0:0:0:0:
240,91,17326,2,0,L|230:193,1,90.0000034332277,8|0,1:0|0:0,0:0:0:0:
441,372,17539,5,8,0:0:0:0:
441,372,17647,2,0,L|451:270,1,90.0000034332277,8|0,1:0|0:0,0:0:0:0:
200,332,17860,101,8,0:0:0:0:
200,332,17968,2,0,L|302:342,1,90.0000034332277,8|0,1:0|0:0,0:0:0:0:
481,131,18182,5,8,0:0:0:0:
481,131,18290,2,0,L|379:121,1,90.0000034332277,8|0,1:0|0:0,0:0:0:0:
190,231,18504,6,0,P|134:254|97:334,1,135.000005149842,8|0,1:0|0:0,0:0:0:0:
98,316,18719,6,0,P|154:293|191:213,1,135.000005149842,8|0,1:0|0:0,0:0:0:0:
188,204,18933,69,12,0:0:0:0:
188,204,19040,2,0,B|186:157|186:157|165:106,1,90.0000034332277,8|0,1:0|0:0,0:0:0:0:
287,304,19255,5,8,0:0:0:0:
287,304,19362,2,0,B|240:306|240:306|189:327,1,90.0000034332277,8|0,1:0|0:0,0:0:0:0:
387,205,19576,101,8,0:0:0:0:
387,205,19683,2,0,B|389:252|389:252|410:303,1,90.0000034332277,8|0,1:0|0:0,0:0:0:0:
288,105,19897,5,8,0:0:0:0:
288,105,20004,2,0,B|335:103|335:103|386:82,1,90.0000034332277,8|0,1:0|0:0,0:0:0:0:
188,204,20219,6,0,B|141:206|141:206|90:227,1,90.0000034332277,8|0,1:0|0:0,0:0:0:0:
140,315,20433,86,0,P|99:253|53:359,1,240,12|0,1:0|0:0,0:0:0:0:
179,384,21076,2,0,L|307:366,1,120
339,234,21504,5,8,1:0:0:0:
465,294,21718,1,8,1:0:0:0:
478,251,21825,1,8,1:0:0:0:
492,208,21932,1,8,1:0:0:0:
312,148,22147,1,8,1:0:0:0:
326,191,22254,1,8,1:0:0:0:
339,234,22361,102,0,L|184:243,1,143.999995605469,12|0,0:0|0:0,0:0:0:0:
68,108,22790,2,0,L|223:117,1,143.999995605469,8|0,0:0|0:0,0:0:0:0:
339,234,23218,1,0,0:0:0:0:
134,342,23433,2,0,P|169:245|61:105,1,287.999991210938
67,107,23968,1,0,0:0:0:0:
67,107,24076,6,0,L|222:98,1,143.999995605469
458,185,24504,2,0,L|303:176,1,143.999995605469,8|0,0:0|0:0,0:0:0:0:
186,255,24933,1,0,0:0:0:0:
326,351,25147,2,0,P|367:305|382:208,1,143.999995605469,0|8,0:0|0:0,0:0:0:0:
186,255,25576,101,0,0:0:0:0:
186,255,25683,2,0,B|146:260|146:260|39:242,1,143.999995605469,8|0,0:0|0:0,0:0:0:0:
19,217,26004,1,0,0:0:0:0:
217,340,26218,2,0,P|270:287|252:193,1,143.999995605469,8|0,0:0|0:0,0:0:0:0:
185,37,26647,2,0,P|134:85|133:155,1,143.999995605469
295,294,27076,1,8,0:0:0:0:
503,127,27290,6,0,B|412:89|323:159|218:123,1,287.999991210938
218,123,27826,1,0,0:0:0:0:
218,123,27933,2,0,B|232:153|232:153|216:268,1,143.999995605469,8|0,0:0|0:0,0:0:0:0:
151,335,28361,102,0,P|201:310|277:334,1,135.000005149842,0|0,0:0|2:0,0:0:0:0:
297,361,28790,6,0,B|288:289|288:289|317:90,1,270.000010299683,8|8,0:0|1:0,0:0:0:0:
343,38,29218,102,0,L|191:60,1,143.999995605469,4|0,0:0|0:0,0:0:0:0:
428,168,29647,2,0,L|276:146,1,143.999995605469,8|0,0:0|0:0,0:0:0:0:
157,249,30076,1,0,0:0:0:0:
352,383,30290,2,0,P|446:328|417:159,1,287.999991210938
427,167,30826,1,0,0:0:0:0:
427,167,30933,6,0,P|415:127|425:16,1,143.999995605469
270,167,31361,2,0,P|282:207|272:318,1,143.999995605469,8|0,0:0|0:0,0:0:0:0:
61,337,31790,1,0,0:0:0:0:
104,117,32004,2,0,L|114:278,1,143.999995605469,0|8,0:0|0:0,0:0:0:0:
234,374,32433,101,0,0:0:0:0:
234,374,32540,2,0,P|298:376|365:314,1,143.999995605469,8|0,0:0|0:0,0:0:0:0:
371,293,32861,1,0,0:0:0:0:
258,134,33076,2,0,B|253:173|253:173|266:277,1,143.999995605469,8|0,0:0|0:0,0:0:0:0:
148,367,33504,2,0,B|153:328|153:328|140:224,1,143.999995605469
141,27,33933,1,8,0:0:0:0:
338,174,34147,6,0,P|409:136|289:59,1,287.999991210938
283,68,34683,1,8,0:0:0:0:
276,88,34790,102,0,L|130:92,1,143.999995605469,8|0,0:0|0:0,0:0:0:0:
53,222,35218,1,0,0:0:0:0:
338,174,35433,5,8,0:2:0:0:
314,174,35540,1,8,0:2:0:0:
290,175,35647,1,8,0:2:0:0:
266,175,35754,1,8,0:2:0:0:
242,176,35861,1,8,0:2:0:0:
218,177,35968,1,8,0:2:0:0:
194,177,36076,102,0,P|130:173|75:149,1,120,12|0,0:0|0:0,0:0:0:0:
43,125,36397,2,0,P|71:182|78:242,1,120
73,281,36718,1,0,0:0:0:0:
229,361,36933,6,0,B|294:369|294:369|417:344,1,180
406,346,37361,1,8,0:0:0:0:
417,176,37576,102,0,P|306:174|286:283,1,240
479,249,38218,1,8,0:0:0:0:
479,249,38326,2,0,L|480:106,1,120
412,67,38647,6,0,B|352:48|352:48|225:65,1,180
235,63,39076,1,8,0:0:0:0:
232,217,39290,102,0,P|195:136|81:196,1,240
172,347,39933,1,8,0:0:0:0:
172,347,40040,2,0,P|221:339|321:351,1,120
363,373,40361,6,0,L|370:188,1,180
369,193,40790,1,8,0:0:0:0:
464,337,41004,102,0,P|377:270|259:347,1,240
91,270,41647,1,8,0:0:0:0:
91,270,41754,2,0,B|81:235|81:235|91:144,1,120
40,84,42076,6,0,P|108:111|216:68,1,180,0|0,0:0|2:0,0:0:0:0:
255,146,42504,2,0,P|171:118|89:151,1,180,8|0,1:0|2:0,0:0:0:0:
46,214,42933,102,0,L|55:349,1,120,4|0,0:0|0:0,0:0:0:0:
188,368,43361,1,8,0:0:0:0:
188,368,43468,2,0,P|245:328|331:331,1,120
357,371,43790,6,0,B|343:304|343:304|362:247|362:247|346:175,1,180
350,196,44218,1,8,0:0:0:0:
472,119,44433,102,0,P|512:226|438:313,1,240
327,345,45076,1,8,0:0:0:0:
327,345,45183,2,0,P|278:337|178:349,1,120
136,371,45504,6,0,L|129:186,1,180
130,191,45933,1,8,0:0:0:0:
35,335,46147,102,0,P|122:268|240:345,1,240
408,268,46790,1,8,0:0:0:0:
408,268,46897,2,0,B|418:233|418:233|408:142,1,120
459,82,47219,6,0,P|391:109|283:66,1,180
293,76,47647,1,8,0:0:0:0:
491,7,47861,102,0,L|499:250,1,240
367,345,48504,1,8,0:0:0:0:
367,345,48611,2,0,B|306:329|306:329|238:342,1,120
181,295,48933,6,0,L|174:217,1,60,8|0,0:0|0:0,0:0:0:0:
86,229,49147,2,0,L|93:151,1,60,8|0,0:0|0:0,0:0:0:0:
175,135,49361,2,0,L|168:57,1,60,8|0,0:0|0:0,0:0:0:0:
80,69,49575,2,0,L|87:-9,1,60,8|0,0:0|0:0,0:0:0:0:
232,9,49790,5,12,0:0:0:0:
232,9,50218,1,0,0:0:0:0:
232,9,50647,1,0,0:0:0:0:
232,9,51076,2,0,L|326:17,1,90.0000034332277,0|0,0:0|2:0,0:0:0:0:
420,96,51504,5,0,0:0:0:0:
420,96,51933,1,0,0:0:0:0:
420,96,52361,1,0,0:0:0:0:
420,96,52790,2,0,L|412:190,1,90.0000034332277,0|0,0:0|2:0,0:0:0:0:
333,284,53219,101,0,0:0:0:0:
333,284,53647,1,0,0:0:0:0:
333,284,54076,1,0,0:0:0:0:
333,284,54504,2,0,L|239:276,1,90.0000034332277,0|0,0:0|2:0,0:0:0:0:
145,197,54933,5,0,0:0:0:0:
145,197,55361,1,0,0:0:0:0:
145,197,55790,1,0,0:0:0:0:
79,60,56004,2,8,L|72:150,1,90.0000034332277,8|8,0:0|1:0,0:0:0:0:
145,197,56433,1,0,0:0:0:0:
226,94,56647,70,0,P|274:74|365:91,1,135.000005149841
354,85,57076,1,8,0:0:0:0:
310,273,57290,2,0,L|296:185,1,90.0000034332277
295,167,57611,2,0,P|244:194|184:180,1,90.0000034332277
196,186,57933,2,0,P|151:187|114:211,1,90.0000034332277
162,348,58361,6,0,L|309:343,1,135.000005149841
359,382,58790,2,0,P|371:339|357:296,1,90.0000034332277,8|0,0:0|0:0,0:0:0:0:
246,243,59218,1,0,0:0:0:0:
246,243,59326,2,0,B|236:193|236:193|245:128,1,90.0000034332277
265,135,59647,2,0,B|270:96|270:96|260:83|260:83|268:74|268:74|259:59|259:59|260:46,1,90.0000034332277
126,22,60076,102,0,P|80:45|63:144,1,135.000005149841
55,120,60504,1,8,0:0:0:0:
141,194,60718,2,0,L|137:87,1,90.0000034332277
208,72,61040,2,0,L|204:161,1,90.0000034332277
141,194,61361,2,0,L|144:283,1,90.0000034332277
270,353,61790,6,0,P|361:326|234:306,1,360.000013732911,0|4,0:0|0:0,0:0:0:0:
232,295,63504,70,0,B|206:218|206:218|206:108,1,138.000002632141,4|0,0:0|0:0,0:0:0:0:
243,94,63826,1,0,0:0:0:0:
307,54,63933,2,0,L|381:66,1,69.0000013160706,8|0,0:0|0:0,0:0:0:0:
408,132,64147,2,0,L|334:144,1,69.0000013160706
310,235,64361,6,0,L|464:208,1,138.000002632141
408,132,64683,1,0,0:0:0:0:
292,274,64790,2,0,L|446:247,1,138.000002632141,8|0,0:0|0:0,0:0:0:0:
476,321,65111,1,0,0:0:0:0:
384,374,65218,102,0,L|316:361,1,69.0000013160706
216,310,65433,2,0,L|148:322,1,69.0000013160706
54,262,65647,2,0,B|34:206|34:206|65:156|65:156|37:122|41:78|65:48,1,207.000003948212,8|0,0:0|0:0,0:0:0:0:
142,26,66076,6,0,L|342:39,1,138.000002632141
335,163,66397,1,0,0:0:0:0:
262,111,66504,2,0,L|125:103,1,138.000002632141,8|0,0:0|0:0,0:0:0:0:
69,231,66826,1,0,0:0:0:0:
114,317,66933,102,0,L|253:297,1,138.000002632141
426,342,67361,1,8,0:0:0:0:
426,342,67468,2,0,B|398:277|398:277|394:237|410:189,1,138.000002632141
471,153,67790,6,0,B|480:126|476:86|476:86|448:21,1,138.000002632141
347,13,68111,1,0,0:0:0:0:
321,33,68218,2,0,P|313:62|312:119,1,69.0000013160706,8|0,0:0|0:0,0:0:0:0:
228,177,68433,2,0,P|226:211|217:244,1,69.0000013160706
132,298,68647,101,0,0:0:0:0:
312,377,68861,2,0,L|471:376,1,138.000002632141,0|8,0:0|0:0,0:0:0:0:
269,298,69183,2,0,L|110:297,1,138.000002632141
49,226,69504,70,0,B|36:191|36:191|45:121,1,90,0|0,0:0|2:0,0:0:0:0:
107,53,69933,6,0,B|123:98|123:98|112:189,1,135.000005149841,8|8,0:0|1:0,0:0:0:0:
49,226,70361,22,0,P|88:254|186:209,1,138.000002632141,4|0,0:0|0:0,0:0:0:0:
211,164,70683,1,0,0:0:0:0:
221,155,70790,2,0,P|261:145|336:149,1,69.0000013160706,8|0,0:0|0:0,0:0:0:0:
365,195,71004,2,0,P|399:192|432:183,1,69.0000013160706
473,85,71218,6,0,B|452:218|452:218|470:327,1,207.000003948212
463,289,71647,1,8,0:0:0:0:
317,354,71861,102,0,P|229:355|304:243,1,276.000005264282
280,239,72397,1,0,0:0:0:0:
280,239,72504,2,0,L|281:139,1,69.0000013160706,8|0,0:0|0:0,0:0:0:0:
204,124,72719,2,0,L|205:24,1,69.0000013160706
87,27,72933,6,0,L|95:182,1,138.000002632141
138,371,73361,2,0,L|146:216,1,138.000002632141,8|0,0:0|0:0,0:0:0:0:
233,69,73790,101,0,0:0:0:0:
319,245,74004,2,0,P|396:247|321:127,1,276.000005264282
329,125,74540,1,0,0:0:0:0:
312,137,74647,6,0,P|340:75|314:0,1,138.000002632141
151,145,75076,2,0,P|123:207|149:282,1,138.000002632141,8|0,0:0|0:0,0:0:0:0:
334,317,75504,101,0,0:0:0:0:
334,317,75611,2,0,B|299:305|299:305|188:320,1,138.000002632141
140,271,75933,2,0,B|39:284|39:284|4:272,1,138.000002632141,8|0,0:0|0:0,0:0:0:0:
12,73,76361,53,8,0:0:0:0:
73,28,76468,2,8,B|108:16|108:16|208:29,1,138.000002632141
278,78,76790,5,8,0:0:0:0:
300,141,76897,1,8,0:0:0:0:
276,204,77004,1,8,0:0:0:0:
251,266,77111,1,8,0:0:0:0:
274,330,77218,69,12,1:0:0:0:
274,330,78504,38,0,L|178:335,1,90.0000034332277
139,312,78826,2,0,L|62:308,1,45.0000017166138
274,326,80218,70,0,L|178:331,1,90.0000034332277
139,308,80540,2,0,L|62:304,1,45.0000017166138,0|8,0:0|3:0,0:0:0:0:
49,227,81076,37,8,3:0:0:0:
50,137,81504,1,8,3:0:0:0:
99,61,81933,70,0,L|195:56,1,90.0000034332277,8|0,3:0|0:0,0:0:0:0:
234,79,82255,2,0,L|310:83,1,45.0000017166138,0|8,0:0|3:0,0:0:0:0:
324,160,82790,5,8,3:0:0:0:
323,250,83219,1,8,3:0:0:0:
199,320,83433,37,8,3:0:0:0:
78,147,83647,1,8,3:0:0:0:
86,329,83861,85,8,3:0:0:0:
195,52,84076,22,0,B|214:51|232:26|232:26|266:23|276:54|266:98|285:116|285:116|304:95|304:95|313:167|286:190|319:262|319:262|323:203|379:175|419:190|454:240|457:271|439:310|403:330|403:330|374:283|297:263|234:328|145:280,1,900.000034332277,12|8,0:0|0:0,0:0:0:0:
79,157,85361,86,0,B|73:129|73:129|79:94|79:94|64:49,1,90.0000034332277,8|0,0:0|0:0,0:0:0:0:
232,288,85576,2,0,B|226:316|226:316|232:351|232:351|217:396,1,90.0000034332277,8|0,0:0|0:0,0:0:0:0:
448,278,85790,22,0,B|461:253|489:236|489:236|459:209|476:142|433:108|433:108|429:54|390:20|374:22|310:9|310:9|292:35|300:119|352:98|352:98|366:178|259:215|212:157|228:118|228:118|258:87|253:49|205:33|160:53|123:38,1,900.000034332277,12|8,0:0|0:0,0:0:0:0:
14,208,87076,86,0,B|9:255|9:255|15:270|28:253|52:244,1,90.0000034332277,8|0,0:0|0:0,0:0:0:0:
229,183,87290,2,0,B|234:136|234:136|228:121|215:138|191:147,1,90.0000034332277,8|0,0:0|0:0,0:0:0:0:
19,345,87504,22,0,B|52:334|67:364|130:373|149:308|200:304|200:304|240:357|323:311|361:278|444:336|444:336|391:233|317:225|308:140|386:88|469:122|486:194|444:259|379:274|314:260,1,900.000034332277,12|8,0:0|0:0,0:0:0:0:
244,205,88683,1,0,0:0:0:0:
229,183,88790,2,0,P|218:145|226:85,1,90.0000034332277
324,28,89004,102,0,L|69:59,1,240,0|0,0:0|2:0,0:0:0:0:
173,150,90076,5,8,1:0:0:0:
47,90,90290,1,8,1:0:0:0:
34,133,90397,1,8,1:0:0:0:
20,176,90504,1,8,1:0:0:0:
200,236,90719,1,8,1:0:0:0:
186,193,90826,1,8,1:0:0:0:
173,150,90933,86,0,L|328:141,1,143.999995605469,12|0,0:0|0:0,0:0:0:0:
444,276,91362,2,0,L|289:267,1,143.999995605469,8|0,0:0|0:0,0:0:0:0:
173,150,91790,1,0,0:0:0:0:
378,42,92005,2,0,P|343:139|451:279,1,287.999991210938
445,277,92540,1,0,0:0:0:0:
445,277,92648,6,0,L|290:286,1,143.999995605469
54,199,93076,2,0,L|209:208,1,143.999995605469,8|0,0:0|0:0,0:0:0:0:
326,129,93505,1,0,0:0:0:0:
130,173,93719,2,0,P|142:102|188:48,1,143.999995605469,0|8,0:0|0:0,0:0:0:0:
326,129,94148,69,0,0:0:0:0:
326,129,94255,2,0,B|366:124|366:124|473:142,1,143.999995605469,8|0,0:0|0:0,0:0:0:0:
493,167,94576,1,0,0:0:0:0:
295,44,94790,2,0,P|242:97|260:191,1,143.999995605469,8|0,0:0|0:0,0:0:0:0:
327,347,95219,2,0,P|378:299|379:229,1,143.999995605469
217,90,95648,1,8,0:0:0:0:
9,257,95862,38,0,B|100:295|189:225|294:261,1,287.999991210938
294,261,96398,1,0,0:0:0:0:
294,261,96505,2,0,B|280:231|280:231|296:116,1,143.999995605469,8|0,0:0|0:0,0:0:0:0:
361,49,96826,1,0,0:0:0:0:
361,49,96933,102,0,P|311:74|235:50,1,135.000005149842,0|0,0:0|2:0,0:0:0:0:
215,23,97362,6,8,B|224:95|224:95|195:294,1,270.000010299683,8|8,0:0|1:0,0:0:0:0:
169,346,97790,102,0,L|321:324,1,143.999995605469,4|0,0:0|0:0,0:0:0:0:
84,216,98219,2,0,L|236:238,1,143.999995605469,8|0,0:0|0:0,0:0:0:0:
399,123,98648,1,0,0:0:0:0:
160,1,98862,2,0,P|66:56|95:225,1,287.999991210938
85,217,99398,1,0,0:0:0:0:
85,217,99505,6,0,P|97:257|87:368,1,143.999995605469
242,217,99933,2,0,P|230:177|240:66,1,143.999995605469,8|0,0:0|0:0,0:0:0:0:
451,47,100362,1,0,0:0:0:0:
408,267,100576,2,0,L|398:106,1,143.999995605469,0|8,0:0|0:0,0:0:0:0:
278,10,101005,69,0,0:0:0:0:
278,10,101112,2,0,P|214:8|147:70,1,143.999995605469,8|0,0:0|0:0,0:0:0:0:
141,91,101433,1,0,0:0:0:0:
254,250,101648,2,0,B|259:211|259:211|246:107,1,143.999995605469,8|0,0:0|0:0,0:0:0:0:
364,17,102076,2,0,B|359:56|359:56|372:160,1,143.999995605469
371,357,102505,1,8,0:0:0:0:
174,210,102719,38,0,P|103:248|223:325,1,287.999991210938
229,316,103255,1,0,0:0:0:0:
236,296,103362,102,0,L|382:292,1,143.999995605469,8|0,0:0|0:0,0:0:0:0:
459,162,103790,1,0,0:0:0:0:
174,210,104005,5,8,0:0:0:0:
198,210,104112,1,8,0:0:0:0:
222,209,104219,1,8,0:0:0:0:
246,209,104326,1,8,0:0:0:0:
270,208,104433,1,8,0:0:0:0:
294,207,104540,1,8,0:0:0:0:
318,207,104647,22,0,P|382:211|450:252,1,144,12|0,0:0|0:3,0:3:0:0:
453,257,105076,2,0,L|447:126,1,96,8|0,0:3|0:3,0:3:0:0:
382,44,105504,1,8,0:3:0:0:
369,55,105611,2,0,L|363:186,1,96,0|0,0:3|0:3,0:3:0:0:
318,207,105933,2,0,L|324:338,1,96,8|0,0:3|0:3,0:3:0:0:
161,249,106361,86,0,P|101:225|49:165,1,144,8|0,0:3|0:3,0:3:0:0:
48,159,106790,2,0,L|13:285,1,96,8|0,0:3|0:3,0:3:0:0:
49,384,107219,1,8,0:3:0:0:
65,377,107326,2,0,L|111:254,1,96,0|0,0:3|0:3,0:3:0:0:
161,249,107647,2,0,L|195:122,1,96,8|0,0:3|0:3,0:3:0:0:
315,44,108076,22,0,B|408:37|408:37|465:65,1,144,8|0,0:3|0:3,0:3:0:0:
477,92,108504,2,0,P|469:157|485:211,1,96,8|0,0:3|0:3,0:3:0:0:
386,337,108933,1,8,0:3:0:0:
376,322,109040,2,0,P|384:257|368:203,1,96,0|0,0:3|0:3,0:3:0:0:
301,209,109361,2,0,P|293:274|309:328,1,96,8|0,0:3|0:3,0:3:0:0:
201,358,109790,86,8,P|135:339|7:359,2,192,8|8|8,0:3|0:3|0:3,0:3:0:0:
236,368,110754,1,0,0:3:0:0:
269,358,110861,2,0,L|266:303,1,48,0|0,0:3|0:3,0:3:0:0:
217,167,111076,2,0,P|257:227|299:190,1,144,8|0,0:3|2:3,0:3:0:0:
286,94,111504,70,0,P|238:74|147:91,1,135.000005149841,8|0,0:3|0:3,0:3:0:0:
157,85,111933,1,8,0:3:0:0:
201,273,112147,2,0,L|216:185,1,90.0000034332277,0|8,0:3|0:3,0:3:0:0:
217,167,112468,2,0,P|268:194|328:180,1,90.0000034332277,0|0,0:3|0:3,0:3:0:0:
316,186,112790,2,0,P|360:187|397:211,1,90.0000034332277,8|0,0:3|0:3,0:3:0:0:
350,348,113218,6,0,L|203:343,1,135.000005149841,8|0,0:3|0:3,0:3:0:0:
152,382,113647,2,0,P|140:339|154:296,1,90.0000034332277,8|0,0:3|0:3,0:3:0:0:
266,243,114075,1,8,0:3:0:0:
266,243,114183,2,0,B|276:193|276:193|267:128,1,90.0000034332277,0|0,0:3|0:3,0:3:0:0:
247,135,114504,2,0,B|241:96|241:96|252:83|252:83|244:74|244:74|253:59|253:59|251:46,1,90.0000034332277,8|0,0:3|0:3,0:3:0:0:
386,22,114933,102,0,P|432:45|449:144,1,135.000005149841,8|0,0:3|0:3,0:3:0:0:
456,120,115361,1,8,0:3:0:0:
371,194,115575,2,0,L|375:87,1,90.0000034332277,0|8,0:3|0:3,0:3:0:0:
304,72,115897,2,0,L|307:161,1,90.0000034332277,0|0,0:3|0:3,0:3:0:0:
371,194,116218,2,0,L|367:283,1,90.0000034332277,8|0,0:3|0:3,0:3:0:0:
242,353,116647,70,0,P|151:326|278:306,1,360.000013732911,0|12,0:0|0:0,0:0:0:0:
280,89,118361,86,0,B|306:166|306:166|306:276,1,138.000002632141,4|0,0:0|0:0,0:0:0:0:
216,318,118683,1,0,0:0:0:0:
205,330,118790,2,0,L|131:318,1,69.0000013160706,8|0,0:0|0:0,0:0:0:0:
104,252,119004,2,0,L|178:240,1,69.0000013160706
202,149,119218,6,0,L|48:176,1,138.000002632141
36,63,119540,1,0,0:0:0:0:
220,110,119647,2,0,L|66:137,1,138.000002632141,8|0,0:0|0:0,0:0:0:0:
36,63,119968,1,0,0:0:0:0:
128,10,120075,102,0,L|195:22,1,69.0000013160706
296,74,120290,2,0,L|363:61,1,69.0000013160706
458,122,120504,2,0,B|478:178|478:178|447:228|447:228|475:262|471:306|447:336,1,207.000003948212,8|0,0:0|0:0,0:0:0:0:
370,358,120933,6,0,L|170:345,1,138.000002632141
177,221,121254,1,0,0:0:0:0:
249,272,121361,2,0,L|387:281,1,138.000002632141,8|0,0:0|0:0,0:0:0:0:
443,153,121683,1,0,0:0:0:0:
398,67,121790,102,0,L|259:87,1,138.000002632141
86,42,122218,1,8,0:0:0:0:
86,42,122325,2,0,B|114:107|114:107|118:147|102:195,1,138.000002632141
41,231,122647,6,0,B|31:257|35:297|35:297|63:362,1,138.000002632141
165,371,122968,1,0,0:0:0:0:
191,351,123075,2,0,P|199:322|200:265,1,69.0000013160706,8|0,0:0|0:0,0:0:0:0:
284,207,123290,2,0,P|285:172|294:139,1,69.0000013160706
380,86,123504,101,0,0:0:0:0:
200,7,123718,2,0,L|41:8,1,138.000002632141,0|8,0:0|0:0,0:0:0:0:
243,86,124040,2,0,L|402:87,1,138.000002632141
463,158,124361,102,0,B|476:193|476:193|467:263,1,90,0|0,0:0|2:0,0:0:0:0:
405,331,124790,38,8,B|388:285|388:285|399:194,1,135.000005149841,8|8,0:0|1:0,0:0:0:0:
463,158,125218,86,0,P|424:130|326:175,1,138.000002632141,4|0,0:0|0:0,0:0:0:0:
301,220,125540,1,0,0:0:0:0:
291,229,125647,2,0,P|251:239|176:235,1,69.0000013160706,8|0,0:0|0:0,0:0:0:0:
147,189,125861,2,0,P|112:191|79:200,1,69.0000013160706
39,299,126075,6,0,B|60:166|60:166|42:57,1,207.000003948212
48,94,126504,1,8,0:0:0:0:
195,30,126718,102,0,P|283:29|208:141,1,276.000005264282
213,144,127254,1,0,0:0:0:0:
213,144,127361,2,0,L|212:244,1,69.0000013160706,8|0,0:0|0:0,0:0:0:0:
312,260,127576,2,0,L|311:360,1,69.0000013160706
425,357,127790,6,0,L|417:202,1,138.000002632141
374,13,128218,2,0,L|366:168,1,138.000002632141,8|0,0:0|0:0,0:0:0:0:
279,315,128647,101,0,0:0:0:0:
193,139,128861,2,0,P|116:137|191:257,1,276.000005264282
183,259,129397,1,0,0:0:0:0:
200,247,129504,6,0,P|172:309|198:384,1,138.000002632141
361,239,129933,2,0,P|389:177|363:102,1,138.000002632141,8|0,0:0|0:0,0:0:0:0:
178,67,130361,101,0,0:0:0:0:
178,67,130468,2,0,B|213:79|213:79|324:64,1,138.000002632141
372,113,130790,2,0,B|472:99|472:99|507:111,1,138.000002632141,8|0,0:0|0:0,0:0:0:0:
500,311,131218,5,8,0:0:0:0:
439,356,131325,2,8,B|404:368|404:368|303:354,1,138.000002632141
234,306,131647,5,8,0:0:0:0:
211,242,131754,1,8,0:0:0:0:
235,179,131861,1,8,0:0:0:0:
261,118,131968,1,8,0:0:0:0:
238,54,132075,37,8,1:0:0:0:
238,54,133361,38,0,L|334:49,1,90.0000034332277
373,72,133683,2,0,L|449:76,1,45.0000017166138
238,58,135075,70,0,L|334:53,1,90.0000034332277,0|0,0:3|0:3,0:3:0:0:
373,76,135397,2,0,L|449:80,1,45.0000017166138,0|8,0:3|0:3,0:3:0:0:
463,157,135933,37,8,0:3:0:0:
462,247,136361,1,8,0:3:0:0:
323,327,136576,70,0,L|413:323,2,90.0000034332277,0|8|0,0:3|0:3|0:3,0:3:0:0:
278,305,137112,2,0,L|201:301,1,45.0000017166138,0|8,0:3|0:3,0:3:0:0:
188,224,137647,37,8,0:3:0:0:
189,134,138076,1,8,0:3:0:0:
311,12,138290,5,8,0:3:0:0:
449,341,138504,1,8,0:3:0:0:
470,16,138718,85,8,0:3:0:0:
317,332,138933,22,8,B|298:333|280:358|280:358|246:361|236:330|236:330|246:286|246:286|227:268|227:268|208:289|208:289|199:217|226:194|226:194|201:137|201:137|189:181|133:209|93:194|116:157|116:157|58:144|55:113|73:74|73:74|109:54|109:54|138:101|149:89|149:89|181:63|181:63|278:56|367:104,1,900.000034332277,12|8,0:0|0:0,0:0:0:0:
433,227,140218,86,0,B|439:255|439:255|433:290|433:290|448:335,1,90.0000034332277,8|0,0:0|0:0,0:0:0:0:
280,96,140433,2,0,B|286:68|286:68|280:33|280:33|295:-12,1,90.0000034332277,8|0,0:0|0:0,0:0:0:0:
64,106,140647,22,0,B|51:131|23:148|23:148|53:175|53:175|36:242|79:276|79:276|83:330|122:364|122:364|138:362|138:362|202:375|202:375|220:349|212:265|160:286|160:286|146:206|224:222|224:222|253:169|300:227|284:266|284:266|302:276|302:276|259:335|292:326|292:326|307:351|352:331|389:346,1,900.000034332277,12|8,0:0|0:0,0:0:0:0:
498,176,141933,86,0,B|503:129|503:129|497:114|484:131|460:140,1,90.0000034332277,8|0,0:0|0:0,0:0:0:0:
283,201,142147,2,0,B|278:248|278:248|284:263|297:246|321:237,1,90.0000034332277,8|0,0:0|0:0,0:0:0:0:
493,39,142361,22,0,B|460:50|445:20|405:42|405:42|394:31|394:31|363:51|325:42|325:42|363:76|312:80|312:80|272:27|223:66|223:66|221:69|189:73|179:86|179:86|146:71|100:71|100:71|91:55|91:55|82:59|82:59|68:48|68:48|121:151|195:159|204:244|126:296|43:262|26:190|68:125|133:110|198:124,1,900.000034332277,12|8,0:0|0:0,0:0:0:0:
268,179,143540,1,0,0:0:0:0:
283,201,143647,2,0,P|294:239|286:299,1,90.0000034332277
188,356,143861,70,0,L|443:325,1,240,0|0,0:0|2:0,0:0:0:0:
426,327,144933,70,0,B|446:266|446:266|433:180,1,135.000005149841,8|0,0:0|2:0,0:0:0:0:
346,159,145148,6,0,B|326:220|326:220|339:306,1,135.000005149841,8|0,0:0|2:0,0:0:0:0:
426,327,145361,101,8,0:0:0:0:
440,284,145468,5,8,0:0:0:0:
442,240,145576,101,8,0:0:0:0:
435,195,145682,5,8,0:0:0:0:
346,159,145790,70,0,L|191:150,1,143.999995605469,12|0,0:0|0:0,0:0:0:0:
75,285,146219,2,0,L|230:276,1,143.999995605469,8|0,0:0|0:0,0:0:0:0:
346,159,146648,1,0,0:0:0:0:
141,51,146862,2,0,P|176:148|68:288,1,287.999991210938
74,286,147398,1,0,0:0:0:0:
74,286,147505,6,0,L|229:295,1,143.999995605469
465,208,147933,2,0,L|310:217,1,143.999995605469,8|0,0:0|0:0,0:0:0:0:
193,138,148362,1,0,0:0:0:0:
333,42,148576,2,0,P|374:88|389:185,1,143.999995605469,0|8,0:0|0:0,0:0:0:0:
193,138,149005,101,0,0:0:0:0:
193,138,149112,2,0,B|153:133|153:133|46:151,1,143.999995605469,8|0,0:0|0:0,0:0:0:0:
26,176,149433,1,0,0:0:0:0:
224,53,149648,2,0,P|277:106|259:200,1,143.999995605469,8|0,0:0|0:0,0:0:0:0:
192,356,150076,2,0,P|141:308|140:238,1,143.999995605469
302,99,150505,1,8,0:0:0:0:
510,266,150719,6,0,B|419:304|330:234|225:270,1,287.999991210938
225,270,151255,1,0,0:0:0:0:
225,270,151362,2,0,B|239:240|239:240|223:125,1,143.999995605469,8|0,0:0|0:0,0:0:0:0:
158,58,151790,102,0,P|208:83|284:59,1,135.000005149842,0|0,0:0|2:0,0:0:0:0:
304,32,152219,6,8,B|295:104|295:104|324:303,1,270.000010299683,8|8,0:0|1:0,1:0:0:0:
350,355,152648,102,0,L|198:333,1,143.999995605469,4|0,0:0|0:0,0:0:0:0:
435,225,153076,2,0,L|283:247,1,143.999995605469,8|0,0:0|0:0,0:0:0:0:
164,144,153505,1,0,0:0:0:0:
359,10,153719,2,0,P|453:65|424:234,1,287.999991210938
434,226,154255,1,0,0:0:0:0:
434,226,154362,6,0,P|422:266|432:377,1,143.999995605469
277,226,154790,2,0,P|289:186|279:75,1,143.999995605469,8|0,0:0|0:0,0:0:0:0:
68,56,155219,1,0,0:0:0:0:
111,276,155433,2,0,L|121:115,1,143.999995605469,0|8,0:0|0:0,0:0:0:0:
241,19,155862,101,0,0:0:0:0:
241,19,155969,2,0,P|305:17|372:79,1,143.999995605469,8|0,0:0|0:0,0:0:0:0:
378,100,156290,1,0,0:0:0:0:
265,259,156505,2,0,B|260:220|260:220|273:116,1,143.999995605469,8|0,0:0|0:0,0:0:0:0:
155,26,156933,2,0,B|160:65|160:65|147:169,1,143.999995605469
148,366,157362,1,8,0:0:0:0:
345,219,157576,6,0,P|416:257|296:334,1,287.999991210938
290,325,158112,1,0,0:0:0:0:
283,305,158219,102,0,L|137:301,1,143.999995605469
60,171,158648,1,8,0:0:0:0:
60,171,159504,53,4,0:0:0:0:
158,77,159718,2,0,P|246:53|322:59,1,155.999992858887,0|8,0:0|0:0,0:0:0:0:
339,68,160040,2,0,L|307:235,1,155.999992858887
339,304,160361,2,0,P|296:231|252:353,1,233.999989288331
283,371,160790,1,8,0:0:0:0:
378,201,161004,70,0,P|305:159|136:298,1,311.999985717774
32,371,161647,1,0,0:0:0:0:
32,371,161754,2,0,P|21:300|40:210,1,155.999992858887
102,178,162076,2,0,P|117:101|106:25,2,155.999992858887,0|0|8,0:0|0:0|0:0,0:0:0:0:
172,332,162718,102,0,B|225:271|395:280|395:280|340:294|321:329,1,311.999985717774
403,373,163254,1,0,0:0:0:0:
403,373,163361,2,0,L|415:204,1,155.999992858887,8|0,0:0|0:0,0:0:0:0:
254,44,163790,2,0,L|266:213,1,155.999992858887
111,342,164218,1,8,0:0:0:0:
111,342,164326,1,0,0:0:0:0:
111,342,164433,1,0,0:0:0:0:
111,342,164540,1,0,0:0:0:0:
111,342,164647,6,0,B|90:258|90:258|95:174,1,155.999992858887
217,20,165076,2,0,L|205:277,1,233.999989288331,8|0,0:0|0:0,0:0:0:0:
218,340,165504,1,0,0:0:0:0:
218,340,165611,1,0,0:0:0:0:
218,340,165718,2,0,P|268:323|294:273,1,77.9999964294435
364,73,165933,2,0,L|352:330,1,233.999989288331,8|0,0:0|2:0,0:0:0:0:
476,360,166361,37,12,0:0:0:0:
354,307,166576,2,0,P|266:331|190:325,1,155.999992858887,0|8,0:0|0:0,0:0:0:0:
173,316,166897,2,0,L|205:149,1,155.999992858887
173,80,167219,2,0,P|216:153|260:31,1,233.999989288331
229,13,167647,1,8,0:0:0:0:
134,183,167861,70,0,P|207:225|376:86,1,311.999985717774
480,13,168504,1,8,0:0:0:0:
480,13,168611,2,0,P|491:84|472:174,1,155.999992858887
410,206,168933,2,0,P|394:282|405:358,2,155.999992858887,0|0|8,0:0|0:0|0:0,0:0:0:0:
339,51,169576,102,0,B|287:113|117:104|117:104|172:90|191:55,1,311.999985717774
109,11,170111,1,0,0:0:0:0:
109,11,170219,2,0,L|97:180,1,155.999992858887,8|0,0:0|0:0,0:0:0:0:
258,340,170647,2,8,L|246:171,1,155.999992858887
401,42,171076,1,8,0:0:0:0:
401,42,171183,1,8,0:0:0:0:
401,42,171290,1,8,0:0:0:0:
401,42,171397,1,8,0:0:0:0:
256,192,171504,12,4,173218,0:0:0:0:
250,18,186504,53,2,0:0:0:0:
207,73,186611,5,2,0:0:0:0:
155,86,186718,101,2,0:0:0:0:
120,69,186826,5,2,0:0:0:0:
108,48,186933,38,0,B|92:71|97:108|97:108|70:102|68:134|68:134|94:163|70:204|72:248,1,204.000003890991,12|0,0:0|2:0,0:0:0:0:
206,381,187254,102,0,B|190:358|195:321|195:321|168:327|166:295|166:295|192:266|168:225|170:181,1,204.000003890991,12|0,0:0|2:0,0:0:0:0:
322,132,187576,6,0,B|261:131|234:76|266:31|312:9|360:42|368:92|330:132|330:132|319:166|332:234|354:282|378:317,1,408.000007781983,12|0,0:0|0:0,0:0:0:0:
457,358,188218,101,4,0:3:0:0:
458,351,188326,1,4,0:3:0:0:
459,344,188433,1,4,0:3:0:0:
460,337,188540,1,4,0:3:0:0:
461,330,188647,6,2,B|463:318|463:318|457:311|457:311|461:298|461:298|448:289|448:289|452:273|460:266|460:266|464:258|461:242|461:242|448:226|448:226|449:213|465:184,1,135.000005149841,2|8,0:0|0:3,0:0:0:0:
490,133,189076,54,0,L|355:146,1,120,4|0,0:3|0:0,0:0:0:0:
206,21,189504,2,8,L|284:131,1,120,12|8,0:3|0:3,0:3:0:0:
252,322,189933,2,8,L|308:198,1,120,12|8,0:3|0:3,0:3:0:0:
93,56,190361,54,2,B|75:98|72:148|93:197|93:197|114:144|112:100|95:62,1,251.999992309571,2|2,1:1|2:1,0:1:0:0:
12,47,191218,54,0,P|2:137|21:240,1,180.000006866455,12|0,1:1|2:0,0:0:0:0:
70,309,191540,1,8,0:3:0:0:
70,309,191647,54,0,L|142:298,1,60,8|0,0:3|2:3,0:3:0:0:
311,331,191861,2,0,L|239:320,1,60,12|0,0:3|2:3,0:3:0:0:
184,197,192076,54,0,P|181:154|247:88,1,135.000005149841,4|0,0:0|2:0,0:0:0:0:
379,170,192504,54,0,L|219:166,1,120,12|0,0:3|2:0,0:0:0:0:
436,242,192933,54,0,P|464:193|459:125,1,90.0000034332277,12|0,0:0|2:0,0:0:0:0:
68,203,193361,54,0,L|228:199,1,120,12|0,0:3|2:0,0:0:0:0:
303,236,193790,5,2,2:0:0:0:
303,240,193897,1,2,2:0:0:0:
304,245,194004,85,2,2:0:0:0:
304,250,194111,1,2,2:0:0:0:
305,255,194218,69,2,2:0:0:0:
305,260,194325,1,2,2:0:0:0:
306,265,194433,54,0,L|301:110,1,120,12|0,0:0|2:0,0:0:0:0:
209,236,194647,5,2,2:0:0:0:
208,240,194754,1,2,2:0:0:0:
207,245,194861,85,2,2:0:0:0:
207,250,194968,1,2,2:0:0:0:
206,255,195076,69,2,2:0:0:0:
206,260,195182,1,2,2:0:0:0:
205,265,195290,38,0,L|211:110,1,120,12|0,0:0|2:0,0:0:0:0:
209,145,195719,6,0,P|134:125|60:147,1,155.999992858887,12|0,0:3|2:3,0:3:0:0:
321,202,196040,2,0,P|393:173|440:113,1,155.999992858887,8|0,0:3|2:3,0:3:0:0:
196,222,196361,2,0,P|155:287|152:364,1,155.999992858887,12|0,0:3|2:3,0:3:0:0:
286,132,196682,2,0,P|281:55|238:-8,1,155.999992858887,8|8,0:3|2:3,0:3:0:0:
266,257,197004,2,0,P|300:304|350:334,1,116.999994644165,12|0,0:3|2:3,0:3:0:0:
369,337,197218,21,12,3:0:0:0:
368,327,197325,5,12,3:0:0:0:
368,317,197432,101,12,3:0:0:0:
367,307,197539,5,12,3:0:0:0:
367,298,197646,101,12,3:0:0:0:
366,288,197753,5,12,3:0:0:0:
366,278,197860,101,12,3:0:0:0:
365,268,197968,5,12,3:0:0:0:
365,259,198076,54,0,P|361:188|383:118,1,135.000005149841,12|8,0:3|0:3,0:0:0:0:
422,55,198504,6,0,L|290:69,1,90.0000034332277,8|0,0:3|2:0,0:0:0:0:
251,109,198718,2,0,L|119:95,1,90.0000034332277,8|0,0:3|2:0,0:0:0:0:
37,60,198933,102,0,P|28:124|65:270,1,210,0|0,0:0|2:0,0:0:0:0:
90,288,199790,6,0,B|157:264|208:310|266:278,1,180.000006866455,0|2,0:0|2:0,0:0:0:0:
285,265,200326,5,2,2:0:0:0:
306,257,200433,5,2,2:0:0:0:
328,254,200540,5,2,2:0:0:0:
351,255,200647,6,0,B|368:159|368:159|342:59,1,180.000006866455,12|0,0:0|2:0,0:0:0:0:
153,242,200969,2,0,B|228:305|228:305|328:332,1,180.000006866455,12|0,0:0|2:0,0:0:0:0:
263,78,201290,2,0,B|171:111|171:111|97:184,1,180.000006866455,12|0,0:0|2:0,0:0:0:0:
355,115,201611,70,0,P|356:44|313:-9,1,120,12|0,0:0|2:0,0:0:0:0:
229,0,201933,85,8,0:3:0:0:
207,7,202040,1,8,0:3:0:0:
186,15,202147,1,8,0:3:0:0:
165,23,202254,1,8,0:3:0:0:
144,30,202361,6,2,B|105:36|83:31|83:31|100:46|106:66,1,90,2|8,0:0|0:3,0:0:0:0:
116,131,202790,102,0,B|119:158|119:158|111:194,1,60,12|0,0:3|2:0,0:0:0:0:
175,301,203004,2,0,B|172:274|172:274|180:238,1,60,8|0,0:3|2:3,0:3:0:0:
231,98,203218,6,0,B|234:125|234:125|226:161,1,60,12|0,0:3|2:3,0:3:0:0:
290,268,203432,2,0,B|287:241|287:241|295:205,1,60,8|0,0:3|2:3,0:3:0:0:
346,65,203647,102,0,B|349:92|349:92|341:128,1,60,12|0,0:3|2:3,0:3:0:0:
405,235,203861,2,0,B|402:208|402:208|410:172,1,60,8|0,0:3|2:3,0:3:0:0:
412,23,204076,38,2,B|383:17|383:17|354:24|354:24|324:15|324:15|295:22|295:22|261:16|261:16|235:24|235:24|247:42|238:69,1,210,2|2,0:0|2:0,0:0:0:0:
208,122,204933,22,0,P|154:133|125:18,1,180.000006866455,8|0,0:3|2:3,0:3:0:0:
208,122,205254,2,0,B|226:164|226:164|205:348,1,180.000006866455,8|0,0:3|2:3,0:3:0:0:
313,371,205576,2,0,B|323:281,1,90.0000034332277,8|0,0:3|2:3,0:3:0:0:
376,189,205790,54,0,P|323:184|306:131,1,90,12|0,0:3|2:0,0:0:0:0:
439,71,206218,54,0,L|424:344,1,270.000010299683,12|0,0:0|2:0,0:0:0:0:
279,302,206647,54,0,P|227:298|177:309,1,90,8|0,0:2|2:0,0:0:0:0:
113,373,207076,54,0,P|126:264|-5:306,1,270.000010299683,12|0,0:0|2:0,0:0:0:0:
69,313,207504,53,2,2:0:0:0:
69,303,207611,1,2,2:0:0:0:
70,293,207718,1,2,2:0:0:0:
71,283,207825,1,2,2:0:0:0:
71,273,207932,1,2,2:0:0:0:
72,263,208039,1,2,2:0:0:0:
73,253,208147,54,0,B|72:208|72:208|86:178|86:178|86:129,1,120,12|0,0:0|2:0,0:0:0:0:
200,76,208362,53,2,2:0:0:0:
199,85,208469,1,2,2:0:0:0:
198,95,208576,1,2,2:0:0:0:
197,105,208683,1,2,2:0:0:0:
197,115,208790,1,2,2:0:0:0:
196,125,208897,1,2,2:0:0:0:
195,135,209005,54,0,B|196:180|196:180|182:210|182:210|182:259,1,120,12|0,0:0|2:0,0:0:0:0:
491,348,209433,86,0,B|494:249|494:249|450:164,1,180.000006866455,12|0,0:0|2:0,0:0:0:0:
402,26,209754,2,0,B|405:125|405:125|361:210,1,180.000006866455,12|0,0:0|2:0,0:0:0:0:
313,348,210076,38,0,B|316:249|316:249|272:164,1,180.000006866455,12|0,0:0|2:0,0:0:0:0:
224,26,210396,2,0,B|227:125|227:125|183:210,1,180.000006866455,12|0,0:0|2:0,0:0:0:0:
135,348,210718,2,0,B|138:249,1,90.0000034332277,12|0,0:0|2:0,0:0:0:0:
57,100,210933,37,12,3:0:0:0:
57,107,211040,1,12,3:0:0:0:
57,114,211147,1,12,3:0:0:0:
57,122,211254,1,12,3:0:0:0:
57,129,211361,1,12,3:0:0:0:
58,137,211468,1,12,3:0:0:0:
58,144,211575,1,12,3:0:0:0:
58,152,211683,1,12,3:0:0:0:
63,159,211790,54,8,B|168:136|134:219|229:198,2,180,8|8|8,0:3|0:3|0:3,0:3:0:0:
269,293,212647,54,0,P|313:255|281:113,1,210,4|0,0:0|2:0,0:0:0:0:
198,83,213504,54,4,L|229:199,1,120
155,89,221647,85,8,2:2:0:0:
164,94,223361,5,8,2:2:0:0:
173,99,225076,101,8,2:2:0:0:
182,104,226790,5,8,2:2:0:0:
182,104,228076,102,0,P|194:184|112:93,1,287.999991210938,4|8,0:0|0:0,0:0:0:0:
123,49,228611,2,0,B|175:69|175:69|302:53,1,143.999995605469,0|0,0:2|0:2,0:2:0:0:
324,106,228933,2,0,B|411:94|411:94|463:114,1,143.999995605469,0|0,0:2|2:2,0:2:0:0:
497,193,229254,1,0,0:2:0:0:
497,193,229361,2,0,P|423:256|417:156,1,215.999993408203,8|0,0:2|2:2,0:2:0:0:
463,114,229790,5,0,0:2:0:0:
384,275,230004,1,0,0:2:0:0:
384,275,230111,2,0,L|301:280,1,71.9999978027344,0|8,0:2|2:2,0:2:0:0:
254,211,230326,1,0,0:2:0:0:
254,211,230433,2,0,L|171:206,1,71.9999978027344,0|0,0:2|2:2,0:2:0:0:
95,188,230647,2,0,P|73:121|104:58,1,143.999995605469,0|0,0:2|2:2,0:2:0:0:
173,1,230969,2,0,P|194:67|163:130,1,143.999995605469,8|0,0:2|2:2,0:2:0:0:
95,188,231290,1,8,0:2:0:0:
183,329,231504,101,0,0:2:0:0:
268,244,231718,2,0,P|307:237|417:267,2,143.999995605469,0|8|0,0:2|0:2|0:2,0:2:0:0:
183,329,232361,2,0,L|164:103,1,215.999993408203,0|0,0:2|0:2,0:2:0:0:
83,44,232790,2,0,L|94:187,1,143.999995605469,8|0,0:2|0:2,0:2:0:0:
183,329,233218,5,0,0:2:0:0:
279,100,233433,2,0,L|267:243,2,143.999995605469,0|8|0,0:2|0:2|0:2,0:2:0:0:
329,38,233968,102,0,B|281:46|281:46|255:72|255:72|216:55|177:79,1,143.999995605469,8|0,0:2|0:2,0:2:0:0:
155,142,234290,1,0,0:2:0:0:
50,191,234397,6,0,B|98:199|98:199|124:225|124:225|162:208|202:232,1,143.999995605469,8|0,0:2|0:2,0:2:0:0:
224,295,234719,1,8,0:2:0:0:
260,371,234826,1,0,0:2:0:0:
334,367,234933,102,0,B|270:198|374:205|327:31,1,335.999989746094,12|8,0:2|0:2,0:2:0:0:
248,17,235468,2,0,B|183:15|183:15|70:53,1,167.999994873047,0|0,0:2|0:2,0:2:0:0:
38,152,235790,2,0,B|103:154|103:154|216:116,1,167.999994873047,0|0,0:2|2:2,0:2:0:0:
310,115,236111,1,0,0:2:0:0:
310,115,236218,2,0,P|341:218|226:205,1,251.999992309571,8|0,0:2|2:2,0:2:0:0:
200,121,236647,5,0,0:2:0:0:
370,289,236861,2,0,P|422:217|414:125,1,167.999994873047,0|8,0:2|1:2,0:2:0:0:
350,64,237183,1,0,0:2:0:0:
350,64,237290,2,0,L|263:73,1,83.9999974365235,0|0,0:2|2:2,0:2:0:0:
141,66,237504,2,0,B|115:145|115:145|141:233,1,167.999994873047,0|0,0:2|2:2,0:2:0:0:
199,282,237826,2,0,B|225:203|225:203|199:115,1,167.999994873047,8|0,0:2|2:2,0:2:0:0:
141,66,238147,1,8,0:2:0:0:
133,345,238361,102,0,P|171:365|219:368,1,83.9999974365235,8|0,3:0|2:0,0:0:0:0:
70,279,238576,6,0,P|50:317|47:365,1,83.9999974365235,8|0,3:0|2:0,0:0:0:0:
136,216,238790,102,0,P|98:196|50:193,1,83.9999974365235,8|0,3:0|2:0,0:0:0:0:
199,282,239004,6,0,P|219:244|222:196,1,83.9999974365235,8|0,3:0|2:0,0:0:0:0:
205,57,239218,101,12,3:0:0:0:
220,62,239325,1,12,3:0:0:0:
236,67,239432,1,12,3:0:0:0:
252,72,239539,1,12,3:0:0:0:
284,83,239647,6,12,L|294:139,7,41.9999987182618,12|12|12|12|12|12|12|12,3:0|3:0|3:0|3:0|3:0|3:0|3:0|3:0,3:0:0:0:
237,177,240076,102,0,P|314:196|366:138,1,165,0|0,3:0|2:0,0:0:0:0:
369,124,241361,6,0,P|395:205|380:115,1,270.000010299683,12|0,0:0|2:0,0:0:0:0:
369,124,241790,6,0,P|323:113|259:116,1,96,4|0,0:1|2:1,0:1:0:0:
125,220,242004,2,0,P|171:231|235:228,1,96,8|0,0:1|2:1,0:1:0:0:
65,91,242218,1,0,0:1:0:0:
65,91,242326,2,0,L|77:309,1,192,8|0,0:1|0:1,0:1:0:0:
149,357,242647,70,0,B|241:322|241:322|342:335,1,192,0|8,0:1|2:1,0:1:0:0:
454,226,242969,2,0,B|362:261|362:261|261:248,1,192,0|8,0:1|2:1,0:1:0:0:
185,136,243290,1,0,0:1:0:0:
460,314,243504,38,0,P|535:263|526:172,1,192,0|8,0:1|0:1,0:1:0:0:
420,92,243826,1,0,0:1:0:0:
420,92,243933,2,0,L|312:104,1,96,0|8,0:1|2:1,0:1:0:0:
171,35,244147,2,0,L|279:47,1,96,0|0,0:1|2:1,0:1:0:0:
307,242,244361,70,0,P|218:230|170:134,1,192,0|8,0:1|2:1,0:1:0:0:
354,171,244683,2,0,B|368:208|368:208|352:384,1,192,0|8,0:1|2:1,0:1:0:0:
460,314,245004,1,0,0:1:0:0:
497,222,245111,1,0,0:1:0:0:
497,222,245218,38,0,P|482:176|484:123,1,96,0|0,0:1|2:1,0:1:0:0:
339,77,245433,2,0,P|354:123|352:176,1,96,8|0,0:1|2:1,0:1:0:0:
274,283,245647,2,0,B|173:260|180:319|77:285,1,192,0|8,0:1|0:1,0:1:0:0:
17,222,245968,1,0,0:1:0:0:
17,222,246076,70,0,B|3:174|3:174|8:117,1,96,0|0,0:1|2:1,0:1:0:0:
110,23,246290,2,0,B|138:119|138:119|128:233,1,192,8|0,0:1|0:1,0:1:0:0:
226,370,246718,1,8,0:1:0:0:
441,253,246933,38,0,B|455:210|455:210|426:101|426:101|443:49,1,192,0|8,0:1|0:1,0:1:0:0:
230,185,247361,2,0,B|241:218|241:218|212:327|212:327|226:370,1,192,0|8,0:1|0:1,0:1:0:0:
58,214,247790,70,0,L|170:217,1,96,0|0,0:1|2:1,0:1:0:0:
397,312,248004,2,0,L|285:315,1,96,8|0,0:1|2:1,0:1:0:0:
52,284,248218,2,0,L|156:243,1,96,0|0,0:1|2:1,0:1:0:0:
402,241,248433,2,8,L|300:288,1,96,8|8,0:1|1:1,0:1:0:0:
142,367,248647,37,0,0:1:0:0:
213,168,248861,2,0,P|217:119|77:62,1,215.999993408203,8|0,0:1|0:1,0:1:0:0:
128,138,249183,2,0,L|395:115,1,215.999993408203,8|0,0:1|0:1,0:1:0:0:
428,186,249504,70,0,L|161:163,1,215.999993408203,0|8,0:1|2:1,0:1:0:0:
95,234,249826,2,0,P|86:290|216:371,1,215.999993408203,0|8,0:1|2:1,0:1:0:0:
184,277,250147,1,0,0:1:0:0:
334,342,250361,38,0,P|317:294|321:229,1,107.999996704102,0|0,0:1|2:1,0:1:0:0:
412,81,250576,2,0,P|429:129|425:194,1,107.999996704102,8|0,0:1|2:1,0:1:0:0:
334,342,250790,1,0,0:1:0:0:
399,287,250897,2,0,L|161:275,1,215.999993408203,8|0,0:1|0:1,0:1:0:0:
43,290,251218,70,0,P|1:202|54:87,1,215.999993408203,0|8,0:1|2:1,0:1:0:0:
135,0,251540,2,0,P|178:96|137:193,1,215.999993408203,0|8,0:1|2:1,0:1:0:0:
43,290,251861,1,0,0:1:0:0:
114,362,251968,1,0,0:1:0:0:
114,362,252076,38,0,B|141:362|141:362|147:356|147:356|147:368|147:368|153:362|153:362|212:362,1,107.999996704102,0|0,0:1|2:1,0:1:0:0:
360,302,252290,2,0,B|333:302|333:302|327:296|327:296|327:308|327:308|321:302|321:302|262:302,1,107.999996704102,8|0,0:1|2:1,0:1:0:0:
454,359,252504,2,0,B|438:320|439:288|439:288|459:280|459:280|451:265|451:265|463:257|463:257|459:216|428:217|428:146,1,215.999993408203,0|8,0:1|0:1,0:1:0:0:
445,76,252826,1,0,0:1:0:0:
356,24,252933,70,0,B|323:15|323:15|315:17|315:17|296:13|296:13|269:24|269:24|295:27,1,107.999996704102,0|0,0:1|2:1,0:1:0:0:
99,151,253147,2,0,B|132:160|132:160|140:158|140:158|159:162|159:162|186:151|186:151|160:148,1,107.999996704102,8|0,0:1|2:1,0:1:0:0:
358,145,253361,2,0,B|344:114|344:114|337:109|337:109|328:92|328:92|302:78|302:78|317:100,1,107.999996704102,0|0,0:1|2:1,0:1:0:0:
96,29,253575,2,0,B|110:60|110:60|117:65|117:65|126:82|126:82|152:96|152:96|137:74,1,107.999996704102,8|0,0:1|2:1,0:1:0:0:
257,239,253790,37,8,0:1:0:0:
257,239,253897,2,0,B|229:231|203:237|203:237|177:240|170:248|170:248|152:271|115:242|115:242|44:275|14:319,1,215.999993408203,8|0,0:1|0:1,0:1:0:0:
33,356,254218,6,0,B|98:362|116:331|116:331|163:357|177:322|225:312|266:345|279:349|307:309|307:309|328:340|352:266|379:227|439:264,1,431.999986816407,8|8,0:1|0:1,0:1:0:0:
452,384,254861,101,8,0:1:0:0:
440,331,254968,1,8,0:1:0:0:
428,278,255075,69,8,0:1:0:0:
417,225,255182,1,8,0:1:0:0:
405,172,255289,37,8,0:1:0:0:
394,120,255396,1,8,0:0:0:0:
381,75,255504,37,12,0:0:0:0:
381,75,255611,2,0,B|334:64|334:64|322:77|322:77|278:62|233:93,1,150,8|0,0:0|2:0,0:0:0:0:
306,300,255825,5,8,0:0:0:0:
306,300,255933,2,0,B|317:253|317:253|304:241|304:241|319:197|288:152,1,150,8|0,0:0|2:0,0:0:0:0:
81,225,256147,101,8,0:0:0:0:
81,225,256254,2,0,B|128:236|128:236|140:223|140:223|184:238|229:207,1,150,8|0,0:0|2:0,0:0:0:0:
156,0,256469,5,8,0:0:0:0:
156,0,256576,2,0,B|145:47|145:47|158:59|158:59|143:103|174:148,1,150,8|0,0:0|2:0,0:0:0:0:
223,355,256790,86,0,P|207:376|220:319,1,225,8|0,0:0|2:0,0:0:0:0:
223,355,257004,38,0,P|239:376|226:319,1,225,8|0,0:0|2:0,0:0:0:0:
223,355,257219,85,12,0:0:0:0:
223,355,257326,2,0,B|223:338|205:307|205:307|245:296|245:296|219:288|216:284|231:249|228:240,1,150,8|0,0:0|2:0,0:0:0:0:
359,40,257540,5,8,0:0:0:0:
359,40,257647,2,0,B|359:57|341:88|341:88|381:99|381:99|355:107|352:111|367:146|364:155,1,150,8|0,0:0|2:0,0:0:0:0:
133,129,257861,101,8,0:0:0:0:
133,129,257968,2,0,B|150:129|181:111|181:111|192:151|192:151|200:125|204:122|239:137|248:134,1,150,8|0,0:0|2:0,0:0:0:0:
448,265,258182,5,8,0:0:0:0:
448,265,258289,2,0,B|431:265|400:247|400:247|389:287|389:287|381:261|377:258|342:273|333:270,1,150,8|0,0:0|2:0,0:0:0:0:
192,301,258504,86,0,P|131:257|-4:308,1,225,8|0,0:0|2:0,0:0:0:0:
0,302,258718,38,0,P|61:346|196:295,1,225,8|0,0:0|2:0,0:0:0:0:
192,300,258933,85,12,0:0:0:0:
192,300,259040,2,0,B|263:293|263:293|299:300|299:300|207:308,1,150,8|0,0:0|2:0,0:0:0:0:
121,134,259254,5,8,0:0:0:0:
121,134,259361,2,0,B|128:204|128:204|121:240|121:240|113:148,1,150,8|0,0:0|2:0,0:0:0:0:
287,62,259576,85,8,0:0:0:0:
287,62,259683,2,0,B|216:69|216:69|180:62|180:62|272:54,1,150,8|0,0:0|2:0,0:0:0:0:
358,228,259897,5,8,0:0:0:0:
358,228,260004,2,0,B|350:157|350:157|357:121|357:121|365:213,1,150,8|0,0:0|2:0,0:0:0:0:
192,300,260218,6,0,B|199:370|199:370|192:406|192:406|184:314,1,150,8|0,0:0|2:0,0:0:0:0:
106,257,260433,6,0,P|184:281|101:151,1,360,12|0,0:0|2:0,0:0:0:0:
131,126,261504,85,8,0:0:0:0:
235,277,261718,1,8,0:0:0:0:
249,218,261825,1,8,0:0:0:0:
263,160,261932,1,8,0:0:0:0:
103,10,262147,1,8,0:0:0:0:
117,68,262254,1,8,0:0:0:0:
131,126,262361,21,12,0:0:0:0:
