osu file format v14

[General]
AudioFilename: audio.ogg
AudioLeadIn: 0
PreviewTime: 71651
Countdown: 0
SampleSet: None
StackLeniency: 0.7
Mode: 0
LetterboxInBreaks: 0
WidescreenStoryboard: 1

[Editor]
Bookmarks: 44670,46360,74987
DistanceSpacing: 1
BeatDivisor: 4
GridSize: 4
TimelineZoom: 1

[Metadata]
Title:Natsu Matsuri (TV Size)
TitleUnicode:夏祭り (TV Size)
Artist:Utsu-P & Minatsuki Toka
ArtistUnicode:鬱P & ミナツキトーカ
Creator:Yoko
Version:Normal
Source:Watashi ga Motenai no wa Dou Kangaete mo Omaera ga Warui!
Tags:Japanese jp vocaloid hatsune miku girl robot hanabi 花火 初音ミク cover rock jrock j-rock heavy metal whiteberry 私がモテないのはどう考えてもお前らが悪い! No Matter How I Look at It, It's You your Guys' Fault I'm Not Popular! watamote silver link ending 6th episode utsup depressionp depression-p
BeatmapID:2986327
BeatmapSetID:1311371

[Difficulty]
HPDrainRate:3
CircleSize:3.5
OverallDifficulty:4
ApproachRate:5.5
SliderMultiplier:1.2
SliderTickRate:1

[Events]
//Background and Video events
0,0,"BG.jpg",0,0
//Break Periods
//Storyboard Layer 0 (Background)
//Storyboard Layer 1 (Fail)
//Storyboard Layer 2 (Pass)
//Storyboard Layer 3 (Foreground)
//Storyboard Layer 4 (Overlay)
//Storyboard Sound Samples

[TimingPoints]
1450,800,4,2,2,10,1,0
1500,-100,4,2,2,10,0,0
14250,-100,4,2,2,15,0,0
27050,-100,4,2,2,25,0,0
33450,845.070422535211,4,2,2,15,1,0
34295,952.380952380952,4,2,2,15,1,0
35247,1142.85714285714,4,2,2,10,1,0
36389,1250,4,2,2,30,1,0
37849,422.535211267606,4,2,1,60,1,1
44609,-100,4,2,1,60,0,0
71651,-100,4,2,1,60,0,1
90243,-100,4,2,1,60,0,0

[Colours]
Combo1 : 153,47,71
Combo2 : 43,59,136
Combo3 : 207,142,137
Combo4 : 147,163,225

[HitObjects]
101,43,14250,6,2,L|122:170,1,120,2|2,2:0|2:0,2:0:0:0:
53,260,15850,1,2,2:0:0:0:
145,336,16650,1,2,2:0:0:0:
186,292,17050,1,2,2:0:0:0:
242,312,17450,2,2,B|290:301|290:301|312:273|312:273|371:261,1,120,2|2,2:0|2:0,2:0:0:0:
425,175,19050,2,0,P|482:174|512:223,1,120,2|2,2:0|2:0,0:0:0:0:
485,277,20250,5,2,2:0:0:0:
428,296,20650,2,2,P|373:302|315:352,1,120,2|2,2:0|2:0,2:0:0:0:
260,237,22250,2,0,P|205:231|147:181,1,120,2|2,2:0|2:0,0:0:0:0:
95,180,23450,1,2,2:0:0:0:
55,224,23850,2,2,B|36:283|36:283|67:361,1,120,2|2,2:0|2:0,2:0:0:0:
176,377,25450,2,2,B|256:365|201:317|297:315,1,120,2|2,2:0|2:0,2:0:0:0:
384,364,27050,5,2,2:0:0:0:
469,280,27850,1,2,2:0:0:0:
395,184,28650,2,2,P|331:173|268:186,1,120,2|2,2:0|2:0,2:0:0:0:
221,204,29850,1,2,2:0:0:0:
178,161,30250,2,2,B|152:108|152:108|192:28,1,120,2|2,2:0|2:0,2:0:0:0:
295,24,31850,2,2,B|336:33|336:33|355:60|355:60|399:70,1,120,2|2,2:0|2:0,2:0:0:0:
446,106,33050,1,2,2:0:0:0:
446,106,33450,1,2,2:0:0:0:
405,204,34295,5,2,2:0:0:0:
256,192,35247,12,0,37326,0:0:0:0:
35,43,37849,6,0,B|79:83|79:83|160:59,1,120,4|8,1:0|0:0,0:0:0:0:
221,13,38588,2,0,L|237:123,1,90,0|0,1:0|1:0,0:0:0:0:
208,156,39116,1,8,0:0:0:0:
253,203,39327,1,8,0:0:0:0:
253,203,39539,6,0,B|300:196|300:196|322:171|322:171|388:162,1,120,0|8,1:0|0:0,0:0:0:0:
434,113,40278,2,0,P|428:74|362:56,1,90,0|0,1:0|1:0,0:0:0:0:
335,82,40806,1,8,0:0:0:0:
304,36,41018,1,8,0:0:0:0:
304,36,41229,6,0,B|229:26|262:79|179:72,1,120,0|8,1:0|0:0,0:0:0:0:
101,65,41968,2,0,P|109:109|115:165,1,90,0|0,1:0|1:0,0:0:0:0:
82,204,42496,1,8,0:0:0:0:
126,252,42708,1,8,0:0:0:0:
126,252,42919,6,0,B|170:239|170:239|190:212|190:212|250:194,1,120,0|8,1:0|0:0,0:0:0:0:
304,151,43658,2,0,P|308:107|280:73,1,90,4|0,1:0|1:0,0:0:0:0:
232,110,44187,1,8,0:0:0:0:
183,84,44398,1,8,0:0:0:0:
183,84,44609,6,0,P|181:13|230:5,1,120,14|8,0:1|0:0,0:0:0:0:
272,37,45243,1,0,1:0:0:0:
272,37,45454,2,0,B|349:40|299:88|398:86,1,120,2|8,1:0|0:0,0:0:0:0:
413,39,46088,1,0,1:0:0:0:
413,39,46299,1,0,1:0:0:0:
511,108,46722,1,8,0:0:0:0:
408,169,47144,1,2,1:0:0:0:
490,256,47567,6,0,L|500:318,1,60,8|0,0:0|1:0,0:0:0:0:
443,333,47989,2,0,B|404:344|404:344|384:371|384:371|340:384,1,120,0|8,1:0|0:0,0:0:0:0:
291,358,48623,1,0,1:0:0:0:
291,358,48834,2,0,P|277:298|294:220,1,120,2|8,1:0|0:0,0:0:0:0:
339,211,49468,1,0,1:0:0:0:
339,211,49679,1,0,1:0:0:0:
367,94,50102,1,8,0:0:0:0:
262,34,50525,1,0,1:0:0:0:
149,74,50947,6,0,L|70:60,1,60,8|0,0:0|1:0,0:0:0:0:
45,104,51370,2,0,B|18:159|18:159|46:229,2,120,6|8|2,1:0|0:0|1:0,0:0:0:0:
152,50,52637,2,0,L|215:37,1,60,8|0,0:0|1:0,0:0:0:0:
246,85,53060,2,0,B|323:88|273:136|372:134,2,120,0|8|2,1:0|0:0|1:0,0:0:0:0:
188,189,54327,6,0,L|125:176,1,60,8|0,0:0|1:0,0:0:0:0:
91,223,54750,2,0,P|69:289|124:320,2,120,0|8|2,1:0|0:0|1:0,0:0:0:0:
206,257,56018,2,0,P|212:294|219:329,1,60,8|0,0:0|1:0,0:0:0:0:
252,363,56440,2,0,B|296:350|296:350|316:323|316:323|354:311,2,120,0|8|0,1:0|0:0|1:0,0:0:0:0:
131,364,57708,6,0,P|137:327|144:292,1,60,8|0,0:0|1:0,0:0:0:0:
176,256,58130,2,4,P|140:208|72:204,1,120,6|8,3:1|0:0,0:0:0:0:
30,224,58764,1,0,1:0:0:0:
30,224,58975,2,0,B|-3:174|-3:174|28:94,1,120,2|8,1:0|0:0,0:0:0:0:
54,69,59609,1,0,1:0:0:0:
54,69,59820,2,0,P|101:106|172:110,1,120,0|8,1:0|0:0,0:0:0:0:
203,161,60454,1,0,1:0:0:0:
203,161,60665,1,2,1:0:0:0:
237,276,61088,6,0,L|295:288,1,60,8|0,0:0|1:0,0:0:0:0:
353,305,61510,2,2,P|380:248|341:196,1,120,0|8,1:0|0:0,0:0:0:0:
323,157,62144,1,0,1:0:0:0:
323,157,62356,2,0,L|199:179,1,120,2|8,1:0|0:0,0:0:0:0:
149,173,62989,1,0,1:0:0:0:
149,173,63201,2,0,B|116:123|116:123|147:43,1,120,0|8,1:0|0:0,0:0:0:0:
190,35,63834,1,0,1:0:0:0:
190,35,64046,1,2,1:0:0:0:
308,15,64468,6,0,L|297:74,1,60,8|0,0:0|1:0,0:0:0:0:
294,134,64891,2,0,B|371:137|321:185|420:183,2,120,4|8|2,1:0|0:0|1:0,0:0:0:0:
178,165,66158,2,0,L|179:229,1,60,8|0,0:0|1:0,0:0:0:0:
140,271,66581,2,0,P|78:284|31:347,2,120,0|8|2,1:0|0:0|1:0,0:0:0:0:
257,247,67849,6,0,L|315:259,1,60,8|0,0:0|1:0,0:0:0:0:
373,242,68271,2,0,B|396:301|396:301|361:377,2,120,0|8|2,1:0|0:0|1:0,0:0:0:0:
381,122,69539,2,0,L|448:136,1,60,8|0,0:0|1:0,0:0:0:0:
490,101,69961,2,0,P|498:45|436:6,1,120,12|12,0:0|0:0,0:0:0:0:
334,18,70806,2,0,P|298:30|252:34,1,60,8|8,0:0|0:0,0:0:0:0:
239,81,71229,2,0,P|203:69|157:65,1,60,8|8,0:0|0:0,0:0:0:0:
129,35,71651,6,12,P|95:81|114:136,1,120,12|0,0:0|1:0,0:0:0:0:
156,178,72285,1,8,0:0:0:0:
208,149,72496,2,0,L|340:172,1,120,2|0,1:0|1:0,0:0:0:0:
380,140,73130,1,8,0:0:0:0:
380,140,73341,2,0,B|398:85|398:85|368:14,2,120,2|0|2,1:0|1:0|1:0,0:0:0:0:
497,163,74609,5,0,1:0:0:0:
467,214,74820,1,8,0:0:0:0:
504,261,75032,2,0,P|456:265|397:330,1,120,2|0,1:0|1:0,0:0:0:0:
373,364,75665,1,8,0:0:0:0:
315,381,75877,2,0,P|273:338|215:329,1,120,2|0,1:0|1:0,0:0:0:0:
160,342,76510,1,8,0:0:0:0:
160,342,76722,2,0,B|130:288|130:288|161:213,1,120,2|0,1:0|1:0,0:0:0:0:
117,119,77567,2,0,P|172:140|235:148,1,120,0|0,1:0|1:0,0:0:0:0:
265,97,78201,1,8,0:0:0:0:
286,41,78412,6,0,P|350:53|369:112,1,120,12|0,0:0|1:0,0:0:0:0:
393,154,79046,1,8,0:0:0:0:
358,202,79257,2,0,P|294:214|275:273,1,120,2|0,1:0|1:0,0:0:0:0:
305,310,79891,1,8,0:0:0:0:
365,299,80102,2,0,B|442:302|392:350|491:348,2,120,2|2|2,1:0|1:0|1:0,0:0:0:0:
248,268,81370,5,0,1:0:0:0:
205,310,81581,1,8,0:0:0:0:
156,274,81792,2,0,L|23:248,1,120,2|2,1:0|1:0,0:0:0:0:
0,151,82637,1,0,1:0:0:0:
86,67,83060,1,8,0:0:0:0:
171,150,83482,6,0,L|288:126,1,120,4|8,1:0|0:0,0:0:0:0:
378,127,84222,2,0,B|400:168|400:168|377:222,1,90,0|0,1:0|1:0,0:0:0:0:
405,263,84750,1,8,1:0:0:0:
360,299,84961,1,8,0:0:0:0:
360,299,85172,6,0,P|311:265|247:240,1,120,0|8,1:0|0:0,0:0:0:0:
165,247,85912,2,0,P|163:179|191:161,1,90,0|0,1:0|1:0,0:0:0:0:
233,156,86440,1,8,0:0:0:0:
248,101,86651,1,0,1:0:0:0:
248,101,86863,6,0,B|294:111|294:111|312:135|312:135|374:151,1,120,0|8,1:0|0:0,0:0:0:0:
442,158,87602,2,0,P|429:207|419:263,1,90,0|2,1:0|1:0,0:0:0:0:
442,302,88130,1,8,0:0:0:0:
404,348,88341,1,8,0:0:0:0:
404,348,88553,6,0,P|341:321|348:254,1,120,2|8,1:0|0:0,0:0:0:0:
308,190,89292,2,0,B|343:167|343:167|392:180,1,90,8|8,0:0|0:0,0:0:0:0:
441,149,89820,2,0,L|426:69,1,60,8|8,0:0|0:0,0:0:0:0:
382,53,90243,1,12,0:0:0:0:
