osu file format v14

[General]
AudioFilename: audio.ogg
AudioLeadIn: 0
PreviewTime: 71651
Countdown: 0
SampleSet: Soft
StackLeniency: 0.2
Mode: 0
LetterboxInBreaks: 0
WidescreenStoryboard: 1

[Editor]
Bookmarks: 44670,46360,74987
DistanceSpacing: 1.3
BeatDivisor: 4
GridSize: 4
TimelineZoom: 1

[Metadata]
Title:Natsu Matsuri (TV Size)
TitleUnicode:夏祭り (TV Size)
Artist:Utsu-P & Minatsuki Toka
ArtistUnicode:鬱P & ミナツキトーカ
Creator:Yoko
Version:Insane
Source:Watashi ga Motenai no wa Dou Kangaete mo Omaera ga Warui!
Tags:Japanese jp vocaloid hatsune miku girl robot hanabi 花火 初音ミク cover rock jrock j-rock heavy metal whiteberry 私がモテないのはどう考えてもお前らが悪い! No Matter How I Look at It, It's You your Guys' Fault I'm Not Popular! watamote silver link ending 6th episode utsup depressionp depression-p
BeatmapID:2986326
BeatmapSetID:1311371

[Difficulty]
HPDrainRate:5.5
CircleSize:4
OverallDifficulty:8
ApproachRate:8.8
SliderMultiplier:2.2
SliderTickRate:1

[Events]
//Background and Video events
0,0,"BG.jpg",0,0
//Break Periods
//Storyboard Layer 0 (Background)
//Storyboard Layer 1 (Fail)
//Storyboard Layer 2 (Pass)
//Storyboard Layer 3 (Foreground)
//Storyboard Layer 4 (Overlay)
//Storyboard Sound Samples

[TimingPoints]
1450,800,4,2,2,10,1,0
1450,-200,4,2,2,10,0,0
14250,-200,4,2,2,15,0,0
27050,-200,4,2,2,25,0,0
33450,845.070422535211,4,2,2,15,1,0
34295,952.380952380952,4,2,2,15,1,0
34295,-133.333333333333,4,2,2,15,0,0
34771,-133.333333333333,4,2,2,10,0,0
35247,1142.85714285714,4,2,2,10,1,0
35247,-333.333333333333,4,2,2,10,0,0
36389,1250,4,2,2,30,1,0
37849,422.535211267606,4,2,1,60,1,1
37849,-66.6666666666667,4,2,1,60,0,1
44609,-100,4,2,1,60,0,0
69961,-100,4,2,1,60,0,0
70384,-76.9230769230769,4,2,1,60,0,0
71651,-66.6666666666667,4,2,1,60,0,1
90243,-133.333333333333,4,2,1,60,0,1
90665,-66.6666666666667,4,2,1,60,0,0

[Colours]
Combo1 : 153,47,71
Combo2 : 43,59,136
Combo3 : 207,142,137
Combo4 : 147,163,225

[HitObjects]
20,246,1450,6,2,L|86:257,1,55,2|2,2:0|2:0,2:0:0:0:
132,314,2250,1,2,2:0:0:0:
132,314,2650,1,2,2:0:0:0:
197,251,3050,2,2,P|201:217|191:177,1,55,2|2,2:0|2:0,2:0:0:0:
69,144,3850,6,0,L|143:134,1,55,2|2,2:0|2:0,0:0:0:0:
195,64,4650,2,2,L|269:74,1,55,2|2,2:0|2:0,2:0:0:0:
317,133,5450,1,2,2:0:0:0:
321,137,5850,1,2,2:0:0:0:
237,185,6250,2,2,P|233:213|242:256,1,55,2|2,2:0|2:0,2:0:0:0:
295,311,7050,2,0,B|319:314|319:314|348:301,1,55,2|2,2:0|2:0,0:0:0:0:
465,245,7850,2,2,B|436:248|436:248|412:234,1,55,2|2,2:0|2:0,2:0:0:0:
443,97,8650,6,0,L|450:173,1,55,2|2,2:0|2:0,0:0:0:0:
335,221,9450,2,2,L|342:145,1,55,2|2,2:0|2:0,2:0:0:0:
287,88,10250,1,2,2:0:0:0:
287,88,10650,1,2,2:0:0:0:
211,145,11050,2,2,P|172:145|150:137,1,55,2|2,2:0|2:0,2:0:0:0:
9,202,11850,2,0,P|15:228|13:255,1,55,2|2,2:0|2:0,0:0:0:0:
71,134,12650,2,2,P|69:106|75:80,1,55,2|2,2:0|2:0,2:0:0:0:
147,27,13450,1,2,2:0:0:0:
147,27,13850,1,2,2:0:0:0:
269,99,14250,6,2,B|337:102|296:54|391:57,2,110,2|2|2,2:0|2:0|2:0,2:0:0:0:
365,172,16650,2,2,P|388:176|432:200,1,55,2|2,2:0|2:0,2:0:0:0:
372,360,17450,2,2,B|346:305|346:305|370:248,2,110,2|2|2,2:0|2:0|2:0,2:0:0:0:
465,242,19850,2,2,L|455:166,1,55,2|2,2:0|2:0,2:0:0:0:
403,97,20650,2,2,B|354:127|354:127|285:110,2,110,2|2|2,2:0|2:0|2:0,2:0:0:0:
208,20,23050,6,2,P|214:56|207:93,1,55,2|2,2:0|2:0,2:0:0:0:
236,192,23850,2,2,P|151:153|116:158,1,110,2|2,2:0|2:0,2:0:0:0:
80,213,25050,1,2,2:0:0:0:
160,353,25450,2,2,B|143:307|143:307|168:234,1,110,2|2,2:0|2:0,2:0:0:0:
323,272,27050,6,0,B|258:265|280:312|217:307,2,110,2|2|2,2:0|2:0|2:0,0:0:0:0:
468,275,29450,2,0,L|464:217,1,55,2|2,2:0|2:0,0:0:0:0:
379,156,30250,2,2,B|334:148|334:148|312:127|312:127|263:116,1,110,2|2,2:0|2:0,2:0:0:0:
137,110,31850,2,2,L|150:34,1,55,2|2,2:0|2:0,2:0:0:0:
21,34,32650,5,2,2:0:0:0:
38,108,33050,1,2,2:0:0:0:
51,183,33450,2,2,P|68:224|72:303,1,110,2|2,2:0|2:0,2:0:0:0:
187,227,34295,6,2,P|183:261|147:331,1,82.5000031471254,2|2,2:0|2:0,2:0:0:0:
271,343,35247,6,2,P|260:356|227:378,1,49.4999984893799,2|2,2:0|2:0,2:0:0:0:
256,192,36389,12,0,37639,0:0:0:0:
421,130,37849,6,0,P|413:89|414:48,1,82.5000031471254,4|0,1:0|0:0,0:0:0:0:
318,130,38060,2,0,P|317:171|311:211,1,82.5000031471254,0|0,1:0|0:0,0:0:0:0:
383,289,38271,2,0,P|473:217|524:238,1,165.000006294251,8|0,0:0|0:0,0:0:0:0:
352,153,38588,2,0,P|310:147|265:106,1,82.5000031471254,0|0,1:0|0:0,0:0:0:0:
207,182,38799,1,2,1:0:0:0:
207,182,38905,2,0,P|165:188|120:229,1,82.5000031471254,0|0,1:0|0:0,0:0:0:0:
183,359,39116,2,0,P|198:319|185:260,1,82.5000031471254,8|0,0:0|0:0,0:0:0:0:
48,260,39327,2,0,P|74:293|132:311,1,82.5000031471254,8|0,0:0|0:0,0:0:0:0:
288,324,39539,6,0,P|292:283|276:245,1,82.5000031471254,0|0,1:0|0:0,0:0:0:0:
417,281,39750,2,0,P|389:310|378:350,1,82.5000031471254,0|0,1:0|0:0,0:0:0:0:
359,204,39961,2,0,P|393:100|462:115,1,165.000006294251,8|0,0:0|0:0,0:0:0:0:
511,176,40278,2,0,P|500:221|496:280,1,82.5000031471254,0|0,1:0|0:0,0:0:0:0:
427,361,40489,1,2,1:0:0:0:
427,361,40595,2,0,P|422:320|412:280,1,82.5000031471254,0|0,1:0|0:0,0:0:0:0:
350,207,40806,2,0,P|300:206|268:185,1,82.5000031471254,8|0,0:0|0:0,0:0:0:0:
189,246,41018,2,0,P|164:202|167:163,1,82.5000031471254,8|0,0:0|0:0,0:0:0:0:
345,30,41229,6,0,B|366:67|366:67|347:108,1,82.5000031471254,0|0,1:0|0:0,0:0:0:0:
186,97,41440,2,0,L|295:77,1,82.5000031471254,0|0,1:0|0:0,0:0:0:0:
142,170,41651,2,0,B|33:178|102:97|-19:112,1,165.000006294251,8|0,0:0|0:0,0:0:0:0:
155,49,41968,2,0,P|214:43|262:7,1,82.5000031471254,0|0,1:0|0:0,0:0:0:0:
296,112,42179,1,2,1:0:0:0:
296,112,42285,2,0,P|355:118|403:154,1,82.5000031471254,0|0,1:0|0:0,0:0:0:0:
452,86,42496,2,0,B|473:45|473:45|452:-1,1,82.5000031471254,8|0,0:0|0:0,0:0:0:0:
296,112,42708,2,0,B|275:153|275:153|296:199,1,82.5000031471254,8|0,0:0|0:0,0:0:0:0:
354,315,42919,6,0,P|327:280|288:265,1,82.5000031471254,0|0,1:0|0:0,0:0:0:0:
210,207,43130,2,0,P|186:239|149:256,1,82.5000031471254,0|0,1:0|0:0,0:0:0:0:
73,379,43341,2,0,B|89:287|18:318|45:214,1,165.000006294251,8|0,0:0|0:0,0:0:0:0:
74,111,43658,2,0,P|100:153|164:161,1,82.5000031471254,4|0,1:0|0:0,0:0:0:0:
211,207,43870,1,8,0:0:0:0:
211,207,43975,2,0,P|237:165|301:157,1,82.5000031471254,0|0,1:0|0:0,0:0:0:0:
405,149,44187,5,8,0:0:0:0:
378,126,44292,1,8,0:0:0:0:
365,99,44398,1,8,0:0:0:0:
364,67,44503,1,8,0:0:0:0:
380,40,44609,2,0,L|373:170,1,110,14|0,0:1|0:0,0:0:0:0:
437,218,45032,1,8,0:0:0:0:
437,218,45243,1,0,1:0:0:0:
358,278,45454,2,0,B|314:290|314:290|297:310|297:310|232:326,1,110,2|0,1:0|0:0,0:0:0:0:
174,276,45877,5,8,0:0:0:0:
115,336,46088,1,0,1:0:0:0:
188,382,46299,2,0,P|182:294|198:196,1,165,0|0,1:0|1:0,0:0:0:0:
209,203,46722,1,8,0:0:0:0:
242,109,46933,1,0,1:0:0:0:
149,130,47144,2,0,P|85:142|71:209,1,110,2|0,1:0|0:0,0:0:0:0:
132,309,47567,5,8,0:0:0:0:
59,261,47778,1,0,1:0:0:0:
57,354,47989,2,0,B|156:364|113:285|224:307,1,165,0|0,1:0|0:0,0:0:0:0:
226,318,48412,1,8,0:0:0:0:
311,376,48623,1,0,1:0:0:0:
390,326,48834,2,0,L|409:198,1,110,2|0,1:0|1:0,0:0:0:0:
363,139,49257,1,8,0:0:0:0:
363,139,49468,1,0,1:0:0:0:
273,73,49679,6,0,L|295:274,1,165,0|2,1:0|1:0,0:0:0:0:
296,262,50102,1,8,0:0:0:0:
235,342,50313,1,0,1:0:0:0:
149,286,50525,2,0,L|156:172,1,110
142,76,50947,5,8,1:0:0:0:
75,151,51158,1,0,1:0:0:0:
170,170,51370,2,0,P|256:146|233:12,2,220,6|8|2,1:0|0:0|1:0,0:0:0:0:
108,118,52426,1,0,1:0:0:0:
33,176,52637,2,0,L|36:286,1,110,8|0,0:0|1:0,0:0:0:0:
79,356,53060,5,0,1:0:0:0:
164,340,53271,1,2,1:0:0:0:
284,254,53482,1,8,0:0:0:0:
199,237,53693,1,0,1:0:0:0:
349,361,53905,1,2,1:0:0:0:
349,361,54116,1,0,1:0:0:0:
349,361,54327,2,0,P|333:297|339:249,1,110,8|0,0:0|1:0,0:0:0:0:
509,228,54750,6,0,B|369:237|449:128|279:151,2,220,0|8|2,1:0|0:0|1:0,0:0:0:0:
333,253,55806,1,0,1:0:0:0:
414,306,56018,2,0,P|481:330|514:371,1,110,8|0,0:0|1:0,0:0:0:0:
340,364,56440,1,0,1:0:0:0:
255,347,56651,1,0,1:0:0:0:
197,216,56862,1,8,0:0:0:0:
282,199,57073,1,0,1:0:0:0:
167,379,57285,1,0,1:0:0:0:
151,294,57496,1,0,1:0:0:0:
378,121,57708,5,8,0:0:0:0:
379,145,57813,1,8,0:0:0:0:
378,163,57919,1,8,3:0:0:0:
378,185,58025,1,8,3:0:0:0:
377,205,58130,2,4,B|324:228|324:228|258:182,1,110,6|0,3:1|0:0,0:0:0:0:
168,158,58553,1,8,0:0:0:0:
110,221,58764,1,0,1:0:0:0:
197,248,58975,2,0,P|199:186|214:109,1,110,2|0,1:0|0:0,0:0:0:0:
150,16,59398,5,8,0:0:0:0:
88,73,59609,1,0,1:0:0:0:
23,20,59820,2,0,P|31:74|32:129,1,110,0|2,1:0|1:0,0:0:0:0:
98,203,60137,1,2,1:0:0:0:
98,203,60243,2,0,P|152:194|207:193,1,110,8|0,0:0|1:0,0:0:0:0:
312,152,60665,2,0,B|340:200|340:200|310:283,1,110,2|0,1:0|0:0,0:0:0:0:
258,376,61088,5,8,0:0:0:0:
343,339,61299,1,0,1:0:0:0:
258,376,61510,2,2,P|219:329|139:349,1,110,0|0,1:0|0:0,0:0:0:0:
3,322,61933,1,8,0:0:0:0:
89,351,62144,1,0,1:0:0:0:
76,255,62356,2,0,P|129:248|160:205,1,110,2|0,1:0|0:0,0:0:0:0:
143,48,62778,5,8,0:0:0:0:
107,137,62989,1,0,1:0:0:0:
202,118,63201,2,0,B|263:121|327:164,1,110,0|2,1:0|1:0,0:0:0:0:
422,236,63518,1,2,1:0:0:0:
422,236,63623,2,0,P|361:245|297:282,1,110,8|0,0:0|1:0,0:0:0:0:
225,293,64046,2,0,B|203:239|203:239|228:192,1,110,2|0,1:0|0:0,0:0:0:0:
317,97,64468,5,8,0:0:0:0:
221,114,64680,1,0,1:0:0:0:
146,52,64891,2,0,B|156:134|156:134|121:182|121:182|133:272,2,220,4|8|2,1:0|0:0|1:0,0:0:0:0:
62,112,65947,1,0,1:0:0:0:
211,214,66158,2,0,P|274:199|314:141,1,110,8|0,0:0|1:0,0:0:0:0:
371,20,66581,5,0,1:0:0:0:
299,80,66792,1,0,1:0:0:0:
390,112,67003,2,0,L|407:257,1,110,8|0,0:0|1:0,0:0:0:0:
269,280,67426,1,2,1:0:0:0:
360,304,67637,1,0,1:0:0:0:
269,280,67849,2,0,L|286:135,1,110,8|8,0:0|3:0,0:0:0:0:
218,105,68271,6,0,B|139:125|139:125|117:170|117:170|7:198,2,220,0|8|2,1:0|0:0|1:0,0:0:0:0:
281,170,69327,1,0,1:0:0:0:
339,103,69539,2,0,B|355:49|355:49|322:-14,1,110,8|0,0:0|1:0,0:0:0:0:
511,155,69961,6,0,P|508:189|492:214,1,55,12|0,0:0|0:0,0:0:0:0:
419,180,70172,2,0,P|422:146|438:121,1,55,12|0,0:0|0:0,0:0:0:0:
235,248,70384,6,0,P|238:289|258:319,1,71.4999967269899,12|0,0:0|0:0,0:0:0:0:
346,278,70595,2,0,P|342:236|322:206,1,71.4999967269899,12|0,0:0|0:0,0:0:0:0:
480,363,70806,5,8,0:0:0:0:
480,363,71018,5,8,0:0:0:0:
480,363,71229,5,8,0:0:0:0:
480,363,71440,5,8,0:0:0:0:
141,174,71651,6,12,B|223:232|223:232|296:200,1,165.000006294251,12|8,0:0|0:0,0:0:0:0:
353,136,71968,1,2,1:0:0:0:
353,136,72074,2,0,P|371:183|375:257,1,82.5000031471254,0|0,1:0|0:0,0:0:0:0:
480,219,72285,2,0,P|462:266|458:340,1,82.5000031471254,8|0,0:0|0:0,0:0:0:0:
264,325,72496,2,0,B|366:307|322:398|455:362,1,165.000006294251,2|8,1:0|0:0,0:0:0:0:
456,297,72813,1,2,1:0:0:0:
456,297,72919,2,0,P|463:256|479:218,1,82.5000031471254,0|0,1:0|0:0,0:0:0:0:
385,109,73130,2,0,P|396:148|398:189,1,82.5000031471254,8|0,0:0|0:0,0:0:0:0:
322,251,73341,6,0,P|249:193|162:215,1,165.000006294251,2|8,1:0|0:0,0:0:0:0:
84,250,73658,1,2,1:0:0:0:
84,250,73764,2,0,P|98:168|102:51,1,165.000006294251,0|8,1:0|0:0,0:0:0:0:
189,27,74081,1,0,0:0:0:0:
189,27,74187,2,0,B|252:36|252:36|270:65|270:65|376:87,1,165.000006294251,2|8,1:0|0:0,0:0:0:0:
451,121,74609,6,0,B|468:81|468:81|446:16,1,82.5000031471254,0|0,1:0|0:0,0:0:0:0:
326,165,74820,2,0,B|308:201|308:201|331:270,1,82.5000031471254,8|0,0:0|0:0,0:0:0:0:
501,311,75032,2,0,P|490:230|396:211,1,165.000006294251,2|8,1:0|0:0,0:0:0:0:
375,308,75349,1,2,1:0:0:0:
375,308,75454,2,0,B|294:342|294:342|193:283,1,165.000006294251,0|8,1:0|0:0,0:0:0:0:
166,201,75771,1,0,0:0:0:0:
166,201,75877,2,0,P|142:264|139:382,1,165.000006294251,2|8,1:0|0:0,0:0:0:0:
42,276,76194,1,2,1:0:0:0:
42,276,76299,2,0,P|50:229|24:167,1,82.5000031471254,0|0,1:0|0:0,0:0:0:0:
190,110,76510,2,0,P|149:118|109:110,1,82.5000031471254,8|0,0:0|0:0,0:0:0:0:
261,35,76722,6,0,P|277:72|285:133,1,82.5000031471254,2|0,1:0|0:0,0:0:0:0:
410,100,76933,2,0,P|395:137|357:186,1,82.5000031471254,8|0,0:0|0:0,0:0:0:0:
242,39,77144,2,0,P|258:76|266:137,1,82.5000031471254,0|0,1:0|0:0,0:0:0:0:
423,109,77355,2,8,P|408:146|379:192,1,82.5000031471254,8|0,0:0|0:0,0:0:0:0:
288,238,77567,5,0,1:0:0:0:
253,254,77672,1,0,1:0:0:0:
208,246,77778,1,8,0:0:0:0:
183,218,77883,1,0,1:0:0:0:
169,179,77989,5,0,1:0:0:0:
134,160,78094,1,8,1:0:0:0:
92,169,78200,1,8,0:0:0:0:
66,198,78305,1,8,0:0:0:0:
71,241,78412,6,0,B|82:179|82:179|56:143|56:143|64:54,1,165.000006294251,12|8,0:0|0:0,0:0:0:0:
137,27,78729,1,2,1:0:0:0:
137,27,78834,2,0,P|202:37|223:132,1,165.000006294251,0|8,1:0|0:0,0:0:0:0:
353,175,79151,1,0,1:0:0:0:
353,175,79257,2,0,B|235:172|320:247|170:245,1,165.000006294251,2|8,1:0|0:0,0:0:0:0:
112,233,79574,1,2,1:0:0:0:
111,232,79679,2,0,B|126:270|126:270|119:312,1,82.5000031471254,0|0,1:0|0:0,0:0:0:0:
209,167,79891,2,0,B|189:128|189:128|197:87,1,82.5000031471254,8|0,0:0|0:0,0:0:0:0:
349,107,80102,6,0,P|329:30|246:20,1,165.000006294251,2|8,1:0|0:0,0:0:0:0:
129,47,80420,1,2,1:0:0:0:
129,47,80525,2,0,B|100:127|100:127|152:229,1,165.000006294251,2|8,1:0|0:0,0:0:0:0:
259,248,80841,1,2,1:0:0:0:
259,248,80947,2,0,B|141:245|226:320|76:318,1,165.000006294251,2|8,1:0|0:0,0:0:0:0:
260,351,81370,6,0,P|300:356|333:379,1,82.5000031471254,0|0,1:0|1:0,0:0:0:0:
377,310,81581,2,0,P|417:304|450:281,1,82.5000031471254,8|0,0:0|1:0,0:0:0:0:
405,118,81792,2,0,B|356:105|356:105|383:228,1,165.000006294251,2|8,1:0|0:0,0:0:0:0:
377,310,82109,1,0,0:0:0:0:
377,310,82215,2,0,B|311:301|311:301|284:269|284:269|201:258,1,165.000006294251,2|8,1:0|0:0,0:0:0:0:
66,272,82531,1,2,1:0:0:0:
66,272,82637,2,0,P|152:212|123:137,1,165.000006294251,0|8,1:0|0:0,0:0:0:0:
88,43,82954,5,0,1:0:0:0:
135,18,83060,1,8,0:0:0:0:
189,26,83165,1,8,0:0:0:0:
231,62,83271,1,8,0:0:0:0:
286,77,83377,1,8,0:0:0:0:
334,51,83482,2,0,B|357:88|357:88|337:150,1,82.5000031471254,4|0,1:0|0:0,0:0:0:0:
445,235,83694,2,0,B|433:197|433:197|456:160,1,82.5000031471254,0|0,1:0|0:0,0:0:0:0:
348,238,83905,2,0,P|288:197|149:223,1,165.000006294251,8|0,0:0|0:0,0:0:0:0:
27,184,84222,6,0,L|20:93,1,82.5000031471254,0|0,1:0|0:0,0:0:0:0:
115,216,84433,1,2,1:0:0:0:
115,216,84539,2,0,L|108:307,1,82.5000031471254,0|0,1:0|0:0,0:0:0:0:
174,374,84750,2,0,P|213:352|279:364,1,82.5000031471254,8|0,1:0|0:0,0:0:0:0:
310,272,84961,2,0,P|349:294|415:282,1,82.5000031471254,8|0,0:0|0:0,0:0:0:0:
384,138,85172,6,0,B|360:173|360:173|372:241,1,82.5000031471254,0|0,1:0|0:0,0:0:0:0:
511,89,85384,2,0,P|449:77|429:47,1,82.5000031471254,0|0,1:0|0:0,0:0:0:0:
384,138,85595,2,8,B|293:119|334:200|227:186,1,165.000006294251,8|0,0:0|0:0,0:0:0:0:
144,193,85912,2,0,P|142:152|132:112,1,82.5000031471254,0|0,1:0|0:0,0:0:0:0:
247,12,86123,1,2,1:0:0:0:
247,12,86229,2,0,P|236:51|235:93,1,82.5000031471254,0|0,1:0|0:0,0:0:0:0:
338,250,86440,2,0,P|404:264|430:313,1,82.5000031471254,8|0,0:0|0:0,0:0:0:0:
315,152,86651,2,0,P|280:174|240:174,1,82.5000031471254,0|0,1:0|0:0,1:0:0:0:
144,277,86863,6,0,B|135:240|135:240|149:198,1,82.5000031471254,0|0,1:0|0:0,0:0:0:0:
285,335,87074,2,0,L|203:348,1,82.5000031471254,0|0,1:0|0:0,0:0:0:0:
24,380,87285,2,0,B|-12:287|82:309|35:183,1,165.000006294251,8|0,0:0|0:0,0:0:0:0:
75,108,87602,2,0,P|98:142|161:163,1,82.5000031471254,0|0,1:0|0:0,0:0:0:0:
199,235,87813,1,2,1:0:0:0:
199,235,87919,2,0,P|222:201|285:180,1,82.5000031471254,2|0,1:0|0:0,0:0:0:0:
440,118,88130,2,0,P|432:148|430:203,1,82.5000031471254,8|0,0:0|0:0,0:0:0:0:
348,298,88341,2,0,P|347:256|337:216,1,82.5000031471254,8|0,0:0|0:0,0:0:0:0:
262,66,88553,5,2,1:0:0:0:
135,117,88764,1,0,1:0:0:0:
166,42,88975,1,8,0:0:0:0:
225,165,89187,5,0,1:0:0:0:
233,190,89292,1,8,0:0:0:0:
44,249,89503,5,0,1:0:0:0:
52,224,89608,1,8,0:0:0:0:
143,350,89820,5,8,0:0:0:0:
202,330,89926,1,8,0:0:0:0:
264,339,90032,1,8,0:0:0:0:
322,311,90138,1,8,0:0:0:0:
377,315,90243,2,0,B|366:286|384:252|384:252|360:216|360:216|376:178|363:144,1,165.000006294251,12|0,0:0|0:0,0:0:0:0:
