osu file format v14

[General]
AudioFilename: audio.ogg
AudioLeadIn: 0
PreviewTime: 71651
Countdown: 0
SampleSet: None
StackLeniency: 0.7
Mode: 0
LetterboxInBreaks: 0
WidescreenStoryboard: 1

[Editor]
Bookmarks: 44670,46360,74987
DistanceSpacing: 1.3
BeatDivisor: 4
GridSize: 16
TimelineZoom: 1

[Metadata]
Title:Natsu Matsuri (TV Size)
TitleUnicode:夏祭り (TV Size)
Artist:Utsu-P & Minatsuki Toka
ArtistUnicode:鬱P & ミナツキトーカ
Creator:Yoko
Version:Hard
Source:Watashi ga Motenai no wa Dou Kangaete mo Omaera ga Warui!
Tags:Japanese jp vocaloid hatsune miku girl robot hanabi 花火 初音ミク cover rock jrock j-rock heavy metal whiteberry 私がモテないのはどう考えてもお前らが悪い! No Matter How I Look at It, It's You your Guys' Fault I'm Not Popular! watamote silver link ending 6th episode utsup depressionp depression-p
BeatmapID:2986325
BeatmapSetID:1311371

[Difficulty]
HPDrainRate:5
CircleSize:3.6
OverallDifficulty:6
ApproachRate:8
SliderMultiplier:1.6
SliderTickRate:1

[Events]
//Background and Video events
0,0,"BG.jpg",0,0
//Break Periods
//Storyboard Layer 0 (Background)
//Storyboard Layer 1 (Fail)
//Storyboard Layer 2 (Pass)
//Storyboard Layer 3 (Foreground)
//Storyboard Layer 4 (Overlay)
//Storyboard Sound Samples

[TimingPoints]
1450,800,4,2,2,10,1,0
14250,-100,4,2,2,15,0,0
27050,-100,4,2,2,25,0,0
33450,845.070422535211,4,2,2,15,1,0
34295,952.380952380952,4,2,2,15,1,0
34295,-133.333333333333,4,2,2,15,0,0
35247,1142.85714285714,4,2,2,10,1,0
35247,-250,4,2,2,10,0,0
36389,1250,4,2,2,30,1,0
37849,422.535211267606,4,2,1,60,1,1
44609,-100,4,2,1,60,0,0
71651,-76.9230769230769,4,2,1,60,0,1
90243,-100,4,2,1,60,0,1
90665,-76.9230769230769,4,2,1,60,0,0

[Colours]
Combo1 : 153,47,71
Combo2 : 43,59,136
Combo3 : 207,142,137
Combo4 : 147,163,225

[HitObjects]
68,35,1450,6,2,L|56:122,1,80,2|2,2:0|2:0,2:0:0:0:
116,188,2250,1,2,2:0:0:0:
116,188,2650,1,2,2:0:0:0:
188,113,3050,6,2,B|228:95|228:95|299:115,1,80,2|2,2:0|2:0,2:0:0:0:
328,171,3850,1,2,2:0:0:0:
328,171,4250,1,2,2:0:0:0:
405,106,4650,2,2,P|405:58|399:17,1,80,2|2,2:0|2:0,2:0:0:0:
498,131,5450,2,0,P|493:170|493:210,1,80,2|2,2:0|2:0,0:0:0:0:
474,313,6250,6,2,P|444:281|373:274,1,80,2|2,2:0|2:0,2:0:0:0:
341,321,7050,1,2,2:0:0:0:
341,321,7450,1,2,2:0:0:0:
332,204,7850,6,2,P|302:236|231:243,1,80,2|2,2:0|2:0,2:0:0:0:
197,189,8650,1,2,2:0:0:0:
197,189,9050,1,2,2:0:0:0:
124,250,9450,2,2,L|133:348,1,80,2|2,2:0|2:0,2:0:0:0:
205,384,10250,1,2,2:0:0:0:
205,384,10650,1,2,2:0:0:0:
282,311,11050,2,2,P|314:312|372:329,1,80,2|2,2:0|2:0,2:0:0:0:
253,226,11850,2,0,P|214:236|174:238,1,80,2|2,2:0|2:0,0:0:0:0:
91,201,12650,6,2,B|78:162|78:162|92:114,1,80,2|2,2:0|2:0,2:0:0:0:
234,14,13450,2,2,B|247:53|247:53|233:101,1,80,2|2,2:0|2:0,2:0:0:0:
185,171,14250,6,2,B|282:161|233:241|358:220,2,160,2|2|2,2:0|2:0|2:0,2:0:0:0:
62,99,16650,1,2,2:0:0:0:
44,188,17050,1,2,2:0:0:0:
44,188,17450,2,2,P|91:263|174:242,2,160,2|2|2,2:0|2:0|2:0,2:0:0:0:
144,76,19850,6,2,L|238:90,1,80,2|2,2:0|2:0,2:0:0:0:
308,31,20650,2,2,B|343:102|343:102|301:209,2,160,2|2|2,2:0|2:0|2:0,2:0:0:0:
220,189,23050,1,2,2:0:0:0:
139,202,23450,1,2,2:0:0:0:
57,220,23850,2,2,P|55:301|134:295,1,160,2|2,2:0|2:0,2:0:0:0:
291,280,25450,2,2,P|219:295|229:368,1,160,2|2,2:0|2:0,2:0:0:0:
291,277,27050,6,0,B|354:268|354:268|380:233|380:233|460:223,1,160,2|2,2:0|2:0,0:0:0:0:
503,132,28650,2,2,L|511:52,1,80,2|0,2:0|0:0,2:0:0:0:
379,5,29450,2,0,L|387:84,1,80,2|2,2:0|2:0,0:0:0:0:
308,170,30250,6,2,B|236:157|236:157|208:109|137:126,2,160,2|2|2,2:0|2:0|2:0,2:0:0:0:
284,273,32650,2,0,L|191:295,1,80,2|2,2:0|2:0,0:0:0:0:
92,311,33450,6,2,P|94:271|109:231,1,80,2|2,2:0|2:0,2:0:0:0:
43,175,34295,6,2,P|72:148|111:130,1,60.0000022888184,2|2,2:0|2:0,2:0:0:0:
88,46,35247,6,2,P|116:47|145:58,1,48,2|2,2:0|2:0,2:0:0:0:
256,192,36389,12,0,37639,0:0:0:0:
50,55,37849,6,0,P|101:59|135:54,1,80,4|0,1:0|1:0,0:0:0:0:
248,137,38271,2,0,P|208:132|168:137,1,80,8|0,0:0|0:0,0:0:0:0:
137,146,38588,2,0,L|156:259,1,80,0|2,1:0|1:0,0:0:0:0:
155,244,38905,1,0,1:0:0:0:
261,297,39116,2,0,L|241:183,1,80,8|8,0:0|0:0,0:0:0:0:
311,150,39539,5,0,1:0:0:0:
311,150,39750,1,0,1:0:0:0:
385,226,39961,2,0,P|433:239|473:278,1,80,8|0,0:0|0:0,0:0:0:0:
472,265,40278,2,0,L|492:151,1,80,0|2,1:0|1:0,0:0:0:0:
489,165,40595,1,0,1:0:0:0:
445,78,40806,2,0,P|404:91|359:100,1,80,8|8,0:0|0:0,0:0:0:0:
295,30,41229,5,0,1:0:0:0:
295,30,41440,1,0,1:0:0:0:
228,95,41651,2,0,P|224:146|229:180,1,80,8|0,0:0|0:0,0:0:0:0:
241,191,41968,2,0,L|355:211,1,80,0|2,1:0|1:0,0:0:0:0:
339,211,42285,1,0,1:0:0:0:
403,285,42496,2,0,P|403:327|354:355,1,80,8|8,0:0|0:0,0:0:0:0:
289,384,42919,5,0,1:0:0:0:
289,384,43130,1,0,1:0:0:0:
245,289,43341,2,0,L|166:275,1,80,8|0,0:0|0:0,0:0:0:0:
150,324,43658,2,0,P|88:324|43:342,1,80,4|8,1:0|0:0,0:0:0:0:
33,365,43975,1,0,1:0:0:0:
32,277,44187,5,8,0:0:0:0:
32,277,44292,1,8,0:0:0:0:
32,277,44398,1,8,0:0:0:0:
32,277,44503,1,8,0:0:0:0:
32,277,44609,2,0,P|57:185|125:194,1,160,14|8,0:1|0:0,0:0:0:0:
197,210,45243,1,0,1:0:0:0:
197,210,45454,2,0,L|177:96,1,80,2|0,1:0|0:0,0:0:0:0:
252,64,45877,5,8,0:0:0:0:
252,64,46088,1,0,1:0:0:0:
310,141,46299,2,0,L|290:255,1,80,0|2,1:0|1:0,0:0:0:0:
314,268,46616,1,0,1:0:0:0:
314,268,46722,2,0,B|349:288|349:288|410:267,1,80,8|0,0:0|1:0,0:0:0:0:
452,194,47144,1,2,1:0:0:0:
452,194,47356,1,0,0:0:0:0:
369,115,47567,6,0,L|355:193,1,80,8|0,0:0|1:0,0:0:0:0:
266,248,47989,2,0,P|246:254|246:367,1,160,0|8,1:0|0:0,0:0:0:0:
361,333,48623,1,0,1:0:0:0:
361,333,48834,2,0,P|412:329|446:334,1,80,2|0,1:0|1:0,0:0:0:0:
485,253,49257,1,8,0:0:0:0:
485,253,49468,1,0,1:0:0:0:
383,231,49679,6,0,P|380:192|387:152,1,80,0|2,1:0|1:0,0:0:0:0:
360,113,49996,1,2,1:0:0:0:
360,113,50102,2,0,P|321:116|281:109,1,80,8|0,0:0|1:0,0:0:0:0:
197,54,50525,1,0,1:0:0:0:
197,54,50736,1,0,1:0:0:0:
179,156,50947,2,0,P|126:155|79:146,1,80,8|0,1:0|1:0,0:0:0:0:
114,254,51370,6,0,P|51:258|21:361,2,160,6|8|2,1:0|0:0|1:0,0:0:0:0:
114,254,52426,1,0,1:0:0:0:
204,304,52637,2,0,L|217:225,1,80,8|0,0:0|1:0,0:0:0:0:
141,164,53060,2,0,L|127:85,2,80,0|2|8,1:0|1:0|0:0,0:0:0:0:
226,132,53694,1,0,1:0:0:0:
226,132,54116,1,0,1:0:0:0:
287,63,54327,2,0,P|326:72|378:73,1,80,8|0,0:0|1:0,0:0:0:0:
450,23,54750,6,0,B|483:97|483:97|428:200,2,160,0|8|2,1:0|0:0|1:0,0:0:0:0:
450,23,55806,1,0,1:0:0:0:
356,77,56018,2,0,P|362:114|369:182,1,80,8|0,0:0|1:0,0:0:0:0:
434,228,56440,2,0,P|428:265|421:333,2,80,0|0|8,1:0|1:0|0:0,0:0:0:0:
340,244,57074,1,0,1:0:0:0:
343,335,57285,2,0,P|303:328|263:324,1,80,0|0,1:0|1:0,0:0:0:0:
193,380,57707,5,8,0:0:0:0:
193,380,57813,1,8,0:0:0:0:
193,380,57919,1,8,3:0:0:0:
193,380,58024,1,8,3:0:0:0:
193,380,58130,2,4,P|153:303|208:237,1,160,6|8,3:1|0:0,0:0:0:0:
287,259,58764,1,0,1:0:0:0:
287,259,58975,2,0,L|274:180,1,80,2|0,1:0|0:0,0:0:0:0:
190,132,59398,1,8,0:0:0:0:
190,132,59609,1,0,1:0:0:0:
252,57,59820,6,0,P|300:57|340:99,1,80,0|2,1:0|1:0,0:0:0:0:
349,120,60137,1,2,1:0:0:0:
349,120,60243,2,0,L|337:211,1,80,8|0,0:0|1:0,0:0:0:0:
247,249,60665,1,2,1:0:0:0:
178,177,60877,1,0,0:0:0:0:
178,177,61088,2,0,P|173:130|183:90,1,80,8|0,0:0|1:0,0:0:0:0:
72,39,61510,6,2,P|86:117|75:195,1,160,0|8,1:0|0:0,0:0:0:0:
68,303,62144,1,0,1:0:0:0:
68,303,62356,2,0,P|114:274|162:273,1,80,2|0,1:0|0:0,0:0:0:0:
219,344,62778,1,8,0:0:0:0:
219,344,62989,1,0,1:0:0:0:
278,258,63201,6,0,L|264:180,1,80,0|2,1:0|1:0,0:0:0:0:
237,134,63518,1,2,1:0:0:0:
237,134,63623,2,0,P|192:122|155:165,1,80,8|0,0:0|1:0,0:0:0:0:
120,232,64046,1,2,1:0:0:0:
202,303,64257,1,0,0:0:0:0:
202,303,64468,2,0,P|250:316|301:317,1,80,8|0,0:0|1:0,0:0:0:0:
345,384,64891,6,0,B|442:394|393:314|518:335,2,160,4|8|2,1:0|0:0|1:0,0:0:0:0:
279,303,65947,1,0,1:0:0:0:
175,304,66158,2,0,P|170:345|175:400,1,80,8|0,0:0|1:0,0:0:0:0:
83,301,66581,2,0,P|87:261|85:221,1,80,0|0,1:0|1:0,0:0:0:0:
148,139,67003,2,0,P|178:135|237:176,1,80,8|0,0:0|1:0,0:0:0:0:
305,226,67426,1,2,1:0:0:0:
305,226,67637,1,0,1:0:0:0:
362,138,67849,6,0,L|346:51,1,80,8|8,0:0|3:0,0:0:0:0:
245,29,68271,2,0,P|179:51|78:57,2,160,0|8|2,1:0|0:0|1:0,0:0:0:0:
245,29,69327,1,0,1:0:0:0:
334,76,69539,2,0,B|346:116|346:116|316:172,1,80,8|0,0:0|1:0,0:0:0:0:
216,200,69961,2,0,P|268:225|281:275,2,80,12|12|12,0:0|0:0|0:0,0:0:0:0:
158,285,70595,1,12,0:0:0:0:
70,301,70806,5,8,0:0:0:0:
70,301,71018,1,8,0:0:0:0:
70,301,71229,1,8,0:0:0:0:
70,301,71440,1,8,0:0:0:0:
151,337,71651,6,12,B|171:287|171:287|131:203,1,103.999995239258,12|8,0:0|0:0,0:0:0:0:
28,191,72074,2,0,P|90:171|112:120,1,103.999995239258,0|8,1:0|0:0,0:0:0:0:
149,81,72391,1,0,1:0:0:0:
149,81,72496,2,0,P|180:121|230:131,1,103.999995239258,2|8,1:0|0:0,0:0:0:0:
335,50,72919,2,0,L|344:113,1,51.999997619629,0|0,1:0|0:0,0:0:0:0:
379,128,73130,2,0,L|370:191,1,51.999997619629,8|0,0:0|0:0,0:0:0:0:
393,262,73341,6,0,P|335:224|277:228,1,103.999995239258,2|8,1:0|0:0,0:0:0:0:
197,217,73764,2,0,L|213:326,1,103.999995239258,0|8,1:0|0:0,0:0:0:0:
378,364,74187,2,0,L|394:255,1,103.999995239258,2|8,1:0|0:0,0:0:0:0:
387,144,74609,5,0,1:0:0:0:
294,199,74820,1,8,0:0:0:0:
227,121,75032,2,0,B|216:70|216:70|251:2,1,103.999995239258,2|8,1:0|0:0,0:0:0:0:
351,43,75454,2,0,P|402:69|468:65,1,103.999995239258,0|8,1:0|0:0,0:0:0:0:
494,109,75771,1,0,1:0:0:0:
494,109,75877,2,0,L|483:231,1,103.999995239258,2|8,1:0|0:0,0:0:0:0:
454,298,76299,2,0,P|419:288|386:283,1,51.999997619629,0|0,1:0|0:0,0:0:0:0:
385,234,76510,2,0,P|350:244|317:249,1,51.999997619629,8|0,0:0|0:0,0:0:0:0:
269,310,76722,6,0,B|222:300|222:300|211:282|211:282|158:272,1,103.999995239258,2|8,1:0|0:0,0:0:0:0:
134,290,77039,2,0,P|135:258|145:171,1,103.999995239258
236,170,77356,1,8,0:0:0:0:
235,78,77567,1,0,1:0:0:0:
257,75,77672,1,0,1:0:0:0:
279,72,77778,1,8,0:0:0:0:
300,69,77884,1,0,1:0:0:0:
322,66,77989,2,0,P|319:84|321:154,2,51.999997619629,0|8|8,1:0|1:0|0:0,0:0:0:0:
415,86,78412,6,0,B|440:132|440:132|422:215,1,103.999995239258,12|8,0:0|0:0,0:0:0:0:
380,277,78834,2,0,P|327:240|252:258,1,103.999995239258,0|8,1:0|0:0,0:0:0:0:
256,147,79257,2,0,P|203:184|128:166,1,103.999995239258,2|8,1:0|0:0,0:0:0:0:
67,200,79679,1,0,1:0:0:0:
122,278,79891,1,8,0:0:0:0:
59,368,80102,2,0,P|110:357|180:348,1,103.999995239258,2|8,1:0|0:0,0:0:0:0:
238,262,80525,2,0,P|289:273|359:282,1,103.999995239258,2|8,1:0|0:0,0:0:0:0:
445,302,80947,5,2,1:0:0:0:
445,302,81053,1,0,1:0:0:0:
445,302,81158,2,0,P|464:245|426:187,1,103.999995239258,8|0,0:0|1:0,0:0:0:0:
361,185,81581,1,8,0:0:0:0:
382,92,81792,2,0,P|331:89|290:119,1,103.999995239258,2|8,1:0|0:0,0:0:0:0:
230,41,82215,2,0,P|179:43|138:13,1,103.999995239258,2|8,1:0|0:0,0:0:0:0:
29,28,82637,2,0,L|37:155,1,103.999995239258,0|8,1:0|0:0,0:0:0:0:
133,131,83060,5,8,0:0:0:0:
147,135,83165,1,8,0:0:0:0:
162,138,83271,1,8,0:0:0:0:
176,142,83377,1,8,0:0:0:0:
189,146,83482,2,0,L|181:273,1,103.999995239258,4|0,1:0|1:0,0:0:0:0:
215,359,83905,6,0,P|234:324|324:317,1,103.999995239258,8|0,0:0|0:0,0:0:0:0:
307,329,84222,2,0,B|368:341|368:341|384:373|384:373|477:391,1,155.999992858887,0|0,1:0|1:0,0:0:0:0:
511,319,84750,2,0,B|531:269|531:269|491:189,1,103.999995239258,8|8,1:0|0:0,0:0:0:0:
402,215,85172,2,0,B|356:205|356:205|338:186|338:186|283:173,1,103.999995239258,0|0,1:0|1:0,0:0:0:0:
200,166,85595,2,8,B|179:113|179:113|214:60,1,103.999995239258,8|0,0:0|0:0,0:0:0:0:
241,94,85912,2,0,B|352:99|276:25|422:43,1,155.999992858887,0|0,1:0|1:0,0:0:0:0:
470,90,86440,2,0,L|457:214,1,103.999995239258,8|0,0:0|1:0,0:0:0:0:
438,298,86863,6,0,B|397:262|397:262|330:282,1,103.999995239258,0|0,1:0|1:0,0:0:0:0:
252,311,87285,2,0,P|237:254|275:196,1,103.999995239258,8|0,0:0|0:0,0:0:0:0:
289,187,87602,2,0,B|193:184|260:117|149:122,1,155.999992858887,0|2,1:0|1:0,0:0:0:0:
49,150,88130,5,8,0:0:0:0:
98,243,88341,1,8,0:0:0:0:
45,339,88553,2,0,L|151:314,1,103.999995239258,2|0,1:0|1:0,0:0:0:0:
213,231,88975,2,0,L|319:256,1,103.999995239258,8|0,0:0|1:0,0:0:0:0:
329,289,89292,2,0,B|366:214|366:214|309:108,1,155.999992858887,8|8,0:0|0:0,0:0:0:0:
219,81,89820,5,8,0:0:0:0:
214,102,89926,1,8,0:0:0:0:
210,124,90032,1,8,0:0:0:0:
206,145,90137,1,8,0:0:0:0:
202,164,90243,2,0,B|213:193|195:227|195:227|219:263|219:263|203:301|216:335,1,160,12|0,0:0|0:0,0:0:0:0:
