osu file format v14

[General]
AudioFilename: audio.ogg
AudioLeadIn: 0
PreviewTime: 71651
Countdown: 0
SampleSet: Soft
StackLeniency: 0.2
Mode: 0
LetterboxInBreaks: 0
WidescreenStoryboard: 1

[Editor]
Bookmarks: 44670,46360,51642,74987
DistanceSpacing: 0.2
BeatDivisor: 4
GridSize: 4
TimelineZoom: 3.999998

[Metadata]
Title:Natsu Matsuri (TV Size)
TitleUnicode:夏祭り (TV Size)
Artist:Utsu-P & Minatsuki Toka
ArtistUnicode:鬱P & ミナツキトーカ
Creator:Yoko
Version:Expert
Source:Watashi ga Motenai no wa Dou Kangaete mo Omaera ga Warui!
Tags:Japanese jp vocaloid hatsune miku girl robot hanabi 花火 初音ミク cover rock jrock j-rock heavy metal whiteberry 私がモテないのはどう考えてもお前らが悪い! No Matter How I Look at It, It's You your Guys' Fault I'm Not Popular! watamote silver link ending 6th episode utsup depressionp depression-p
BeatmapID:2868033
BeatmapSetID:1311371

[Difficulty]
HPDrainRate:6
CircleSize:4.2
OverallDifficulty:8.8
ApproachRate:9.4
SliderMultiplier:2.2
SliderTickRate:1

[Events]
//Background and Video events
0,0,"BG.jpg",0,0
//Break Periods
//Storyboard Layer 0 (Background)
//Storyboard Layer 1 (Fail)
//Storyboard Layer 2 (Pass)
//Storyboard Layer 3 (Foreground)
//Storyboard Layer 4 (Overlay)
//Storyboard Sound Samples

[TimingPoints]
1450,800,4,2,2,10,1,0
1450,-200,4,2,2,10,0,0
14250,-200,4,2,2,15,0,0
27050,-200,4,2,2,25,0,0
33450,845.070422535211,4,2,2,15,1,0
34295,952.380952380952,4,2,2,15,1,0
34771,-133.333333333333,4,2,2,10,0,0
35247,1142.85714285714,4,2,2,10,1,0
35247,-500,4,2,2,10,0,0
36389,1250,4,2,2,30,1,0
37849,422.535211267606,4,2,1,60,1,1
37849,-66.6666666666667,4,2,1,60,0,1
44609,-125,4,2,1,60,0,0
51370,-100,4,2,1,60,0,0
51792,-125,4,2,1,60,0,0
54750,-100,4,2,1,60,0,0
55172,-125,4,2,1,60,0,0
58130,-100,4,2,1,60,0,0
59820,-125,4,2,1,60,0,0
60665,-100,4,2,1,60,0,0
63201,-125,4,2,1,60,0,0
64046,-100,4,2,1,60,0,0
65313,-125,4,2,1,60,0,0
68271,-100,4,2,1,60,0,0
68694,-125,4,2,1,60,0,0
69539,-100,4,2,1,60,0,0
69961,-66.6666666666667,4,2,1,60,0,0
70384,-58.8235294117647,4,2,1,60,0,0
71651,-57.1428571428571,4,2,1,60,0,1
83482,-66.6666666666667,4,2,1,60,0,1
90243,-100,4,2,1,60,0,1
90665,-66.6666666666667,4,2,1,60,0,0

[Colours]
Combo1 : 153,47,71
Combo2 : 43,59,136
Combo3 : 207,142,137
Combo4 : 147,163,225

[HitObjects]
56,31,1450,6,2,L|46:101,1,55,2|2,2:0|2:0,2:0:0:0:
65,109,2250,1,2,2:0:0:0:
65,109,2650,1,2,2:0:0:0:
146,176,3050,6,2,P|180:181|207:199,1,55,2|2,2:0|2:0,2:0:0:0:
212,268,3850,1,2,2:0:0:0:
212,268,4250,1,2,2:0:0:0:
352,205,4650,6,2,L|342:135,1,55,2|2,2:0|2:0,2:0:0:0:
294,72,5450,1,2,2:0:0:0:
266,147,5850,1,2,2:0:0:0:
471,251,6250,6,2,B|440:250|440:250|407:278,1,55,2|2,2:0|2:0,2:0:0:0:
367,329,7050,1,2,2:0:0:0:
288,312,7450,1,2,2:0:0:0:
200,346,7850,6,2,P|200:292|206:275,1,55,2|2,2:0|2:0,2:0:0:0:
255,224,8650,1,2,2:0:0:0:
255,224,9050,1,2,2:0:0:0:
177,155,9450,6,2,L|105:167,1,55,2|2,2:0|2:0,2:0:0:0:
38,217,10250,1,2,2:0:0:0:
114,249,10650,1,2,2:0:0:0:
28,362,11050,6,2,L|102:352,1,55,2|2,2:0|2:0,2:0:0:0:
162,314,11850,1,2,2:0:0:0:
248,335,12250,1,2,2:0:0:0:
469,363,12650,6,2,L|478:286,1,55,2|2,2:0|2:0,2:0:0:0:
368,229,13450,2,2,L|377:306,1,55,2|2,2:0|2:0,2:0:0:0:
285,171,14250,6,2,B|222:171|247:205|163:204,2,110,2|2|2,2:0|2:0|2:0,2:0:0:0:
341,110,16650,2,2,B|334:79|334:79|350:33,1,55,2|2,2:0|2:0,2:0:0:0:
488,107,17450,2,2,P|473:158|412:172,2,110,2|2|2,2:0|2:0|2:0,2:0:0:0:
322,208,19850,2,2,L|329:283,1,55,2|2,2:0|2:0,2:0:0:0:
251,325,20650,6,2,B|207:336|207:336|195:354|195:354|147:367,2,110,2|2|2,2:0|2:0|2:0,2:0:0:0:
396,298,23050,2,2,B|408:265|408:265|396:235,1,55,2|2,2:0|2:0,2:0:0:0:
285,197,23850,2,2,L|362:184,1,55,2|2,2:0|2:0,2:0:0:0:
209,99,24650,2,2,B|196:127|196:127|209:162,1,55,2|2,2:0|2:0,2:0:0:0:
149,264,25450,2,2,L|140:198,1,55,2|2,2:0|2:0,2:0:0:0:
14,167,26250,2,2,P|55:163|78:144,1,55,2|2,2:0|2:0,2:0:0:0:
138,79,27050,5,2,2:0:0:0:
209,55,27250,1,2,2:0:0:0:
275,80,27450,1,2,2:0:0:0:
321,139,27650,1,2,2:0:0:0:
396,130,27850,2,2,L|400:70,1,55,2|2,2:0|2:0,2:0:0:0:
321,139,28650,6,2,L|337:258,1,110,2|2,2:0|2:0,2:0:0:0:
259,345,29850,1,2,2:0:0:0:
176,305,30250,2,2,L|180:245,1,55,2|2,2:0|2:0,2:0:0:0:
270,180,31050,2,2,P|271:210|236:235,1,55,2|2,2:0|2:0,2:0:0:0:
94,277,31850,2,2,P|78:255|80:228,1,55,2|2,2:0|2:0,2:0:0:0:
172,264,32650,1,2,2:0:0:0:
204,337,33050,1,2,2:0:0:0:
239,206,33450,6,2,P|232:148|238:92,1,110,2|2,2:0|2:0,2:0:0:0:
285,27,34083,1,2,2:0:0:0:
339,86,34295,2,2,P|347:132|335:170,1,55,2|2,2:0|2:0,2:0:0:0:
381,209,34771,6,2,P|345:239|319:246,1,41.2500015735627,2|2,2:0|2:0,2:0:0:0:
295,302,35247,6,2,P|271:298|254:290,1,33,2|2,2:0|2:0,2:0:0:0:
256,192,36389,12,0,37639,0:0:0:0:
15,162,37849,6,0,P|-2:198|9:236,1,82.5000031471254,4|0,1:0|0:0,0:0:0:0:
181,326,38060,2,0,P|198:289|186:251,1,82.5000031471254,0|0,1:0|0:0,0:0:0:0:
113,181,38271,2,0,P|123:88|158:5,1,165.000006294251,8|0,0:0|0:0,0:0:0:0:
273,156,38588,2,0,B|232:176|232:176|190:161,1,82.5000031471254,0|0,1:0|0:0,0:0:0:0:
232,84,38799,1,2,1:0:0:0:
285,21,38905,2,0,B|319:8|319:8|360:28,1,82.5000031471254,0|0,1:0|0:0,0:0:0:0:
474,103,39116,2,0,P|432:104|388:121,1,82.5000031471254,8|0,0:0|0:0,0:0:0:0:
437,285,39327,2,0,L|451:197,1,82.5000031471254,8|0,0:0|0:0,0:0:0:0:
304,102,39539,6,0,B|292:143|292:143|322:205,1,82.5000031471254,0|0,1:0|0:0,0:0:0:0:
188,376,39750,2,0,B|200:335|200:335|170:273,1,82.5000031471254,0|0,1:0|0:0,0:0:0:0:
323,273,39961,2,0,B|265:263|265:263|231:224|231:224|148:210,1,165.000006294251,8|0,0:0|0:0,0:0:0:0:
6,263,40278,2,0,P|-1:210|3:156,1,82.5000031471254,0|0,1:0|0:0,0:0:0:0:
58,117,40489,1,2,1:0:0:0:
132,148,40595,2,0,P|139:95|135:41,1,82.5000031471254,0|0,1:0|0:0,0:0:0:0:
298,20,40806,2,0,P|256:20|216:13,1,82.5000031471254,8|0,0:0|0:0,0:0:0:0:
326,99,41018,2,0,P|366:92|407:92,1,82.5000031471254,8|0,0:0|0:0,0:0:0:0:
248,104,41229,6,0,B|230:141|230:141|259:212,1,82.5000031471254,0|0,1:0|0:0,0:0:0:0:
480,125,41440,2,0,B|498:88|498:88|469:17,1,82.5000031471254,0|0,1:0|0:0,0:0:0:0:
373,68,41651,2,0,P|363:109|375:297,1,165.000006294251,8|0,0:0|0:0,0:0:0:0:
356,343,41968,2,0,P|332:317|266:306,1,82.5000031471254,0|0,1:0|0:0,0:0:0:0:
207,340,42179,1,2,1:0:0:0:
196,229,42285,2,0,P|172:255|106:266,1,82.5000031471254,0|0,1:0|0:0,0:0:0:0:
40,206,42496,2,0,L|29:310,1,82.5000031471254,8|0,0:0|0:0,0:0:0:0:
25,116,42707,2,0,B|66:107|66:107|126:149,1,82.5000031471254,8|0,0:0|0:0,0:0:0:0:
220,165,42919,6,0,P|194:133|191:92,1,82.5000031471254,0|0,1:0|0:0,0:0:0:0:
389,129,43130,2,0,P|385:169|360:201,1,82.5000031471254,0|0,1:0|0:0,0:0:0:0:
210,247,43341,2,0,P|159:273|135:394,1,165.000006294251,8|0,0:0|0:0,0:0:0:0:
284,330,43658,2,0,L|296:230,1,82.5000031471254,4|0,1:0|0:0,0:0:0:0:
324,166,43870,1,8,0:0:0:0:
246,176,43975,2,0,P|226:143|228:94,1,82.5000031471254,0|0,1:0|0:0,0:0:0:0:
430,36,44187,5,8,0:0:0:0:
490,97,44292,1,8,0:0:0:0:
419,154,44398,1,8,0:0:0:0:
449,216,44503,1,8,0:0:0:0:
424,242,44609,6,0,B|378:224|329:261|363:272|343:321|267:309,1,176,14|8,0:1|0:0,0:0:0:0:
273,182,45243,1,0,1:0:0:0:
190,375,45454,2,0,L|165:238,1,132,2|0,1:0|0:0,0:0:0:0:
151,275,45877,1,8,0:0:0:0:
282,90,46088,1,0,1:0:0:0:
188,101,46299,2,0,P|170:139|189:177,1,88,0|2,1:0|1:0,0:0:0:0:
291,255,46616,1,0,1:0:0:0:
291,255,46722,2,0,P|333:251|356:215,1,88,8|0,0:0|1:0,0:0:0:0:
248,172,47144,6,0,L|223:332,1,132,2|0,1:0|0:0,0:0:0:0:
241,322,47567,1,8,0:0:0:0:
153,230,47778,1,0,1:0:0:0:
268,157,47989,2,0,B|332:169|332:169|354:216|354:216|446:235,1,176,0|8,1:0|0:0,0:0:0:0:
506,200,48623,1,0,1:0:0:0:
442,44,48834,2,0,L|421:157,1,88,2|0,1:0|1:0,0:0:0:0:
384,244,49257,5,8,0:0:0:0:
288,273,49468,1,0,1:0:0:0:
184,298,49679,2,0,P|187:242|239:224,1,88,0|2,1:0|1:0,0:0:0:0:
323,156,49996,1,2,1:0:0:0:
323,156,50102,2,0,P|353:185|349:228,1,88,8|0,0:0|1:0,0:0:0:0:
285,292,50525,2,0,P|266:198|244:100,1,176,0|8,0:0|1:0,0:0:0:0:
272,142,51158,5,0,1:0:0:0:
87,253,51370,2,0,B|133:249|177:285|131:307|158:338|224:345,1,165,6|0,1:0|0:0,0:0:0:0:
263,198,51792,2,0,P|305:210|349:213,1,88,8|0,0:0|1:0,0:0:0:0:
304,373,52215,2,0,B|325:333|325:333|298:281,1,88,2|0,1:0|1:0,0:0:0:0:
225,267,52637,5,8,0:0:0:0:
225,267,52849,1,0,1:0:0:0:
304,252,53060,5,0,1:0:0:0:
209,342,53271,1,2,1:0:0:0:
110,269,53482,1,8,0:0:0:0:
205,180,53693,1,0,1:0:0:0:
191,252,53905,5,2,1:0:0:0:
191,252,54117,1,0,1:0:0:0:
287,141,54327,2,0,P|306:184|276:229,1,88,8|0,0:0|1:0,0:0:0:0:
175,73,54750,2,0,P|262:63|346:36,1,165,0|0,1:0|0:0,0:0:0:0:
369,154,55172,2,0,P|411:164|451:192,1,88,8|0,0:0|1:0,0:0:0:0:
441,0,55595,2,0,B|455:44|455:44|433:79,1,88,2|0,1:0|1:0,0:0:0:0:
247,164,56018,5,8,0:0:0:0:
247,164,56229,1,0,1:0:0:0:
274,83,56440,5,0,1:0:0:0:
356,177,56651,1,0,1:0:0:0:
249,246,56862,1,8,0:0:0:0:
172,148,57073,1,0,1:0:0:0:
185,144,57179,1,0,1:0:0:0:
180,157,57285,1,0,1:0:0:0:
98,248,57496,1,0,1:0:0:0:
18,150,57708,1,8,0:0:0:0:
33,126,57813,1,8,0:0:0:0:
44,103,57919,1,8,3:0:0:0:
59,75,58025,1,8,3:0:0:0:
73,50,58130,6,4,B|133:60|133:60|162:99|162:99|255:122,1,165,6|0,3:1|0:0,0:0:0:0:
182,124,58553,1,8,0:0:0:0:
302,11,58764,1,0,1:0:0:0:
433,89,58975,2,0,P|361:125|332:223,1,165,2|0,1:0|0:0,0:0:0:0:
341,222,59398,1,8,0:0:0:0:
397,303,59609,1,0,1:0:0:0:
472,245,59820,2,0,P|478:196|417:186,1,88,0|2,1:0|1:0,0:0:0:0:
269,117,60137,1,2,1:0:0:0:
269,117,60243,2,0,P|234:142|244:184,1,88,8|0,0:0|1:0,0:0:0:0:
339,269,60665,6,0,P|359:165|398:65,1,165,2|0,1:0|0:0,0:0:0:0:
402,87,61088,5,8,0:0:0:0:
266,225,61299,1,0,1:0:0:0:
472,294,61510,2,2,B|370:295|439:360|340:373,1,165,0|0,1:0|0:0,0:0:0:0:
386,384,61933,1,8,0:0:0:0:
274,275,62144,1,0,1:0:0:0:
146,362,62356,6,0,B|153:278|190:183,1,165,2|0,1:0|0:0,0:0:0:0:
182,201,62778,1,8,0:0:0:0:
12,239,62989,1,0,1:0:0:0:
17,256,63095,1,0,1:0:0:0:
22,270,63201,2,0,P|79:258|89:216,1,88,0|2,1:0|1:0,0:0:0:0:
223,97,63518,1,2,1:0:0:0:
223,97,63623,2,0,P|198:62|155:62,1,88,8|0,0:0|1:0,0:0:0:0:
92,142,64046,6,0,B|139:154|139:154|179:210|179:210|247:231,1,165,2|0,1:0|0:0,0:0:0:0:
243,204,64468,1,8,0:0:0:0:
354,322,64679,1,0,1:0:0:0:
487,234,64891,2,0,B|511:147|511:147|468:50,1,165,4|0,1:0|0:0,0:0:0:0:
322,201,65313,2,0,P|371:210|416:159,1,88,8|0,0:0|1:0,0:0:0:0:
325,57,65736,2,0,P|285:30|238:41,1,88,2|0,1:0|1:0,0:0:0:0:
190,174,66158,1,8,0:0:0:0:
190,174,66370,1,0,1:0:0:0:
135,89,66581,5,0,1:0:0:0:
32,206,66792,1,0,1:0:0:0:
200,277,67003,1,8,0:0:0:0:
287,157,67215,1,0,1:0:0:0:
190,174,67426,5,2,1:0:0:0:
358,245,67637,1,0,1:0:0:0:
437,108,67849,1,8,0:0:0:0:
407,95,67954,1,8,0:0:0:0:
377,83,68060,1,8,3:0:0:0:
350,73,68166,1,8,3:0:0:0:
321,63,68271,2,0,P|298:123|298:262,1,165,0|0,1:0|0:0,0:0:0:0:
157,254,68694,2,0,P|163:212|198:188,1,88,8|0,0:0|1:0,0:0:0:0:
438,146,69116,2,0,P|431:104|396:80,1,88,2|0,1:0|1:0,0:0:0:0:
200,51,69539,6,0,L|193:115,1,55,8|0,0:0|0:0,0:0:0:0:
274,117,69750,2,0,L|279:62,1,55,0|0,1:0|0:0,0:0:0:0:
99,196,69961,6,0,P|90:243|132:296,1,82.5000031471254,12|0,0:0|0:0,0:0:0:0:
212,259,70172,2,0,P|224:211|179:159,1,82.5000031471254,12|0,0:0|0:0,0:0:0:0:
320,56,70384,6,0,P|329:103|287:156,1,93.500001783371,12|0,0:0|0:0,0:0:0:0:
142,119,70595,2,0,P|130:71|175:19,1,93.500001783371,12|0,0:0|0:0,0:0:0:0:
487,32,70806,5,8,0:0:0:0:
487,32,71018,5,8,0:0:0:0:
487,32,71229,5,8,0:0:0:0:
487,32,71440,5,8,0:0:0:0:
94,91,71651,6,12,B|162:98|162:98|194:141|194:141|301:156,1,192.500001835823,12|8,0:0|0:0,0:0:0:0:
173,232,71968,1,2,1:0:0:0:
107,176,72074,2,0,B|55:176|55:176|4:234,1,96.2500009179115,0|0,1:0|0:0,0:0:0:0:
88,370,72285,2,0,L|92:253,1,96.2500009179115,8|0,0:0|0:0,0:0:0:0:
272,115,72496,2,0,P|254:199|247:330,1,192.500001835823,2|8,1:0|0:0,0:0:0:0:
379,186,72813,1,2,1:0:0:0:
419,269,72919,2,0,B|379:299|379:299|321:279,1,96.2500009179115,0|0,1:0|0:0,0:0:0:0:
419,108,73130,2,0,B|462:92|462:92|502:122,1,96.2500009179115,8|0,0:0|0:0,0:0:0:0:
510,218,73341,6,0,P|441:187|307:220,1,192.500001835823,2|8,1:0|0:0,0:0:0:0:
240,225,73658,1,2,1:0:0:0:
322,220,73764,2,0,P|344:163|317:93,1,96.2500009179115,0|0,1:0|0:0,0:0:0:0:
153,51,73975,2,0,P|149:98|170:141,1,96.2500009179115,8|0,0:0|0:0,0:0:0:0:
224,326,74187,2,0,L|258:81,1,192.500001835823,2|8,1:0|0:0,0:0:0:0:
153,51,74503,1,2,1:0:0:0:
77,106,74609,2,0,L|93:203,1,96.2500009179115,0|0,1:0|0:0,0:0:0:0:
152,272,74820,2,0,B|111:298|111:298|33:283,1,96.2500009179115,8|0,0:0|0:0,0:0:0:0:
213,202,75032,6,0,B|324:174|267:300|414:253,1,192.500001835823,2|8,1:0|0:0,0:0:0:0:
452,209,75349,1,2,1:0:0:0:
390,250,75454,2,0,L|373:344,1,96.2500009179115,0|0,1:0|0:0,0:0:0:0:
246,384,75665,2,0,L|225:263,1,96.2500009179115,8|0,0:0|0:0,0:0:0:0:
85,213,75877,2,0,P|193:200|207:101,1,192.500001835823,2|8,1:0|0:0,0:0:0:0:
138,120,76194,1,2,1:0:0:0:
190,43,76299,2,0,P|133:39|74:45,1,96.2500009179115,0|0,1:0|0:0,0:0:0:0:
278,75,76510,2,0,P|326:77|373:73,1,96.2500009179115,8|0,0:0|0:0,0:0:0:0:
475,107,76722,6,0,L|463:220,1,96.2500009179115,2|0,1:0|0:0,0:0:0:0:
334,346,76933,2,0,L|322:233,1,96.2500009179115,8|0,0:0|0:0,0:0:0:0:
512,289,77144,2,0,B|466:300|466:300|396:264,1,96.2500009179115,0|0,1:0|0:0,0:0:0:0:
285,157,77356,2,8,B|331:146|331:146|401:182,1,96.2500009179115,8|0,0:0|0:0,0:0:0:0:
228,264,77567,5,0,1:0:0:0:
251,292,77672,1,0,1:0:0:0:
192,369,77778,5,8,0:0:0:0:
217,297,77884,1,0,1:0:0:0:
271,247,77989,1,0,1:0:0:0:
347,246,78095,1,8,1:0:0:0:
408,301,78201,1,8,0:0:0:0:
481,241,78306,1,8,0:0:0:0:
430,147,78412,6,0,B|460:237|460:237|418:350,1,192.500001835823,12|8,0:0|0:0,0:0:0:0:
311,279,78729,1,2,1:0:0:0:
260,200,78834,2,0,P|304:171|351:179,1,96.2500009179115,0|0,1:0|0:0,0:0:0:0:
272,360,79046,2,0,P|224:363|178:321,1,96.2500009179115,8|0,0:0|1:0,0:0:0:0:
19,279,79257,6,0,B|87:272|87:272|117:227|117:227|226:214,1,192.500001835823,2|8,1:0|0:0,0:0:0:0:
257,258,79574,1,2,1:0:0:0:
185,226,79679,2,0,P|196:170|194:100,1,96.2500009179115,0|0,1:0|0:0,0:0:0:0:
2,96,79891,2,0,P|3:144|14:191,1,96.2500009179115,8|0,0:0|0:0,0:0:0:0:
92,354,80102,6,0,L|110:110,1,192.500001835823,2|8,1:0|0:0,0:0:0:0:
189,136,80419,1,2,1:0:0:0:
168,54,80525,2,0,P|267:71|288:160,1,192.500001835823,2|8,1:0|0:0,0:0:0:0:
373,292,80841,1,2,1:0:0:0:
398,208,80947,2,0,B|267:201|347:280|203:284,1,192.500001835823,2|8,1:0|0:0,0:0:0:0:
70,321,81264,5,0,1:0:0:0:
65,372,81370,5,0,1:0:0:0:
129,307,81475,1,0,1:0:0:0:
45,252,81581,1,8,0:0:0:0:
78,192,81686,1,0,1:0:0:0:
63,158,81792,6,0,B|46:203|46:203|64:278,1,96.2500009179115,2|0,1:0|0:0,0:0:0:0:
230,358,82003,2,0,B|241:311|241:311|224:266,1,96.2500009179115,8|0,0:0|0:0,0:0:0:0:
148,62,82215,2,0,P|196:176|252:164,1,192.500001835823,2|8,1:0|0:0,0:0:0:0:
316,117,82532,1,2,1:0:0:0:
374,190,82637,5,0,1:0:0:0:
329,121,82743,1,0,1:0:0:0:
393,71,82848,1,8,0:0:0:0:
448,144,82954,1,0,1:0:0:0:
352,150,83060,5,8,0:0:0:0:
283,209,83165,1,8,0:0:0:0:
182,193,83271,1,8,0:0:0:0:
149,92,83377,1,8,0:0:0:0:
240,0,83482,6,0,P|258:37|245:75,1,82.5000031471254,4|0,1:0|0:0,0:0:0:0:
78,87,83693,2,0,P|61:50|73:12,1,82.5000031471254,0|0,1:0|0:0,0:0:0:0:
165,121,83904,2,0,B|132:225|213:180|182:287,1,165.000006294251,8|0,0:0|0:0,0:0:0:0:
78,335,84222,2,0,P|76:293|117:261,1,82.5000031471254,0|0,1:0|0:0,0:0:0:0:
191,300,84433,1,2,1:0:0:0:
263,227,84539,2,0,P|290:256|288:297,1,82.5000031471254,0|0,1:0|0:0,0:0:0:0:
391,361,84750,2,0,L|398:278,1,82.5000031471254,8|0,1:0|0:0,0:0:0:0:
444,192,84961,2,0,B|407:170|407:170|350:186,1,82.5000031471254,8|0,0:0|0:0,0:0:0:0:
167,152,85172,6,0,P|170:194|162:234,1,82.5000031471254,0|0,1:0|0:0,0:0:0:0:
263,125,85384,2,0,P|260:82|268:43,1,82.5000031471254,0|0,1:0|0:0,0:0:0:0:
253,214,85595,2,8,P|334:218|400:265,1,165.000006294251,8|0,0:0|0:0,0:0:0:0:
487,284,85912,2,0,L|498:202,1,82.5000031471254,0|0,1:0|0:0,0:0:0:0:
457,26,86123,1,2,1:0:0:0:
376,70,86229,2,0,L|387:151,1,82.5000031471254,0|0,1:0|0:0,0:0:0:0:
354,325,86440,2,0,P|320:322|263:257,1,82.5000031471254,8|0,0:0|0:0,0:0:0:0:
177,316,86651,2,0,P|162:285|190:203,1,82.5000031471254,0|0,1:0|0:0,1:0:0:0:
306,170,86863,6,0,L|213:153,1,82.5000031471254,0|0,1:0|0:0,0:0:0:0:
423,384,87074,2,0,L|440:291,1,82.5000031471254,0|0,1:0|0:0,0:0:0:0:
455,204,87285,2,0,B|395:214|395:214|366:254|366:254|284:269,1,165.000006294251,8|0,0:0|0:0,0:0:0:0:
245,337,87602,2,0,P|235:314|148:293,1,82.5000031471254,0|0,1:0|0:0,0:0:0:0:
119,329,87813,1,2,1:0:0:0:
97,210,87919,2,0,P|87:233|0:254,1,82.5000031471254,2|0,1:0|0:0,0:0:0:0:
88,107,88130,6,0,P|133:114|183:151,1,82.5000031471254,8|0,0:0|0:0,0:0:0:0:
302,182,88341,2,0,P|257:189|207:226,1,82.5000031471254,8|0,0:0|0:0,0:0:0:0:
179,313,88553,5,2,1:0:0:0:
337,314,88764,1,0,1:0:0:0:
261,384,88975,5,8,0:0:0:0:
166,200,89187,1,0,1:0:0:0:
152,163,89292,1,8,0:0:0:0:
368,167,89503,1,0,1:0:0:0:
354,204,89608,1,8,0:0:0:0:
242,61,89820,5,8,0:0:0:0:
299,142,89926,1,8,0:0:0:0:
234,201,90032,1,8,0:0:0:0:
272,236,90137,1,8,0:0:0:0:
254,264,90243,2,0,B|239:202|278:182|278:182|245:139|245:139|282:105|265:37,1,220,12|0,0:0|0:0,0:0:0:0:
