osu file format v14

[General]
AudioFilename: audio.ogg
AudioLeadIn: 0
PreviewTime: 141919
Countdown: 0
SampleSet: Soft
StackLeniency: 0.7
Mode: 3
LetterboxInBreaks: 0
SpecialStyle: 0
WidescreenStoryboard: 1

[Editor]
DistanceSpacing: 1
BeatDivisor: 2
GridSize: 16
TimelineZoom: 1.7

[Metadata]
Title:Hujan
TitleUnicode:Hujan
Artist:Utopia
ArtistUnicode:Utopia
Creator:Mirsaaa
Version:Susah // Kenangan
Source:
Tags:Bahasa Indonesia Indonesian Pop Rock 2007 2008 lagu lama lawas bawa perasaan mantan Bahagia Sedih Chill Song Rain Ame 雨 あめ Pia Ganteng Ganteng Serigala Ggs Kenangan Masa SMA OST. Cintapuccino
BeatmapID:4205718
BeatmapSetID:2019229

[Difficulty]
HPDrainRate:8
CircleSize:4
OverallDifficulty:8
ApproachRate:5
SliderMultiplier:1.4
SliderTickRate:1

[Events]
//Background and Video events
0,0,"Begehhhhh.jpg",0,0
//Break Periods
//Storyboard Layer 0 (Background)
//Storyboard Layer 1 (Fail)
//Storyboard Layer 2 (Pass)
//Storyboard Layer 3 (Foreground)
//Storyboard Layer 4 (Overlay)
//Storyboard Sound Samples
Sample,98470,0,"Hat open.wav",25
Sample,101781,0,"Hat open.wav",25
Sample,105091,0,"Hat open.wav",25
Sample,108401,0,"Hat open.wav",25
Sample,111712,0,"Hat open.wav",25
Sample,115022,0,"Hat open.wav",25
Sample,118332,0,"Hat open.wav",25

[TimingPoints]
2057,413.793103448276,4,2,1,50,1,0
142746,-100,4,2,1,50,0,1
159298,-100,4,2,1,50,0,0
202332,-100,4,2,1,50,0,1
216815,-100,4,2,1,50,0,0

[HitObjects]
320,192,2057,1,0,0:0:0:0:
192,192,2263,1,0,0:0:0:0:
64,192,2470,1,0,0:0:0:0:
448,192,2677,128,0,3091:0:0:0:0:
192,192,3091,1,0,0:0:0:0:
64,192,3298,1,0,0:0:0:0:
448,192,3505,128,0,3919:0:0:0:0:
192,192,3919,1,0,0:0:0:0:
64,192,4125,1,0,0:0:0:0:
448,192,4332,128,0,4746:0:0:0:0:
192,192,4746,1,0,0:0:0:0:
64,192,4953,1,0,0:0:0:0:
320,192,5160,1,0,0:0:0:0:
192,192,5367,1,0,0:0:0:0:
448,192,5574,1,0,0:0:0:0:
64,192,5781,1,0,0:0:0:0:
320,192,5988,128,0,6401:0:0:0:0:
448,192,6401,1,0,0:0:0:0:
64,192,6608,1,0,0:0:0:0:
320,192,6815,128,0,7229:0:0:0:0:
448,192,7229,1,0,0:0:0:0:
64,192,7436,1,0,0:0:0:0:
320,192,7643,128,0,8057:0:0:0:0:
448,192,8057,1,0,0:0:0:0:
64,192,8263,1,0,0:0:0:0:
320,192,8470,1,0,0:0:0:0:
192,192,8677,1,0,0:0:0:0:
320,192,8884,1,0,0:0:0:0:
448,192,9091,1,0,0:0:0:0:
64,192,9298,128,0,9712:0:0:0:0:
320,192,9712,1,0,0:0:0:0:
448,192,9919,1,0,0:0:0:0:
64,192,10125,128,0,10539:0:0:0:0:
320,192,10539,1,0,0:0:0:0:
448,192,10746,1,0,0:0:0:0:
64,192,10953,128,0,11367:0:0:0:0:
320,192,11367,1,0,0:0:0:0:
448,192,11574,1,0,0:0:0:0:
192,192,11781,1,0,0:0:0:0:
64,192,11988,1,0,0:0:0:0:
448,192,12194,1,0,0:0:0:0:
320,192,12401,1,0,0:0:0:0:
192,192,12608,128,0,13022:0:0:0:0:
448,192,13022,1,0,0:0:0:0:
320,192,13229,1,0,0:0:0:0:
192,192,13436,128,0,13850:0:0:0:0:
448,192,13850,1,0,0:0:0:0:
320,192,14057,1,0,0:0:0:0:
192,192,14263,128,0,14677:0:0:0:0:
64,192,14677,1,0,0:0:0:0:
320,192,14884,1,0,0:0:0:0:
448,192,15091,1,0,0:0:0:0:
320,192,15298,1,0,0:0:0:0:
192,192,15505,1,0,0:0:0:0:
64,192,15712,1,0,0:0:0:0:
448,192,15919,128,0,16332:0:0:0:0:
192,192,16332,1,0,0:0:0:0:
64,192,16539,1,0,0:0:0:0:
448,192,16746,128,0,17160:0:0:0:0:
192,192,17160,1,0,0:0:0:0:
64,192,17367,1,0,0:0:0:0:
448,192,17574,128,0,17988:0:0:0:0:
192,192,17988,1,0,0:0:0:0:
64,192,18194,1,0,0:0:0:0:
320,192,18401,1,0,0:0:0:0:
192,192,18608,1,0,0:0:0:0:
448,192,18815,1,0,0:0:0:0:
64,192,19022,1,0,0:0:0:0:
320,192,19229,128,0,19643:0:0:0:0:
448,192,19643,1,0,0:0:0:0:
64,192,19850,1,0,0:0:0:0:
320,192,20057,128,0,20470:0:0:0:0:
448,192,20470,1,0,0:0:0:0:
64,192,20677,1,0,0:0:0:0:
320,192,20884,128,0,21298:0:0:0:0:
448,192,21298,1,0,0:0:0:0:
64,192,21505,1,0,0:0:0:0:
320,192,21712,1,0,0:0:0:0:
192,192,21919,1,0,0:0:0:0:
320,192,22125,1,0,0:0:0:0:
448,192,22332,1,0,0:0:0:0:
64,192,22539,128,0,22953:0:0:0:0:
320,192,22953,1,0,0:0:0:0:
448,192,23160,1,0,0:0:0:0:
64,192,23367,128,0,23781:0:0:0:0:
320,192,23781,1,0,0:0:0:0:
448,192,23988,1,0,0:0:0:0:
64,192,24194,128,0,24608:0:0:0:0:
320,192,24608,1,0,0:0:0:0:
448,192,24815,1,0,0:0:0:0:
192,192,25022,1,0,0:0:0:0:
64,192,25229,1,0,0:0:0:0:
448,192,25436,1,0,0:0:0:0:
320,192,25643,1,0,0:0:0:0:
192,192,25850,128,0,26263:0:0:0:0:
448,192,26263,1,0,0:0:0:0:
320,192,26470,1,0,0:0:0:0:
64,192,26677,128,0,27091:0:0:0:0:
448,192,27091,1,0,0:0:0:0:
320,192,27298,1,0,0:0:0:0:
192,192,27505,128,0,29367:0:0:0:0:
64,192,30194,1,2,0:0:0:0:
320,192,30194,1,4,0:0:0:0:
448,192,30194,128,0,30608:0:0:0:0:
64,192,30608,1,8,0:0:0:0:
192,192,30608,1,0,0:0:0:0:
320,192,31022,1,2,0:0:0:0:
448,192,31022,1,0,0:0:0:0:
64,192,31229,1,2,0:0:0:0:
192,192,31229,1,0,0:0:0:0:
320,192,31436,1,8,0:0:0:0:
448,192,31436,1,0,0:0:0:0:
64,192,31643,128,2,32057:0:0:0:0:
192,192,31643,1,0,0:0:0:0:
448,192,31850,1,0,0:0:0:0:
192,192,32057,1,2,0:0:0:0:
320,192,32057,1,0,0:0:0:0:
64,192,32263,1,8,0:0:0:0:
448,192,32263,1,0,0:0:0:0:
320,192,32470,1,0,0:0:0:0:
64,192,32677,1,2,0:0:0:0:
192,192,32677,1,0,0:0:0:0:
320,192,32884,1,2,0:0:0:0:
448,192,32884,1,0,0:0:0:0:
64,192,33091,1,8,0:0:0:0:
192,192,33091,1,0,0:0:0:0:
320,192,33298,1,2,0:0:0:0:
448,192,33298,1,0,0:0:0:0:
320,192,33505,1,2,0:0:0:0:
448,192,33505,1,0,0:0:0:0:
192,192,33712,128,0,33919:0:0:0:0:
64,192,33919,1,8,0:0:0:0:
448,192,33919,1,0,0:0:0:0:
320,192,34125,128,0,34332:0:0:0:0:
64,192,34332,1,2,0:0:0:0:
192,192,34332,1,0,0:0:0:0:
320,192,34539,1,2,0:0:0:0:
448,192,34539,1,0,0:0:0:0:
64,192,34746,1,8,0:0:0:0:
192,192,34746,1,0,0:0:0:0:
320,192,34953,1,2,0:0:0:0:
448,192,34953,128,0,35367:0:0:0:0:
64,192,35160,1,0,0:0:0:0:
192,192,35367,1,2,0:0:0:0:
320,192,35367,1,0,0:0:0:0:
64,192,35574,1,8,0:0:0:0:
448,192,35574,1,0,0:0:0:0:
192,192,35781,128,0,35988:0:0:0:0:
320,192,35988,1,2,0:0:0:0:
448,192,35988,1,0,0:0:0:0:
64,192,36194,1,2,0:0:0:0:
192,192,36194,1,0,0:0:0:0:
320,192,36401,1,8,0:0:0:0:
448,192,36401,1,0,0:0:0:0:
64,192,36608,1,2,0:0:0:0:
192,192,36608,1,0,0:0:0:0:
64,192,36815,128,2,37229:0:0:0:0:
320,192,36815,1,4,0:0:0:0:
448,192,36815,1,0,0:0:0:0:
192,192,37229,1,8,0:0:0:0:
448,192,37229,1,0,0:0:0:0:
64,192,37643,1,2,0:0:0:0:
192,192,37643,1,0,0:0:0:0:
320,192,37850,1,2,0:0:0:0:
448,192,37850,1,0,0:0:0:0:
64,192,38057,1,8,0:0:0:0:
192,192,38057,1,0,0:0:0:0:
320,192,38263,1,2,0:0:0:0:
448,192,38263,128,0,38677:0:0:0:0:
64,192,38470,1,0,0:0:0:0:
192,192,38677,1,2,0:0:0:0:
320,192,38677,1,0,0:0:0:0:
64,192,38884,1,8,0:0:0:0:
448,192,38884,1,0,0:0:0:0:
192,192,39091,1,0,0:0:0:0:
320,192,39298,1,2,0:0:0:0:
448,192,39298,1,0,0:0:0:0:
64,192,39505,1,2,0:0:0:0:
192,192,39505,1,0,0:0:0:0:
320,192,39712,1,8,0:0:0:0:
448,192,39712,1,0,0:0:0:0:
64,192,39919,1,2,0:0:0:0:
192,192,39919,1,0,0:0:0:0:
64,192,40125,1,2,0:0:0:0:
192,192,40125,1,0,0:0:0:0:
320,192,40332,128,0,40539:0:0:0:0:
64,192,40539,1,8,0:0:0:0:
448,192,40539,1,0,0:0:0:0:
192,192,40746,128,0,40953:0:0:0:0:
320,192,40953,1,2,0:0:0:0:
448,192,40953,1,0,0:0:0:0:
64,192,41160,1,2,0:0:0:0:
192,192,41160,1,0,0:0:0:0:
320,192,41367,1,8,0:0:0:0:
448,192,41367,1,0,0:0:0:0:
64,192,41574,128,2,41988:0:0:0:0:
192,192,41574,1,0,0:0:0:0:
448,192,41781,1,0,0:0:0:0:
192,192,41988,1,2,0:0:0:0:
320,192,41988,1,0,0:0:0:0:
64,192,42194,1,8,0:0:0:0:
448,192,42194,1,0,0:0:0:0:
320,192,42401,128,0,42608:0:0:0:0:
64,192,42608,1,0,0:0:0:50:Tom1.wav
192,192,42608,1,0,0:0:0:0:
448,192,42712,1,0,0:0:0:15:soft-hitclap.wav
320,192,42815,1,0,0:0:0:15:soft-hitclap.wav
192,192,42919,1,8,0:0:0:0:
64,192,43022,1,8,0:0:0:0:
448,192,43022,1,0,0:0:0:0:
192,192,43229,1,2,0:0:0:0:
320,192,43229,1,0,0:0:0:0:
64,192,43436,1,2,0:0:0:0:
192,192,43436,1,4,0:0:0:0:
448,192,43436,1,0,0:0:0:0:
320,192,43643,1,0,0:0:0:0:
64,192,43850,1,8,0:0:0:0:
192,192,43850,1,0,0:0:0:25:Hat open.wav
320,192,44057,1,2,0:0:0:0:
448,192,44057,1,0,0:0:0:0:
64,192,44263,1,2,0:0:0:0:
192,192,44263,1,0,0:0:0:0:
448,192,44470,1,0,0:0:0:0:
64,192,44677,1,8,0:0:0:0:
192,192,44677,1,0,0:0:0:25:Hat open.wav
320,192,44884,1,2,0:0:0:0:
448,192,44884,1,0,0:0:0:0:
64,192,45091,1,0,0:0:0:25:Hat open.wav
320,192,45298,1,2,0:0:0:0:
448,192,45298,1,0,0:0:0:0:
64,192,45505,1,8,0:0:0:0:
192,192,45505,1,0,0:0:0:25:Hat open.wav
320,192,45712,1,2,0:0:0:0:
448,192,45712,1,0,0:0:0:0:
64,192,45919,1,2,0:0:0:0:
192,192,45919,1,0,0:0:0:0:
320,192,46125,1,0,0:0:0:0:
64,192,46332,1,8,0:0:0:0:
448,192,46332,1,0,0:0:0:25:Hat open.wav
192,192,46539,1,0,0:0:0:0:
320,192,46746,1,2,0:0:0:0:
448,192,46746,128,0,47160:0:0:0:0:
64,192,47160,1,8,0:0:0:0:
192,192,47160,1,0,0:0:0:25:Hat open.wav
320,192,47367,1,2,0:0:0:0:
448,192,47367,1,0,0:0:0:0:
64,192,47574,128,2,47988:0:0:0:0:
192,192,47574,1,0,0:0:0:0:
320,192,47988,1,8,0:0:0:0:
448,192,47988,1,0,0:0:0:25:Hat open.wav
64,192,48194,1,2,0:0:0:0:
192,192,48194,1,0,0:0:0:0:
320,192,48401,1,0,0:0:0:25:Hat open.wav
64,192,48608,1,2,0:0:0:0:
192,192,48608,1,0,0:0:0:0:
320,192,48815,1,8,0:0:0:0:
448,192,48815,1,0,0:0:0:25:Hat open.wav
64,192,49022,1,2,0:0:0:0:
192,192,49022,1,0,0:0:0:0:
320,192,49229,1,2,0:0:0:0:
448,192,49229,128,0,49643:0:0:0:0:
64,192,49643,1,8,0:0:0:0:
192,192,49643,1,0,0:0:0:25:Hat open.wav
192,192,50057,1,2,0:0:0:0:
320,192,50057,1,0,0:0:0:0:
448,192,50263,1,0,0:0:0:0:
64,192,50470,1,8,0:0:0:0:
192,192,50470,1,0,0:0:0:25:Hat open.wav
320,192,50677,1,2,0:0:0:0:
448,192,50677,1,0,0:0:0:0:
64,192,50884,1,2,0:0:0:0:
192,192,50884,1,0,0:0:0:0:
448,192,51091,1,0,0:0:0:0:
64,192,51298,1,8,0:0:0:0:
192,192,51298,1,0,0:0:0:25:Hat open.wav
320,192,51505,1,2,0:0:0:0:
448,192,51505,1,0,0:0:0:0:
192,192,51712,1,0,0:0:0:25:Hat open.wav
320,192,51919,1,2,0:0:0:0:
448,192,51919,1,0,0:0:0:0:
64,192,52125,1,8,0:0:0:0:
192,192,52125,1,0,0:0:0:25:Hat open.wav
320,192,52332,1,2,0:0:0:0:
448,192,52332,1,0,0:0:0:0:
64,192,52539,1,2,0:0:0:0:
192,192,52539,1,0,0:0:0:0:
320,192,52746,1,0,0:0:0:0:
64,192,52953,1,8,0:0:0:0:
448,192,52953,1,0,0:0:0:25:Hat open.wav
192,192,53160,1,0,0:0:0:0:
320,192,53367,1,2,0:0:0:0:
448,192,53367,128,0,53781:0:0:0:0:
64,192,53781,1,8,0:0:0:0:
192,192,53781,1,0,0:0:0:25:Hat open.wav
320,192,53988,1,2,0:0:0:0:
448,192,53988,1,0,0:0:0:0:
64,192,54194,128,2,54608:0:0:0:0:
192,192,54194,1,0,0:0:0:0:
320,192,54608,1,8,0:0:0:0:
448,192,54608,1,0,0:0:0:25:Hat open.wav
64,192,54815,1,2,0:0:0:0:
192,192,54815,1,0,0:0:0:0:
448,192,55022,1,0,0:0:0:25:Hat open.wav
64,192,55229,1,2,0:0:0:0:
192,192,55229,1,0,0:0:0:0:
320,192,55436,1,8,0:0:0:0:
448,192,55436,1,0,0:0:0:25:Hat open.wav
64,192,55643,1,2,0:0:0:0:
192,192,55643,1,0,0:0:0:0:
320,192,55850,128,2,56677:0:0:0:0:
448,192,55850,1,0,0:0:0:0:
64,192,56263,1,8,0:0:0:0:
192,192,56263,128,0,56677:0:0:0:25:Hat open.wav
64,192,56677,128,2,57091:0:0:0:0:
448,192,56677,1,0,0:0:0:0:
192,192,57091,1,8,0:0:0:0:
320,192,57091,1,0,0:0:0:25:Hat open.wav
64,192,57298,1,2,0:0:0:0:
448,192,57298,1,0,0:0:0:0:
192,192,57505,1,2,0:0:0:0:
320,192,57505,1,0,0:0:0:0:
448,192,57712,1,0,0:0:0:0:
64,192,57919,1,8,0:0:0:0:
192,192,57919,1,0,0:0:0:25:Hat open.wav
320,192,58125,1,2,0:0:0:0:
448,192,58125,1,0,0:0:0:0:
192,192,58332,1,0,0:0:0:25:Hat open.wav
320,192,58539,1,2,0:0:0:0:
448,192,58539,1,0,0:0:0:0:
64,192,58746,1,8,0:0:0:0:
192,192,58746,1,0,0:0:0:25:Hat open.wav
320,192,58953,1,2,0:0:0:0:
448,192,58953,1,0,0:0:0:0:
64,192,59160,1,2,0:0:0:0:
192,192,59160,1,0,0:0:0:0:
320,192,59367,1,0,0:0:0:0:
64,192,59574,1,8,0:0:0:0:
448,192,59574,1,0,0:0:0:25:Hat open.wav
320,192,59781,1,0,0:0:0:0:
64,192,59988,128,2,60401:0:0:0:0:
192,192,59988,1,0,0:0:0:0:
320,192,60401,1,8,0:0:0:0:
448,192,60401,1,0,0:0:0:25:Hat open.wav
64,192,60608,1,2,0:0:0:0:
192,192,60608,1,0,0:0:0:0:
320,192,60815,1,2,0:0:0:0:
448,192,60815,128,0,61229:0:0:0:0:
64,192,61229,1,8,0:0:0:0:
192,192,61229,1,0,0:0:0:25:Hat open.wav
320,192,61436,1,2,0:0:0:0:
448,192,61436,1,0,0:0:0:0:
64,192,61643,1,0,0:0:0:25:Hat open.wav
320,192,61850,1,2,0:0:0:0:
448,192,61850,1,0,0:0:0:0:
64,192,62057,1,8,0:0:0:0:
192,192,62057,1,0,0:0:0:25:Hat open.wav
320,192,62263,1,2,0:0:0:0:
448,192,62263,1,0,0:0:0:0:
64,192,62470,128,2,62884:0:0:0:0:
192,192,62470,1,0,0:0:0:0:
320,192,62884,1,8,0:0:0:0:
448,192,62884,128,0,63298:0:0:0:25:Hat open.wav
64,192,63298,1,2,0:0:0:0:
192,192,63298,128,0,63712:0:0:0:0:
64,192,63712,1,8,0:0:0:0:
448,192,63712,1,0,0:0:0:25:Hat open.wav
192,192,63919,1,2,0:0:0:0:
320,192,63919,1,0,0:0:0:0:
64,192,64125,1,2,0:0:0:0:
448,192,64125,1,0,0:0:0:0:
192,192,64332,1,0,0:0:0:0:
320,192,64539,1,8,0:0:0:0:
448,192,64539,1,0,0:0:0:25:Hat open.wav
64,192,64746,1,2,0:0:0:0:
192,192,64746,1,0,0:0:0:0:
448,192,64953,1,0,0:0:0:25:Hat open.wav
64,192,65160,1,2,0:0:0:0:
192,192,65160,1,0,0:0:0:0:
320,192,65367,1,8,0:0:0:0:
448,192,65367,1,0,0:0:0:25:Hat open.wav
64,192,65574,1,2,0:0:0:0:
192,192,65574,1,0,0:0:0:0:
320,192,65781,1,2,0:0:0:0:
448,192,65781,1,0,0:0:0:0:
192,192,65988,1,0,0:0:0:0:
64,192,66194,1,8,0:0:0:0:
448,192,66194,1,0,0:0:0:25:Hat open.wav
320,192,66401,1,0,0:0:0:0:
64,192,66608,128,2,67022:0:0:0:0:
192,192,66608,1,0,0:0:0:0:
320,192,67022,1,8,0:0:0:0:
448,192,67022,1,0,0:0:0:25:Hat open.wav
64,192,67229,1,2,0:0:0:0:
192,192,67229,1,0,0:0:0:0:
320,192,67436,1,2,0:0:0:0:
448,192,67436,128,0,67850:0:0:0:0:
64,192,67850,1,8,0:0:0:0:
192,192,67850,1,0,0:0:0:25:Hat open.wav
320,192,68057,1,2,0:0:0:0:
448,192,68057,1,0,0:0:0:0:
64,192,68263,1,0,0:0:0:25:Hat open.wav
320,192,68470,1,2,0:0:0:0:
448,192,68470,1,0,0:0:0:0:
64,192,68677,1,8,0:0:0:0:
192,192,68677,1,0,0:0:0:25:Hat open.wav
320,192,68884,1,2,0:0:0:0:
448,192,68884,1,0,0:0:0:0:
64,192,69091,1,2,0:0:0:0:
192,192,69091,128,0,69505:0:0:0:0:
320,192,69298,1,8,0:0:0:0:
448,192,69298,1,0,0:0:0:25:Hat open.wav
320,192,69505,1,8,0:0:0:0:
448,192,69505,1,0,0:0:0:25:Hat open.wav
64,192,69712,1,2,0:0:0:0:
192,192,69712,1,0,0:0:0:0:
64,192,69919,1,2,0:0:0:0:
320,192,69919,128,4,70332:0:0:0:0:
448,192,69919,1,0,0:0:0:0:
64,192,70332,1,8,0:0:0:0:
192,192,70332,1,0,0:0:0:0:
192,192,70539,1,2,0:0:0:0:
448,192,70539,1,0,0:0:0:0:
320,192,70746,1,2,0:0:0:0:
448,192,70746,1,0,0:0:0:0:
64,192,70953,128,0,71160:0:0:0:0:
320,192,71160,1,8,0:0:0:0:
448,192,71160,1,0,0:0:0:0:
64,192,71367,1,2,0:0:0:0:
192,192,71367,1,0,0:0:0:0:
448,192,71574,1,0,0:0:0:0:
64,192,71781,1,2,0:0:0:0:
192,192,71781,1,0,0:0:0:0:
320,192,71988,1,8,0:0:0:0:
448,192,71988,1,0,0:0:0:0:
64,192,72194,1,2,0:0:0:0:
320,192,72194,1,0,0:0:0:0:
64,192,72401,1,2,0:0:0:0:
192,192,72401,1,0,0:0:0:0:
448,192,72608,128,0,72815:0:0:0:0:
192,192,72815,1,8,0:0:0:0:
320,192,72815,1,0,0:0:0:0:
448,192,73022,1,0,0:0:0:0:
64,192,73229,128,2,73643:0:0:0:0:
192,192,73229,1,0,0:0:0:0:
320,192,73643,1,8,0:0:0:0:
448,192,73643,1,0,0:0:0:0:
192,192,73850,1,2,0:0:0:0:
320,192,73850,1,0,0:0:0:0:
64,192,74057,1,2,0:0:0:0:
192,192,74057,1,0,0:0:0:0:
448,192,74263,128,0,74470:0:0:0:0:
64,192,74470,1,8,0:0:0:0:
192,192,74470,1,0,0:0:0:0:
320,192,74677,1,2,0:0:0:0:
448,192,74677,1,0,0:0:0:0:
64,192,74884,1,0,0:0:0:0:
320,192,75091,1,2,0:0:0:0:
448,192,75091,1,0,0:0:0:0:
64,192,75298,1,8,0:0:0:0:
192,192,75298,1,0,0:0:0:0:
192,192,75505,1,2,0:0:0:0:
448,192,75505,1,0,0:0:0:0:
320,192,75712,1,2,0:0:0:0:
448,192,75712,1,0,0:0:0:0:
64,192,75919,128,0,76125:0:0:0:0:
192,192,76125,1,8,0:0:0:0:
320,192,76125,1,0,0:0:0:0:
64,192,76332,1,0,0:0:0:0:
320,192,76539,1,2,0:0:0:0:
448,192,76539,128,0,76953:0:0:0:0:
64,192,76953,1,8,0:0:0:0:
192,192,76953,1,0,0:0:0:0:
192,192,77160,1,2,0:0:0:0:
320,192,77160,1,0,0:0:0:0:
320,192,77367,1,2,0:0:0:0:
448,192,77367,1,0,0:0:0:0:
64,192,77574,128,0,77781:0:0:0:0:
320,192,77781,1,8,0:0:0:0:
448,192,77781,1,0,0:0:0:0:
64,192,77988,1,2,0:0:0:0:
192,192,77988,1,0,0:0:0:0:
320,192,78194,1,0,0:0:0:0:
64,192,78401,1,2,0:0:0:0:
192,192,78401,1,0,0:0:0:0:
320,192,78608,1,8,0:0:0:0:
448,192,78608,1,0,0:0:0:0:
64,192,78815,1,2,0:0:0:0:
320,192,78815,1,0,0:0:0:0:
64,192,79022,1,2,0:0:0:0:
192,192,79022,1,0,0:0:0:0:
448,192,79229,128,0,79436:0:0:0:0:
192,192,79436,1,8,0:0:0:0:
320,192,79436,1,0,0:0:0:0:
448,192,79643,1,0,0:0:0:0:
64,192,79850,128,2,80263:0:0:0:0:
192,192,79850,1,0,0:0:0:0:
320,192,80263,1,8,0:0:0:0:
448,192,80263,1,0,0:0:0:0:
192,192,80470,1,2,0:0:0:0:
320,192,80470,1,0,0:0:0:0:
64,192,80677,1,2,0:0:0:0:
192,192,80677,1,0,0:0:0:0:
448,192,80884,128,0,81091:0:0:0:0:
64,192,81091,1,8,0:0:0:0:
192,192,81091,1,0,0:0:0:0:
320,192,81298,1,2,0:0:0:0:
448,192,81298,1,0,0:0:0:0:
192,192,81505,1,0,0:0:0:0:
320,192,81712,1,2,0:0:0:0:
448,192,81712,1,0,0:0:0:0:
64,192,81919,1,8,0:0:0:0:
192,192,81919,1,0,0:0:0:0:
192,192,82125,1,2,0:0:0:0:
448,192,82125,1,0,0:0:0:0:
320,192,82332,1,2,0:0:0:0:
448,192,82332,1,0,0:0:0:0:
64,192,82539,128,0,82746:0:0:0:0:
192,192,82746,1,8,0:0:0:0:
448,192,82746,1,0,0:0:0:0:
320,192,82953,1,0,0:0:0:0:
64,192,83160,1,2,0:0:0:0:
192,192,83160,1,4,0:0:0:0:
448,192,83160,128,0,83574:0:0:0:0:
64,192,83574,1,8,0:0:0:0:
192,192,83574,1,0,0:0:0:0:
192,192,83781,1,2,0:0:0:0:
320,192,83781,1,0,0:0:0:0:
320,192,83988,1,2,0:0:0:0:
448,192,83988,1,0,0:0:0:0:
64,192,84194,128,0,84401:0:0:0:0:
320,192,84401,1,8,0:0:0:0:
448,192,84401,1,0,0:0:0:0:
64,192,84608,1,2,0:0:0:0:
192,192,84608,1,0,0:0:0:0:
448,192,84815,1,0,0:0:0:0:
64,192,85022,1,2,0:0:0:0:
192,192,85022,1,0,0:0:0:0:
320,192,85229,1,8,0:0:0:0:
448,192,85229,1,0,0:0:0:0:
64,192,85436,1,2,0:0:0:0:
320,192,85436,1,0,0:0:0:0:
64,192,85643,1,2,0:0:0:0:
192,192,85643,1,0,0:0:0:0:
448,192,85850,128,0,86057:0:0:0:0:
192,192,86057,1,8,0:0:0:0:
320,192,86057,1,0,0:0:0:0:
64,192,86263,1,0,0:0:0:0:
320,192,86470,1,2,0:0:0:0:
448,192,86470,128,0,87712:0:0:0:0:
64,192,86884,1,8,0:0:0:0:
192,192,86884,1,0,0:0:0:0:
320,192,87091,1,2,0:0:0:0:
64,192,87298,128,2,87712:0:0:0:0:
192,192,87298,1,0,0:0:0:0:
192,192,87712,1,8,0:0:0:0:
320,192,87712,1,0,0:0:0:0:
64,192,87919,128,2,88539:0:0:0:0:
448,192,87919,1,0,0:0:0:0:
192,192,88332,128,2,88539:0:0:0:0:
448,192,88332,1,0,0:0:0:0:
320,192,88539,1,8,0:0:0:0:
448,192,88539,1,0,0:0:0:0:
192,192,88746,1,0,0:0:0:0:
320,192,88850,1,0,0:0:0:50:Tom1.wav
64,192,88953,1,0,0:0:0:50:Tom1.wav
448,192,88953,1,0,0:0:0:0:
64,192,89160,1,0,0:0:0:50:Tom2.wav
320,192,89160,1,0,0:0:0:0:
192,192,89367,1,8,0:0:0:0:
320,192,89367,1,0,0:0:0:50:Tom3.wav
192,192,89574,1,2,0:0:0:0:
448,192,89574,1,0,0:0:0:0:
64,192,89781,128,2,90194:0:0:0:0:
320,192,89781,1,4,0:0:0:0:
448,192,89781,1,0,0:0:0:0:
320,192,90194,1,8,0:0:0:0:
448,192,90194,1,0,0:0:0:0:
64,192,90608,1,2,0:0:0:0:
192,192,90608,1,0,0:0:0:0:
320,192,90815,1,2,0:0:0:0:
448,192,90815,1,0,0:0:0:0:
64,192,91022,1,8,0:0:0:0:
192,192,91022,1,0,0:0:0:0:
320,192,91229,1,2,0:0:0:0:
448,192,91229,128,0,91643:0:0:0:0:
64,192,91436,1,0,0:0:0:0:
192,192,91643,1,2,0:0:0:0:
320,192,91643,1,0,0:0:0:0:
64,192,91850,1,8,0:0:0:0:
448,192,91850,1,0,0:0:0:0:
192,192,92057,1,0,0:0:0:0:
320,192,92263,1,2,0:0:0:0:
448,192,92263,1,0,0:0:0:0:
64,192,92470,1,2,0:0:0:0:
192,192,92470,1,0,0:0:0:0:
320,192,92677,1,8,0:0:0:0:
448,192,92677,1,0,0:0:0:0:
64,192,92884,1,2,0:0:0:0:
192,192,92884,1,0,0:0:0:0:
64,192,93091,1,2,0:0:0:0:
192,192,93091,1,0,0:0:0:0:
320,192,93298,128,0,93505:0:0:0:0:
64,192,93505,1,8,0:0:0:0:
448,192,93505,1,0,0:0:0:0:
192,192,93712,128,0,93919:0:0:0:0:
320,192,93919,1,2,0:0:0:0:
448,192,93919,1,0,0:0:0:0:
64,192,94125,1,2,0:0:0:0:
192,192,94125,1,0,0:0:0:0:
320,192,94332,1,8,0:0:0:0:
448,192,94332,1,0,0:0:0:0:
64,192,94539,128,2,94953:0:0:0:0:
192,192,94539,1,0,0:0:0:0:
448,192,94746,1,0,0:0:0:0:
192,192,94953,1,2,0:0:0:0:
320,192,94953,1,0,0:0:0:0:
64,192,95160,1,8,0:0:0:0:
448,192,95160,1,0,0:0:0:0:
192,192,95367,1,2,0:0:0:0:
320,192,95367,128,0,95574:0:0:0:0:
64,192,95574,1,2,0:0:0:0:
448,192,95574,1,0,0:0:0:0:
192,192,95781,1,8,0:0:0:0:
320,192,95781,1,0,0:0:0:25:Hat open.wav
192,192,95988,1,8,0:0:0:0:
320,192,95988,1,0,0:0:0:25:Hat open.wav
64,192,96194,1,2,0:0:0:0:
448,192,96194,1,0,0:0:0:0:
192,192,96401,1,2,0:0:0:0:
320,192,96401,128,4,96815:0:0:0:0:
448,192,96401,1,0,0:0:0:0:
64,192,96815,1,8,0:0:0:0:
192,192,96815,1,0,0:0:0:25:Hat open.wav
320,192,97022,1,2,0:0:0:0:
448,192,97022,128,0,97229:0:0:0:0:
64,192,97229,128,2,97436:0:0:0:0:
192,192,97229,1,0,0:0:0:0:
448,192,97436,1,0,0:0:0:0:
64,192,97643,1,8,0:0:0:0:
192,192,97643,1,0,0:0:0:25:Hat open.wav
320,192,97850,1,2,0:0:0:0:
448,192,97850,128,0,98057:0:0:0:0:
64,192,98057,1,0,0:0:0:25:Hat open.wav
192,192,98263,1,2,0:0:0:0:
320,192,98263,128,0,98470:0:0:0:0:
448,192,98470,1,8,0:0:0:0:
64,192,98677,128,2,98884:0:0:0:0:
192,192,98677,1,0,0:0:0:0:
320,192,98884,1,2,0:0:0:0:
448,192,98884,128,0,99091:0:0:0:0:
192,192,99091,1,0,0:0:0:0:
64,192,99298,1,8,0:0:0:0:
448,192,99298,1,0,0:0:0:25:Hat open.wav
320,192,99505,1,0,0:0:0:0:
64,192,99712,1,2,0:0:0:0:
192,192,99712,128,0,100125:0:0:0:0:
320,192,100125,1,8,0:0:0:0:
448,192,100125,1,0,0:0:0:25:Hat open.wav
64,192,100332,128,2,100539:0:0:0:0:
192,192,100332,1,0,0:0:0:0:
320,192,100539,1,2,0:0:0:0:
448,192,100539,128,0,100746:0:0:0:0:
64,192,100746,1,0,0:0:0:0:
320,192,100953,1,8,0:0:0:0:
448,192,100953,1,0,0:0:0:25:Hat open.wav
64,192,101160,128,2,101367:0:0:0:0:
192,192,101160,1,0,0:0:0:0:
448,192,101367,1,0,0:0:0:25:Hat open.wav
192,192,101574,128,2,101781:0:0:0:0:
320,192,101574,1,0,0:0:0:0:
64,192,101781,1,8,0:0:0:0:
320,192,101988,1,2,0:0:0:0:
448,192,101988,128,0,102194:0:0:0:0:
64,192,102194,128,2,102401:0:0:0:0:
192,192,102194,1,0,0:0:0:0:
320,192,102401,1,0,0:0:0:0:
64,192,102608,1,8,0:0:0:0:
448,192,102608,1,0,0:0:0:25:Hat open.wav
192,192,102815,1,0,0:0:0:0:
320,192,103022,128,2,103436:0:0:0:0:
448,192,103022,1,0,0:0:0:0:
64,192,103436,1,8,0:0:0:0:
192,192,103436,1,0,0:0:0:25:Hat open.wav
320,192,103643,1,2,0:0:0:0:
448,192,103643,128,0,103850:0:0:0:0:
64,192,103850,128,2,104057:0:0:0:0:
192,192,103850,1,0,0:0:0:0:
448,192,104057,1,0,0:0:0:0:
64,192,104263,1,8,0:0:0:0:
192,192,104263,1,0,0:0:0:25:Hat open.wav
320,192,104470,1,2,0:0:0:0:
448,192,104470,128,0,104677:0:0:0:0:
64,192,104677,1,0,0:0:0:25:Hat open.wav
192,192,104884,1,2,0:0:0:0:
320,192,104884,128,0,105091:0:0:0:0:
448,192,105091,1,8,0:0:0:0:
64,192,105298,128,2,105505:0:0:0:0:
192,192,105298,1,0,0:0:0:0:
320,192,105505,1,2,0:0:0:0:
448,192,105505,128,0,105712:0:0:0:0:
192,192,105712,1,0,0:0:0:0:
64,192,105919,1,8,0:0:0:0:
448,192,105919,1,0,0:0:0:25:Hat open.wav
320,192,106125,1,0,0:0:0:0:
64,192,106332,1,2,0:0:0:0:
192,192,106332,128,0,106746:0:0:0:0:
320,192,106746,1,8,0:0:0:0:
448,192,106746,1,0,0:0:0:25:Hat open.wav
64,192,106953,128,2,107160:0:0:0:0:
192,192,106953,1,0,0:0:0:0:
320,192,107160,1,2,0:0:0:0:
448,192,107160,128,0,107367:0:0:0:0:
64,192,107367,1,0,0:0:0:0:
320,192,107574,1,8,0:0:0:0:
448,192,107574,1,0,0:0:0:25:Hat open.wav
64,192,107781,128,2,107988:0:0:0:0:
192,192,107781,1,0,0:0:0:0:
448,192,107988,1,0,0:0:0:25:Hat open.wav
192,192,108194,128,2,108401:0:0:0:0:
320,192,108194,1,0,0:0:0:0:
64,192,108401,1,8,0:0:0:0:
320,192,108608,1,2,0:0:0:0:
448,192,108608,128,0,108815:0:0:0:0:
64,192,108815,128,2,109229:0:0:0:0:
192,192,108815,1,0,0:0:0:0:
192,192,109229,1,8,0:0:0:0:
448,192,109229,1,0,0:0:0:25:Hat open.wav
320,192,109436,1,0,0:0:0:0:
192,192,109539,1,0,0:0:0:0:
64,192,109643,1,2,0:0:0:0:
448,192,109643,128,0,110057:0:0:0:0:
64,192,110057,1,8,0:0:0:0:
192,192,110057,1,0,0:0:0:25:Hat open.wav
320,192,110263,128,2,110470:0:0:0:0:
448,192,110263,1,0,0:0:0:0:
64,192,110470,128,2,110677:0:0:0:0:
192,192,110470,1,0,0:0:0:0:
448,192,110677,1,0,0:0:0:0:
64,192,110884,1,8,0:0:0:0:
192,192,110884,1,0,0:0:0:25:Hat open.wav
320,192,111091,128,2,111298:0:0:0:0:
448,192,111091,1,0,0:0:0:0:
192,192,111298,1,0,0:0:0:25:Hat open.wav
64,192,111505,128,2,111712:0:0:0:0:
448,192,111505,1,0,0:0:0:0:
192,192,111712,1,8,0:0:0:0:
320,192,111919,1,2,0:0:0:0:
448,192,111919,128,0,112125:0:0:0:0:
64,192,112125,1,2,0:0:0:0:
192,192,112125,128,0,112539:0:0:0:0:
320,192,112539,1,8,0:0:0:0:
448,192,112539,1,0,0:0:0:25:Hat open.wav
64,192,112746,1,0,0:0:0:0:
192,192,112850,1,0,0:0:0:0:
320,192,112953,128,2,113367:0:0:0:0:
448,192,112953,1,0,0:0:0:0:
64,192,113367,1,8,0:0:0:0:
192,192,113367,1,0,0:0:0:25:Hat open.wav
320,192,113574,1,2,0:0:0:0:
448,192,113574,128,0,113781:0:0:0:0:
64,192,113781,128,2,113988:0:0:0:0:
192,192,113781,1,0,0:0:0:0:
320,192,113988,1,0,0:0:0:0:
64,192,114194,1,8,0:0:0:0:
448,192,114194,1,0,0:0:0:25:Hat open.wav
192,192,114401,1,2,0:0:0:0:
320,192,114401,128,0,114608:0:0:0:0:
64,192,114608,1,0,0:0:0:25:Hat open.wav
320,192,114815,1,2,0:0:0:0:
448,192,114815,128,0,115022:0:0:0:0:
192,192,115022,1,8,0:0:0:0:
64,192,115229,128,2,115436:0:0:0:0:
448,192,115229,1,0,0:0:0:0:
192,192,115436,1,2,0:0:0:0:
320,192,115436,128,0,115643:0:0:0:0:
448,192,115643,1,0,0:0:0:0:
64,192,115850,1,8,0:0:0:0:
192,192,115850,1,0,0:0:0:25:Hat open.wav
448,192,116057,1,0,0:0:0:0:
192,192,116263,1,2,0:0:0:0:
320,192,116263,128,0,116677:0:0:0:0:
64,192,116677,1,8,0:0:0:0:
448,192,116677,1,0,0:0:0:25:Hat open.wav
192,192,116884,128,2,117091:0:0:0:0:
320,192,116884,1,0,0:0:0:0:
64,192,117091,1,2,0:0:0:0:
448,192,117091,128,0,117298:0:0:0:0:
192,192,117298,1,0,0:0:0:0:
64,192,117505,1,8,0:0:0:0:
448,192,117505,1,0,0:0:0:25:Hat open.wav
192,192,117712,1,2,0:0:0:0:
320,192,117712,128,0,117919:0:0:0:0:
448,192,117919,1,0,0:0:0:25:Hat open.wav
64,192,118125,128,2,118332:0:0:0:0:
192,192,118125,1,0,0:0:0:0:
320,192,118332,1,8,0:0:0:0:
192,192,118539,1,2,0:0:0:0:
448,192,118539,128,0,118746:0:0:0:0:
64,192,118746,1,2,0:0:0:0:
320,192,118746,128,0,118953:0:0:0:0:
448,192,118953,1,0,0:0:0:0:
64,192,119160,1,8,0:0:0:0:
192,192,119160,1,0,0:0:0:25:Hat open.wav
320,192,119367,1,0,0:0:0:0:
64,192,119574,128,2,119988:0:0:0:0:
192,192,119574,1,4,0:0:0:0:
448,192,119574,1,0,0:0:0:0:
320,192,119988,1,8,0:0:0:0:
448,192,119988,1,0,0:0:0:25:Hat open.wav
64,192,120194,1,2,0:0:0:0:
192,192,120194,1,0,0:0:0:0:
320,192,120401,1,2,0:0:0:0:
448,192,120401,128,0,120815:0:0:0:25:Hat open.wav
64,192,120815,1,8,0:0:0:0:
192,192,120815,1,0,0:0:0:25:Hat open.wav
320,192,121022,1,2,0:0:0:0:
448,192,121022,1,0,0:0:0:0:
64,192,121229,1,0,0:0:0:25:Hat open.wav
320,192,121436,1,2,0:0:0:0:
448,192,121436,1,0,0:0:0:0:
64,192,121643,1,8,0:0:0:0:
192,192,121643,1,0,0:0:0:25:Hat open.wav
320,192,121850,1,2,0:0:0:0:
448,192,121850,1,0,0:0:0:0:
64,192,122057,128,2,122470:0:0:0:0:
192,192,122057,1,0,0:0:0:0:
320,192,122263,1,8,0:0:0:0:
448,192,122263,1,0,0:0:0:25:Hat open.wav
320,192,122470,1,8,0:0:0:0:
448,192,122470,1,0,0:0:0:25:Hat open.wav
64,192,122677,1,2,0:0:0:0:
192,192,122677,1,0,0:0:0:0:
64,192,122884,1,2,0:0:0:0:
320,192,122884,1,4,0:0:0:0:
448,192,122884,128,0,123298:0:0:0:0:
64,192,123298,1,8,0:0:0:0:
192,192,123298,1,0,0:0:0:0:
320,192,123505,1,2,0:0:0:0:
448,192,123505,1,0,0:0:0:0:
64,192,123712,1,2,0:0:0:0:
192,192,123712,1,0,0:0:0:0:
320,192,123919,1,0,0:0:0:0:
64,192,124125,1,8,0:0:0:0:
448,192,124125,1,0,0:0:0:0:
192,192,124332,1,2,0:0:0:0:
320,192,124332,1,0,0:0:0:0:
64,192,124746,1,2,0:0:0:0:
192,192,124746,1,0,0:0:0:0:
320,192,124953,1,8,0:0:0:0:
448,192,124953,1,0,0:0:0:0:
64,192,125160,1,2,0:0:0:0:
192,192,125160,1,0,0:0:0:0:
320,192,125367,1,2,0:0:0:0:
448,192,125367,1,0,0:0:0:0:
192,192,125574,1,0,0:0:0:0:
64,192,125781,1,8,0:0:0:0:
448,192,125781,1,0,0:0:0:0:
320,192,125988,1,0,0:0:0:0:
64,192,126194,1,2,0:0:0:0:
192,192,126194,128,0,126608:0:0:0:0:
320,192,126608,1,8,0:0:0:0:
448,192,126608,1,0,0:0:0:0:
64,192,126815,1,2,0:0:0:0:
192,192,126815,1,0,0:0:0:0:
320,192,127022,1,2,0:0:0:0:
448,192,127022,1,0,0:0:0:0:
192,192,127229,1,0,0:0:0:0:
64,192,127436,1,8,0:0:0:0:
448,192,127436,1,0,0:0:0:0:
192,192,127643,1,2,0:0:0:0:
320,192,127643,1,0,0:0:0:0:
64,192,128057,1,2,0:0:0:0:
448,192,128057,1,0,0:0:0:0:
192,192,128263,1,8,0:0:0:0:
320,192,128263,1,0,0:0:0:0:
64,192,128470,1,2,0:0:0:0:
448,192,128470,1,0,0:0:0:0:
192,192,128677,1,2,0:0:0:0:
320,192,128677,1,0,0:0:0:0:
64,192,128884,1,0,0:0:0:0:
320,192,129091,1,8,0:0:0:0:
448,192,129091,1,0,0:0:0:0:
64,192,129298,1,0,0:0:0:0:
192,192,129505,1,2,0:0:0:0:
448,192,129505,128,0,129919:0:0:0:0:
64,192,129919,1,8,0:0:0:0:
192,192,129919,1,0,0:0:0:0:
320,192,130125,1,2,0:0:0:0:
448,192,130125,1,0,0:0:0:0:
64,192,130332,1,2,0:0:0:0:
192,192,130332,1,0,0:0:0:0:
320,192,130539,1,0,0:0:0:0:
64,192,130746,1,8,0:0:0:0:
448,192,130746,1,0,0:0:0:0:
192,192,130953,1,2,0:0:0:0:
320,192,130953,1,0,0:0:0:0:
320,192,131367,1,2,0:0:0:0:
448,192,131367,1,0,0:0:0:0:
64,192,131574,1,8,0:0:0:0:
192,192,131574,1,0,0:0:0:0:
320,192,131781,1,2,0:0:0:0:
448,192,131781,1,0,0:0:0:0:
64,192,131988,1,2,0:0:0:0:
192,192,131988,1,0,0:0:0:0:
320,192,132194,1,0,0:0:0:0:
64,192,132401,1,8,0:0:0:0:
448,192,132401,1,0,0:0:0:0:
192,192,132608,1,0,0:0:0:0:
320,192,132815,128,2,133229:0:0:0:0:
448,192,132815,1,0,0:0:0:0:
64,192,133229,1,8,0:0:0:0:
192,192,133229,1,0,0:0:0:0:
320,192,133436,1,2,0:0:0:0:
448,192,133436,1,0,0:0:0:0:
64,192,133643,1,2,0:0:0:0:
192,192,133643,1,0,0:0:0:0:
320,192,133850,1,0,0:0:0:0:
64,192,134057,1,8,0:0:0:0:
448,192,134057,1,0,0:0:0:0:
192,192,134263,1,2,0:0:0:0:
320,192,134263,1,0,0:0:0:0:
320,192,134677,1,2,0:0:0:0:
448,192,134677,1,0,0:0:0:0:
64,192,134884,1,8,0:0:0:0:
192,192,134884,1,0,0:0:0:0:
320,192,135091,1,2,0:0:0:0:
448,192,135091,1,0,0:0:0:0:
64,192,135298,1,2,0:0:0:0:
192,192,135298,1,0,0:0:0:0:
320,192,135505,1,0,0:0:0:0:
64,192,135712,1,8,0:0:0:0:
448,192,135712,1,0,0:0:0:0:
192,192,135919,1,0,0:0:0:0:
320,192,136125,128,2,136539:0:0:0:0:
448,192,136125,1,0,0:0:0:0:
64,192,136539,1,8,0:0:0:0:
448,192,136539,1,0,0:0:0:0:
192,192,136746,1,2,0:0:0:0:
320,192,136746,1,0,0:0:0:0:
64,192,136953,1,2,0:0:0:0:
448,192,136953,1,0,0:0:0:0:
320,192,137160,1,0,0:0:0:0:
64,192,137367,1,8,0:0:0:0:
192,192,137367,1,0,0:0:0:0:
320,192,137574,1,2,0:0:0:0:
448,192,137574,1,0,0:0:0:0:
64,192,137988,1,2,0:0:0:0:
448,192,137988,1,0,0:0:0:0:
192,192,138194,1,8,0:0:0:0:
320,192,138194,1,0,0:0:0:0:
64,192,138401,1,2,0:0:0:0:
448,192,138401,1,0,0:0:0:0:
192,192,138608,1,2,0:0:0:0:
320,192,138608,1,0,0:0:0:0:
64,192,138815,1,0,0:0:0:0:
320,192,139022,1,8,0:0:0:0:
448,192,139022,1,0,0:0:0:0:
64,192,139436,128,2,140677:0:0:0:0:
192,192,139436,1,0,0:0:0:0:
320,192,139850,1,8,0:0:0:0:
448,192,139850,1,0,0:0:0:0:
192,192,140057,1,2,0:0:0:0:
320,192,140263,1,2,0:0:0:0:
448,192,140263,128,0,140677:0:0:0:0:
192,192,140677,1,8,0:0:0:0:
320,192,140677,1,0,0:0:0:0:
64,192,140884,1,2,0:0:0:0:
448,192,140884,128,0,141505:0:0:0:0:
64,192,141298,1,0,0:0:0:50:Tom1.wav
320,192,141298,128,0,141505:0:0:0:0:
64,192,141505,1,8,0:0:0:0:
192,192,141505,1,0,0:0:0:0:
192,192,141712,1,0,0:0:0:50:Tom2.wav
320,192,141712,1,0,0:0:0:0:
320,192,141919,1,0,0:0:0:50:Tom2.wav
448,192,141919,1,0,0:0:0:0:
64,192,142125,1,0,0:0:0:50:Tom3.wav
192,192,142125,1,0,0:0:0:0:
320,192,142332,1,8,0:0:0:0:
448,192,142332,1,0,0:0:0:50:Tom3.wav
64,192,142539,1,2,0:0:0:0:
320,192,142539,1,0,0:0:0:0:
64,192,142746,1,4,0:0:0:0:
192,192,142746,128,2,143160:0:0:0:0:
448,192,142746,1,0,0:0:0:0:
320,192,143160,1,8,0:0:0:0:
448,192,143160,1,0,0:0:0:0:
64,192,143367,1,2,0:0:0:0:
192,192,143367,1,0,0:0:0:0:
320,192,143574,1,2,0:0:0:0:
448,192,143574,1,0,0:0:0:0:
64,192,143781,1,0,0:0:0:0:
320,192,143988,1,8,0:0:0:0:
448,192,143988,1,0,0:0:0:0:
64,192,144194,1,2,0:0:0:0:
192,192,144194,1,0,0:0:0:0:
320,192,144401,128,0,144608:0:0:0:0:
64,192,144608,128,2,144815:0:0:0:0:
192,192,144608,1,0,0:0:0:0:
320,192,144815,1,8,0:0:0:0:
448,192,144815,1,0,0:0:0:0:
64,192,145022,1,2,0:0:0:0:
192,192,145022,128,0,145229:0:0:0:0:
320,192,145229,1,2,0:0:0:0:
448,192,145229,1,0,0:0:0:0:
64,192,145436,128,0,145643:0:0:0:0:
320,192,145643,1,8,0:0:0:0:
448,192,145643,1,0,0:0:0:0:
192,192,145850,1,0,0:0:0:0:
320,192,145953,1,0,0:0:0:0:
64,192,146057,1,2,0:0:0:0:
448,192,146057,128,0,146470:0:0:0:0:
64,192,146470,1,8,0:0:0:0:
192,192,146470,1,0,0:0:0:0:
320,192,146677,1,2,0:0:0:0:
448,192,146677,1,0,0:0:0:0:
64,192,146884,1,2,0:0:0:0:
192,192,146884,1,0,0:0:0:0:
320,192,147091,1,0,0:0:0:0:
64,192,147298,1,8,0:0:0:0:
192,192,147298,1,0,0:0:0:0:
320,192,147505,1,2,0:0:0:0:
448,192,147505,1,0,0:0:0:0:
64,192,147712,128,0,147919:0:0:0:0:
320,192,147919,1,2,0:0:0:0:
448,192,147919,128,0,148125:0:0:0:0:
64,192,148125,1,8,0:0:0:0:
192,192,148125,1,0,0:0:0:0:
320,192,148332,128,2,148539:0:0:0:0:
448,192,148332,1,0,0:0:0:0:
64,192,148539,1,2,0:0:0:0:
192,192,148539,1,0,0:0:0:0:
448,192,148746,128,0,148953:0:0:0:0:
64,192,148953,1,8,0:0:0:0:
192,192,148953,1,0,0:0:0:0:
320,192,149160,1,0,0:0:0:0:
192,192,149263,1,0,0:0:0:0:
64,192,149367,128,2,149781:0:0:0:0:
448,192,149367,1,0,0:0:0:0:
320,192,149781,1,8,0:0:0:0:
448,192,149781,1,0,0:0:0:0:
64,192,149988,1,2,0:0:0:0:
192,192,149988,1,0,0:0:0:0:
320,192,150194,1,2,0:0:0:0:
448,192,150194,1,0,0:0:0:0:
64,192,150401,1,0,0:0:0:0:
320,192,150608,1,8,0:0:0:0:
448,192,150608,1,0,0:0:0:0:
64,192,150815,1,2,0:0:0:0:
192,192,150815,1,0,0:0:0:0:
320,192,151022,128,0,151229:0:0:0:0:
64,192,151229,128,2,151436:0:0:0:0:
448,192,151229,1,0,0:0:0:0:
192,192,151436,1,8,0:0:0:0:
320,192,151436,1,0,0:0:0:0:
64,192,151643,1,2,0:0:0:0:
448,192,151643,128,0,151850:0:0:0:0:
192,192,151850,1,2,0:0:0:0:
320,192,151850,1,0,0:0:0:0:
64,192,152057,128,0,152263:0:0:0:0:
192,192,152263,1,8,0:0:0:0:
448,192,152263,1,0,0:0:0:0:
320,192,152470,1,0,0:0:0:0:
192,192,152574,1,0,0:0:0:0:
64,192,152677,1,2,0:0:0:0:
448,192,152677,128,0,153091:0:0:0:0:
320,192,152884,128,0,153091:0:0:0:0:
64,192,153091,1,8,0:0:0:0:
192,192,153091,1,0,0:0:0:0:
320,192,153298,1,2,0:0:0:0:
448,192,153298,1,0,0:0:0:0:
64,192,153505,1,2,0:0:0:0:
192,192,153505,1,0,0:0:0:0:
448,192,153712,1,0,0:0:0:0:
64,192,153919,1,8,0:0:0:0:
192,192,153919,1,0,0:0:0:0:
320,192,154125,1,2,0:0:0:0:
448,192,154125,1,0,0:0:0:0:
192,192,154332,128,0,154539:0:0:0:0:
64,192,154539,1,2,0:0:0:0:
448,192,154539,128,0,154746:0:0:0:0:
192,192,154746,1,8,0:0:0:0:
320,192,154746,1,0,0:0:0:25:Hat open.wav
64,192,154953,128,0,155160:0:0:0:0:
320,192,155160,1,2,0:0:0:0:
448,192,155160,1,0,0:0:0:0:
64,192,155367,1,2,0:0:0:0:
192,192,155367,1,0,0:0:0:0:
320,192,155574,1,8,0:0:0:0:
448,192,155574,1,0,0:0:0:0:
64,192,155781,1,2,0:0:0:0:
192,192,155781,1,0,0:0:0:0:
64,192,155988,1,2,0:0:0:0:
320,192,155988,128,4,156401:0:0:0:0:
448,192,155988,1,0,0:0:0:0:
64,192,156401,1,8,0:0:0:0:
192,192,156401,1,0,0:0:0:0:
64,192,156608,128,2,157022:0:0:0:0:
320,192,156608,1,4,0:0:0:0:
448,192,156608,1,0,0:0:0:0:
192,192,157022,1,2,0:0:0:0:
320,192,157022,1,0,0:0:0:0:
64,192,157229,1,2,0:0:0:0:
448,192,157229,128,0,157643:0:0:0:0:
192,192,157643,1,0,0:0:0:0:
320,192,157850,1,8,0:0:0:0:
448,192,157850,1,0,0:0:0:0:
64,192,158057,1,0,0:0:0:0:
192,192,158263,1,2,0:0:0:0:
320,192,158263,1,0,0:0:0:0:
448,192,158470,1,8,0:0:0:0:
64,192,158522,1,8,0:0:0:0:
192,192,158677,1,2,0:0:0:0:
320,192,158677,1,0,0:0:0:0:
64,192,158884,1,8,0:0:0:0:
448,192,158884,1,0,0:0:0:0:
192,192,159091,1,2,0:0:0:0:
320,192,159091,1,0,0:0:0:0:
64,192,159298,128,2,159919:0:0:0:0:
320,192,159298,1,4,0:0:0:0:
448,192,159298,1,0,0:0:0:0:
320,192,159919,128,0,160953:0:0:0:0:
64,192,160953,1,2,0:0:0:0:
192,192,160953,1,0,0:0:0:20:soft-hitclap.wav
64,192,161160,1,2,0:0:0:0:
192,192,161160,1,0,0:0:0:20:soft-hitclap.wav
320,192,161367,1,2,0:0:0:0:
448,192,161367,1,0,0:0:0:30:soft-hitclap.wav
320,192,161574,1,2,0:0:0:0:
448,192,161574,1,0,0:0:0:30:soft-hitclap.wav
64,192,161781,1,2,0:0:0:0:
448,192,161781,1,0,0:0:0:40:soft-hitclap.wav
64,192,161988,1,2,0:0:0:0:
448,192,161988,1,0,0:0:0:40:soft-hitclap.wav
64,192,162194,1,2,0:0:0:0:
192,192,162194,1,8,0:0:0:0:
320,192,162194,1,4,0:0:0:0:
192,192,162401,1,2,0:0:0:0:
448,192,162401,1,0,0:0:0:0:
320,192,162608,1,2,0:0:0:0:
448,192,162608,1,0,0:0:0:0:
64,192,163022,1,8,0:0:0:0:
192,192,163022,1,0,0:0:0:0:
320,192,163229,1,0,0:0:0:0:
192,192,163436,1,2,0:0:0:0:
320,192,163436,1,0,0:0:0:0:
64,192,163643,1,2,0:0:0:0:
64,192,163850,1,8,0:0:0:0:
448,192,163850,1,0,0:0:0:0:
192,192,164057,128,2,164470:0:0:0:0:
320,192,164057,1,0,0:0:0:0:
64,192,164263,1,0,0:0:0:0:
320,192,164470,1,2,0:0:0:0:
448,192,164470,1,0,0:0:0:0:
64,192,164677,1,8,0:0:0:0:
192,192,164677,1,0,0:0:0:0:
448,192,164884,1,0,0:0:0:0:
64,192,165091,1,2,0:0:0:0:
192,192,165091,1,0,0:0:0:0:
320,192,165298,1,2,0:0:0:0:
448,192,165298,1,0,0:0:0:0:
64,192,165505,1,8,0:0:0:0:
192,192,165505,1,0,0:0:0:0:
320,192,165712,1,2,0:0:0:0:
448,192,165712,1,0,0:0:0:0:
320,192,165919,1,2,0:0:0:0:
448,192,165919,1,0,0:0:0:0:
192,192,166125,1,0,0:0:0:0:
64,192,166332,1,8,0:0:0:0:
448,192,166332,1,0,0:0:0:0:
64,192,166539,1,0,0:0:0:0:
320,192,166746,1,2,0:0:0:0:
448,192,166746,1,0,0:0:0:0:
64,192,166953,1,2,0:0:0:0:
192,192,166953,1,0,0:0:0:0:
320,192,167160,1,8,0:0:0:0:
448,192,167160,1,0,0:0:0:0:
64,192,167367,1,2,0:0:0:0:
192,192,167367,1,0,0:0:0:0:
448,192,167574,1,0,0:0:0:0:
64,192,167781,1,2,0:0:0:0:
192,192,167781,1,0,0:0:0:0:
320,192,167988,1,8,0:0:0:0:
448,192,167988,1,0,0:0:0:0:
64,192,168194,1,0,0:0:0:0:
320,192,168401,1,2,0:0:0:0:
448,192,168401,1,0,0:0:0:0:
64,192,168608,1,2,0:0:0:0:
192,192,168608,1,0,0:0:0:0:
320,192,168815,1,8,0:0:0:0:
448,192,168815,1,0,0:0:0:0:
64,192,169022,1,2,0:0:0:0:
192,192,169022,1,0,0:0:0:0:
64,192,169229,1,2,0:0:0:0:
320,192,169229,1,4,0:0:0:0:
448,192,169229,1,0,0:0:0:0:
320,192,169643,1,8,0:0:0:0:
448,192,169643,1,0,0:0:0:0:
192,192,169850,1,0,0:0:0:0:
192,192,170057,1,2,0:0:0:0:
320,192,170057,1,0,0:0:0:0:
448,192,170263,1,2,0:0:0:0:
64,192,170470,1,8,0:0:0:0:
448,192,170470,1,0,0:0:0:0:
192,192,170677,1,2,0:0:0:0:
320,192,170677,128,0,171091:0:0:0:0:
448,192,170884,1,0,0:0:0:0:
64,192,171091,1,2,0:0:0:0:
192,192,171091,1,0,0:0:0:0:
320,192,171298,1,8,0:0:0:0:
448,192,171298,1,0,0:0:0:0:
64,192,171505,1,0,0:0:0:0:
320,192,171712,1,2,0:0:0:0:
448,192,171712,1,0,0:0:0:0:
64,192,171919,1,2,0:0:0:0:
192,192,171919,1,0,0:0:0:0:
320,192,172125,1,8,0:0:0:0:
448,192,172125,1,0,0:0:0:0:
64,192,172332,1,2,0:0:0:0:
192,192,172332,1,0,0:0:0:0:
320,192,172539,1,2,0:0:0:0:
448,192,172539,1,0,0:0:0:0:
320,192,172746,1,0,0:0:0:0:
64,192,172953,1,8,0:0:0:0:
448,192,172953,1,0,0:0:0:0:
448,192,173160,1,0,0:0:0:0:
64,192,173367,1,2,0:0:0:0:
192,192,173367,1,0,0:0:0:0:
320,192,173574,1,2,0:0:0:0:
448,192,173574,1,0,0:0:0:0:
64,192,173781,1,8,0:0:0:0:
192,192,173781,1,0,0:0:0:0:
320,192,173988,1,2,0:0:0:0:
448,192,173988,1,0,0:0:0:0:
64,192,174194,1,0,0:0:0:0:
320,192,174401,1,2,0:0:0:0:
448,192,174401,1,0,0:0:0:0:
64,192,174608,1,8,0:0:0:0:
192,192,174608,1,0,0:0:0:0:
448,192,174815,1,0,0:0:0:0:
64,192,175022,1,2,0:0:0:0:
192,192,175022,1,0,0:0:0:0:
448,192,175125,1,0,0:0:0:0:
320,192,175229,1,0,0:0:0:0:
192,192,175332,1,2,0:0:0:0:
64,192,175436,1,8,0:0:0:0:
448,192,175436,1,0,0:0:0:0:
192,192,175643,1,2,0:0:0:0:
448,192,175643,1,0,0:0:0:0:
64,192,175850,128,2,176263:0:0:0:0:
192,192,175850,1,4,0:0:0:0:
320,192,175850,1,0,0:0:0:0:
320,192,176263,1,8,0:0:0:0:
448,192,176263,1,0,0:0:0:0:
192,192,176470,1,2,0:0:0:0:
320,192,176470,1,0,0:0:0:0:
192,192,176677,1,2,0:0:0:0:
448,192,176677,128,0,177091:0:0:0:0:
64,192,177091,1,8,0:0:0:0:
320,192,177091,1,0,0:0:0:0:
64,192,177298,128,2,177712:0:0:0:0:
192,192,177298,1,0,0:0:0:0:
320,192,177712,1,2,0:0:0:0:
448,192,177712,128,0,177919:0:0:0:0:
64,192,177919,1,8,0:0:0:0:
192,192,177919,1,0,0:0:0:0:
192,192,178125,1,2,0:0:0:0:
320,192,178125,1,0,0:0:0:0:
64,192,178332,128,2,178746:0:0:0:0:
320,192,178332,1,0,0:0:0:0:
192,192,178746,1,8,0:0:0:0:
448,192,178746,128,0,179160:0:0:0:0:
64,192,179160,1,2,0:0:0:0:
192,192,179160,128,4,179574:0:0:0:0:
320,192,179160,1,0,0:0:0:0:
320,192,179574,1,8,0:0:0:0:
448,192,179574,1,0,0:0:0:0:
64,192,179781,128,2,180194:0:0:0:0:
192,192,179781,1,4,0:0:0:0:
448,192,179781,1,0,0:0:0:0:
192,192,180194,1,2,0:0:0:0:
320,192,180194,1,0,0:0:0:0:
64,192,180401,1,2,0:0:0:0:
320,192,180401,1,4,0:0:0:0:
448,192,180401,128,0,182470:0:0:0:0:
64,192,181643,128,0,182470:0:0:0:0:
192,192,182470,1,0,0:0:0:0:
320,192,182677,1,0,0:0:0:0:
448,192,182884,1,0,0:0:0:0:
64,192,183091,128,0,183505:0:0:0:0:
320,192,183505,1,0,0:0:0:0:
448,192,183712,1,0,0:0:0:0:
64,192,183919,128,0,184332:0:0:0:0:
320,192,184332,1,0,0:0:0:0:
448,192,184539,1,0,0:0:0:0:
64,192,184746,128,0,185160:0:0:0:0:
320,192,185160,1,0,0:0:0:0:
448,192,185367,1,0,0:0:0:0:
192,192,185574,1,0,0:0:0:0:
320,192,185781,1,0,0:0:0:0:
64,192,185988,1,0,0:0:0:0:
448,192,186194,1,0,0:0:0:0:
192,192,186401,128,0,186815:0:0:0:0:
64,192,186815,1,0,0:0:0:0:
448,192,187022,1,0,0:0:0:0:
192,192,187229,128,0,187436:0:0:0:0:
320,192,187436,1,2,0:0:0:0:
448,192,187436,1,0,0:0:0:20:soft-hitclap.wav
320,192,187643,1,2,0:0:0:0:
448,192,187643,1,0,0:0:0:20:soft-hitclap.wav
64,192,187850,1,2,0:0:0:0:
192,192,187850,1,0,0:0:0:30:soft-hitclap.wav
64,192,188057,1,2,0:0:0:0:
192,192,188057,1,0,0:0:0:30:soft-hitclap.wav
320,192,188263,1,2,0:0:0:0:
448,192,188263,1,0,0:0:0:40:soft-hitclap.wav
64,192,188470,1,2,0:0:0:0:
192,192,188470,1,0,0:0:0:0:
64,192,188677,1,2,0:0:0:0:
320,192,188677,1,8,0:0:0:0:
448,192,188677,1,0,0:0:0:30:soft-hitfinish.wav
192,192,188884,1,2,0:0:0:0:
320,192,188884,1,0,0:0:0:0:
64,192,189091,1,2,0:0:0:0:
192,192,189091,1,4,0:0:0:0:
448,192,189091,128,0,189505:0:0:0:0:
64,192,189505,1,8,0:0:0:0:
192,192,189505,1,0,0:0:0:0:
192,192,189712,1,2,0:0:0:0:
320,192,189712,1,0,0:0:0:0:
320,192,189919,1,2,0:0:0:0:
448,192,189919,1,0,0:0:0:0:
64,192,190125,128,0,190332:0:0:0:0:
320,192,190332,1,8,0:0:0:0:
448,192,190332,1,0,0:0:0:0:
64,192,190539,1,2,0:0:0:0:
192,192,190539,1,0,0:0:0:0:
320,192,190746,1,0,0:0:0:0:
64,192,190953,1,2,0:0:0:0:
448,192,190953,1,0,0:0:0:0:
192,192,191160,1,8,0:0:0:0:
448,192,191160,1,0,0:0:0:0:
192,192,191367,1,2,0:0:0:0:
320,192,191367,1,0,0:0:0:0:
64,192,191574,1,2,0:0:0:0:
320,192,191574,1,0,0:0:0:0:
448,192,191781,128,0,191988:0:0:0:0:
192,192,191988,1,8,0:0:0:0:
320,192,191988,1,0,0:0:0:0:
448,192,192194,1,0,0:0:0:0:
64,192,192401,128,2,192815:0:0:0:0:
192,192,192401,1,0,0:0:0:0:
320,192,192815,1,8,0:0:0:0:
448,192,192815,1,0,0:0:0:0:
192,192,193022,1,2,0:0:0:0:
320,192,193022,1,0,0:0:0:0:
64,192,193229,1,2,0:0:0:0:
192,192,193229,1,0,0:0:0:0:
448,192,193436,128,0,193643:0:0:0:0:
64,192,193643,1,8,0:0:0:0:
192,192,193643,1,0,0:0:0:0:
320,192,193850,1,2,0:0:0:0:
448,192,193850,1,0,0:0:0:0:
192,192,194057,1,0,0:0:0:0:
64,192,194263,1,2,0:0:0:0:
448,192,194263,1,0,0:0:0:0:
64,192,194470,1,8,0:0:0:0:
320,192,194470,1,0,0:0:0:0:
192,192,194677,1,2,0:0:0:0:
320,192,194677,1,0,0:0:0:0:
192,192,194884,1,2,0:0:0:0:
448,192,194884,1,0,0:0:0:0:
64,192,195091,128,0,195298:0:0:0:0:
320,192,195298,1,8,0:0:0:0:
448,192,195298,1,0,0:0:0:0:
192,192,195505,1,0,0:0:0:0:
64,192,195712,1,2,0:0:0:0:
448,192,195712,128,0,196125:0:0:0:0:
64,192,196125,1,8,0:0:0:0:
192,192,196125,1,0,0:0:0:0:
192,192,196332,1,2,0:0:0:0:
320,192,196332,1,0,0:0:0:0:
320,192,196539,1,2,0:0:0:0:
448,192,196539,1,0,0:0:0:0:
64,192,196746,128,0,196953:0:0:0:0:
320,192,196953,1,8,0:0:0:0:
448,192,196953,1,0,0:0:0:0:
64,192,197160,1,2,0:0:0:0:
192,192,197160,1,0,0:0:0:0:
320,192,197367,1,0,0:0:0:0:
64,192,197574,1,2,0:0:0:0:
448,192,197574,1,0,0:0:0:0:
192,192,197781,1,8,0:0:0:0:
448,192,197781,1,0,0:0:0:0:
192,192,197988,1,2,0:0:0:0:
320,192,197988,1,0,0:0:0:0:
64,192,198194,1,2,0:0:0:0:
320,192,198194,1,0,0:0:0:0:
448,192,198401,128,0,198608:0:0:0:0:
192,192,198608,1,8,0:0:0:0:
320,192,198608,1,0,0:0:0:0:
64,192,198815,1,0,0:0:0:0:
320,192,199022,1,2,0:0:0:0:
448,192,199022,128,0,200263:0:0:0:0:
64,192,199436,1,8,0:0:0:0:
192,192,199436,1,0,0:0:0:0:
320,192,199643,1,2,0:0:0:0:
64,192,199850,128,2,200263:0:0:0:0:
192,192,199850,1,0,0:0:0:0:
192,192,200263,1,8,0:0:0:0:
320,192,200263,1,0,0:0:0:0:
64,192,200470,128,2,201091:0:0:0:0:
448,192,200470,1,0,0:0:0:0:
192,192,200884,128,2,201091:0:0:0:0:
448,192,200884,1,0,0:0:0:0:
320,192,201091,1,8,0:0:0:0:
448,192,201091,1,0,0:0:0:0:
64,192,201298,1,2,0:0:0:0:
192,192,201298,1,0,0:0:0:0:
320,192,201505,1,2,0:0:0:0:
448,192,201505,1,0,0:0:0:0:
64,192,201712,1,8,0:0:0:0:
192,192,201712,1,0,0:0:0:25:Hat open.wav
64,192,201919,1,8,0:0:0:0:
192,192,201919,1,0,0:0:0:25:Hat open.wav
320,192,202125,1,2,0:0:0:0:
448,192,202125,1,0,0:0:0:0:
64,192,202332,1,2,0:0:0:0:
192,192,202332,1,4,0:0:0:0:
448,192,202332,128,0,202746:0:0:0:0:
64,192,202746,1,8,0:0:0:0:
192,192,202746,1,0,0:0:0:0:
320,192,202953,1,2,0:0:0:0:
448,192,202953,1,0,0:0:0:0:
64,192,203160,1,2,0:0:0:0:
192,192,203160,1,0,0:0:0:0:
448,192,203367,1,0,0:0:0:0:
64,192,203574,1,8,0:0:0:0:
192,192,203574,1,0,0:0:0:0:
320,192,203781,1,2,0:0:0:0:
448,192,203781,1,0,0:0:0:0:
192,192,203988,128,0,204194:0:0:0:0:
320,192,204194,1,2,0:0:0:0:
448,192,204194,128,0,204401:0:0:0:0:
64,192,204401,1,8,0:0:0:0:
192,192,204401,1,0,0:0:0:0:
320,192,204608,128,2,204815:0:0:0:0:
448,192,204608,1,0,0:0:0:0:
64,192,204815,1,2,0:0:0:0:
192,192,204815,1,0,0:0:0:0:
448,192,205022,128,0,205229:0:0:0:0:
64,192,205229,1,8,0:0:0:0:
192,192,205229,1,0,0:0:0:0:
320,192,205436,1,0,0:0:0:0:
192,192,205539,1,0,0:0:0:0:
64,192,205643,128,2,206057:0:0:0:0:
448,192,205643,1,0,0:0:0:0:
320,192,206057,1,8,0:0:0:0:
448,192,206057,1,0,0:0:0:0:
64,192,206263,1,2,0:0:0:0:
192,192,206263,1,0,0:0:0:0:
320,192,206470,1,2,0:0:0:0:
448,192,206470,1,0,0:0:0:0:
192,192,206677,1,0,0:0:0:0:
320,192,206884,1,8,0:0:0:0:
448,192,206884,1,0,0:0:0:0:
64,192,207091,1,2,0:0:0:0:
192,192,207091,1,0,0:0:0:0:
448,192,207298,128,0,207505:0:0:0:0:
64,192,207505,128,2,207712:0:0:0:0:
192,192,207505,1,0,0:0:0:0:
320,192,207712,1,8,0:0:0:0:
448,192,207712,1,0,0:0:0:0:
64,192,207919,1,2,0:0:0:0:
192,192,207919,128,0,208125:0:0:0:0:
320,192,208125,1,2,0:0:0:0:
448,192,208125,1,0,0:0:0:0:
64,192,208332,128,0,208539:0:0:0:0:
320,192,208539,1,8,0:0:0:0:
448,192,208539,1,0,0:0:0:0:
192,192,208746,1,0,0:0:0:0:
320,192,208850,1,0,0:0:0:0:
64,192,208953,1,2,0:0:0:0:
448,192,208953,128,0,209367:0:0:0:0:
64,192,209367,1,8,0:0:0:0:
192,192,209367,1,0,0:0:0:0:
320,192,209574,1,2,0:0:0:0:
448,192,209574,1,0,0:0:0:0:
64,192,209781,1,2,0:0:0:0:
192,192,209781,1,0,0:0:0:0:
448,192,209988,1,0,0:0:0:0:
64,192,210194,1,8,0:0:0:0:
192,192,210194,1,0,0:0:0:0:
320,192,210401,1,2,0:0:0:0:
448,192,210401,1,0,0:0:0:0:
192,192,210608,128,0,210815:0:0:0:0:
64,192,210815,1,2,0:0:0:0:
448,192,210815,128,0,211022:0:0:0:0:
192,192,211022,1,8,0:0:0:0:
320,192,211022,1,0,0:0:0:0:
64,192,211229,128,2,211436:0:0:0:0:
448,192,211229,1,0,0:0:0:0:
192,192,211436,1,2,0:0:0:0:
320,192,211436,1,0,0:0:0:0:
448,192,211643,128,0,211850:0:0:0:0:
64,192,211850,1,8,0:0:0:0:
320,192,211850,1,0,0:0:0:0:
192,192,212057,1,0,0:0:0:0:
320,192,212160,1,0,0:0:0:0:
64,192,212263,128,2,212677:0:0:0:0:
448,192,212263,1,0,0:0:0:0:
192,192,212470,128,0,212677:0:0:0:0:
320,192,212677,1,8,0:0:0:0:
448,192,212677,1,0,0:0:0:0:
64,192,212884,1,2,0:0:0:0:
192,192,212884,1,0,0:0:0:0:
320,192,213091,1,2,0:0:0:0:
448,192,213091,1,0,0:0:0:0:
64,192,213298,1,0,0:0:0:0:
320,192,213505,1,8,0:0:0:0:
448,192,213505,1,0,0:0:0:0:
64,192,213712,1,2,0:0:0:0:
192,192,213712,1,0,0:0:0:0:
320,192,213919,128,0,214125:0:0:0:0:
64,192,214125,128,2,214332:0:0:0:0:
448,192,214125,1,0,0:0:0:0:
192,192,214332,1,8,0:0:0:0:
320,192,214332,1,0,0:0:0:0:
64,192,214539,1,2,0:0:0:0:
448,192,214539,128,0,214746:0:0:0:0:
192,192,214746,1,2,0:0:0:0:
320,192,214746,1,0,0:0:0:0:
64,192,214953,1,0,0:0:0:0:
320,192,215160,1,8,0:0:0:0:
448,192,215160,1,0,0:0:0:50:Tom2.wav
192,192,215367,1,0,0:0:0:0:
64,192,215574,1,2,0:0:0:0:
320,192,215574,128,4,215988:0:0:0:0:
448,192,215574,1,0,0:0:0:0:
192,192,215988,1,8,0:0:0:0:
448,192,215988,1,0,0:0:0:0:
64,192,216194,1,2,0:0:0:0:
320,192,216194,1,4,0:0:0:0:
448,192,216194,128,0,216608:0:0:0:0:
192,192,216608,1,2,0:0:0:0:
320,192,216608,1,0,0:0:0:0:
64,192,216815,128,2,218815:0:0:0:0:
192,192,216815,1,4,0:0:0:0:
448,192,216815,1,0,0:0:0:0:
448,192,218401,128,0,218815:0:0:0:0:
192,192,218815,128,0,221781:0:0:0:0:
320,192,219574,128,0,221781:0:0:0:0:
