osu file format v14

[General]
AudioFilename: baby.mp3
AudioLeadIn: 0
PreviewTime: 129625
Countdown: 0
SampleSet: Normal
StackLeniency: 0.7
Mode: 1
LetterboxInBreaks: 0
WidescreenStoryboard: 0

[Editor]
DistanceSpacing: 1
BeatDivisor: 4
GridSize: 32
TimelineZoom: 1

[Metadata]
Title:Baby Doll
TitleUnicode:Baby Doll
Artist:Utopia
ArtistUnicode:Utopia
Creator:Surono
Version:Terindah
Source:
Tags:Indah Pop Rock Alternative Bahasa Indonesia
BeatmapID:1665836
BeatmapSetID:793188

[Difficulty]
HPDrainRate:5
CircleSize:2
OverallDifficulty:6
ApproachRate:10
SliderMultiplier:1.4
SliderTickRate:1

[Events]
//Background and Video events
0,0,"hmm.jpg",0,-100
//Break Periods
//Storyboard Layer 0 (Background)
//Storyboard Layer 1 (Fail)
//Storyboard Layer 2 (Pass)
//Storyboard Layer 3 (Foreground)
//Storyboard Sound Samples

[TimingPoints]
90,428.571428571429,4,2,0,50,1,0
90,-125,4,2,0,50,0,0
5018,-119.047619047619,4,1,0,85,0,0
5340,-113.636363636364,4,1,0,85,0,0
5554,-108.695652173913,4,1,0,85,0,0
5768,-104.166666666667,4,1,0,85,0,0
6840,-100,4,1,0,85,0,0
20340,-105.263157894737,4,1,0,85,0,0
20554,-108.108108108108,4,1,0,85,0,0
20875,-111.111111111111,4,1,0,85,0,0
46268,-105.263157894737,4,1,0,85,0,0
48090,-100,4,1,0,85,0,1
61482,-105.263157894737,4,1,0,85,0,1
61804,-108.108108108108,4,1,0,85,0,0
62018,-111.111111111111,4,1,0,85,0,0
73804,-105.263157894737,4,1,0,85,0,0
75518,-100,4,1,0,85,0,1
89232,-105.263157894737,4,1,0,85,0,0
102840,-100,4,1,0,85,0,0
116125,-95.2380952380952,4,1,0,65,0,0
116340,-97.5609756097561,4,1,0,65,0,0
116554,-100,4,1,0,85,0,0
117090,-200,4,1,0,50,0,0
125018,-133.333333333333,4,2,0,70,0,0
128661,-96.1538461538461,4,1,0,60,0,0
128732,-98.0392156862745,4,1,0,60,0,0
128804,-100,4,1,0,60,0,0
128875,-102.040816326531,4,1,0,60,0,0
129090,-104.166666666667,4,1,0,70,0,0
129161,-106.382978723404,4,1,0,70,0,0
129232,-108.695652173913,4,1,0,70,0,0
129304,-111.111111111111,4,1,0,70,0,0
129518,-105.263157894737,4,1,0,85,0,0
130375,-100,4,1,0,85,0,1
157054,-102.040816326531,4,1,0,85,0,1
157268,-104.166666666667,4,1,0,85,0,1
157482,-106.382978723404,4,1,0,85,0,1
157804,-108.695652173913,4,1,0,85,0,0
158018,-111.111111111111,4,1,0,85,0,0
167768,-105.263157894737,4,1,0,85,0,0
167982,-100,4,1,0,85,0,0
168090,-100,4,1,0,85,0,1
181375,-97.5609756097561,4,1,0,85,0,1
181482,-95.2380952380952,4,1,0,85,0,1
181697,-93.0232558139535,4,1,0,85,0,1
181804,-90.9090909090909,4,1,0,85,0,1
193804,-90.9090909090909,4,2,0,85,0,0
193911,-90.9090909090909,4,1,0,50,0,0
194554,-90.9090909090909,4,1,0,45,0,0
195411,-90.9090909090909,4,1,0,40,0,0
196268,-90.9090909090909,4,1,0,35,0,0
197125,-90.9090909090909,4,1,0,30,0,0
197982,-90.9090909090909,4,1,0,25,0,0
198840,-90.9090909090909,4,1,0,20,0,0
199697,-90.9090909090909,4,1,0,15,0,0
200554,-90.9090909090909,4,1,0,10,0,0
201411,-90.9090909090909,4,1,0,5,0,0

[HitObjects]
256,192,90,5,4,0:0:0:0:
256,192,304,5,4,0:0:0:0:
256,192,732,5,8,0:0:0:0:
256,192,947,5,4,0:0:0:0:
256,192,1161,5,4,0:0:0:0:
256,192,1375,5,8,0:0:0:0:
256,192,1804,5,4,0:0:0:0:
256,192,2018,5,4,0:0:0:0:
256,192,2447,5,8,0:0:0:0:
256,192,2661,5,4,0:0:0:0:
256,192,2875,5,4,0:0:0:0:
256,192,3090,5,8,0:0:0:0:
256,192,3518,5,4,0:0:0:0:
256,192,3732,5,4,0:0:0:0:
256,192,4161,5,8,0:0:0:0:
256,192,4375,5,4,0:0:0:0:
256,192,4590,5,4,0:0:0:0:
256,192,4804,5,8,0:0:0:0:
256,192,5232,5,0,0:0:0:0:
256,192,5447,5,0,0:0:0:0:
256,192,5661,5,0,0:0:0:0:
256,192,5875,5,0,0:0:0:0:
256,192,6090,5,8,0:0:0:0:
256,192,6143,5,8,0:0:0:0:
256,192,6304,5,0,0:0:0:0:
256,192,6518,5,8,0:0:0:0:
256,192,6572,5,8,0:0:0:0:
256,192,6732,5,0,0:0:0:0:
256,192,6947,5,12,0:0:0:0:
256,192,7161,5,0,0:0:0:0:
256,192,7375,5,8,0:0:0:0:
256,192,7590,5,8,0:0:0:0:
256,192,7697,5,0,0:0:0:0:
256,192,7804,5,0,0:0:0:0:
256,192,8018,5,0,0:0:0:0:
256,192,8232,5,8,0:0:0:0:
256,192,8447,5,0,0:0:0:0:
256,192,8554,5,0,0:0:0:0:
256,192,8661,5,8,0:0:0:0:
256,192,8875,5,0,0:0:0:0:
256,192,9090,5,8,0:0:0:0:
256,192,9304,5,8,0:0:0:0:
256,192,9411,5,0,0:0:0:0:
256,192,9518,5,0,0:0:0:0:
256,192,9732,5,0,0:0:0:0:
256,192,9947,5,8,0:0:0:0:
256,192,10161,5,0,0:0:0:0:
256,192,10268,5,8,0:0:0:0:
256,192,10375,5,4,0:0:0:0:
256,192,10590,5,0,0:0:0:0:
256,192,10804,5,8,0:0:0:0:
256,192,11018,5,8,0:0:0:0:
256,192,11125,5,0,0:0:0:0:
256,192,11232,5,0,0:0:0:0:
256,192,11447,5,0,0:0:0:0:
256,192,11661,5,8,0:0:0:0:
256,192,11875,5,0,0:0:0:0:
256,192,11982,5,0,0:0:0:0:
256,192,12090,5,8,0:0:0:0:
256,192,12304,5,8,0:0:0:0:
256,192,12518,5,8,0:0:0:0:
256,192,12732,5,0,0:0:0:0:
256,192,12947,5,0,0:0:0:0:
256,192,13161,5,0,0:0:0:0:
256,192,13375,5,8,0:0:0:0:
256,192,13590,5,0,0:0:0:0:
256,192,13697,5,8,0:0:0:0:
256,192,13804,5,4,0:0:0:0:
256,192,14018,5,0,0:0:0:0:
256,192,14232,5,8,0:0:0:0:
256,192,14447,5,8,0:0:0:0:
256,192,14554,5,0,0:0:0:0:
256,192,14661,5,0,0:0:0:0:
256,192,14875,5,0,0:0:0:0:
256,192,15090,5,8,0:0:0:0:
256,192,15304,5,0,0:0:0:0:
256,192,15411,5,0,0:0:0:0:
256,192,15518,5,8,0:0:0:0:
256,192,15732,5,0,0:0:0:0:
256,192,15947,5,8,0:0:0:0:
256,192,16161,5,8,0:0:0:0:
256,192,16268,5,0,0:0:0:0:
256,192,16375,5,0,0:0:0:0:
256,192,16590,5,0,0:0:0:0:
256,192,16804,5,8,0:0:0:0:
256,192,17018,5,0,0:0:0:0:
256,192,17125,5,8,0:0:0:0:
256,192,17232,5,4,0:0:0:0:
256,192,17447,5,0,0:0:0:0:
256,192,17661,5,8,0:0:0:0:
256,192,17875,5,8,0:0:0:0:
256,192,17982,5,0,0:0:0:0:
256,192,18090,5,0,0:0:0:0:
256,192,18304,5,0,0:0:0:0:
256,192,18518,5,8,0:0:0:0:
256,192,18732,5,0,0:0:0:0:
256,192,18840,5,0,0:0:0:0:
256,192,18947,5,8,0:0:0:0:
256,192,19161,5,8,0:0:0:0:
256,192,19375,5,8,0:0:0:0:
256,192,19590,5,0,0:0:0:0:
256,192,19804,5,8,0:0:0:0:
256,192,19911,5,0,0:0:0:0:
256,192,20018,5,0,0:0:0:0:
256,192,20125,5,0,0:0:0:0:
256,192,20232,5,8,0:0:0:0:
256,192,20447,5,0,0:0:0:0:
256,192,20661,5,4,0:0:0:0:
256,192,21090,5,8,0:0:0:0:
256,192,21947,5,8,0:0:0:0:
256,192,22161,5,0,0:0:0:0:
256,192,22375,5,0,0:0:0:0:
256,192,22804,5,8,0:0:0:0:
256,192,23447,5,0,0:0:0:0:
256,192,23661,5,8,0:0:0:0:
256,192,23875,5,0,0:0:0:0:
256,192,24090,5,0,0:0:0:0:
256,192,24518,5,8,0:0:0:0:
256,192,25375,5,8,0:0:0:0:
256,192,25590,5,0,0:0:0:0:
256,192,25804,5,0,0:0:0:0:
256,192,26232,5,8,0:0:0:0:
256,192,26447,5,0,0:0:0:0:
256,192,26554,5,0,0:0:0:0:
256,192,26661,5,8,0:0:0:0:
256,192,26875,5,0,0:0:0:0:
256,192,27090,5,8,0:0:0:0:
256,192,27304,5,8,0:0:0:0:
256,192,27518,5,0,0:0:0:0:
256,192,27947,5,8,0:0:0:0:
256,192,28804,5,8,0:0:0:0:
256,192,29018,5,0,0:0:0:0:
256,192,29232,5,0,0:0:0:0:
256,192,29661,5,8,0:0:0:0:
256,192,30304,5,0,0:0:0:0:
256,192,30518,5,8,0:0:0:0:
256,192,30732,5,0,0:0:0:0:
256,192,30947,5,0,0:0:0:0:
256,192,31375,5,8,0:0:0:0:
256,192,32232,5,8,0:0:0:0:
256,192,32447,5,0,0:0:0:0:
256,192,32661,5,0,0:0:0:0:
256,192,33090,5,8,0:0:0:0:
256,192,33304,5,0,0:0:0:0:
256,192,33411,5,0,0:0:0:0:
256,192,33518,5,0,0:0:0:0:
256,192,33732,5,0,0:0:0:0:
256,192,33947,5,8,0:0:0:0:
256,192,34161,5,8,0:0:0:0:
256,192,34375,5,0,0:0:0:0:
256,192,34804,5,8,0:0:0:0:
256,192,35661,5,8,0:0:0:0:
256,192,35875,5,0,0:0:0:0:
256,192,36090,5,0,0:0:0:0:
256,192,36518,5,8,0:0:0:0:
256,192,36732,5,0,0:0:0:0:
256,192,37161,5,0,0:0:0:0:
256,192,37375,5,8,0:0:0:0:
256,192,37590,5,0,0:0:0:0:
256,192,37804,5,0,0:0:0:0:
256,192,38232,5,8,0:0:0:0:
256,192,39090,5,8,0:0:0:0:
256,192,39304,5,0,0:0:0:0:
256,192,39518,5,0,0:0:0:0:
256,192,39947,5,8,0:0:0:0:
256,192,40161,5,0,0:0:0:0:
256,192,40268,5,0,0:0:0:0:
256,192,40375,5,8,0:0:0:0:
256,192,40590,5,0,0:0:0:0:
256,192,40804,5,8,0:0:0:0:
256,192,41018,5,8,0:0:0:0:
256,192,41232,5,0,0:0:0:0:
256,192,41661,5,8,0:0:0:0:
256,192,41875,5,8,0:0:0:0:
256,192,42518,5,8,0:0:0:0:
256,192,42732,5,0,0:0:0:0:
256,192,42947,5,0,0:0:0:0:
256,192,43375,5,8,0:0:0:0:
256,192,43590,5,0,0:0:0:0:
256,192,44018,5,0,0:0:0:0:
256,192,44232,5,8,0:0:0:0:
256,192,44447,5,8,0:0:0:0:
256,192,44661,5,0,0:0:0:0:
256,192,45090,5,8,0:0:0:0:
256,192,45732,5,0,0:0:0:0:
256,192,45947,5,8,0:0:0:0:
256,192,46161,5,8,0:0:0:0:
256,192,46375,5,0,0:0:0:0:
256,192,46590,5,8,0:0:0:0:
256,192,46643,5,8,0:0:0:0:
256,192,46804,5,0,0:0:0:0:
256,192,47018,5,4,0:0:0:0:
256,192,47232,5,8,0:0:0:0:
256,192,47340,5,0,0:0:0:0:
256,192,47447,5,0,0:0:0:0:
256,192,47661,5,8,0:0:0:0:
256,192,47875,5,0,0:0:0:0:
256,192,48090,5,12,0:0:0:0:
256,192,48518,5,8,0:0:0:0:
256,192,48732,5,8,0:0:0:0:
256,192,48947,5,0,0:0:0:0:
256,192,49161,5,0,0:0:0:0:
256,192,49268,5,0,0:0:0:0:
256,192,49375,5,8,0:0:0:0:
256,192,49590,5,0,0:0:0:0:
256,192,50018,5,0,0:0:0:0:
256,192,50232,5,8,0:0:0:0:
256,192,50447,5,0,0:0:0:0:
256,192,50554,5,0,0:0:0:0:
256,192,50661,5,0,0:0:0:0:
256,192,50875,5,0,0:0:0:0:
256,192,51090,5,8,0:0:0:0:
256,192,51304,5,0,0:0:0:0:
256,192,51518,5,12,0:0:0:0:
256,192,51947,5,8,0:0:0:0:
256,192,52161,5,0,0:0:0:0:
256,192,52375,5,8,0:0:0:0:
256,192,52590,5,0,0:0:0:0:
256,192,52697,5,0,0:0:0:0:
256,192,52804,5,8,0:0:0:0:
256,192,53018,5,0,0:0:0:0:
256,192,53447,5,0,0:0:0:0:
256,192,53661,5,8,0:0:0:0:
256,192,53875,5,0,0:0:0:0:
256,192,53982,5,8,0:0:0:0:
256,192,54090,5,8,0:0:0:0:
256,192,54304,5,0,0:0:0:0:
256,192,54411,5,0,0:0:0:0:
256,192,54518,5,8,0:0:0:0:
256,192,54732,5,0,0:0:0:0:
256,192,54947,5,12,0:0:0:0:
256,192,55268,5,0,0:0:0:0:
256,192,55375,5,8,0:0:0:0:
256,192,55590,5,8,0:0:0:0:
256,192,55804,5,0,0:0:0:0:
256,192,56018,5,0,0:0:0:0:
256,192,56125,5,0,0:0:0:0:
256,192,56232,5,8,0:0:0:0:
256,192,56447,5,0,0:0:0:0:
256,192,56875,5,0,0:0:0:0:
256,192,57090,5,8,0:0:0:0:
256,192,57304,5,0,0:0:0:0:
256,192,57411,5,0,0:0:0:0:
256,192,57518,5,0,0:0:0:0:
256,192,57732,5,0,0:0:0:0:
256,192,57947,5,8,0:0:0:0:
256,192,58161,5,0,0:0:0:0:
256,192,58375,5,12,0:0:0:0:
256,192,58804,5,8,0:0:0:0:
256,192,59232,5,0,0:0:0:0:
256,192,59447,5,0,0:0:0:0:
256,192,59661,5,8,0:0:0:0:
256,192,59875,5,8,0:0:0:0:
256,192,59982,5,8,0:0:0:0:
256,192,60090,5,0,0:0:0:0:
256,192,60304,5,0,0:0:0:0:
256,192,60518,5,8,0:0:0:0:
256,192,60947,5,8,0:0:0:0:
256,192,61054,5,0,0:0:0:0:
256,192,61161,5,8,0:0:0:0:
256,192,61268,5,0,0:0:0:0:
256,192,61375,5,8,0:0:0:0:
256,192,61590,5,8,0:0:0:0:
256,192,61804,5,4,0:0:0:0:
256,192,62232,5,8,0:0:0:0:
256,192,63090,5,8,0:0:0:0:
256,192,63304,5,0,0:0:0:0:
256,192,63518,5,0,0:0:0:0:
256,192,63947,5,8,0:0:0:0:
256,192,64161,5,8,0:0:0:0:
256,192,64590,5,8,0:0:0:0:
256,192,64804,5,8,0:0:0:0:
256,192,65018,5,0,0:0:0:0:
256,192,65232,5,0,0:0:0:0:
256,192,65661,5,8,0:0:0:0:
256,192,66518,5,8,0:0:0:0:
256,192,66732,5,0,0:0:0:0:
256,192,66947,5,0,0:0:0:0:
256,192,67375,5,8,0:0:0:0:
256,192,67590,5,0,0:0:0:0:
256,192,67697,5,0,0:0:0:0:
256,192,67804,5,0,0:0:0:0:
256,192,68018,5,8,0:0:0:0:
256,192,68232,5,8,0:0:0:0:
256,192,68447,5,8,0:0:0:0:
256,192,68661,5,0,0:0:0:0:
256,192,69090,5,8,0:0:0:0:
256,192,69947,5,8,0:0:0:0:
256,192,70161,5,0,0:0:0:0:
256,192,70375,5,0,0:0:0:0:
256,192,70804,5,8,0:0:0:0:
256,192,71447,5,0,0:0:0:0:
256,192,71661,5,8,0:0:0:0:
256,192,71875,5,8,0:0:0:0:
256,192,72090,5,4,0:0:0:0:
256,192,72518,5,8,0:0:0:0:
256,192,73375,5,8,0:0:0:0:
256,192,73590,5,8,0:0:0:0:
256,192,73804,5,0,0:0:0:0:
256,192,74018,5,8,0:0:0:0:
256,192,74072,5,8,0:0:0:0:
256,192,74232,5,0,0:0:0:0:
256,192,74447,5,4,0:0:0:0:
256,192,74661,5,4,0:0:0:0:
256,192,74875,5,0,0:0:0:0:
256,192,75090,5,4,0:0:0:0:
256,192,75304,5,0,0:0:0:0:
256,192,75518,5,12,0:0:0:0:
256,192,75947,5,8,0:0:0:0:
256,192,76161,5,8,0:0:0:0:
256,192,76375,5,0,0:0:0:0:
256,192,76590,5,0,0:0:0:0:
256,192,76697,5,0,0:0:0:0:
256,192,76804,5,8,0:0:0:0:
256,192,77018,5,0,0:0:0:0:
256,192,77447,5,0,0:0:0:0:
256,192,77661,5,8,0:0:0:0:
256,192,77875,5,0,0:0:0:0:
256,192,77982,5,0,0:0:0:0:
256,192,78090,5,0,0:0:0:0:
256,192,78197,5,0,0:0:0:0:
256,192,78304,5,0,0:0:0:0:
256,192,78518,5,8,0:0:0:0:
256,192,78732,5,0,0:0:0:0:
256,192,78947,5,12,0:0:0:0:
256,192,79375,5,8,0:0:0:0:
256,192,79590,5,0,0:0:0:0:
256,192,79804,5,8,0:0:0:0:
256,192,80018,5,0,0:0:0:0:
256,192,80125,5,0,0:0:0:0:
256,192,80232,5,8,0:0:0:0:
256,192,80447,5,0,0:0:0:0:
256,192,80875,5,0,0:0:0:0:
256,192,81090,5,8,0:0:0:0:
256,192,81304,5,8,0:0:0:0:
256,192,81411,5,8,0:0:0:0:
256,192,81518,5,8,0:0:0:0:
256,192,81732,5,0,0:0:0:0:
256,192,81840,5,0,0:0:0:0:
256,192,81947,5,8,0:0:0:0:
256,192,82161,5,0,0:0:0:0:
256,192,82375,5,12,0:0:0:0:
256,192,82697,5,0,0:0:0:0:
256,192,82804,5,8,0:0:0:0:
256,192,83018,5,8,0:0:0:0:
256,192,83232,5,0,0:0:0:0:
256,192,83447,5,0,0:0:0:0:
256,192,83554,5,0,0:0:0:0:
256,192,83661,5,8,0:0:0:0:
256,192,83875,5,0,0:0:0:0:
256,192,84304,5,0,0:0:0:0:
256,192,84518,5,8,0:0:0:0:
256,192,84732,5,0,0:0:0:0:
256,192,84840,5,0,0:0:0:0:
256,192,84947,5,0,0:0:0:0:
256,192,85054,5,0,0:0:0:0:
256,192,85161,5,0,0:0:0:0:
256,192,85375,5,8,0:0:0:0:
256,192,85590,5,0,0:0:0:0:
256,192,85804,5,12,0:0:0:0:
256,192,86232,5,8,0:0:0:0:
256,192,86661,5,0,0:0:0:0:
256,192,86875,5,0,0:0:0:0:
256,192,87090,5,8,0:0:0:0:
256,192,87304,5,8,0:0:0:0:
256,192,87411,5,8,0:0:0:0:
256,192,87518,5,0,0:0:0:0:
256,192,87732,5,0,0:0:0:0:
256,192,87947,5,8,0:0:0:0:
256,192,88161,5,0,0:0:0:0:
256,192,88375,5,0,0:0:0:0:
256,192,88590,5,12,0:0:0:0:
256,192,88804,5,12,0:0:0:0:
256,192,89232,5,4,0:0:0:0:
256,192,89661,5,8,0:0:0:0:
256,192,89875,5,8,0:0:0:0:
256,192,89982,5,0,0:0:0:0:
256,192,90090,5,0,0:0:0:0:
256,192,90304,5,0,0:0:0:0:
256,192,90518,5,8,0:0:0:0:
256,192,90732,5,0,0:0:0:0:
256,192,91161,5,0,0:0:0:0:
256,192,91375,5,8,0:0:0:0:
256,192,91590,5,0,0:0:0:0:
256,192,91804,5,8,0:0:0:0:
256,192,91911,5,8,0:0:0:0:
256,192,92018,5,0,0:0:0:0:
256,192,92232,5,8,0:0:0:0:
256,192,92447,5,0,0:0:0:0:
256,192,92661,5,12,0:0:0:0:
256,192,93090,5,8,0:0:0:0:
256,192,93304,5,8,0:0:0:0:
256,192,93411,5,0,0:0:0:0:
256,192,93518,5,0,0:0:0:0:
256,192,93732,5,0,0:0:0:0:
256,192,93947,5,8,0:0:0:0:
256,192,94161,5,8,0:0:0:0:
256,192,94590,5,0,0:0:0:0:
256,192,94804,5,8,0:0:0:0:
256,192,95018,5,0,0:0:0:0:
256,192,95232,5,8,0:0:0:0:
256,192,95340,5,0,0:0:0:0:
256,192,95447,5,8,0:0:0:0:
256,192,95661,5,8,0:0:0:0:
256,192,95875,5,0,0:0:0:0:
256,192,96090,5,12,0:0:0:0:
256,192,96518,5,8,0:0:0:0:
256,192,96732,5,8,0:0:0:0:
256,192,96840,5,0,0:0:0:0:
256,192,96947,5,0,0:0:0:0:
256,192,97161,5,0,0:0:0:0:
256,192,97375,5,8,0:0:0:0:
256,192,97590,5,8,0:0:0:0:
256,192,98018,5,0,0:0:0:0:
256,192,98232,5,8,0:0:0:0:
256,192,98447,5,0,0:0:0:0:
256,192,98661,5,8,0:0:0:0:
256,192,98768,5,8,0:0:0:0:
256,192,98875,5,0,0:0:0:0:
256,192,99090,5,8,0:0:0:0:
256,192,99304,5,0,0:0:0:0:
256,192,99518,5,12,0:0:0:0:
256,192,99947,5,8,0:0:0:0:
256,192,100161,5,8,0:0:0:0:
256,192,100268,5,0,0:0:0:0:
256,192,100375,5,0,0:0:0:0:
256,192,100590,5,0,0:0:0:0:
256,192,100804,5,8,0:0:0:0:
256,192,101018,5,8,0:0:0:0:
256,192,101447,5,0,0:0:0:0:
256,192,101661,5,8,0:0:0:0:
256,192,101875,5,0,0:0:0:0:
256,192,102090,5,8,0:0:0:0:
256,192,102197,5,0,0:0:0:0:
256,192,102304,5,12,0:0:0:0:
256,192,102518,5,12,0:0:0:0:
256,192,102732,5,0,0:0:0:0:
256,192,102947,5,4,0:0:0:0:
256,192,103161,5,0,0:0:0:0:
256,192,103375,5,8,0:0:0:0:
256,192,103590,5,0,0:0:0:0:
256,192,103804,5,0,0:0:0:0:
256,192,104018,5,8,0:0:0:0:
256,192,104232,5,8,0:0:0:0:
256,192,104447,5,0,0:0:0:0:
256,192,104554,5,0,0:0:0:0:
256,192,104661,5,0,0:0:0:0:
256,192,104875,5,0,0:0:0:0:
256,192,105090,5,8,0:0:0:0:
256,192,105304,5,0,0:0:0:0:
256,192,105518,5,8,0:0:0:0:
256,192,105840,5,0,0:0:0:0:
256,192,105947,5,8,0:0:0:0:
256,192,106161,5,0,0:0:0:0:
256,192,106375,5,12,0:0:0:0:
256,192,106590,5,0,0:0:0:0:
256,192,106804,5,8,0:0:0:0:
256,192,107018,5,0,0:0:0:0:
256,192,107232,5,0,0:0:0:0:
256,192,107447,5,8,0:0:0:0:
256,192,107661,5,8,0:0:0:0:
256,192,107875,5,0,0:0:0:0:
256,192,107982,5,0,0:0:0:0:
256,192,108090,5,0,0:0:0:0:
256,192,108304,5,0,0:0:0:0:
256,192,108518,5,8,0:0:0:0:
256,192,108732,5,0,0:0:0:0:
256,192,108947,5,8,0:0:0:0:
256,192,109161,5,0,0:0:0:0:
256,192,109268,5,0,0:0:0:0:
256,192,109375,5,8,0:0:0:0:
256,192,109590,5,0,0:0:0:0:
256,192,109804,5,12,0:0:0:0:
256,192,110018,5,0,0:0:0:0:
256,192,110232,5,8,0:0:0:0:
256,192,110447,5,0,0:0:0:0:
256,192,110661,5,0,0:0:0:0:
256,192,110875,5,8,0:0:0:0:
256,192,111090,5,8,0:0:0:0:
256,192,111304,5,0,0:0:0:0:
256,192,111411,5,0,0:0:0:0:
256,192,111518,5,0,0:0:0:0:
256,192,111732,5,0,0:0:0:0:
256,192,111947,5,8,0:0:0:0:
256,192,112161,5,0,0:0:0:0:
256,192,112375,5,8,0:0:0:0:
256,192,112697,5,0,0:0:0:0:
256,192,112804,5,8,0:0:0:0:
256,192,113018,5,0,0:0:0:0:
256,192,113232,5,12,0:0:0:0:
256,192,113447,5,0,0:0:0:0:
256,192,113661,5,8,0:0:0:0:
256,192,113875,5,0,0:0:0:0:
256,192,114090,5,0,0:0:0:0:
256,192,114304,5,8,0:0:0:0:
256,192,114518,5,8,0:0:0:0:
256,192,114732,5,0,0:0:0:0:
256,192,114840,5,0,0:0:0:0:
256,192,114947,5,0,0:0:0:0:
256,192,115161,5,8,0:0:0:0:
256,192,115215,5,8,0:0:0:0:
256,192,115375,5,8,0:0:0:0:
256,192,115429,5,8,0:0:0:0:
256,192,115590,5,0,0:0:0:0:
256,192,115804,5,0,0:0:0:0:
256,192,115857,5,0,0:0:0:0:
256,192,116018,5,0,0:0:0:0:
256,192,116232,5,4,0:0:0:0:
256,192,116447,5,4,0:0:0:0:
256,192,116661,5,12,0:0:0:0:
256,192,118375,6,0,L|192:160,1,70
256,192,119018,5,0,0:0:0:0:
256,192,119447,5,8,0:0:0:0:
96,32,120090,6,0,L|320:160,1,245
308,153,121804,6,0,L|192:64,1,140
64,320,123518,6,0,L|288:288,1,210
256,192,125232,5,4,0:0:0:0:
256,192,125447,5,4,0:0:0:0:
256,192,125875,5,8,0:0:0:0:
256,192,126090,5,4,0:0:0:0:
256,192,126304,5,4,0:0:0:0:
256,192,126518,5,8,0:0:0:0:
256,192,126947,5,4,0:0:0:0:
256,192,127161,5,4,0:0:0:0:
256,192,127590,5,8,0:0:0:0:
256,192,127804,5,4,0:0:0:0:
256,192,128018,5,4,0:0:0:0:
256,192,128232,5,8,0:0:0:0:
256,192,128661,5,0,0:0:0:0:
256,192,128732,5,0,0:0:0:0:
256,192,128804,5,0,0:0:0:0:
256,192,128875,5,0,0:0:0:0:
256,192,129090,5,8,0:0:0:0:
256,192,129161,5,8,0:0:0:0:
256,192,129232,5,8,0:0:0:0:
256,192,129304,5,8,0:0:0:0:
256,192,129518,5,8,0:0:0:0:
256,192,129572,5,8,0:0:0:0:
256,192,129732,5,0,0:0:0:0:
256,192,129947,5,8,0:0:0:0:
256,192,130000,5,8,0:0:0:0:
256,192,130161,5,0,0:0:0:0:
256,192,130375,5,12,0:0:0:0:
256,192,130804,5,8,0:0:0:0:
256,192,131018,5,8,0:0:0:0:
256,192,131232,5,0,0:0:0:0:
256,192,131447,5,0,0:0:0:0:
256,192,131554,5,0,0:0:0:0:
256,192,131661,5,8,0:0:0:0:
256,192,131875,5,0,0:0:0:0:
256,192,132304,5,0,0:0:0:0:
256,192,132518,5,8,0:0:0:0:
256,192,132732,5,0,0:0:0:0:
256,192,132840,5,0,0:0:0:0:
256,192,132947,5,0,0:0:0:0:
256,192,133161,5,0,0:0:0:0:
256,192,133375,5,8,0:0:0:0:
256,192,133590,5,0,0:0:0:0:
256,192,133804,5,12,0:0:0:0:
256,192,134232,5,8,0:0:0:0:
256,192,134447,5,0,0:0:0:0:
256,192,134661,5,8,0:0:0:0:
256,192,134875,5,0,0:0:0:0:
256,192,134982,5,0,0:0:0:0:
256,192,135090,5,8,0:0:0:0:
256,192,135304,5,0,0:0:0:0:
256,192,135732,5,0,0:0:0:0:
256,192,135947,5,8,0:0:0:0:
256,192,136161,5,0,0:0:0:0:
256,192,136268,5,8,0:0:0:0:
256,192,136375,5,8,0:0:0:0:
256,192,136590,5,0,0:0:0:0:
256,192,136697,5,0,0:0:0:0:
256,192,136804,5,8,0:0:0:0:
256,192,137018,5,0,0:0:0:0:
256,192,137232,5,12,0:0:0:0:
256,192,137554,5,0,0:0:0:0:
256,192,137661,5,8,0:0:0:0:
256,192,137875,5,8,0:0:0:0:
256,192,138090,5,0,0:0:0:0:
256,192,138304,5,0,0:0:0:0:
256,192,138411,5,0,0:0:0:0:
256,192,138518,5,8,0:0:0:0:
256,192,138732,5,0,0:0:0:0:
256,192,139161,5,0,0:0:0:0:
256,192,139375,5,8,0:0:0:0:
256,192,139590,5,0,0:0:0:0:
256,192,139697,5,0,0:0:0:0:
256,192,139804,5,0,0:0:0:0:
256,192,140018,5,0,0:0:0:0:
256,192,140232,5,8,0:0:0:0:
256,192,140447,5,0,0:0:0:0:
256,192,140661,5,12,0:0:0:0:
256,192,141090,5,8,0:0:0:0:
256,192,141518,5,0,0:0:0:0:
256,192,141732,5,0,0:0:0:0:
256,192,141947,5,8,0:0:0:0:
256,192,142161,5,0,0:0:0:0:
256,192,142590,5,0,0:0:0:0:
256,192,142804,5,8,0:0:0:0:
256,192,143018,5,0,0:0:0:0:
256,192,143125,5,0,0:0:0:0:
256,192,143232,5,0,0:0:0:0:
256,192,143554,5,0,0:0:0:0:
256,192,143661,5,8,0:0:0:0:
256,192,143875,5,0,0:0:0:0:
256,192,144090,5,12,0:0:0:0:
256,192,144518,5,8,0:0:0:0:
256,192,144732,5,8,0:0:0:0:
256,192,144947,5,0,0:0:0:0:
256,192,145161,5,0,0:0:0:0:
256,192,145268,5,0,0:0:0:0:
256,192,145375,5,8,0:0:0:0:
256,192,145590,5,0,0:0:0:0:
256,192,146018,5,0,0:0:0:0:
256,192,146232,5,8,0:0:0:0:
256,192,146447,5,0,0:0:0:0:
256,192,146554,5,0,0:0:0:0:
256,192,146661,5,0,0:0:0:0:
256,192,146768,5,0,0:0:0:0:
256,192,146875,5,0,0:0:0:0:
256,192,147090,5,8,0:0:0:0:
256,192,147304,5,0,0:0:0:0:
256,192,147518,5,12,0:0:0:0:
256,192,147947,5,8,0:0:0:0:
256,192,148161,5,0,0:0:0:0:
256,192,148375,5,8,0:0:0:0:
256,192,148590,5,0,0:0:0:0:
256,192,148697,5,0,0:0:0:0:
256,192,148804,5,8,0:0:0:0:
256,192,149018,5,0,0:0:0:0:
256,192,149447,5,0,0:0:0:0:
256,192,149661,5,8,0:0:0:0:
256,192,149875,5,8,0:0:0:0:
256,192,149982,5,8,0:0:0:0:
256,192,150090,5,8,0:0:0:0:
256,192,150304,5,0,0:0:0:0:
256,192,150411,5,0,0:0:0:0:
256,192,150518,5,8,0:0:0:0:
256,192,150732,5,8,0:0:0:0:
256,192,150947,5,4,0:0:0:0:
256,192,151268,5,0,0:0:0:0:
256,192,151375,5,8,0:0:0:0:
256,192,151590,5,8,0:0:0:0:
256,192,151804,5,0,0:0:0:0:
256,192,152018,5,0,0:0:0:0:
256,192,152125,5,0,0:0:0:0:
256,192,152232,5,8,0:0:0:0:
256,192,152447,5,0,0:0:0:0:
256,192,152875,5,0,0:0:0:0:
256,192,153090,5,8,0:0:0:0:
256,192,153304,5,0,0:0:0:0:
256,192,153411,5,0,0:0:0:0:
256,192,153518,5,0,0:0:0:0:
256,192,153625,5,0,0:0:0:0:
256,192,153732,5,0,0:0:0:0:
256,192,153947,5,8,0:0:0:0:
256,192,154161,5,8,0:0:0:0:
256,192,154375,5,4,0:0:0:0:
256,192,154804,5,8,0:0:0:0:
256,192,155232,5,0,0:0:0:0:
256,192,155447,5,0,0:0:0:0:
256,192,155661,5,8,0:0:0:0:
256,192,155875,5,8,0:0:0:0:
256,192,155982,5,8,0:0:0:0:
256,192,156090,5,0,0:0:0:0:
256,192,156304,5,4,0:0:0:0:
256,192,156518,5,8,0:0:0:0:
256,192,156732,5,4,0:0:0:0:
256,192,156947,5,0,0:0:0:0:
256,192,157161,5,8,0:0:0:0:
256,192,157375,5,8,0:0:0:0:
256,192,157590,5,0,0:0:0:0:
256,192,157804,5,4,0:0:0:0:
256,192,158232,5,8,0:0:0:0:
256,192,158286,5,8,0:0:0:0:
256,192,159090,5,8,0:0:0:0:
256,192,159143,5,8,0:0:0:0:
256,192,159304,5,0,0:0:0:0:
256,192,159518,5,0,0:0:0:0:
256,192,159732,5,0,0:0:0:0:
256,192,159947,5,8,0:0:0:0:
256,192,160000,5,8,0:0:0:0:
256,192,160804,5,8,0:0:0:0:
256,192,160857,5,8,0:0:0:0:
256,192,161018,5,0,0:0:0:0:
256,192,161232,5,8,0:0:0:0:
256,192,161447,5,0,0:0:0:0:
256,192,161661,5,8,0:0:0:0:
256,192,161715,5,8,0:0:0:0:
256,192,162518,5,8,0:0:0:0:
256,192,162572,5,8,0:0:0:0:
256,192,162732,5,0,0:0:0:0:
256,192,162947,5,0,0:0:0:0:
256,192,163375,5,8,0:0:0:0:
256,192,163429,5,8,0:0:0:0:
256,192,164232,5,8,0:0:0:0:
256,192,164286,5,8,0:0:0:0:
256,192,164447,5,0,0:0:0:0:
256,192,164661,5,8,0:0:0:0:
256,192,164875,5,0,0:0:0:0:
256,192,165090,5,8,0:0:0:0:
256,192,165143,5,8,0:0:0:0:
256,192,165947,5,8,0:0:0:0:
256,192,166000,5,8,0:0:0:0:
256,192,166161,5,0,0:0:0:0:
256,192,166268,5,0,0:0:0:0:
256,192,166375,5,0,0:0:0:0:
256,192,166804,5,8,0:0:0:0:
256,192,166857,5,8,0:0:0:0:
256,192,167661,5,8,0:0:0:0:
256,192,167715,5,8,0:0:0:0:
256,192,167875,5,0,0:0:0:0:
256,192,168090,5,4,0:0:0:0:
256,192,168518,5,8,0:0:0:0:
256,192,168732,5,0,0:0:0:0:
256,192,169161,5,0,0:0:0:0:
256,192,169268,5,0,0:0:0:0:
256,192,169375,5,8,0:0:0:0:
256,192,169590,5,0,0:0:0:0:
256,192,170018,5,0,0:0:0:0:
256,192,170232,5,8,0:0:0:0:
256,192,170447,5,0,0:0:0:0:
256,192,170661,5,0,0:0:0:0:
256,192,170875,5,0,0:0:0:0:
256,192,171090,5,8,0:0:0:0:
256,192,171304,5,8,0:0:0:0:
256,192,171518,5,4,0:0:0:0:
256,192,171947,5,8,0:0:0:0:
256,192,172161,5,0,0:0:0:0:
256,192,172590,5,0,0:0:0:0:
256,192,172697,5,0,0:0:0:0:
256,192,172804,5,8,0:0:0:0:
256,192,173018,5,8,0:0:0:0:
256,192,173447,5,0,0:0:0:0:
256,192,173661,5,8,0:0:0:0:
256,192,173875,5,8,0:0:0:0:
256,192,174090,5,0,0:0:0:0:
256,192,174304,5,0,0:0:0:0:
256,192,174518,5,8,0:0:0:0:
256,192,174732,5,0,0:0:0:0:
256,192,174947,5,4,0:0:0:0:
256,192,175375,5,8,0:0:0:0:
256,192,175590,5,12,0:0:0:0:
256,192,176018,5,0,0:0:0:0:
256,192,176125,5,0,0:0:0:0:
256,192,176232,5,8,0:0:0:0:
256,192,176447,5,0,0:0:0:0:
256,192,176875,5,0,0:0:0:0:
256,192,177090,5,8,0:0:0:0:
256,192,177304,5,0,0:0:0:0:
256,192,177518,5,0,0:0:0:0:
256,192,177732,5,0,0:0:0:0:
256,192,177840,5,0,0:0:0:0:
256,192,177947,5,8,0:0:0:0:
256,192,178161,5,8,0:0:0:0:
256,192,178375,5,4,0:0:0:0:
256,192,178804,5,8,0:0:0:0:
256,192,179018,5,8,0:0:0:0:
256,192,179447,5,0,0:0:0:0:
256,192,179554,5,0,0:0:0:0:
256,192,179661,5,8,0:0:0:0:
256,192,179875,5,8,0:0:0:0:
256,192,180304,5,0,0:0:0:0:
256,192,180518,5,8,0:0:0:0:
256,192,180732,5,8,0:0:0:0:
256,192,180947,5,0,0:0:0:0:
256,192,181161,5,0,0:0:0:0:
256,192,181375,5,8,0:0:0:0:
256,192,181590,5,8,0:0:0:0:
256,192,181697,5,8,0:0:0:0:
256,192,181804,5,4,0:0:0:0:
256,192,182232,5,8,0:0:0:0:
256,192,182447,5,4,0:0:0:0:
256,192,182875,5,12,0:0:0:0:
256,192,183090,5,8,0:0:0:0:
256,192,183304,5,4,0:0:0:0:
256,192,183732,5,0,0:0:0:0:
256,192,183947,5,8,0:0:0:0:
256,192,184161,5,0,0:0:0:0:
256,192,184375,5,0,0:0:0:0:
256,192,184482,5,0,0:0:0:0:
256,192,184590,5,0,0:0:0:0:
256,192,184804,5,8,0:0:0:0:
256,192,185018,5,0,0:0:0:0:
256,192,185232,5,4,0:0:0:0:
256,192,185661,5,8,0:0:0:0:
256,192,185875,5,4,0:0:0:0:
256,192,186304,5,12,0:0:0:0:
256,192,186518,5,8,0:0:0:0:
256,192,186732,5,4,0:0:0:0:
256,192,187161,5,0,0:0:0:0:
256,192,187375,5,8,0:0:0:0:
256,192,187590,5,8,0:0:0:0:
256,192,187804,5,0,0:0:0:0:
256,192,187911,5,0,0:0:0:0:
256,192,188018,5,0,0:0:0:0:
256,192,188232,5,8,0:0:0:0:
256,192,188447,5,0,0:0:0:0:
256,192,188661,5,4,0:0:0:0:
256,192,189090,5,8,0:0:0:0:
256,192,189304,5,12,0:0:0:0:
256,192,189947,5,8,0:0:0:0:
256,192,190161,5,0,0:0:0:0:
256,192,190375,5,12,0:0:0:0:
256,192,190804,5,8,0:0:0:0:
256,192,191018,5,4,0:0:0:0:
256,192,191447,5,0,0:0:0:0:
256,192,191607,5,0,0:0:0:0:
256,192,191661,5,8,0:0:0:0:
256,192,191875,5,8,0:0:0:0:
256,192,192090,5,4,0:0:0:0:
256,192,192304,5,0,0:0:0:0:
256,192,192518,5,8,0:0:0:0:
256,192,192572,5,8,0:0:0:0:
256,192,192732,5,0,0:0:0:0:
256,192,192947,5,8,0:0:0:0:
256,192,193161,5,0,0:0:0:0:
256,192,193375,5,8,0:0:0:0:
256,192,193590,5,0,0:0:0:0:
256,192,193697,5,0,0:0:0:0:
256,192,193804,5,12,0:0:0:0:
256,192,194018,12,0,203875,0:0:0:0:
