osu file format v14

[General]
AudioFilename: baby.mp3
AudioLeadIn: 0
PreviewTime: 129625
Countdown: 0
SampleSet: Normal
StackLeniency: 0.7
Mode: 1
LetterboxInBreaks: 0
WidescreenStoryboard: 0

[Editor]
DistanceSpacing: 1
BeatDivisor: 4
GridSize: 32
TimelineZoom: 1

[Metadata]
Title:Baby Doll
TitleUnicode:Baby Doll
Artist:Utopia
ArtistUnicode:Utopia
Creator:Surono
Version:Futsuu
Source:
Tags:Indah Pop Rock Alternative Bahasa Indonesia
BeatmapID:1665833
BeatmapSetID:793188

[Difficulty]
HPDrainRate:6
CircleSize:2
OverallDifficulty:4
ApproachRate:10
SliderMultiplier:1.4
SliderTickRate:1

[Events]
//Background and Video events
0,0,"hmm.jpg",0,-100
//Break Periods
//Storyboard Layer 0 (Background)
//Storyboard Layer 1 (Fail)
//Storyboard Layer 2 (Pass)
//Storyboard Layer 3 (Foreground)
//Storyboard Sound Samples

[TimingPoints]
90,428.571428571429,4,2,0,50,1,0
90,-100,4,2,0,50,0,0
5018,-100,4,1,0,85,0,0
48090,-100,4,1,0,85,0,1
61804,-100,4,1,0,85,0,0
75518,-100,4,1,0,85,0,1
89232,-100,4,1,0,85,0,0
117090,-100,4,1,0,50,0,0
125018,-100,4,2,0,70,0,0
128661,-100,4,1,0,60,0,0
129090,-100,4,1,0,70,0,0
129518,-100,4,1,0,85,0,0
130375,-100,4,1,0,85,0,1
157804,-100,4,1,0,85,0,0
168090,-100,4,1,0,85,0,1
193804,-100,4,2,0,85,0,0
193911,-100,4,1,0,50,0,0
194554,-100,4,1,0,45,0,0
195411,-100,4,1,0,40,0,0
196268,-100,4,1,0,35,0,0
197125,-100,4,1,0,30,0,0
197982,-100,4,1,0,25,0,0
198840,-100,4,1,0,20,0,0
199697,-100,4,1,0,15,0,0
200554,-100,4,1,0,10,0,0
201411,-100,4,1,0,5,0,0

[HitObjects]
256,192,90,5,4,0:0:0:0:
256,192,304,5,4,0:0:0:0:
256,192,947,5,4,0:0:0:0:
256,192,1161,5,4,0:0:0:0:
256,192,1804,5,4,0:0:0:0:
256,192,2018,5,4,0:0:0:0:
256,192,2661,5,4,0:0:0:0:
256,192,2875,5,4,0:0:0:0:
256,192,3518,5,4,0:0:0:0:
256,192,3732,5,4,0:0:0:0:
256,192,4375,5,4,0:0:0:0:
256,192,4590,5,4,0:0:0:0:
256,192,5232,5,0,0:0:0:0:
256,192,5447,5,0,0:0:0:0:
256,192,5661,5,0,0:0:0:0:
256,192,6090,5,8,0:0:0:0:
256,192,6518,5,8,0:0:0:0:
256,192,6947,5,12,0:0:0:0:
256,192,7590,5,0,0:0:0:0:
256,192,8018,5,0,0:0:0:0:
256,192,8232,5,8,0:0:0:0:
256,192,8661,5,0,0:0:0:0:
256,192,9304,5,0,0:0:0:0:
256,192,9732,5,0,0:0:0:0:
256,192,9947,5,8,0:0:0:0:
256,192,10375,5,4,0:0:0:0:
256,192,11018,5,0,0:0:0:0:
256,192,11447,5,0,0:0:0:0:
256,192,11661,5,8,0:0:0:0:
256,192,12090,5,8,0:0:0:0:
256,192,12732,5,8,0:0:0:0:
256,192,13161,5,0,0:0:0:0:
256,192,13375,5,8,0:0:0:0:
256,192,13804,5,4,0:0:0:0:
256,192,14447,5,0,0:0:0:0:
256,192,14875,5,0,0:0:0:0:
256,192,15090,5,8,0:0:0:0:
256,192,15518,5,0,0:0:0:0:
256,192,16161,5,0,0:0:0:0:
256,192,16590,5,0,0:0:0:0:
256,192,16804,5,8,0:0:0:0:
256,192,17232,5,4,0:0:0:0:
256,192,17875,5,0,0:0:0:0:
256,192,18304,5,0,0:0:0:0:
256,192,18518,5,8,0:0:0:0:
256,192,18947,5,8,0:0:0:0:
256,192,19590,5,0,0:0:0:0:
256,192,19804,5,8,0:0:0:0:
256,192,20232,5,8,0:0:0:0:
256,192,20661,5,4,0:0:0:0:
256,192,21090,5,8,0:0:0:0:
256,192,21947,5,8,0:0:0:0:
256,192,22375,5,0,0:0:0:0:
256,192,22804,5,8,0:0:0:0:
256,192,23661,5,8,0:0:0:0:
256,192,23875,5,0,0:0:0:0:
256,192,24090,5,0,0:0:0:0:
256,192,24518,5,8,0:0:0:0:
256,192,25375,5,8,0:0:0:0:
256,192,25804,5,0,0:0:0:0:
256,192,26232,5,8,0:0:0:0:
256,192,26661,5,0,0:0:0:0:
256,192,27090,5,8,0:0:0:0:
256,192,27304,5,8,0:0:0:0:
256,192,27518,5,0,0:0:0:0:
256,192,27947,5,8,0:0:0:0:
256,192,28804,5,8,0:0:0:0:
256,192,29232,5,0,0:0:0:0:
256,192,29661,5,8,0:0:0:0:
256,192,30518,5,8,0:0:0:0:
256,192,30732,5,0,0:0:0:0:
256,192,30947,5,0,0:0:0:0:
256,192,31375,5,8,0:0:0:0:
256,192,32232,5,8,0:0:0:0:
256,192,32661,5,0,0:0:0:0:
256,192,33090,5,8,0:0:0:0:
256,192,33518,5,0,0:0:0:0:
256,192,33732,5,0,0:0:0:0:
256,192,33947,5,8,0:0:0:0:
256,192,34375,5,0,0:0:0:0:
256,192,34804,5,8,0:0:0:0:
256,192,35661,5,8,0:0:0:0:
256,192,36090,5,0,0:0:0:0:
256,192,36732,5,8,0:0:0:0:
256,192,37161,5,8,0:0:0:0:
256,192,37590,5,0,0:0:0:0:
256,192,37804,5,0,0:0:0:0:
256,192,38232,5,8,0:0:0:0:
256,192,39090,5,8,0:0:0:0:
256,192,39518,5,0,0:0:0:0:
256,192,39947,5,8,0:0:0:0:
256,192,40375,5,0,0:0:0:0:
256,192,40804,5,8,0:0:0:0:
256,192,41018,5,8,0:0:0:0:
256,192,41232,5,0,0:0:0:0:
256,192,41875,5,8,0:0:0:0:
256,192,42518,5,8,0:0:0:0:
256,192,42947,5,0,0:0:0:0:
256,192,43375,1,8,0:0:0:0:
256,192,43590,5,0,0:0:0:0:
256,192,44018,5,8,0:0:0:0:
256,192,44661,5,0,0:0:0:0:
256,192,45090,5,8,0:0:0:0:
256,192,45947,5,8,0:0:0:0:
256,192,46375,5,0,0:0:0:0:
256,192,46590,5,8,0:0:0:0:
256,192,47018,5,0,0:0:0:0:
256,192,47661,5,8,0:0:0:0:
256,192,48090,5,12,0:0:0:0:
256,192,48518,5,8,0:0:0:0:
256,192,49161,5,0,0:0:0:0:
256,192,49590,5,8,0:0:0:0:
256,192,50018,5,0,0:0:0:0:
256,192,50447,5,0,0:0:0:0:
256,192,50661,1,0,0:0:0:0:
256,192,51090,5,8,0:0:0:0:
256,192,51518,5,12,0:0:0:0:
256,192,51947,5,8,0:0:0:0:
256,192,52590,5,0,0:0:0:0:
256,192,53018,5,0,0:0:0:0:
256,192,53875,5,0,0:0:0:0:
256,192,54090,1,0,0:0:0:0:
256,192,54518,5,8,0:0:0:0:
256,192,54947,5,12,0:0:0:0:
256,192,55375,5,8,0:0:0:0:
256,192,56018,5,0,0:0:0:0:
256,192,56447,5,8,0:0:0:0:
256,192,56875,5,8,0:0:0:0:
256,192,57304,5,0,0:0:0:0:
256,192,57518,1,0,0:0:0:0:
256,192,57947,5,8,0:0:0:0:
256,192,58375,5,12,0:0:0:0:
256,192,58804,5,8,0:0:0:0:
256,192,59447,5,0,0:0:0:0:
256,192,59875,5,8,0:0:0:0:
256,192,60947,5,8,0:0:0:0:
256,192,61161,5,8,0:0:0:0:
256,192,61375,5,8,0:0:0:0:
256,192,61804,5,4,0:0:0:0:
256,192,62232,5,8,0:0:0:0:
256,192,63090,5,8,0:0:0:0:
256,192,63518,5,0,0:0:0:0:
256,192,64161,5,8,0:0:0:0:
256,192,64590,5,8,0:0:0:0:
256,192,65018,5,0,0:0:0:0:
256,192,65232,5,0,0:0:0:0:
256,192,65661,5,8,0:0:0:0:
256,192,66518,5,8,0:0:0:0:
256,192,66947,5,0,0:0:0:0:
256,192,67375,5,8,0:0:0:0:
256,192,67804,5,0,0:0:0:0:
256,192,68018,5,8,0:0:0:0:
256,192,68232,5,8,0:0:0:0:
256,192,68661,5,0,0:0:0:0:
256,192,69090,5,8,0:0:0:0:
256,192,69947,5,8,0:0:0:0:
256,192,70375,5,0,0:0:0:0:
256,192,70804,5,8,0:0:0:0:
256,192,71447,5,0,0:0:0:0:
256,192,71661,5,8,0:0:0:0:
256,192,72090,5,4,0:0:0:0:
256,192,72518,5,8,0:0:0:0:
256,192,73375,5,8,0:0:0:0:
256,192,73804,5,0,0:0:0:0:
256,192,74447,5,4,0:0:0:0:
256,192,74661,5,4,0:0:0:0:
256,192,75090,5,4,0:0:0:0:
256,192,75518,5,12,0:0:0:0:
256,192,75947,5,8,0:0:0:0:
256,192,76375,1,0,0:0:0:0:
256,192,76590,5,0,0:0:0:0:
256,192,77018,5,8,0:0:0:0:
256,192,77447,5,0,0:0:0:0:
256,192,77875,5,0,0:0:0:0:
256,192,78090,5,0,0:0:0:0:
256,192,78518,5,8,0:0:0:0:
256,192,78947,5,12,0:0:0:0:
256,192,79375,5,8,0:0:0:0:
256,192,79804,1,0,0:0:0:0:
256,192,80018,5,0,0:0:0:0:
256,192,80447,5,0,0:0:0:0:
256,192,81304,5,0,0:0:0:0:
256,192,81518,5,0,0:0:0:0:
256,192,81947,5,8,0:0:0:0:
256,192,82375,5,12,0:0:0:0:
256,192,82804,5,8,0:0:0:0:
256,192,83232,1,0,0:0:0:0:
256,192,83447,5,0,0:0:0:0:
256,192,83875,5,8,0:0:0:0:
256,192,84304,5,8,0:0:0:0:
256,192,84732,5,0,0:0:0:0:
256,192,84947,5,0,0:0:0:0:
256,192,85375,5,8,0:0:0:0:
256,192,85804,5,12,0:0:0:0:
256,192,86232,5,8,0:0:0:0:
256,192,86661,1,0,0:0:0:0:
256,192,86875,5,0,0:0:0:0:
256,192,87304,5,8,0:0:0:0:
256,192,88161,5,0,0:0:0:0:
256,192,88590,5,12,0:0:0:0:
256,192,88804,5,12,0:0:0:0:
256,192,89232,5,4,0:0:0:0:
256,192,90090,5,0,0:0:0:0:
256,192,90304,5,0,0:0:0:0:
256,192,90732,5,0,0:0:0:0:
256,192,91161,5,8,0:0:0:0:
256,192,91590,5,0,0:0:0:0:
256,192,92018,5,8,0:0:0:0:
256,192,92232,5,8,0:0:0:0:
256,192,92661,5,12,0:0:0:0:
256,192,93518,5,0,0:0:0:0:
256,192,93732,5,0,0:0:0:0:
256,192,94161,5,0,0:0:0:0:
256,192,94590,5,8,0:0:0:0:
256,192,95018,5,0,0:0:0:0:
256,192,95447,5,8,0:0:0:0:
256,192,95661,5,8,0:0:0:0:
256,192,96090,5,12,0:0:0:0:
256,192,96947,5,0,0:0:0:0:
256,192,97161,5,0,0:0:0:0:
256,192,97590,5,0,0:0:0:0:
256,192,98018,5,8,0:0:0:0:
256,192,98447,5,0,0:0:0:0:
256,192,98875,5,8,0:0:0:0:
256,192,99090,5,8,0:0:0:0:
256,192,99518,5,12,0:0:0:0:
256,192,100375,5,0,0:0:0:0:
256,192,100590,5,0,0:0:0:0:
256,192,101018,5,0,0:0:0:0:
256,192,101447,5,8,0:0:0:0:
256,192,101875,5,0,0:0:0:0:
256,192,102304,5,12,0:0:0:0:
256,192,102518,5,12,0:0:0:0:
256,192,102947,5,4,0:0:0:0:
256,192,103804,5,0,0:0:0:0:
256,192,104018,5,8,0:0:0:0:
256,192,104447,5,8,0:0:0:0:
256,192,104661,5,0,0:0:0:0:
256,192,105090,5,8,0:0:0:0:
256,192,105518,5,8,0:0:0:0:
256,192,105947,5,8,0:0:0:0:
256,192,106375,5,12,0:0:0:0:
256,192,107232,5,0,0:0:0:0:
256,192,107447,5,8,0:0:0:0:
256,192,107875,5,8,0:0:0:0:
256,192,108090,5,0,0:0:0:0:
256,192,108518,5,8,0:0:0:0:
256,192,108947,5,8,0:0:0:0:
256,192,109375,5,8,0:0:0:0:
256,192,109804,5,12,0:0:0:0:
256,192,110661,5,0,0:0:0:0:
256,192,110875,5,8,0:0:0:0:
256,192,111304,5,8,0:0:0:0:
256,192,111518,5,0,0:0:0:0:
256,192,111947,5,8,0:0:0:0:
256,192,112375,5,8,0:0:0:0:
256,192,112804,5,8,0:0:0:0:
256,192,113232,5,12,0:0:0:0:
256,192,114090,5,0,0:0:0:0:
256,192,114304,5,8,0:0:0:0:
256,192,114732,5,0,0:0:0:0:
256,192,115161,5,8,0:0:0:0:
256,192,115375,5,8,0:0:0:0:
256,192,115804,5,0,0:0:0:0:
256,192,116232,5,4,0:0:0:0:
256,192,116661,5,12,0:0:0:0:
256,192,118375,1,0,0:0:0:0:
256,192,119018,5,8,0:0:0:0:
256,192,119447,5,8,0:0:0:0:
256,192,120090,12,0,121804,0:0:0:0:
64,320,123518,6,0,L|384:32,1,420
256,192,125232,5,4,0:0:0:0:
256,192,125447,5,4,0:0:0:0:
256,192,126090,5,4,0:0:0:0:
256,192,126304,5,4,0:0:0:0:
256,192,126947,5,4,0:0:0:0:
256,192,127161,5,4,0:0:0:0:
256,192,127804,5,4,0:0:0:0:
256,192,128018,5,4,0:0:0:0:
256,192,128661,5,0,0:0:0:0:
256,192,129090,5,8,0:0:0:0:
256,192,129304,5,0,0:0:0:0:
256,192,129518,5,8,0:0:0:0:
256,192,129947,5,8,0:0:0:0:
256,192,130375,5,12,0:0:0:0:
256,192,130804,5,8,0:0:0:0:
256,192,131447,5,0,0:0:0:0:
256,192,131875,5,8,0:0:0:0:
256,192,132304,5,0,0:0:0:0:
256,192,132732,5,0,0:0:0:0:
256,192,132947,1,0,0:0:0:0:
256,192,133375,5,8,0:0:0:0:
256,192,133804,5,12,0:0:0:0:
256,192,134232,5,8,0:0:0:0:
256,192,134875,5,0,0:0:0:0:
256,192,135304,5,0,0:0:0:0:
256,192,136161,5,0,0:0:0:0:
256,192,136375,1,0,0:0:0:0:
256,192,136804,5,8,0:0:0:0:
256,192,137232,5,12,0:0:0:0:
256,192,137661,5,8,0:0:0:0:
256,192,138304,5,0,0:0:0:0:
256,192,138732,5,8,0:0:0:0:
256,192,139161,5,8,0:0:0:0:
256,192,139590,5,0,0:0:0:0:
256,192,139804,1,0,0:0:0:0:
256,192,140232,5,8,0:0:0:0:
256,192,140661,5,12,0:0:0:0:
256,192,141090,5,8,0:0:0:0:
256,192,141732,5,0,0:0:0:0:
256,192,142161,5,8,0:0:0:0:
256,192,143018,5,0,0:0:0:0:
256,192,143232,1,0,0:0:0:0:
256,192,143661,5,8,0:0:0:0:
256,192,144090,5,12,0:0:0:0:
256,192,144518,5,8,0:0:0:0:
256,192,144947,1,0,0:0:0:0:
256,192,145161,5,0,0:0:0:0:
256,192,145590,5,8,0:0:0:0:
256,192,146018,5,0,0:0:0:0:
256,192,146447,5,0,0:0:0:0:
256,192,146661,5,0,0:0:0:0:
256,192,147090,5,8,0:0:0:0:
256,192,147518,5,12,0:0:0:0:
256,192,147947,5,8,0:0:0:0:
256,192,148375,1,0,0:0:0:0:
256,192,148590,5,0,0:0:0:0:
256,192,149018,5,0,0:0:0:0:
256,192,149875,5,0,0:0:0:0:
256,192,150090,5,0,0:0:0:0:
256,192,150518,5,8,0:0:0:0:
256,192,150947,5,4,0:0:0:0:
256,192,151375,5,8,0:0:0:0:
256,192,151804,1,0,0:0:0:0:
256,192,152018,5,0,0:0:0:0:
256,192,152447,5,8,0:0:0:0:
256,192,152875,5,8,0:0:0:0:
256,192,153304,5,0,0:0:0:0:
256,192,153518,5,0,0:0:0:0:
256,192,153947,5,8,0:0:0:0:
256,192,154375,5,4,0:0:0:0:
256,192,154804,5,8,0:0:0:0:
256,192,155232,1,0,0:0:0:0:
256,192,155447,5,0,0:0:0:0:
256,192,155875,5,8,0:0:0:0:
256,192,156304,5,4,0:0:0:0:
256,192,156732,5,4,0:0:0:0:
256,192,157375,5,8,0:0:0:0:
256,192,157804,5,4,0:0:0:0:
256,192,158232,5,8,0:0:0:0:
256,192,159090,5,8,0:0:0:0:
256,192,159518,5,0,0:0:0:0:
256,192,159947,5,8,0:0:0:0:
256,192,160804,5,8,0:0:0:0:
256,192,161232,5,0,0:0:0:0:
256,192,161447,5,0,0:0:0:0:
256,192,161661,5,8,0:0:0:0:
256,192,162518,5,8,0:0:0:0:
256,192,162947,5,0,0:0:0:0:
256,192,163375,5,8,0:0:0:0:
256,192,164232,5,8,0:0:0:0:
256,192,164661,5,0,0:0:0:0:
256,192,164875,5,0,0:0:0:0:
256,192,165090,5,8,0:0:0:0:
256,192,165947,5,8,0:0:0:0:
256,192,166161,5,0,0:0:0:0:
256,192,166375,5,0,0:0:0:0:
256,192,166804,5,8,0:0:0:0:
256,192,167661,5,8,0:0:0:0:
256,192,168090,5,4,0:0:0:0:
256,192,168732,5,0,0:0:0:0:
256,192,169161,5,0,0:0:0:0:
256,192,169590,5,0,0:0:0:0:
256,192,170447,1,0,0:0:0:0:
256,192,170661,5,8,0:0:0:0:
256,192,171090,5,8,0:0:0:0:
256,192,171518,5,4,0:0:0:0:
256,192,172161,5,0,0:0:0:0:
256,192,172590,5,0,0:0:0:0:
256,192,173018,5,0,0:0:0:0:
256,192,173875,1,0,0:0:0:0:
256,192,174090,5,8,0:0:0:0:
256,192,174518,5,8,0:0:0:0:
256,192,174947,5,4,0:0:0:0:
256,192,175590,5,12,0:0:0:0:
256,192,176018,5,0,0:0:0:0:
256,192,176447,5,0,0:0:0:0:
256,192,177304,5,8,0:0:0:0:
256,192,177732,1,0,0:0:0:0:
256,192,177947,5,8,0:0:0:0:
256,192,178375,5,4,0:0:0:0:
256,192,179018,5,8,0:0:0:0:
256,192,179447,5,0,0:0:0:0:
256,192,179875,5,8,0:0:0:0:
256,192,180732,1,0,0:0:0:0:
256,192,180947,5,8,0:0:0:0:
256,192,181375,5,8,0:0:0:0:
256,192,181590,1,8,0:0:0:0:
256,192,181804,5,4,0:0:0:0:
256,192,182447,5,4,0:0:0:0:
256,192,182875,5,12,0:0:0:0:
256,192,183304,5,4,0:0:0:0:
256,192,183947,5,8,0:0:0:0:
256,192,184375,5,0,0:0:0:0:
256,192,184590,5,0,0:0:0:0:
256,192,184804,5,8,0:0:0:0:
256,192,185232,5,4,0:0:0:0:
256,192,185875,5,4,0:0:0:0:
256,192,186304,5,12,0:0:0:0:
256,192,186732,5,4,0:0:0:0:
256,192,187375,5,8,0:0:0:0:
256,192,187804,5,0,0:0:0:0:
256,192,188018,5,0,0:0:0:0:
256,192,188232,5,8,0:0:0:0:
256,192,188661,5,4,0:0:0:0:
256,192,189304,5,12,0:0:0:0:
256,192,189947,5,8,0:0:0:0:
256,192,190375,5,12,0:0:0:0:
256,192,191018,5,4,0:0:0:0:
256,192,191661,5,8,0:0:0:0:
256,192,192090,5,4,0:0:0:0:
256,192,192518,5,8,0:0:0:0:
256,192,192947,5,8,0:0:0:0:
256,192,193161,5,0,0:0:0:0:
256,192,193375,5,8,0:0:0:0:
256,192,193804,5,12,0:0:0:0:
256,192,194232,12,0,203875,0:0:0:0:
