osu file format v14

[General]
AudioFilename: love.mp3
AudioLeadIn: 0
PreviewTime: 48722
Countdown: 0
SampleSet: Soft
StackLeniency: 0.7
Mode: 0
LetterboxInBreaks: 0
WidescreenStoryboard: 1

[Editor]
Bookmarks: 79164
DistanceSpacing: 1
BeatDivisor: 4
GridSize: 4
TimelineZoom: 0.9999997

[Metadata]
Title:Hold on me ~Koi no Mahou~
TitleUnicode:Hold on me ~恋の魔法~
Artist:Utatsuki Kaori
ArtistUnicode:詩月カオリ
Creator:chaica
Version:Normal
Source:ラブライド・イヴ
Tags:short ver op opening eroge Love-Bride Eve LEVEL OCTAVE Girls Compilation C.G mix whitesoft I've Sound No_Dap Moeka Shioi Momoka
BeatmapID:947093
BeatmapSetID:329118

[Difficulty]
HPDrainRate:4
CircleSize:3.5
OverallDifficulty:4
ApproachRate:5
SliderMultiplier:1.1
SliderTickRate:1

[Events]
//Background and Video events
Video,130,"love.avi"
0,0,"bg3.jpg",0,0
//Break Periods
//Storyboard Layer 0 (Background)
//Storyboard Layer 1 (Fail)
//Storyboard Layer 2 (Pass)
//Storyboard Layer 3 (Foreground)
//Storyboard Sound Samples

[TimingPoints]
950,428.571428571429,4,2,6,55,1,0
14664,-99.9999999999999,4,2,6,60,0,0
21092,-99.9999999999999,4,2,5,60,0,0
21508,428.571428571429,4,2,5,65,1,0
33722,-100,4,2,4,40,0,0
35222,-100,4,2,5,75,0,0
42079,-100,4,2,5,80,0,0
47222,-100,4,2,5,50,0,0
48508,-100,4,2,5,80,0,0
48950,428.571428571429,4,2,5,80,1,1
69092,-100,4,2,5,80,0,0
69521,-100,4,2,5,80,0,1
83235,-100,4,2,6,70,0,1
84950,-100,4,2,6,60,0,1
86664,-100,4,2,5,70,0,0

[Colours]
Combo1 : 128,255,0
Combo2 : 255,128,255
Combo3 : 50,255,253
Combo4 : 50,185,255
Combo5 : 128,128,255

[HitObjects]
112,160,950,5,4,0:0:0:0:
209,108,1378,1,2,0:0:0:0:
316,84,1807,2,0,P|380:84|428:132,1,110,0|2,0:0|0:0,0:0:0:0:
424,220,2664,2,0,P|396:280|384:340,1,110,2|0,0:0|0:0,0:0:0:0:
332,312,3307,2,0,P|252:292|212:296,1,110,2|2,0:0|0:0,0:0:0:0:
140,152,4378,6,0,P|88:168|44:228,1,110,10|2,0:0|0:0,0:0:0:0:
52,319,5235,2,0,P|103:302|143:265,1,110,0|2,0:0|0:0,0:0:0:0:
140,152,6092,2,0,P|158:98|227:71,1,110,0|2,0:0|0:0,0:0:0:0:
247,172,6950,2,0,P|234:223|191:255,1,110,0|2,2:0|2:0,2:0:0:0:
80,276,7807,5,12,0:0:0:0:
0,200,8235,1,2,0:0:0:0:
42,98,8664,2,0,P|73:49|111:12,1,110,0|2,0:0|0:0,0:0:0:0:
200,76,9521,2,0,P|260:64|312:36,1,110,2|0,0:0|0:0,0:0:0:0:
360,48,10164,2,0,P|404:96|432:152,1,110,2|2,0:0|0:0,0:0:0:0:
440,188,10807,1,0,0:0:0:0:
368,272,11235,6,0,P|322:301|269:316,1,110,10|2,0:0|0:0,0:0:0:0:
160,304,12092,2,0,P|132:256|121:202,1,110,2|2,0:0|0:0,2:0:0:0:
140,96,12950,2,0,P|184:64|238:52,1,110,2|0,0:0|0:0,0:0:0:0:
289,71,13592,2,0,P|338:63|397:42,2,110,2|2|0,0:0|0:0|0:0,0:0:0:0:
257,116,14664,5,4,0:0:0:0:
196,207,15092,1,2,0:0:0:0:
86,214,15521,2,0,P|107:142|138:114,1,110,0|2,0:0|0:0,0:0:0:0:
240,111,16378,5,4,0:0:0:0:
350,110,16807,1,0,0:0:0:0:
296,205,17235,2,0,P|272:261|224:289,1,110,2|0,0:0|0:0,0:0:0:0:
122,278,18092,5,4,0:0:0:0:
187,189,18521,1,2,0:0:0:0:
296,205,18950,2,0,P|343:180|370:133,1,110,0|2,0:0|0:0,0:0:0:0:
265,97,19807,5,4,0:0:0:0:
188,175,20235,1,8,0:0:0:0:
220,280,20664,2,0,L|196:344,2,55,8|8|8,0:0|0:0|0:0,0:0:0:0:
188,175,21508,6,0,P|232:127|284:111,1,110,4|10,0:0|0:0,0:0:0:0:
313,149,22150,2,0,P|363:128|398:86,1,110
411,32,22794,1,10,0:0:0:0:
476,120,23222,2,0,P|491:188|480:234,1,110,0|10,0:0|0:0,0:0:0:0:
461,277,23865,1,0,0:0:0:0:
412,302,24079,2,0,P|344:317|298:306,1,110,0|10,0:0|0:0,0:0:0:0:
211,251,24936,6,0,P|191:198|216:125,1,110,0|10,0:0|0:0,0:0:0:0:
225,97,25579,2,0,P|258:66|320:45,1,110
373,35,26222,1,10,0:0:0:0:
429,129,26650,2,0,P|446:186|426:247,2,110,0|10|0,0:0|0:0|0:0,0:0:0:0:
334,186,27937,1,10,0:0:0:0:
294,288,28365,6,0,P|241:303|181:278,1,110,0|10,0:0|0:0,0:0:0:0:
126,197,29222,1,0,0:0:0:0:
73,100,29650,1,10,0:0:0:0:
182,86,30079,2,0,P|169:52|169:2,2,82.5
236,76,30936,2,0,P|296:88|337:131,1,110,0|10,0:0|0:0,0:0:0:0:
427,171,31793,6,0,P|441:234|414:284,1,110,0|10,0:0|0:0,0:0:0:0:
392,318,32436,2,0,P|339:317|278:294,1,110
235,276,33079,2,0,L|186:248,1,55,10|0,0:0|0:0,0:0:0:0:
138,222,33508,6,0,P|99:194|83:125,1,110,0|8,0:0|0:0,0:0:0:0:
152,53,34365,2,8,L|220:68,1,55,8|2,0:0|0:0,0:0:0:0:
259,74,34793,2,0,L|319:88,1,55,8|2,0:0|0:0,0:0:0:0:
366,96,35222,6,0,P|407:128|430:184,1,110,4|10,0:0|0:0,0:0:0:0:
320,195,36079,2,0,P|306:245|264:288,1,110,0|10,0:0|0:0,0:0:0:0:
157,288,36936,2,0,P|100:269|74:213,1,110,0|10,0:0|0:0,0:0:0:0:
58,175,37579,1,0,0:0:0:0:
67,120,37793,2,0,P|112:89|172:94,1,110,0|10,0:0|0:0,0:0:0:0:
276,88,38651,6,0,P|329:73|384:96,1,110,0|10,0:0|0:0,0:0:0:0:
386,146,39293,1,0,0:0:0:0:
380,200,39508,2,0,P|327:215|272:192,1,110,0|10,0:0|0:0,0:0:0:0:
179,247,40365,2,0,P|131:213|70:182,1,110,0|10,0:0|0:0,0:0:0:0:
88,79,41222,1,0,0:0:0:0:
179,139,41651,1,10,0:0:0:0:
276,88,42079,6,0,P|336:100|392:144,1,110,4|10,0:0|0:0,0:0:0:0:
428,224,42937,1,0,0:0:0:0:
348,300,43365,1,10,0:0:0:0:
240,284,43793,6,0,P|179:272|120:240,1,110,4|10,0:0|0:0,0:0:0:0:
40,196,44651,1,0,0:0:0:0:
85,96,45079,1,10,0:0:0:0:
180,40,45508,6,0,P|228:76|296:84,1,110,4|10,0:0|0:0,0:0:0:0:
332,96,46150,1,0,0:0:0:0:
383,119,46365,2,0,P|410:166|418:220,1,110,0|10,0:0|0:0,0:0:0:0:
420,332,47222,6,0,P|444:332|500:288,2,82.5,2|2|2,0:0|0:0|0:0,0:0:0:0:
364,332,48079,1,2,0:0:0:0:
300,244,48508,1,8,0:0:0:0:
188,228,48950,6,8,P|204:176|256:140,1,110,4|10,0:0|0:0,0:0:0:0:
294,43,49807,2,0,P|345:92|357:149,1,110,0|10,0:0|0:0,0:0:0:0:
358,182,50450,1,0,0:0:0:0:
363,236,50664,2,8,P|295:268|263:312,1,110,0|10,0:0|0:0,0:0:0:0:
228,326,51307,2,8,P|160:330|109:312,1,110,0|0,0:3|0:3,0:3:0:0:
70,294,51950,1,10,0:0:0:0:
14,200,52378,6,0,P|-2:156|11:92,1,110,0|10,0:0|0:0,0:0:0:0:
108,144,53235,2,0,P|190:149|225:132,1,110,0|10,0:0|0:0,0:0:0:0:
157,44,54092,2,0,P|203:15|258:11,2,110,0|10|0,0:0|0:0|0:0,0:0:0:0:
213,138,55378,1,10,0:0:0:0:
319,110,55807,6,0,P|357:147|365:208,1,110,4|10,0:0|0:0,0:0:0:0:
306,294,56664,2,0,L|261:336,2,55,0|0|10,0:0|0:0|0:0,0:0:0:0:
255,196,57521,2,0,P|226:138|176:116,1,110,0|10,2:0|2:0,2:0:0:0:
147,156,58164,2,0,P|103:190|53:211,1,110,0|0,2:0|2:0,2:0:0:0:
0,228,58807,1,10,0:0:0:0:
92,288,59235,6,0,P|164:312|228:312,1,110,0|10,0:0|0:0,0:0:0:0:
308,332,60092,2,0,P|360:296|416:284,1,110,0|10,0:0|0:0,0:0:0:0:
393,230,60735,1,0,0:0:0:0:
363,184,60950,2,0,P|311:160|263:108,1,110,0|10,0:0|0:0,0:0:0:0:
244,76,61592,2,0,P|172:60|116:72,1,110
84,84,62235,2,0,L|32:144,1,55,10|0,0:0|0:0,0:0:0:0:
12,168,62664,5,4,0:0:0:0:
52,272,63092,1,10,0:0:0:0:
156,300,63521,2,0,P|208:316|264:296,1,110,0|10,0:0|0:0,0:0:0:0:
363,335,64378,5,0,0:0:0:0:
441,257,64807,1,10,0:0:0:0:
429,147,65235,2,0,P|416:93|371:55,1,110,0|10,0:0|0:0,0:0:0:0:
269,82,66092,5,4,0:0:0:0:
192,160,66521,1,10,0:0:0:0:
84,144,66950,2,8,B|92:84|152:56,1,110,0|10,0:0|0:0,0:0:0:0:
192,160,67807,5,0,0:0:0:0:
162,265,68235,1,10,0:0:0:0:
269,239,68664,2,4,L|311:285,2,55,0|0|10,0:0|0:0|0:0,0:0:0:0:
269,128,69521,6,8,B|325:88|389:72,2,110,4|10|0,0:0|0:0|0:0,0:0:0:0:
221,156,70592,1,0,0:0:0:0:
260,194,70807,2,0,P|284:222|308:250,1,55,10|0,0:0|0:0,0:0:0:0:
279,288,71235,2,0,P|211:324|159:332,1,110,0|10,0:0|0:0,0:0:0:0:
88,267,72092,2,0,P|77:245|62:203,1,55
57,161,72521,2,0,P|56:137|59:92,1,55,10|0,0:0|0:0,0:0:0:0:
93,63,72950,6,0,P|121:25|187:2,2,110,0|10|0,0:0|0:0|0:0,0:0:0:0:
188,111,74235,1,10,0:0:0:0:
268,186,74664,2,0,P|322:187|370:162,1,110,0|10,0:0|0:0,0:0:0:0:
469,115,75521,2,0,L|501:227,1,110,0|10,0:0|0:0,0:0:0:0:
419,310,76378,6,0,P|363:318|302:344,2,110,4|10|0,0:0|0:0|0:0,0:0:0:0:
403,256,77450,1,0,0:0:0:0:
359,222,77664,2,0,P|333:210|307:203,1,55,10|0,0:0|0:0,0:0:0:0:
254,219,78092,2,0,P|200:230|145:231,1,110,0|10,0:0|0:0,0:0:0:0:
86,137,78950,2,0,P|112:128|146:121,1,55
193,125,79378,2,0,P|219:119|245:110,1,55,10|0,0:0|0:0,0:0:0:0:
296,132,79807,6,0,P|331:174|337:236,2,110,0|10|0,0:0|0:0|0:0,0:0:0:0:
229,219,81092,1,10,0:0:0:0:
163,307,81521,2,0,P|130:263|122:203,1,110,4|10,0:0|0:0,0:0:0:0:
144,102,82378,2,0,L|188:57,1,55
236,52,82807,2,0,L|313:72,1,55,10|0,0:0|0:0,0:0:0:0:
306,118,83235,6,0,L|430:142,1,110,2|2,0:0|0:0,0:0:0:0:
411,248,84092,2,0,L|304:228,1,110,2|2,0:0|0:0,0:0:0:0:
306,118,84950,6,0,L|246:126,1,55,2|10,0:0|0:0,0:0:0:0:
198,140,85378,2,0,L|154:195,1,55,10|10,0:0|0:0,0:0:0:0:
141,233,85807,2,0,L|173:287,1,55,10|10,0:0|0:0,0:0:0:0:
222,291,86235,2,0,L|286:303,1,55,10|10,0:0|0:0,0:0:0:0:
330,310,86664,5,10,0:0:0:0:
