osu file format v14

[General]
AudioFilename: audio.mp3
AudioLeadIn: 0
PreviewTime: 59214
Countdown: 0
SampleSet: None
StackLeniency: 0.7
Mode: 2
LetterboxInBreaks: 0
WidescreenStoryboard: 0

[Editor]
Bookmarks: 1510,3010,9010,15010,28510,34511,40511,48011,60011
DistanceSpacing: 1.2
BeatDivisor: 4
GridSize: 8
TimelineZoom: 2.2

[Metadata]
Title:Maware! Setsugetsuka
TitleUnicode:回レ!雪月花
Artist:Utagumi Setsugetsuka
ArtistUnicode:歌組雪月花
Creator:Yumeno Himiko
Version:Overdose
Source:機巧少女は傷つかない
Tags:Unbreakable Machine-Doll ED Ending Kikou Shoujo wa Kizutsukanai
BeatmapID:1894014
BeatmapSetID:907632

[Difficulty]
HPDrainRate:6
CircleSize:4
OverallDifficulty:9.3
ApproachRate:9.3
SliderMultiplier:2.5
SliderTickRate:2

[Events]
//Background and Video events
0,0,"bg.jpg",0,0
//Break Periods
//Storyboard Layer 0 (Background)
//Storyboard Layer 1 (Fail)
//Storyboard Layer 2 (Pass)
//Storyboard Layer 3 (Foreground)
//Storyboard Sound Samples

[TimingPoints]
1510,375.011719116222,4,2,1,20,1,0
1697,-100,4,2,1,30,0,0
1885,-100,4,2,1,40,0,0
2072,-100,4,2,1,50,0,0
2260,-100,4,2,1,60,0,0
3010,-100,4,2,1,70,0,0
11635,-50,4,2,1,70,0,0
11822,-100,4,2,1,70,0,0
15010,-100,4,2,1,50,0,0
17260,-100,4,2,1,60,0,0
18010,-100,4,2,1,50,0,0
20260,-100,4,2,1,60,0,0
21010,-100,4,2,1,50,0,0
25510,-100,4,2,1,60,0,0
39761,-83.3333333333333,4,2,1,70,0,0
40323,-100,4,2,1,70,0,0
47261,-100,4,2,1,60,0,0
56449,-100,4,2,1,50,0,0
56636,-100,4,2,1,60,0,0
56824,-100,4,2,1,50,0,0
57011,-100,4,2,1,60,0,0
59261,-83.3333333333333,4,2,1,70,0,0
60011,-83.3333333333333,4,2,1,80,0,1
63011,-83.3333333333333,4,2,1,70,0,1
66012,-83.3333333333333,4,2,1,80,0,1
69012,-83.3333333333333,4,2,1,70,0,1
71637,-83.3333333333333,4,2,1,75,0,1
72012,-83.3333333333333,4,2,1,80,0,1
78012,-83.3333333333333,4,2,1,50,0,1
78387,-83.3333333333333,4,2,1,80,0,1
80262,-83.3333333333333,4,2,1,90,0,1
81012,-83.3333333333333,4,2,1,80,0,1
82793,-83.3333333333333,4,2,1,50,0,1
82887,-83.3333333333333,4,2,1,80,0,1
83168,-83.3333333333333,4,2,1,50,0,1
83262,-83.3333333333333,4,2,1,80,0,1
83637,-100,4,2,1,70,0,0
86637,-50,4,2,1,70,0,0
86825,-100,4,2,1,70,0,0

[HitObjects]
232,280,1510,5,0,0:0:0:0:
160,264,1603,1,0,0:0:0:0:
232,248,1697,1,0,0:0:0:0:
304,232,1791,1,0,0:0:0:0:
232,216,1885,1,0,0:0:0:0:
304,192,1978,1,0,0:0:0:0:
376,184,2072,1,0,0:0:0:0:
304,152,2166,1,0,0:0:0:0:
128,144,2260,6,0,L|64:144,2,62.5,2|0|2,3:2|0:0|0:0,0:0:0:0:
384,144,2635,1,2,3:2:0:0:
128,144,2822,2,0,L|48:144,1,62.5,2|0,0:0|0:0,0:0:0:0:
384,144,3010,5,4,0:0:0:0:
416,288,3197,1,2,0:0:0:0:
144,296,3385,1,10,0:0:0:0:
216,296,3478,1,0,0:0:0:0:
144,296,3572,1,2,0:0:0:0:
296,296,3760,5,2,0:0:0:0:
16,296,3947,1,2,0:0:0:0:
168,296,4135,1,10,0:0:0:0:
96,296,4228,1,0,0:0:0:0:
168,296,4322,1,2,0:0:0:0:
448,88,4510,5,2,0:0:0:0:
296,88,4697,1,2,0:0:0:0:
448,184,4885,1,10,0:0:0:0:
376,184,4978,1,0,0:0:0:0:
448,184,5072,1,2,0:0:0:0:
176,192,5260,5,2,0:0:0:0:
320,192,5447,1,2,0:0:0:0:
152,192,5635,1,10,0:0:0:0:
400,192,5822,1,2,0:0:0:0:
416,264,5916,1,0,0:0:0:0:
232,272,6010,5,2,0:0:0:0:
384,272,6197,1,2,0:0:0:0:
96,272,6385,1,10,0:0:0:0:
168,272,6478,1,0,0:0:0:0:
96,272,6572,1,2,0:0:0:0:
368,88,6760,5,2,0:0:0:0:
216,88,6947,1,2,0:0:0:0:
480,192,7135,1,10,0:0:0:0:
408,192,7228,1,0,0:0:0:0:
480,192,7322,1,2,0:0:0:0:
96,192,7510,5,2,0:0:0:0:
248,192,7697,1,2,0:0:0:0:
176,192,7791,1,0,0:0:0:0:
104,192,7885,1,10,0:0:0:0:
384,192,8072,1,2,0:0:0:0:
312,192,8166,1,0,0:0:0:0:
240,192,8260,1,2,0:0:0:0:
432,192,8447,1,0,3:0:0:0:
504,192,8541,1,0,3:0:0:0:
176,192,8635,5,2,0:0:0:0:
384,192,9010,5,4,0:0:0:0:
240,192,9197,2,0,L|160:192,1,62.5,2|0,0:0|0:0,0:0:0:0:
384,192,9385,2,0,L|520:192,1,125,8|2,0:0|0:0,0:0:0:0:
432,192,9666,1,0,0:0:0:0:
240,192,9760,2,0,L|80:192,1,125,0|2,0:0|0:0,0:0:0:0:
192,192,10041,1,0,0:0:0:0:
384,192,10135,1,8,0:0:0:0:
256,192,10322,2,0,L|328:192,1,62.5,2|0,0:0|0:0,0:0:0:0:
144,192,10510,6,0,L|16:192,1,125,0|2,0:0|0:0,0:0:0:0:
96,192,10791,1,0,0:0:0:0:
256,192,10885,2,0,L|392:192,1,125,8|2,0:0|0:0,0:0:0:0:
304,192,11166,1,0,0:0:0:0:
96,192,11260,1,0,0:0:0:0:
256,312,11447,6,0,L|136:304,1,109.375,2|0,0:0|0:0,0:0:0:0:
146,304,11635,2,0,L|336:152,1,218.75,10|0,0:0|0:0,0:0:0:0:
316,167,11822,1,2,0:0:0:0:
152,160,12010,6,0,L|8:160,1,125,0|2,0:0|0:0,0:0:0:0:
104,160,12291,1,0,0:0:0:0:
296,160,12385,2,0,L|472:160,1,125,8|2,0:0|0:0,0:0:0:0:
344,160,12666,1,0,0:0:0:0:
152,160,12760,1,0,0:0:0:0:
256,160,12947,2,0,L|184:160,1,62.5,2|0,0:0|0:0,0:0:0:0:
376,160,13135,1,8,0:0:0:0:
256,160,13322,2,0,L|336:160,1,62.5,2|0,0:0|0:0,0:0:0:0:
152,160,13510,6,0,L|8:160,1,125,0|2,0:0|0:0,0:0:0:0:
360,312,13885,2,0,L|496:312,2,125,8|2|0,0:0|0:0|0:0,0:0:0:0:
64,144,14447,6,0,L|136:144,1,62.5,2|0,0:0|0:0,0:0:0:0:
360,264,14635,2,0,L|288:264,1,62.5,10|0,0:0|0:0,0:0:0:0:
64,264,14822,2,0,L|144:264,1,62.5,2|0,0:0|0:0,0:0:0:0:
408,264,15010,6,0,P|432:192|400:152,1,125,4|2,3:0|0:0,0:0:0:0:
328,152,15291,1,0,0:0:0:0:
264,120,15385,1,10,0:0:0:0:
256,48,15479,1,2,0:0:0:0:
320,16,15572,1,2,0:0:0:0:
408,56,15666,2,0,L|168:56,1,187.5,2|0,0:0|0:0,0:0:0:0:
120,56,16041,1,2,0:0:0:0:
192,80,16135,1,10,0:0:0:0:
192,152,16229,1,0,0:0:0:0:
120,168,16322,1,0,0:0:0:0:
120,240,16416,1,0,0:0:0:0:
224,192,16510,5,2,0:0:0:0:
288,224,16603,1,0,0:0:0:0:
280,296,16697,1,0,0:0:0:0:
208,312,16791,1,0,0:0:0:0:
104,312,16885,1,10,0:0:0:0:
184,328,16979,1,0,0:0:0:0:
264,352,17072,1,0,0:0:0:0:
344,368,17166,1,0,0:0:0:0:
264,352,17260,5,2,0:0:0:0:
432,320,17354,2,0,P|456:248|416:200,1,125,2|2,0:0|0:0,0:0:0:0:
184,192,17635,2,0,L|112:72,1,125,10|2,0:0|0:0,0:0:0:0:
440,80,18010,6,0,L|288:80,1,125,4|2,3:0|0:0,0:0:0:0:
416,80,18291,1,0,0:0:0:0:
315,80,18385,2,0,L|304:176,1,62.5,10|0,0:0|0:0,0:0:0:0:
408,144,18573,2,0,L|336:144,1,62.5,2|0,0:0|0:0,0:0:0:0:
224,144,18760,5,2,0:0:0:0:
312,176,18854,1,2,0:0:0:0:
320,256,18948,1,2,0:0:0:0:
248,296,19041,1,0,0:0:0:0:
168,304,19135,1,10,0:0:0:0:
248,320,19229,1,2,0:0:0:0:
328,344,19323,1,2,0:0:0:0:
248,320,19416,1,0,0:0:0:0:
64,304,19510,6,0,L|48:176,1,125,2|2,0:0|0:0,0:0:0:0:
224,72,19885,2,0,L|296:64,1,62.5,10|0,0:0|0:0,0:0:0:0:
88,152,20073,2,0,L|40:88,1,62.5,2|0,0:0|0:0,0:0:0:0:
304,152,20260,6,0,P|352:200|288:240,1,125,2|0,0:0|0:0,0:0:0:0:
256,264,20541,1,2,0:0:0:0:
64,296,20635,2,0,L|152:296,1,62.5,8|0,0:0|0:0,0:0:0:0:
336,296,20823,2,0,L|400:296,1,62.5,2|0,0:0|0:0,0:0:0:0:
144,240,21010,6,0,L|64:240,1,62.5,4|0,0:0|0:0,0:0:0:0:
160,240,21198,1,2,0:0:0:0:
248,240,21291,1,0,0:0:0:0:
88,120,21385,2,0,L|72:40,1,62.5,10|0,0:0|0:0,0:0:0:0:
264,152,21573,2,0,L|328:152,1,62.5,2|0,0:0|0:0,0:0:0:0:
152,344,21760,6,0,L|144:256,1,62.5,2|0,0:0|0:0,0:0:0:0:
256,272,21948,2,0,L|264:184,1,62.5,2|0,0:0|0:0,0:0:0:0:
64,128,22135,2,0,P|32:200|64:232,1,125,10|2,0:0|0:0,0:0:0:0:
144,232,22416,1,0,0:0:0:0:
344,232,22510,6,0,L|408:232,1,62.5,2|0,0:0|0:0,0:0:0:0:
304,232,22698,2,0,L|296:144,1,62.5,2|0,0:0|0:0,0:0:0:0:
400,160,22885,2,0,L|408:80,1,62.5,10|0,0:0|0:0,0:0:0:0:
320,80,23073,2,0,L|216:72,1,62.5
64,232,23260,6,0,L|208:232,2,125,2|2|10,0:0|0:0|0:0,0:0:0:0:
264,232,23823,2,0,L|280:136,1,62.5,2|0,0:0|0:0,0:0:0:0:
88,80,24010,6,0,P|72:160|128:192,1,125,2|0,0:0|0:0,0:0:0:0:
176,200,24291,1,2,0:0:0:0:
416,200,24385,2,0,L|232:200,1,125,8|2,0:0|0:0,0:0:0:0:
392,200,24666,1,2,0:0:0:0:
176,200,24760,2,0,L|32:200,1,125,2|2,0:0|0:0,0:0:0:0:
336,320,25135,1,10,0:0:0:0:
176,320,25323,1,0,0:0:0:0:
440,320,25510,5,2,0:0:0:0:
336,320,25604,2,0,L|192:320,1,125,2|2,0:0|0:0,0:0:0:0:
440,224,25885,2,0,P|464:128|408:112,1,125,2|2,0:0|0:0,0:0:0:0:
184,72,26167,2,0,P|120:104|144:168,1,125,2|2,0:0|0:0,0:0:0:0:
328,152,26448,1,2,0:0:0:0:
184,152,26635,2,0,L|32:152,1,125,10|0,0:0|0:0,0:0:0:0:
400,320,27010,6,0,L|152:320,2,187.5,4|2|2,0:0|0:0|0:0,0:0:0:0:
152,320,27760,6,0,P|72:296|56:248,1,125,2|2,0:0|0:0,0:0:0:0:
136,264,28042,1,2,0:0:0:0:
208,264,28135,1,2,0:0:0:0:
48,192,28323,1,2,0:0:0:0:
360,320,28510,6,0,L|368:248,1,62.5,4|0,0:0|0:0,0:0:0:0:
144,144,28698,2,0,L|0:144,1,125,2|8,0:0|0:0,0:0:0:0:
96,144,28979,1,0,0:0:0:0:
296,144,29073,2,0,L|432:144,1,125,2|0,0:0|0:0,0:0:0:0:
344,144,29354,1,0,0:0:0:0:
96,304,29448,6,0,L|232:304,1,125,2|8,0:0|0:0,0:0:0:0:
144,304,29729,1,0,0:0:0:0:
336,304,29823,2,0,L|472:304,1,125,2|0,0:0|0:0,0:0:0:0:
384,304,30104,1,0,0:0:0:0:
144,192,30198,6,0,L|8:192,1,125,2|8,0:0|0:0,0:0:0:0:
96,192,30479,1,0,0:0:0:0:
304,112,30573,2,0,L|440:112,1,125,2|0,0:0|0:0,0:0:0:0:
352,112,30854,1,0,0:0:0:0:
96,120,30948,6,0,L|32:120,1,62.5,2|0,0:0|0:0,0:0:0:0:
264,208,31135,2,0,L|328:208,1,62.5,10|0,0:0|0:0,0:0:0:0:
104,328,31323,2,0,L|32:328,1,62.5,2|0,0:0|0:0,0:0:0:0:
304,328,31510,6,0,L|448:328,1,125,4|2,0:0|0:0,0:0:0:0:
352,328,31792,1,0,0:0:0:0:
144,328,31885,2,0,L|0:328,1,125,8|2,0:0|0:0,0:0:0:0:
360,112,32260,2,0,L|208:112,2,125,0|2|8,0:0|0:0|0:0,0:0:0:0:
208,112,32823,1,2,0:0:0:0:
496,296,33010,5,2,0:0:0:0:
344,296,33198,1,0,3:0:0:0:
496,296,33385,1,0,3:0:0:0:
200,296,33573,1,0,3:0:0:0:
384,296,33761,1,0,3:0:0:0:
32,296,34136,1,2,0:0:0:0:
464,288,34511,6,0,P|472:192|424:168,1,125,0|2,3:0|0:0,0:0:0:0:
384,176,34792,1,0,0:0:0:0:
312,168,34886,1,2,3:2:0:0:
384,152,34979,1,0,0:0:0:0:
456,136,35073,1,2,0:0:0:0:
384,120,35167,1,0,0:0:0:0:
192,120,35261,5,10,0:0:0:0:
120,120,35354,1,0,0:0:0:0:
48,120,35448,1,2,0:0:0:0:
120,120,35542,1,0,0:0:0:0:
192,120,35636,1,2,0:0:0:0:
264,120,35729,1,0,0:0:0:0:
192,120,35823,1,2,0:0:0:0:
120,120,35917,1,0,0:0:0:0:
336,120,36011,5,2,3:2:0:0:
408,120,36104,1,0,0:0:0:0:
480,120,36198,1,2,0:0:0:0:
408,120,36292,1,0,0:0:0:0:
176,240,36386,2,0,L|312:240,1,125,2|0,3:2|0:0,0:0:0:0:
32,240,36761,5,2,0:0:0:0:
24,168,36854,1,0,0:0:0:0:
264,160,36948,1,2,0:0:0:0:
272,88,37042,1,0,0:0:0:0:
120,88,37136,1,2,0:0:0:0:
48,72,37229,1,0,0:0:0:0:
256,312,37323,1,2,0:0:0:0:
328,304,37417,1,0,0:0:0:0:
168,240,37511,6,0,L|0:224,1,125,2|2,3:2|0:0,0:0:0:0:
192,208,37886,2,0,P|208:128|168:104,1,125,2|2,3:2|0:0,0:0:0:0:
104,96,38167,1,0,0:0:0:0:
272,88,38261,1,10,0:0:0:0:
344,80,38354,1,0,0:0:0:0:
416,72,38448,1,2,0:0:0:0:
344,80,38542,1,0,0:0:0:0:
272,88,38636,2,0,L|416:96,1,125,2|2,0:0|0:0,0:0:0:0:
216,88,39011,6,0,L|72:88,1,125,2|2,0:0|0:0,0:0:0:0:
168,88,39292,1,0,0:0:0:0:
240,88,39386,1,2,0:0:0:0:
168,88,39479,1,0,0:0:0:0:
91,88,39573,1,2,0:0:0:0:
392,296,39761,6,0,L|160:296,2,224.999993133545,2|2|2,0:0|0:0|0:0,0:0:0:0:
104,192,40511,5,2,0:0:0:0:
32,160,40604,2,0,P|24:80|56:48,1,125,2|2,0:0|0:0,0:0:0:0:
128,48,40886,1,10,0:0:0:0:
200,40,40979,1,0,0:0:0:0:
128,48,41073,1,2,0:0:0:0:
232,40,41167,6,0,L|368:40,1,125,2|2,0:0|0:0,0:0:0:0:
280,40,41448,1,2,0:0:0:0:
176,40,41542,2,0,P|144:104|192:152,1,125
248,144,41823,1,0,0:0:0:0:
328,144,41917,1,0,0:0:0:0:
176,192,42011,5,2,0:0:0:0:
104,192,42105,1,2,0:0:0:0:
32,192,42198,1,0,0:0:0:0:
104,192,42292,1,2,0:0:0:0:
176,192,42386,1,2,0:0:0:0:
248,192,42480,1,0,0:0:0:0:
176,192,42573,1,2,0:0:0:0:
104,192,42667,1,2,0:0:0:0:
328,192,42761,5,0,0:0:0:0:
256,192,42855,1,2,0:0:0:0:
328,192,42948,1,2,0:0:0:0:
416,192,43042,2,0,P|448:256|392:288,1,125
328,288,43323,1,2,0:0:0:0:
416,286,43417,1,0,0:0:0:0:
224,288,43511,6,0,P|152:232|176:176,1,125,2|0,0:0|0:0,0:0:0:0:
320,144,43792,2,0,L|472:120,1,125,2|0,0:0|0:0,0:0:0:0:
288,56,44073,2,0,L|200:48,1,62.5,2|0,0:0|0:0,0:0:0:0:
408,40,44261,6,0,L|496:128,1,125,2|2,0:0|0:0,0:0:0:0:
168,304,44636,1,10,0:0:0:0:
336,304,44823,1,2,0:0:0:0:
80,208,45011,6,2,L|8:208,1,62.5
272,80,45292,2,10,L|336:80,1,62.5,2|10,0:0|0:0,0:0:0:0:
88,80,45573,2,2,L|16:80,1,62.5
360,208,45855,2,0,L|448:208,2,62.5,2|2|0,0:0|0:0|0:0,0:0:0:0:
144,208,46136,1,0,3:0:0:0:
72,240,46230,1,0,3:0:0:0:
64,312,46323,1,0,3:0:0:0:
120,360,46417,1,0,3:0:0:0:
336,352,46511,6,0,L|480:352,1,125,2|0,0:0|0:0,0:0:0:0:
240,232,46792,2,0,L|96:232,1,125,2|0,0:0|0:0,0:0:0:0:
328,136,47073,2,0,L|400:136,1,62.5,2|0,0:0|0:0,0:0:0:0:
144,136,47261,6,0,L|120:280,1,125,2|2,0:0|0:0,0:0:0:0:
384,256,47636,1,2,0:0:0:0:
232,256,47823,2,0,L|168:256,1,62.5,2|0,0:0|0:0,0:0:0:0:
400,312,48011,6,0,L|424:160,1,125,0|0,3:0|0:0,0:0:0:0:
320,184,48292,1,0,0:0:0:0:
216,176,48386,2,0,L|200:48,1,125,8|0,0:0|0:0,0:0:0:0:
304,48,48667,1,0,0:0:0:0:
408,40,48761,1,0,3:0:0:0:
216,176,48948,1,0,0:0:0:0:
120,192,49042,1,0,0:0:0:0:
24,208,49136,2,0,L|40:344,1,125,8|0,0:0|0:0,0:0:0:0:
136,328,49417,1,0,0:0:0:0:
328,328,49511,6,0,L|344:176,1,125,0|0,3:0|0:0,0:0:0:0:
248,176,49792,1,0,0:0:0:0:
344,160,49886,2,0,L|496:136,1,125,8|0,0:0|0:0,0:0:0:0:
368,112,50167,1,0,0:0:0:0:
208,80,50261,6,0,L|48:48,1,125,0|0,3:0|0:0,0:0:0:0:
184,48,50542,1,0,0:0:0:0:
85,55,50636,2,0,L|32:192,1,125,8|0,0:0|0:0,0:0:0:0:
136,184,50917,1,0,0:0:0:0:
296,208,51011,6,0,L|448:232,1,125,0|0,3:0|0:0,0:0:0:0:
320,232,51292,1,0,0:0:0:0:
216,240,51386,2,0,L|72:240,1,125,8|0,0:0|0:0,0:0:0:0:
192,240,51667,1,0,0:0:0:0:
376,240,51761,6,0,L|384:96,1,125,0|0,3:0|0:0,0:0:0:0:
280,104,52042,1,0,0:0:0:0:
184,96,52136,2,0,L|328:96,1,125,8|0,0:0|0:0,0:0:0:0:
208,72,52417,1,0,0:0:0:0:
408,56,52511,6,0,L|400:208,1,125,0|0,3:0|0:0,0:0:0:0:
304,200,52792,1,0,0:0:0:0:
208,208,52886,2,0,L|192:360,1,125,10|0,0:0|0:0,0:0:0:0:
296,344,53167,1,0,0:0:0:0:
392,352,53261,6,0,L|408:208,1,125,2|0,3:2|0:0,0:0:0:0:
304,200,53542,1,0,0:0:0:0:
96,184,53636,2,0,L|80:56,1,125,10|0,0:0|0:0,0:0:0:0:
184,48,53917,1,0,0:0:0:0:
416,56,54011,5,6,0:0:0:0:
104,312,54386,6,0,L|376:312,2,250,2|2|2,0:0|0:0|0:0,0:0:0:0:
432,80,55511,6,0,L|160:80,1,250,10|2,0:0|0:0,0:0:0:0:
344,192,56074,1,2,0:0:0:0:
144,192,56261,2,0,L|136:328,1,125,2|0,0:0|0:0,0:0:0:0:
336,320,56636,2,0,L|344:168,1,125,2|0,0:0|0:0,0:0:0:0:
88,88,57011,5,2,0:0:0:0:
32,136,57105,1,0,0:0:0:0:
64,208,57199,1,0,0:0:0:0:
136,216,57292,1,0,0:0:0:0:
208,224,57386,1,2,0:0:0:0:
272,272,57480,1,0,0:0:0:0:
256,344,57574,1,0,0:0:0:0:
184,360,57668,1,0,0:0:0:0:
112,344,57761,5,2,0:0:0:0:
64,280,57855,1,0,0:0:0:0:
88,208,57949,1,0,0:0:0:0:
160,192,58043,1,0,0:0:0:0:
232,184,58136,1,2,0:0:0:0:
296,144,58230,1,0,0:0:0:0:
312,72,58324,1,0,0:0:0:0:
256,24,58418,1,0,0:0:0:0:
88,32,58511,6,0,P|40:96|136:208,1,250,2|0,0:0|0:0,0:0:0:0:
208,200,58980,1,0,0:0:0:0:
133,208,59074,1,0,0:0:0:0:
56,216,59168,1,0,0:0:0:0:
360,320,59261,6,0,B|480:288|480:288|120:256,1,449.99998626709,2|0,0:0|0:0,0:0:0:0:
424,264,60011,5,4,0:0:0:0:
488,200,60105,1,0,0:0:0:0:
304,192,60199,1,2,0:0:0:0:
120,176,60293,1,2,0:0:0:0:
56,112,60387,1,0,0:0:0:0:
240,104,60481,1,2,0:0:0:0:
424,264,60574,5,2,0:0:0:0:
488,200,60668,1,0,0:0:0:0:
304,192,60762,1,2,0:0:0:0:
120,176,60856,1,2,0:0:0:0:
56,112,60950,1,0,0:0:0:0:
240,104,61044,1,2,0:0:0:0:
424,264,61136,5,2,0:0:0:0:
488,200,61230,1,0,0:0:0:0:
304,192,61324,1,2,0:0:0:0:
120,176,61418,1,2,0:0:0:0:
56,112,61512,1,0,0:0:0:0:
240,104,61605,1,2,0:0:0:0:
424,264,61699,5,2,0:0:0:0:
488,200,61793,1,0,0:0:0:0:
304,192,61887,1,2,0:0:0:0:
120,176,61981,1,2,0:0:0:0:
56,112,62075,1,0,0:0:0:0:
240,104,62169,1,2,0:0:0:0:
424,264,62261,6,0,P|448:168|368:128,1,149.999995422363,2|0,0:0|0:0,0:0:0:0:
192,184,62543,2,0,P|112:168|64:96,1,149.999995422363,2|0,0:0|0:0,0:0:0:0:
312,64,62824,2,0,L|400:48,1,74.9999977111817,2|0,0:0|0:0,0:0:0:0:
120,328,63011,6,0,L|88:168,1,149.999995422363,0|2,0:0|0:0,0:0:0:0:
256,112,63386,1,2,0:0:0:0:
72,104,63574,1,2,0:0:0:0:
400,280,63761,2,0,L|160:296,2,224.999993133545,2|2|2,0:0|0:0|0:0,0:0:0:0:
312,248,64418,1,0,0:0:0:0:
112,192,64511,6,0,L|96:32,1,149.999995422363,2|0,0:0|0:0,0:0:0:0:
384,328,64886,2,0,L|408:152,1,149.999995422363,2|0,0:0|0:0,0:0:0:0:
112,312,65261,1,2,0:0:0:0:
56,248,65355,1,0,0:0:0:0:
88,168,65449,1,0,0:0:0:0:
176,160,65543,1,0,0:0:0:0:
424,96,65637,2,0,P|440:176|376:208,1,149.999995422363
88,264,66012,5,2,0:0:0:0:
24,200,66106,1,0,0:0:0:0:
208,192,66200,1,2,0:0:0:0:
392,176,66294,1,2,0:0:0:0:
456,112,66388,1,0,0:0:0:0:
272,104,66482,1,2,0:0:0:0:
88,264,66575,5,2,0:0:0:0:
24,200,66669,1,0,0:0:0:0:
208,192,66763,1,2,0:0:0:0:
392,176,66857,1,2,0:0:0:0:
456,112,66951,1,0,0:0:0:0:
272,104,67045,1,2,0:0:0:0:
88,264,67137,5,2,0:0:0:0:
24,200,67231,1,0,0:0:0:0:
208,192,67325,1,2,0:0:0:0:
392,176,67419,1,2,0:0:0:0:
456,112,67513,1,0,0:0:0:0:
272,104,67607,1,2,0:0:0:0:
88,264,67700,5,2,0:0:0:0:
24,200,67794,1,0,0:0:0:0:
208,192,67888,1,2,0:0:0:0:
392,176,67982,1,2,0:0:0:0:
456,112,68076,1,0,0:0:0:0:
272,104,68170,1,2,0:0:0:0:
88,264,68262,6,0,P|64:168|144:128,1,149.999995422363,2|0,0:0|0:0,0:0:0:0:
320,184,68544,2,0,P|400:168|448:96,1,149.999995422363,2|0,0:0|0:0,0:0:0:0:
200,64,68824,2,0,L|112:48,1,74.9999977111817,2|0,0:0|0:0,0:0:0:0:
296,320,69012,6,0,L|496:304,1,149.999995422363,0|2,0:0|0:0,0:0:0:0:
288,224,69387,1,2,0:0:0:0:
448,216,69574,1,2,0:0:0:0:
144,96,69762,2,0,L|408:88,2,224.999993133545,2|2|2,0:0|0:0|0:0,0:0:0:0:
232,128,70418,1,0,0:0:0:0:
416,168,70512,5,4,0:0:0:0:
288,224,70699,1,2,0:0:0:0:
456,288,70887,2,0,L|472:128,1,149.999995422363,2|0,0:0|0:0,0:0:0:0:
160,88,71262,1,2,0:0:0:0:
72,112,71355,1,0,0:0:0:0:
160,144,71449,1,0,0:0:0:0:
248,168,71543,1,0,0:0:0:0:
160,184,71637,1,2,0:0:0:0:
72,208,71730,1,0,0:0:0:0:
160,232,71824,1,0,0:0:0:0:
72,256,71918,1,0,0:0:0:0:
296,264,72012,6,0,P|448:216|512:80,1,299.999990844727,4|8,0:0|0:0,0:0:0:0:
392,96,72574,2,0,L|472:96,1,74.9999977111817,2|0,0:0|0:0,0:0:0:0:
256,96,72762,2,0,P|160:96|128:240,2,224.999993133545,0|0|2,3:0|3:0|0:0,0:0:0:0:
168,104,73418,1,0,0:0:0:0:
8,152,73512,6,0,L|168:144,1,149.999995422363,2|0,0:0|0:0,0:0:0:0:
480,136,73887,2,0,L|280:112,1,149.999995422363,10|0,0:0|0:0,0:0:0:0:
152,96,74262,1,2,0:0:0:0:
328,208,74449,1,2,0:0:0:0:
240,232,74543,1,2,0:0:0:0:
152,256,74637,1,2,0:0:0:0:
328,256,74824,1,2,0:0:0:0:
24,256,75012,6,0,L|16:96,1,149.999995422363,4|0,0:0|0:0,0:0:0:0:
192,80,75387,1,2,0:0:0:0:
16,80,75574,1,0,0:0:0:0:
336,304,75762,2,0,L|96:280,2,224.999993133545,2|2|2,0:0|0:0|0:0,0:0:0:0:
248,312,76418,1,0,0:0:0:0:
72,344,76512,2,0,L|56:168,1,149.999995422363,2|0,0:0|0:0,0:0:0:0:
360,184,76887,2,0,L|376:8,1,149.999995422363,2|0,0:0|0:0,0:0:0:0:
64,64,77262,5,2,3:2:0:0:
152,72,77356,1,0,0:0:0:0:
240,80,77449,1,0,0:0:0:0:
328,88,77543,1,0,0:0:0:0:
240,104,77637,1,2,3:2:0:0:
152,128,77731,1,0,0:0:0:0:
240,144,77824,1,0,0:0:0:0:
328,168,77918,1,0,0:0:0:0:
120,328,78012,5,2,3:0:0:0:
208,312,78106,1,0,3:0:0:0:
296,296,78199,1,0,3:0:0:0:
208,272,78293,1,0,3:0:0:0:
438,90,78387,2,0,P|496:160|464:232,1,149.999995422363,4|2,0:0|0:0,0:0:0:0:
400,248,78668,1,2,0:0:0:0:
208,216,78762,2,0,L|32:192,1,149.999995422363,2|0,3:2|0:0,0:0:0:0:
312,128,79137,2,0,L|496:112,1,149.999995422363,0|2,0:0|0:0,0:0:0:0:
376,88,79418,1,2,0:0:0:0:
144,96,79512,6,0,L|304:88,2,149.999995422363,2|2|2,0:0|0:0|0:0,0:0:0:0:
304,152,80074,1,2,0:0:0:0:
8,280,80262,6,0,L|248:280,2,224.999993133545,2|2|2,0:0|0:0|0:0,0:0:0:0:
392,280,81012,6,0,L|416:112,1,149.999995422363,0|2,0:0|0:0,0:0:0:0:
232,104,81387,1,2,0:0:0:0:
408,80,81575,1,2,0:0:0:0:
112,296,81762,6,0,L|96:136,1,149.999995422363,2|0,0:0|0:0,0:0:0:0:
320,288,82043,2,0,L|472:280,1,149.999995422363,2|0,0:0|0:0,0:0:0:0:
272,144,82325,2,0,L|176:128,1,74.9999977111817,2|0,0:0|0:0,0:0:0:0:
400,88,82512,6,0,P|480:144|400:200,1,224.999993133545,2|0,0:0|0:0,0:0:0:0:
144,248,82887,2,0,L|376:272,1,224.999993133545,2|0,0:0|0:0,0:0:0:0:
112,88,83262,2,0,P|32:144|112:200,1,224.999993133545,2|0,0:0|0:0,0:0:0:0:
368,200,83637,1,6,0:0:0:0:
128,192,84012,5,2,0:0:0:0:
272,192,84199,2,0,L|352:192,1,62.5,2|0,0:0|0:0,0:0:0:0:
128,192,84387,2,0,L|-8:192,1,125,10|2,0:0|0:0,0:0:0:0:
80,192,84668,1,0,0:0:0:0:
272,192,84762,2,0,L|432:192,1,125,2|2,0:0|0:0,0:0:0:0:
320,192,85043,1,0,0:0:0:0:
128,192,85137,2,0,L|-24:192,1,125,10|2,0:0|0:0,0:0:0:0:
80,192,85418,1,0,0:0:0:0:
368,192,85512,6,0,L|496:192,1,125,2|2,0:0|0:0,0:0:0:0:
416,192,85793,1,0,0:0:0:0:
256,192,85887,2,0,L|120:192,1,125,10|2,0:0|0:0,0:0:0:0:
208,192,86168,1,0,0:0:0:0:
416,192,86262,1,2,0:0:0:0:
120,304,86449,6,0,L|240:296,1,109.375,2|0,0:0|0:0,0:0:0:0:
230,296,86637,2,0,L|40:144,1,218.75,10|0,0:0|0:0,0:0:0:0:
60,159,86824,1,2,0:0:0:0:
136,160,86918,1,0,0:0:0:0:
328,160,87012,6,0,L|480:160,1,125,6|2,0:0|0:0,0:0:0:0:
376,160,87293,1,0,0:0:0:0:
136,160,87387,2,0,L|280:160,1,125,8|2,0:0|0:0,0:0:0:0:
0,312,87950,2,0,L|144:312,2,125,2|8|2,0:0|0:0|0:0,0:0:0:0:
352,312,88512,5,2,0:0:0:0:
200,312,88700,1,0,3:0:0:0:
376,192,88887,1,0,3:0:0:0:
168,192,89075,1,0,3:0:0:0:
480,192,89262,1,4,3:0:0:0:
16,192,89637,1,10,0:0:0:0:
