osu file format v14

[General]
AudioFilename: audio.mp3
AudioLeadIn: 0
PreviewTime: 151114
Countdown: 0
SampleSet: Normal
StackLeniency: 0.2
Mode: 1
LetterboxInBreaks: 0
WidescreenStoryboard: 0

[Editor]
DistanceSpacing: 1
BeatDivisor: 8
GridSize: 32
TimelineZoom: 3.199999

[Metadata]
Title:Simple And Clean (PLANITb Remix)
TitleUnicode:Simple And Clean (PLANITb Remix)
Artist:Utada Hikaru
ArtistUnicode:宇多田ヒカル
Creator:Rygno
Version:Inner Oni
Source:Kingdom Hearts
Tags:
BeatmapID:1879611
BeatmapSetID:899853

[Difficulty]
HPDrainRate:6
CircleSize:5
OverallDifficulty:7
ApproachRate:5
SliderMultiplier:1.4
SliderTickRate:1

[Events]
//Background and Video events
0,0,"6972136-kingdom-hearts-wallpaper.jpg",0,0
//Break Periods
2,103487,105318
2,180564,182164
//Storyboard Layer 0 (Background)
//Storyboard Layer 1 (Fail)
//Storyboard Layer 2 (Pass)
//Storyboard Layer 3 (Foreground)
//Storyboard Sound Samples

[TimingPoints]
44211,461.538461538462,4,1,0,30,1,0
44211,-100,4,1,0,30,0,0
55749,-83.3333333333333,4,1,0,40,0,0
56211,-71.4285714285714,4,1,0,50,0,0
56672,-62.5,4,1,0,60,0,0
57134,-52.6315789473684,4,1,0,70,0,0
57595,-45.4545454545455,4,1,0,80,0,0
58057,-40,4,1,0,90,0,0
58518,-33.3333333333333,4,1,0,100,0,0
58980,-66.6666666666667,4,1,0,50,0,0
73749,-60.6060606060606,4,1,0,60,0,0
88403,-55.5555555555556,4,1,0,60,0,0
98095,-50,4,1,0,70,0,0
99480,-49.2610837438424,4,1,0,70,0,0
100403,-48.5436893203883,4,1,0,70,0,0
101326,-47.6190476190476,4,1,0,70,0,0
101787,-46.7289719626168,4,1,0,70,0,0
102249,-45.8715596330275,4,1,0,70,0,0
102711,-45.045045045045,4,1,0,70,0,0
102941,-44.2477876106195,4,1,0,70,0,0
103287,-43.4782608695652,4,1,0,70,0,0
106518,-33.3333333333333,4,1,0,100,0,0
106980,-52.6315789473684,4,1,0,70,0,0
117941,-50,4,1,0,70,0,0
118864,-47.6190476190476,4,1,0,70,0,0
119787,-45.4545454545455,4,1,0,70,0,0
120364,-66.6666666666667,4,1,0,70,0,0
121518,-52.6315789473684,4,1,0,70,0,0
136518,-51.2820512820513,4,1,0,70,0,0
143903,-50,4,1,0,70,0,0
147480,-48.780487804878,4,1,0,70,0,0
149326,-46.5116279069767,4,1,0,70,0,0
149787,-45.4545454545455,4,1,0,70,0,0
150249,-44.4444444444445,4,1,0,70,0,0
150711,-43.4782608695652,4,1,0,70,0,0
151287,-48.780487804878,4,1,0,70,0,1
164095,-46.5116279069767,4,1,0,70,0,1
164557,-45.4545454545455,4,1,0,70,0,1
165480,-44.4444444444445,4,1,0,70,0,1
165826,-43.4782608695652,4,1,0,70,0,1
166287,-48.780487804878,4,1,0,70,0,1
177018,-47.6190476190476,4,1,0,70,0,1
177941,-46.5116279069767,4,1,0,70,0,1
178864,-45.4545454545455,4,1,0,70,0,1
179326,-44.4444444444445,4,1,0,70,0,1
180018,-43.4782608695652,4,1,0,70,0,1
180364,-43.4782608695652,4,1,0,70,0,0
180826,-52.6315789473684,4,1,0,70,0,0
183364,-66.6666666666667,4,1,0,70,0,0
184287,-52.6315789473684,4,1,0,70,0,0
199518,-51.2820512820513,4,1,0,70,0,0
206672,-50,4,1,0,70,0,0
210249,-48.780487804878,4,1,0,70,0,0
211172,-47.6190476190476,4,1,0,70,0,0
212095,-46.5116279069767,4,1,0,70,0,0
212557,-45.4545454545455,4,1,0,70,0,0
213018,-44.4444444444445,4,1,0,70,0,0
213480,-43.4782608695652,4,1,0,70,0,0
214057,-48.780487804878,4,1,0,70,0,1
225018,-47.6190476190476,4,1,0,70,0,1
225941,-46.9483568075117,4,1,0,70,0,1
226864,-46.2962962962963,4,1,0,70,0,1
227326,-45.4545454545455,4,1,0,70,0,1
227787,-44.8430493273543,4,1,0,70,0,1
228249,-44.2477876106195,4,1,0,70,0,1
228595,-43.4782608695652,4,1,0,70,0,1
228826,-43.4782608695652,4,1,0,70,0,0
229057,-48.780487804878,4,1,0,70,0,0
238057,-47.8468899521531,4,1,0,70,0,0
239787,-47.1698113207547,4,1,0,70,0,0
240711,-46.5116279069767,4,1,0,70,0,0
241172,-45.8715596330275,4,1,0,70,0,0
241634,-45.2488687782805,4,1,0,70,0,0
242095,-44.6428571428571,4,1,0,70,0,0
242557,-44.0528634361233,4,1,0,70,0,0
243134,-43.4782608695652,4,1,0,70,0,0
243595,-48.780487804878,4,1,0,70,0,1
254557,-47.6190476190476,4,1,0,70,0,1
255480,-46.7289719626168,4,1,0,70,0,1
256403,-45.8715596330275,4,1,0,70,0,1
256864,-45.045045045045,4,1,0,70,0,1
257326,-44.2477876106195,4,1,0,70,0,1
257903,-43.4782608695652,4,1,0,70,0,1
258364,-43.4782608695652,4,1,0,70,0,0
258595,-48.780487804878,4,1,0,70,0,0
269325,-47.6190476190476,4,1,0,70,0,0
270249,-46.7289719626168,4,1,0,70,0,0
271172,-45.8715596330275,4,1,0,70,0,0
271633,-45.045045045045,4,1,0,70,0,0
272095,-44.2477876106195,4,1,0,70,0,0
272672,-43.4782608695652,4,1,0,70,0,0
273134,-66.6666666666667,4,1,0,70,0,0
280057,-58.8235294117647,4,1,0,70,0,0
282134,-51.2820512820513,4,1,0,70,0,0
284095,-48.780487804878,4,1,0,70,0,0
285018,-47.39336492891,4,1,0,70,0,0
285941,-46.0829493087558,4,1,0,70,0,0
286403,-44.6428571428571,4,1,0,70,0,0
286864,-43.4782608695652,4,1,0,70,0,0
287326,-41.6666666666667,4,1,0,70,0,0
287903,-52.6315789473684,4,1,0,70,0,0
298864,-50.5050505050505,4,1,0,70,0,0
299787,-48.5436893203883,4,1,0,70,0,0
300710,-46.7289719626168,4,1,0,70,0,0
301172,-45.045045045045,4,1,0,70,0,0
301634,-43.4782608695652,4,1,0,70,0,0
302211,-39.2156862745098,4,1,0,70,0,0
302672,-43.4782608695652,4,1,0,70,0,0

[HitObjects]
256,192,44211,5,4,0:0:0:0:
256,192,44672,1,8,0:0:0:0:
256,192,45018,1,8,0:0:0:0:
256,192,45364,1,0,0:0:0:0:
256,192,45711,1,8,0:0:0:0:
256,192,46057,1,0,0:0:0:0:
256,192,46518,1,8,0:0:0:0:
256,192,46864,1,8,0:0:0:0:
256,192,47211,1,8,0:0:0:0:
256,192,47557,1,0,0:0:0:0:
256,192,47903,1,0,0:0:0:0:
256,192,48364,1,8,0:0:0:0:
256,192,48711,1,8,0:0:0:0:
256,192,49057,1,0,0:0:0:0:
256,192,49403,1,8,0:0:0:0:
256,192,49749,1,0,0:0:0:0:
256,192,50211,1,8,0:0:0:0:
256,192,50557,1,8,0:0:0:0:
256,192,50903,1,8,0:0:0:0:
256,192,51249,1,0,0:0:0:0:
256,192,51595,1,0,0:0:0:0:
256,192,52057,1,8,0:0:0:0:
256,192,52403,1,8,0:0:0:0:
256,192,52749,1,0,0:0:0:0:
256,192,53095,1,8,0:0:0:0:
256,192,53441,1,0,0:0:0:0:
256,192,53903,1,8,0:0:0:0:
256,192,54249,1,8,0:0:0:0:
256,192,54595,1,8,0:0:0:0:
256,192,54941,1,0,0:0:0:0:
256,192,55287,1,0,0:0:0:0:
256,192,55749,1,8,0:0:0:0:
256,192,56211,1,8,0:0:0:0:
256,192,56672,1,8,0:0:0:0:
256,192,57134,1,12,0:0:0:0:
256,192,57595,1,12,0:0:0:0:
256,192,58057,1,12,0:0:0:0:
256,192,58518,1,4,0:0:0:0:
256,192,58980,1,0,0:0:0:0:
256,192,59441,1,8,0:0:0:0:
256,192,59787,1,8,0:0:0:0:
256,192,59903,1,0,0:0:0:0:
256,192,60134,1,0,0:0:0:0:
256,192,60364,1,0,0:0:0:0:
256,192,60480,1,8,0:0:0:0:
256,192,60826,1,0,0:0:0:0:
256,192,61287,1,8,0:0:0:0:
256,192,61634,1,8,0:0:0:0:
256,192,61749,1,0,0:0:0:0:
256,192,61980,1,8,0:0:0:0:
256,192,62211,1,0,0:0:0:0:
256,192,62326,1,0,0:0:0:0:
256,192,62672,1,0,0:0:0:0:
256,192,63134,1,8,0:0:0:0:
256,192,63480,1,8,0:0:0:0:
256,192,63595,1,0,0:0:0:0:
256,192,63826,1,0,0:0:0:0:
256,192,64057,1,0,0:0:0:0:
256,192,64172,1,8,0:0:0:0:
256,192,64518,1,0,0:0:0:0:
256,192,64980,1,8,0:0:0:0:
256,192,65326,1,8,0:0:0:0:
256,192,65441,1,0,0:0:0:0:
256,192,65672,1,8,0:0:0:0:
256,192,65903,1,0,0:0:0:0:
256,192,66018,1,0,0:0:0:0:
256,192,66364,1,0,0:0:0:0:
256,192,66826,1,8,0:0:0:0:
256,192,67172,1,8,0:0:0:0:
256,192,67287,1,0,0:0:0:0:
256,192,67518,1,0,0:0:0:0:
256,192,67749,1,0,0:0:0:0:
256,192,67864,1,8,0:0:0:0:
256,192,68210,1,0,0:0:0:0:
256,192,68672,1,8,0:0:0:0:
256,192,69018,1,8,0:0:0:0:
256,192,69133,1,0,0:0:0:0:
256,192,69364,1,8,0:0:0:0:
256,192,69595,1,0,0:0:0:0:
256,192,69710,1,0,0:0:0:0:
256,192,70057,1,0,0:0:0:0:
256,192,70519,1,8,0:0:0:0:
256,192,70865,1,8,0:0:0:0:
256,192,70980,1,0,0:0:0:0:
256,192,71211,1,0,0:0:0:0:
256,192,71442,1,0,0:0:0:0:
256,192,71557,1,8,0:0:0:0:
256,192,71903,1,0,0:0:0:0:
256,192,72365,1,8,0:0:0:0:
256,192,72711,1,8,0:0:0:0:
256,192,72826,1,0,0:0:0:0:
256,192,73057,1,8,0:0:0:0:
256,192,73288,1,0,0:0:0:0:
256,192,73403,1,0,0:0:0:0:
256,192,73749,1,12,0:0:0:0:
256,192,74211,1,0,0:0:0:0:
256,192,74557,1,8,0:0:0:0:
256,192,74672,1,0,0:0:0:0:
256,192,74787,1,0,0:0:0:0:
256,192,74903,1,12,0:0:0:0:
256,192,75134,1,0,0:0:0:0:
256,192,75364,1,0,0:0:0:0:
256,192,75595,1,0,0:0:0:0:
256,192,75711,1,8,0:0:0:0:
256,192,75941,1,8,0:0:0:0:
256,192,76057,1,0,0:0:0:0:
256,192,76403,1,8,0:0:0:0:
256,192,76518,1,0,0:0:0:0:
256,192,76749,1,8,0:0:0:0:
256,192,76980,1,0,0:0:0:0:
256,192,77095,1,0,0:0:0:0:
256,192,77441,1,0,0:0:0:0:
256,192,77903,1,8,0:0:0:0:
256,192,78249,1,8,0:0:0:0:
256,192,78364,1,0,0:0:0:0:
256,192,78595,1,12,0:0:0:0:
256,192,78826,1,0,0:0:0:0:
256,192,78941,1,8,0:0:0:0:
256,192,79287,1,0,0:0:0:0:
256,192,79749,1,8,0:0:0:0:
256,192,80095,1,8,0:0:0:0:
256,192,80211,1,0,0:0:0:0:
256,192,80441,1,8,0:0:0:0:
256,192,80672,1,0,0:0:0:0:
256,192,80787,1,0,0:0:0:0:
256,192,81134,1,0,0:0:0:0:
256,192,81595,1,8,0:0:0:0:
256,192,81941,1,8,0:0:0:0:
256,192,82057,1,0,0:0:0:0:
256,192,82172,1,0,0:0:0:0:
256,192,82287,1,12,0:0:0:0:
256,192,82518,1,0,0:0:0:0:
256,192,82749,1,0,0:0:0:0:
256,192,82980,1,0,0:0:0:0:
256,192,83095,1,8,0:0:0:0:
256,192,83326,1,8,0:0:0:0:
256,192,83441,1,0,0:0:0:0:
256,192,83787,1,8,0:0:0:0:
256,192,83903,1,0,0:0:0:0:
256,192,84134,1,8,0:0:0:0:
256,192,84364,1,0,0:0:0:0:
256,192,84480,1,0,0:0:0:0:
256,192,84826,1,0,0:0:0:0:
256,192,85287,1,8,0:0:0:0:
256,192,85634,1,8,0:0:0:0:
256,192,85749,1,0,0:0:0:0:
256,192,85980,1,12,0:0:0:0:
256,192,86211,1,0,0:0:0:0:
256,192,86326,1,8,0:0:0:0:
256,192,86672,1,0,0:0:0:0:
256,192,87134,1,8,0:0:0:0:
256,192,87480,1,8,0:0:0:0:
256,192,87595,1,0,0:0:0:0:
256,192,87826,1,8,0:0:0:0:
256,192,88057,1,0,0:0:0:0:
256,192,88172,1,0,0:0:0:0:
256,192,88403,1,0,0:0:0:0:
256,192,88518,1,12,0:0:0:0:
256,192,88980,1,8,0:0:0:0:
256,192,89326,1,8,0:0:0:0:
256,192,89441,1,0,0:0:0:0:
256,192,89556,1,0,0:0:0:0:
256,192,89672,1,12,0:0:0:0:
256,192,89903,1,0,0:0:0:0:
256,192,90133,1,0,0:0:0:0:
256,192,90364,1,0,0:0:0:0:
256,192,90480,1,8,0:0:0:0:
256,192,90710,1,8,0:0:0:0:
256,192,90826,1,0,0:0:0:0:
256,192,91172,1,8,0:0:0:0:
256,192,91287,1,0,0:0:0:0:
256,192,91518,1,8,0:0:0:0:
256,192,91749,1,0,0:0:0:0:
256,192,91864,1,0,0:0:0:0:
256,192,92210,1,0,0:0:0:0:
256,192,92672,1,8,0:0:0:0:
256,192,93018,1,8,0:0:0:0:
256,192,93133,1,0,0:0:0:0:
256,192,93364,1,12,0:0:0:0:
256,192,93595,1,0,0:0:0:0:
256,192,93710,1,8,0:0:0:0:
256,192,94056,1,0,0:0:0:0:
256,192,94518,1,8,0:0:0:0:
256,192,94864,1,8,0:0:0:0:
256,192,94980,1,0,0:0:0:0:
256,192,95210,1,8,0:0:0:0:
256,192,95441,1,0,0:0:0:0:
256,192,95556,1,0,0:0:0:0:
256,192,95903,1,0,0:0:0:0:
256,192,96364,1,8,0:0:0:0:
256,192,96711,1,8,0:0:0:0:
256,192,96826,1,0,0:0:0:0:
256,192,96941,1,0,0:0:0:0:
256,192,97057,1,12,0:0:0:0:
256,192,97288,1,0,0:0:0:0:
256,192,97518,1,0,0:0:0:0:
256,192,97749,1,0,0:0:0:0:
256,192,97865,1,8,0:0:0:0:
256,192,98095,1,8,0:0:0:0:
256,192,98211,1,0,0:0:0:0:
256,192,98326,1,0,0:0:0:0:
256,192,98441,1,0,0:0:0:0:
256,192,98557,1,0,0:0:0:0:
256,192,98672,1,0,0:0:0:0:
256,192,98787,1,0,0:0:0:0:
256,192,98903,1,0,0:0:0:0:
256,192,99018,1,0,0:0:0:0:
256,192,99134,1,0,0:0:0:0:
256,192,99249,1,0,0:0:0:0:
256,192,99364,1,0,0:0:0:0:
256,192,99480,1,0,0:0:0:0:
256,192,99537,1,0,0:0:0:0:
256,192,99595,1,12,0:0:0:0:
256,192,99711,1,0,0:0:0:0:
256,192,99826,1,0,0:0:0:0:
256,192,99941,1,0,0:0:0:0:
256,192,100057,1,0,0:0:0:0:
256,192,100172,1,0,0:0:0:0:
256,192,100287,1,0,0:0:0:0:
256,192,100403,1,0,0:0:0:0:
256,192,100461,1,0,0:0:0:0:
256,192,100518,1,8,0:0:0:0:
256,192,100634,1,0,0:0:0:0:
256,192,100749,1,0,0:0:0:0:
256,192,100864,1,0,0:0:0:0:
256,192,100980,1,0,0:0:0:0:
256,192,101095,1,0,0:0:0:0:
256,192,101211,1,0,0:0:0:0:
256,192,101326,1,0,0:0:0:0:
256,192,101384,1,0,0:0:0:0:
256,192,101441,1,8,0:0:0:0:
256,192,101557,1,0,0:0:0:0:
256,192,101672,1,0,0:0:0:0:
256,192,101787,1,0,0:0:0:0:
256,192,101845,1,0,0:0:0:0:
256,192,101903,1,12,0:0:0:0:
256,192,102018,1,0,0:0:0:0:
256,192,102134,1,0,0:0:0:0:
256,192,102249,1,0,0:0:0:0:
256,192,102307,1,0,0:0:0:0:
256,192,102364,1,8,0:0:0:0:
256,192,102480,1,0,0:0:0:0:
256,192,102595,1,0,0:0:0:0:
256,192,102711,1,0,0:0:0:0:
256,192,102768,1,0,0:0:0:0:
256,192,102826,1,12,0:0:0:0:
256,192,102941,1,0,0:0:0:0:
256,192,102999,1,0,0:0:0:0:
256,192,103057,1,8,0:0:0:0:
256,192,103172,1,0,0:0:0:0:
256,192,103287,1,12,0:0:0:0:
256,192,106518,5,4,0:0:0:0:
256,192,106980,1,0,0:0:0:0:
256,192,107095,1,8,0:0:0:0:
256,192,107211,1,0,0:0:0:0:
256,192,107441,1,8,0:0:0:0:
256,192,107672,1,0,0:0:0:0:
256,192,107787,1,8,0:0:0:0:
256,192,107903,1,8,0:0:0:0:
256,192,108018,1,0,0:0:0:0:
256,192,108134,1,12,0:0:0:0:
256,192,108364,1,8,0:0:0:0:
256,192,108480,1,0,0:0:0:0:
256,192,108595,1,0,0:0:0:0:
256,192,108826,1,0,0:0:0:0:
256,192,108941,1,8,0:0:0:0:
256,192,109057,1,0,0:0:0:0:
256,192,109287,1,0,0:0:0:0:
256,192,109518,1,0,0:0:0:0:
256,192,109634,1,8,0:0:0:0:
256,192,109749,1,8,0:0:0:0:
256,192,109864,1,0,0:0:0:0:
256,192,109980,1,0,0:0:0:0:
256,192,110211,1,8,0:0:0:0:
256,192,110326,1,0,0:0:0:0:
256,192,110441,1,8,0:0:0:0:
256,192,110672,1,8,0:0:0:0:
256,192,110787,1,8,0:0:0:0:
256,192,110903,1,0,0:0:0:0:
256,192,111018,1,8,0:0:0:0:
256,192,111134,1,8,0:0:0:0:
256,192,111249,1,0,0:0:0:0:
256,192,111364,1,8,0:0:0:0:
256,192,111480,1,0,0:0:0:0:
256,192,111595,1,0,0:0:0:0:
256,192,111711,1,8,0:0:0:0:
256,192,111826,1,0,0:0:0:0:
256,192,111941,1,0,0:0:0:0:
256,192,112057,1,0,0:0:0:0:
256,192,112172,1,0,0:0:0:0:
256,192,112287,1,0,0:0:0:0:
256,192,112403,1,0,0:0:0:0:
256,192,112518,1,0,0:0:0:0:
256,192,112634,1,0,0:0:0:0:
256,192,112749,1,8,0:0:0:0:
256,192,112864,1,0,0:0:0:0:
256,192,112980,1,0,0:0:0:0:
256,192,113095,1,8,0:0:0:0:
256,192,113211,1,0,0:0:0:0:
256,192,113326,1,8,0:0:0:0:
256,192,113441,1,8,0:0:0:0:
256,192,113557,1,0,0:0:0:0:
256,192,113672,1,8,0:0:0:0:
256,192,113787,1,8,0:0:0:0:
256,192,113903,1,8,0:0:0:0:
256,192,114018,1,0,0:0:0:0:
256,192,114134,1,8,0:0:0:0:
256,192,114249,1,0,0:0:0:0:
256,192,114364,1,8,0:0:0:0:
256,192,114480,1,8,0:0:0:0:
256,192,114595,1,0,0:0:0:0:
256,192,114826,1,8,0:0:0:0:
256,192,115057,1,8,0:0:0:0:
256,192,115172,1,0,0:0:0:0:
256,192,115403,1,0,0:0:0:0:
256,192,115518,1,12,0:0:0:0:
256,192,115749,1,8,0:0:0:0:
256,192,115864,1,0,0:0:0:0:
256,192,115980,1,0,0:0:0:0:
256,192,116211,1,0,0:0:0:0:
256,192,116326,1,8,0:0:0:0:
256,192,116441,1,0,0:0:0:0:
256,192,116672,1,0,0:0:0:0:
256,192,116903,1,0,0:0:0:0:
256,192,117018,1,8,0:0:0:0:
256,192,117249,1,0,0:0:0:0:
256,192,117364,1,8,0:0:0:0:
256,192,117480,1,0,0:0:0:0:
256,192,117595,1,8,0:0:0:0:
256,192,117711,1,0,0:0:0:0:
256,192,117826,1,8,0:0:0:0:
256,192,117941,1,0,0:0:0:0:
256,192,117999,1,0,0:0:0:0:
256,192,118057,1,8,0:0:0:0:
256,192,118172,1,0,0:0:0:0:
256,192,118287,1,0,0:0:0:0:
256,192,118403,1,8,0:0:0:0:
256,192,118518,1,0,0:0:0:0:
256,192,118634,1,0,0:0:0:0:
256,192,118749,1,8,0:0:0:0:
256,192,118864,1,0,0:0:0:0:
256,192,118922,1,0,0:0:0:0:
256,192,118980,1,8,0:0:0:0:
256,192,119095,1,0,0:0:0:0:
256,192,119211,1,0,0:0:0:0:
256,192,119326,1,8,0:0:0:0:
256,192,119441,1,0,0:0:0:0:
256,192,119557,1,0,0:0:0:0:
256,192,119672,1,0,0:0:0:0:
256,192,119787,1,0,0:0:0:0:
256,192,119845,1,0,0:0:0:0:
256,192,119903,1,4,0:0:0:0:
256,192,120595,1,0,0:0:0:0:
256,192,120826,1,8,0:0:0:0:
256,192,121518,1,8,0:0:0:0:
256,192,121749,1,4,0:0:0:0:
256,192,121980,1,8,0:0:0:0:
256,192,122211,1,0,0:0:0:0:
256,192,122441,1,8,0:0:0:0:
256,192,122556,1,0,0:0:0:0:
256,192,122672,1,0,0:0:0:0:
256,192,122787,1,0,0:0:0:0:
256,192,122903,1,12,0:0:0:0:
256,192,123133,1,0,0:0:0:0:
256,192,123249,1,8,0:0:0:0:
256,192,123364,1,0,0:0:0:0:
256,192,123595,1,0,0:0:0:0:
256,192,123711,1,8,0:0:0:0:
256,192,123826,1,0,0:0:0:0:
256,192,123941,1,8,0:0:0:0:
256,192,124057,1,0,0:0:0:0:
256,192,124287,1,8,0:0:0:0:
256,192,124403,1,0,0:0:0:0:
256,192,124518,1,8,0:0:0:0:
256,192,124749,1,8,0:0:0:0:
256,192,124980,1,0,0:0:0:0:
256,192,125095,1,0,0:0:0:0:
256,192,125326,1,8,0:0:0:0:
256,192,125441,1,0,0:0:0:0:
256,192,125672,1,8,0:0:0:0:
256,192,125903,1,0,0:0:0:0:
256,192,126134,1,8,0:0:0:0:
256,192,126249,1,0,0:0:0:0:
256,192,126364,1,0,0:0:0:0:
256,192,126595,1,8,0:0:0:0:
256,192,126711,1,8,0:0:0:0:
256,192,126826,1,0,0:0:0:0:
256,192,126941,1,8,0:0:0:0:
256,192,127287,1,0,0:0:0:0:
256,192,127403,1,0,0:0:0:0:
256,192,127518,1,8,0:0:0:0:
256,192,127749,1,0,0:0:0:0:
256,192,127980,1,0,0:0:0:0:
256,192,128095,1,0,0:0:0:0:
256,192,128211,1,0,0:0:0:0:
256,192,128326,1,8,0:0:0:0:
256,192,128441,1,8,0:0:0:0:
256,192,128672,1,0,0:0:0:0:
256,192,128787,1,0,0:0:0:0:
256,192,128903,1,8,0:0:0:0:
256,192,129134,1,0,0:0:0:0:
256,192,129364,1,8,0:0:0:0:
256,192,129595,1,8,0:0:0:0:
256,192,129826,1,8,0:0:0:0:
256,192,129941,1,0,0:0:0:0:
256,192,130057,1,8,0:0:0:0:
256,192,130172,1,0,0:0:0:0:
256,192,130287,1,12,0:0:0:0:
256,192,130518,1,0,0:0:0:0:
256,192,130634,1,8,0:0:0:0:
256,192,130749,1,0,0:0:0:0:
256,192,130980,1,0,0:0:0:0:
256,192,131095,1,0,0:0:0:0:
256,192,131211,1,8,0:0:0:0:
256,192,131441,1,0,0:0:0:0:
256,192,131672,1,0,0:0:0:0:
256,192,131903,1,8,0:0:0:0:
256,192,132018,1,8,0:0:0:0:
256,192,132134,1,0,0:0:0:0:
256,192,132364,1,8,0:0:0:0:
256,192,132480,1,0,0:0:0:0:
256,192,132595,1,0,0:0:0:0:
256,192,132826,1,0,0:0:0:0:
256,192,133057,1,8,0:0:0:0:
256,192,133287,1,8,0:0:0:0:
256,192,133518,1,8,0:0:0:0:
256,192,133634,1,8,0:0:0:0:
256,192,133749,1,0,0:0:0:0:
256,192,133864,1,8,0:0:0:0:
256,192,133980,1,12,0:0:0:0:
256,192,134211,1,4,0:0:0:0:
256,192,134441,1,8,0:0:0:0:
256,192,134672,1,0,0:0:0:0:
256,192,134903,1,8,0:0:0:0:
256,192,135134,1,0,0:0:0:0:
256,192,135364,1,8,0:0:0:0:
256,192,135480,1,0,0:0:0:0:
256,192,135595,1,0,0:0:0:0:
256,192,135826,1,8,0:0:0:0:
256,192,136057,1,0,0:0:0:0:
256,192,136172,1,0,0:0:0:0:
256,192,136287,1,8,0:0:0:0:
256,192,136518,1,0,0:0:0:0:
256,192,136749,1,0,0:0:0:0:
256,192,136980,1,8,0:0:0:0:
256,192,137211,1,8,0:0:0:0:
256,192,137326,1,8,0:0:0:0:
256,192,137441,1,0,0:0:0:0:
256,192,137672,1,8,0:0:0:0:
256,192,137787,1,0,0:0:0:0:
256,192,137903,1,0,0:0:0:0:
256,192,138018,1,8,0:0:0:0:
256,192,138134,1,8,0:0:0:0:
256,192,138364,1,0,0:0:0:0:
256,192,138595,1,0,0:0:0:0:
256,192,138826,1,8,0:0:0:0:
256,192,139057,1,8,0:0:0:0:
256,192,139172,1,8,0:0:0:0:
256,192,139287,1,0,0:0:0:0:
256,192,139518,1,0,0:0:0:0:
256,192,139749,1,8,0:0:0:0:
256,192,139864,1,0,0:0:0:0:
256,192,139980,1,0,0:0:0:0:
256,192,140211,1,0,0:0:0:0:
256,192,140441,1,8,0:0:0:0:
256,192,140672,1,0,0:0:0:0:
256,192,140787,1,0,0:0:0:0:
256,192,140903,1,8,0:0:0:0:
256,192,141018,1,8,0:0:0:0:
256,192,141134,1,0,0:0:0:0:
256,192,141364,1,8,0:0:0:0:
256,192,141595,1,0,0:0:0:0:
256,192,141711,1,8,0:0:0:0:
256,192,141826,1,0,0:0:0:0:
256,192,142057,1,0,0:0:0:0:
256,192,142172,1,0,0:0:0:0:
256,192,142287,1,8,0:0:0:0:
256,192,142518,1,8,0:0:0:0:
256,192,142749,1,8,0:0:0:0:
256,192,142864,1,8,0:0:0:0:
256,192,142980,1,0,0:0:0:0:
256,192,143211,1,8,0:0:0:0:
256,192,143441,1,8,0:0:0:0:
256,192,143557,1,0,0:0:0:0:
256,192,143672,1,0,0:0:0:0:
256,192,143903,1,8,0:0:0:0:
256,192,144018,1,0,0:0:0:0:
256,192,144134,1,8,0:0:0:0:
256,192,144249,1,0,0:0:0:0:
256,192,144364,1,8,0:0:0:0:
256,192,144480,1,0,0:0:0:0:
256,192,144595,1,0,0:0:0:0:
256,192,144711,1,8,0:0:0:0:
256,192,144826,1,0,0:0:0:0:
256,192,144941,1,0,0:0:0:0:
256,192,145057,1,0,0:0:0:0:
256,192,145172,1,0,0:0:0:0:
256,192,145287,1,0,0:0:0:0:
256,192,145403,1,8,0:0:0:0:
256,192,145518,1,0,0:0:0:0:
256,192,145634,1,0,0:0:0:0:
256,192,145749,1,8,0:0:0:0:
256,192,145864,1,0,0:0:0:0:
256,192,145980,1,0,0:0:0:0:
256,192,146095,1,0,0:0:0:0:
256,192,146211,1,8,0:0:0:0:
256,192,146326,1,0,0:0:0:0:
256,192,146441,1,0,0:0:0:0:
256,192,146557,1,8,0:0:0:0:
256,192,146672,1,8,0:0:0:0:
256,192,146787,1,0,0:0:0:0:
256,192,146903,1,0,0:0:0:0:
256,192,147018,1,8,0:0:0:0:
256,192,147134,1,0,0:0:0:0:
256,192,147249,1,8,0:0:0:0:
256,192,147364,1,0,0:0:0:0:
256,192,147480,1,0,0:0:0:0:
256,192,147537,1,0,0:0:0:0:
256,192,147595,1,8,0:0:0:0:
256,192,147711,1,0,0:0:0:0:
256,192,147826,1,0,0:0:0:0:
256,192,147941,1,0,0:0:0:0:
256,192,148057,1,0,0:0:0:0:
256,192,148172,1,0,0:0:0:0:
256,192,148287,1,8,0:0:0:0:
256,192,148403,1,0,0:0:0:0:
256,192,148518,1,0,0:0:0:0:
256,192,148634,1,0,0:0:0:0:
256,192,148749,1,8,0:0:0:0:
256,192,148864,1,8,0:0:0:0:
256,192,148980,1,0,0:0:0:0:
256,192,149095,1,0,0:0:0:0:
256,192,149211,1,8,0:0:0:0:
256,192,149326,1,0,0:0:0:0:
256,192,149384,1,0,0:0:0:0:
256,192,149441,1,8,0:0:0:0:
256,192,149557,1,0,0:0:0:0:
256,192,149672,1,8,0:0:0:0:
256,192,149787,1,0,0:0:0:0:
256,192,149845,1,0,0:0:0:0:
256,192,149903,1,8,0:0:0:0:
256,192,150018,1,0,0:0:0:0:
256,192,150134,1,8,0:0:0:0:
256,192,150249,1,0,0:0:0:0:
256,192,150307,1,0,0:0:0:0:
256,192,150364,1,8,0:0:0:0:
256,192,150480,1,0,0:0:0:0:
256,192,150595,1,8,0:0:0:0:
256,192,150711,1,0,0:0:0:0:
256,192,150768,1,0,0:0:0:0:
256,192,150826,1,4,0:0:0:0:
256,192,151287,1,4,0:0:0:0:
256,192,151518,1,8,0:0:0:0:
256,192,151634,1,0,0:0:0:0:
256,192,151749,1,8,0:0:0:0:
256,192,151980,1,0,0:0:0:0:
256,192,152095,1,8,0:0:0:0:
256,192,152211,1,0,0:0:0:0:
256,192,152326,1,8,0:0:0:0:
256,192,152441,1,0,0:0:0:0:
256,192,152672,1,8,0:0:0:0:
256,192,152787,1,8,0:0:0:0:
256,192,152903,1,0,0:0:0:0:
256,192,153134,1,0,0:0:0:0:
256,192,153249,1,8,0:0:0:0:
256,192,153364,1,8,0:0:0:0:
256,192,153480,1,0,0:0:0:0:
256,192,153595,1,8,0:0:0:0:
256,192,153826,1,8,0:0:0:0:
256,192,153941,1,8,0:0:0:0:
256,192,154057,1,0,0:0:0:0:
256,192,154172,1,0,0:0:0:0:
256,192,154287,1,8,0:0:0:0:
256,192,154518,1,8,0:0:0:0:
256,192,154634,1,0,0:0:0:0:
256,192,154749,1,8,0:0:0:0:
256,192,154980,1,8,0:0:0:0:
256,192,155095,1,8,0:0:0:0:
256,192,155211,1,0,0:0:0:0:
256,192,155326,1,8,0:0:0:0:
256,192,155442,1,8,0:0:0:0:
256,192,155557,1,0,0:0:0:0:
256,192,155672,1,8,0:0:0:0:
256,192,155788,1,0,0:0:0:0:
256,192,155903,1,0,0:0:0:0:
256,192,156019,1,8,0:0:0:0:
256,192,156134,1,0,0:0:0:0:
256,192,156249,1,0,0:0:0:0:
256,192,156365,1,0,0:0:0:0:
256,192,156480,1,0,0:0:0:0:
256,192,156595,1,8,0:0:0:0:
256,192,156653,1,8,0:0:0:0:
256,192,156711,1,8,0:0:0:0:
256,192,156826,1,8,0:0:0:0:
256,192,156942,1,8,0:0:0:0:
256,192,157057,1,0,0:0:0:0:
256,192,157172,1,8,0:0:0:0:
256,192,157287,1,8,0:0:0:0:
256,192,157403,1,0,0:0:0:0:
256,192,157519,1,0,0:0:0:0:
256,192,157634,1,8,0:0:0:0:
256,192,157749,1,8,0:0:0:0:
256,192,157865,1,0,0:0:0:0:
256,192,157980,1,8,0:0:0:0:
256,192,158037,1,8,0:0:0:0:
256,192,158095,1,0,0:0:0:0:
256,192,158211,1,8,0:0:0:0:
256,192,158268,1,8,0:0:0:0:
256,192,158326,1,0,0:0:0:0:
256,192,158441,1,8,0:0:0:0:
256,192,158557,1,8,0:0:0:0:
256,192,158672,1,12,0:0:0:0:
256,192,158903,1,8,0:0:0:0:
256,192,159018,1,0,0:0:0:0:
256,192,159134,1,8,0:0:0:0:
256,192,159364,1,0,0:0:0:0:
256,192,159480,1,0,0:0:0:0:
256,192,159595,1,8,0:0:0:0:
256,192,159711,1,0,0:0:0:0:
256,192,159826,1,0,0:0:0:0:
256,192,159941,1,8,0:0:0:0:
256,192,160057,1,0,0:0:0:0:
256,192,160172,1,0,0:0:0:0:
256,192,160287,1,0,0:0:0:0:
256,192,160518,1,8,0:0:0:0:
256,192,160576,1,8,0:0:0:0:
256,192,160634,1,0,0:0:0:0:
256,192,160749,1,8,0:0:0:0:
256,192,160864,1,8,0:0:0:0:
256,192,160980,1,0,0:0:0:0:
256,192,161211,1,0,0:0:0:0:
256,192,161326,1,0,0:0:0:0:
256,192,161441,1,8,0:0:0:0:
256,192,161557,1,8,0:0:0:0:
256,192,161672,1,0,0:0:0:0:
256,192,161787,1,8,0:0:0:0:
256,192,161903,1,0,0:0:0:0:
256,192,162018,1,0,0:0:0:0:
256,192,162134,1,8,0:0:0:0:
256,192,162364,1,8,0:0:0:0:
256,192,162422,1,8,0:0:0:0:
256,192,162480,1,8,0:0:0:0:
256,192,162595,1,8,0:0:0:0:
256,192,162711,1,8,0:0:0:0:
256,192,162826,1,0,0:0:0:0:
256,192,162941,1,8,0:0:0:0:
256,192,163057,1,0,0:0:0:0:
256,192,163172,1,8,0:0:0:0:
256,192,163287,1,8,0:0:0:0:
256,192,163403,1,8,0:0:0:0:
256,192,163518,1,0,0:0:0:0:
256,192,163634,1,0,0:0:0:0:
256,192,163749,1,0,0:0:0:0:
256,192,163864,1,0,0:0:0:0:
256,192,163980,1,8,0:0:0:0:
256,192,164095,1,0,0:0:0:0:
256,192,164153,1,0,0:0:0:0:
256,192,164211,1,8,0:0:0:0:
256,192,164326,1,0,0:0:0:0:
256,192,164441,1,8,0:0:0:0:
256,192,164557,1,0,0:0:0:0:
256,192,164614,1,0,0:0:0:0:
256,192,164672,1,8,0:0:0:0:
256,192,164787,1,0,0:0:0:0:
256,192,164903,1,8,0:0:0:0:
256,192,165018,1,12,0:0:0:0:
256,192,165134,1,8,0:0:0:0:
256,192,165249,1,0,0:0:0:0:
256,192,165364,1,12,0:0:0:0:
256,192,165480,1,0,0:0:0:0:
256,192,165537,1,0,0:0:0:0:
256,192,165595,1,0,0:0:0:0:
256,192,165711,1,12,0:0:0:0:
256,192,165826,1,0,0:0:0:0:
256,192,165884,1,0,0:0:0:0:
256,192,165941,1,0,0:0:0:0:
256,192,165999,1,0,0:0:0:0:
256,192,166057,1,4,0:0:0:0:
256,192,166287,1,8,0:0:0:0:
256,192,166403,1,0,0:0:0:0:
256,192,166518,1,8,0:0:0:0:
256,192,166749,1,0,0:0:0:0:
256,192,166864,1,8,0:0:0:0:
256,192,166980,1,0,0:0:0:0:
256,192,167095,1,8,0:0:0:0:
256,192,167210,1,0,0:0:0:0:
256,192,167441,1,8,0:0:0:0:
256,192,167556,1,8,0:0:0:0:
256,192,167672,1,0,0:0:0:0:
256,192,167903,1,0,0:0:0:0:
256,192,168018,1,8,0:0:0:0:
256,192,168133,1,8,0:0:0:0:
256,192,168249,1,0,0:0:0:0:
256,192,168364,1,8,0:0:0:0:
256,192,168595,1,8,0:0:0:0:
256,192,168710,1,8,0:0:0:0:
256,192,168826,1,0,0:0:0:0:
256,192,168941,1,0,0:0:0:0:
256,192,169056,1,8,0:0:0:0:
256,192,169287,1,8,0:0:0:0:
256,192,169403,1,0,0:0:0:0:
256,192,169518,1,8,0:0:0:0:
256,192,169749,1,8,0:0:0:0:
256,192,169864,1,8,0:0:0:0:
256,192,169980,1,0,0:0:0:0:
256,192,170095,1,8,0:0:0:0:
256,192,170211,1,8,0:0:0:0:
256,192,170326,1,0,0:0:0:0:
256,192,170441,1,8,0:0:0:0:
256,192,170557,1,0,0:0:0:0:
256,192,170672,1,0,0:0:0:0:
256,192,170788,1,8,0:0:0:0:
256,192,170903,1,0,0:0:0:0:
256,192,171018,1,0,0:0:0:0:
256,192,171134,1,0,0:0:0:0:
256,192,171249,1,0,0:0:0:0:
256,192,171364,1,8,0:0:0:0:
256,192,171422,1,8,0:0:0:0:
256,192,171480,1,8,0:0:0:0:
256,192,171595,1,8,0:0:0:0:
256,192,171711,1,8,0:0:0:0:
256,192,171826,1,0,0:0:0:0:
256,192,171941,1,8,0:0:0:0:
256,192,172056,1,8,0:0:0:0:
256,192,172172,1,0,0:0:0:0:
256,192,172288,1,0,0:0:0:0:
256,192,172403,1,8,0:0:0:0:
256,192,172518,1,8,0:0:0:0:
256,192,172634,1,0,0:0:0:0:
256,192,172749,1,8,0:0:0:0:
256,192,172806,1,8,0:0:0:0:
256,192,172864,1,0,0:0:0:0:
256,192,172980,1,8,0:0:0:0:
256,192,173037,1,8,0:0:0:0:
256,192,173095,1,0,0:0:0:0:
256,192,173210,1,8,0:0:0:0:
256,192,173326,1,8,0:0:0:0:
256,192,173441,1,12,0:0:0:0:
256,192,173672,1,8,0:0:0:0:
256,192,173787,1,0,0:0:0:0:
256,192,173903,1,8,0:0:0:0:
256,192,174133,1,0,0:0:0:0:
256,192,174249,1,0,0:0:0:0:
256,192,174364,1,8,0:0:0:0:
256,192,174480,1,0,0:0:0:0:
256,192,174595,1,0,0:0:0:0:
256,192,174710,1,8,0:0:0:0:
256,192,174826,1,0,0:0:0:0:
256,192,174941,1,0,0:0:0:0:
256,192,175056,1,0,0:0:0:0:
256,192,175172,1,0,0:0:0:0:
256,192,175287,1,8,0:0:0:0:
256,192,175345,1,8,0:0:0:0:
256,192,175403,1,0,0:0:0:0:
256,192,175518,1,8,0:0:0:0:
256,192,175633,1,8,0:0:0:0:
256,192,175749,1,0,0:0:0:0:
256,192,175864,1,0,0:0:0:0:
256,192,175980,1,0,0:0:0:0:
256,192,176095,1,0,0:0:0:0:
256,192,176210,1,8,0:0:0:0:
256,192,176326,1,8,0:0:0:0:
256,192,176441,1,0,0:0:0:0:
256,192,176556,1,8,0:0:0:0:
256,192,176672,1,0,0:0:0:0:
256,192,176787,1,0,0:0:0:0:
256,192,176903,1,8,0:0:0:0:
256,192,177018,1,0,0:0:0:0:
256,192,177076,1,0,0:0:0:0:
256,192,177133,1,8,0:0:0:0:
256,192,177249,1,8,0:0:0:0:
256,192,177364,1,8,0:0:0:0:
256,192,177480,1,0,0:0:0:0:
256,192,177595,1,0,0:0:0:0:
256,192,177710,1,8,0:0:0:0:
256,192,177826,1,0,0:0:0:0:
256,192,177941,1,0,0:0:0:0:
256,192,177999,1,0,0:0:0:0:
256,192,178056,1,8,0:0:0:0:
256,192,178172,1,8,0:0:0:0:
256,192,178287,1,0,0:0:0:0:
256,192,178403,1,0,0:0:0:0:
256,192,178518,1,0,0:0:0:0:
256,192,178633,1,0,0:0:0:0:
256,192,178749,1,8,0:0:0:0:
256,192,178864,1,0,0:0:0:0:
256,192,178922,1,0,0:0:0:0:
256,192,178980,1,8,0:0:0:0:
256,192,179095,1,0,0:0:0:0:
256,192,179210,1,8,0:0:0:0:
256,192,179326,1,0,0:0:0:0:
256,192,179383,1,0,0:0:0:0:
256,192,179441,1,8,0:0:0:0:
256,192,179556,1,0,0:0:0:0:
256,192,179672,1,8,0:0:0:0:
256,192,179787,1,12,0:0:0:0:
256,192,179903,1,0,0:0:0:0:
256,192,180018,1,0,0:0:0:0:
256,192,180076,1,0,0:0:0:0:
256,192,180134,1,0,0:0:0:0:
256,192,180191,1,0,0:0:0:0:
256,192,180249,1,0,0:0:0:0:
256,192,180307,1,0,0:0:0:0:
256,192,180364,1,4,0:0:0:0:
256,192,183364,5,0,0:0:0:0:
256,192,183595,1,8,0:0:0:0:
260,189,184287,1,8,0:0:0:0:
260,189,184518,1,0,0:0:0:0:
260,189,184749,1,8,0:0:0:0:
260,189,184980,1,0,0:0:0:0:
260,189,185211,1,8,0:0:0:0:
256,192,185326,1,0,0:0:0:0:
256,192,185441,1,0,0:0:0:0:
260,189,185557,1,0,0:0:0:0:
260,189,185672,1,12,0:0:0:0:
260,189,185903,1,0,0:0:0:0:
260,189,186134,1,0,0:0:0:0:
256,192,186364,1,0,0:0:0:0:
256,192,186480,1,8,0:0:0:0:
256,192,186595,1,8,0:0:0:0:
256,192,186711,1,0,0:0:0:0:
256,192,186826,1,0,0:0:0:0:
256,192,187057,1,0,0:0:0:0:
256,192,187172,1,8,0:0:0:0:
256,192,187287,1,8,0:0:0:0:
256,192,187518,1,0,0:0:0:0:
256,192,187749,1,0,0:0:0:0:
256,192,187864,1,0,0:0:0:0:
256,192,187980,1,0,0:0:0:0:
256,192,188095,1,8,0:0:0:0:
256,192,188211,1,0,0:0:0:0:
256,192,188441,1,8,0:0:0:0:
256,192,188672,1,8,0:0:0:0:
256,192,188903,1,8,0:0:0:0:
256,192,189018,1,0,0:0:0:0:
256,192,189134,1,8,0:0:0:0:
256,192,189249,1,0,0:0:0:0:
256,192,189364,1,0,0:0:0:0:
256,192,189480,1,8,0:0:0:0:
256,192,189595,1,0,0:0:0:0:
256,192,189711,1,8,0:0:0:0:
256,192,189826,1,8,0:0:0:0:
256,192,190057,1,0,0:0:0:0:
256,192,190172,1,8,0:0:0:0:
256,192,190287,1,8,0:0:0:0:
256,192,190518,1,8,0:0:0:0:
256,192,190749,1,8,0:0:0:0:
256,192,190864,1,8,0:0:0:0:
256,192,190980,1,8,0:0:0:0:
256,192,191095,1,0,0:0:0:0:
256,192,191211,1,8,0:0:0:0:
256,192,191441,1,0,0:0:0:0:
256,192,191557,1,0,0:0:0:0:
256,192,191672,1,0,0:0:0:0:
256,192,191903,1,0,0:0:0:0:
256,192,192134,1,8,0:0:0:0:
256,192,192364,1,0,0:0:0:0:
256,192,192595,1,8,0:0:0:0:
256,192,192711,1,8,0:0:0:0:
256,192,192826,1,0,0:0:0:0:
256,192,192941,1,0,0:0:0:0:
256,192,193057,1,12,0:0:0:0:
256,192,193287,1,0,0:0:0:0:
256,192,193518,1,0,0:0:0:0:
256,192,193749,1,0,0:0:0:0:
256,192,193864,1,8,0:0:0:0:
256,192,193980,1,8,0:0:0:0:
256,192,194211,1,8,0:0:0:0:
256,192,194441,1,8,0:0:0:0:
256,192,194557,1,8,0:0:0:0:
256,192,194672,1,0,0:0:0:0:
256,192,194903,1,8,0:0:0:0:
256,192,195134,1,0,0:0:0:0:
256,192,195249,1,0,0:0:0:0:
256,192,195364,1,8,0:0:0:0:
256,192,195595,1,0,0:0:0:0:
256,192,195826,1,12,0:0:0:0:
256,192,196057,1,8,0:0:0:0:
256,192,196287,1,0,0:0:0:0:
256,192,196403,1,8,0:0:0:0:
256,192,196518,1,0,0:0:0:0:
256,192,196634,1,8,0:0:0:0:
256,192,196749,1,12,0:0:0:0:
256,192,196980,1,0,0:0:0:0:
256,192,197095,1,8,0:0:0:0:
256,192,197211,1,0,0:0:0:0:
256,192,197326,1,8,0:0:0:0:
256,192,197441,1,0,0:0:0:0:
256,192,197557,1,0,0:0:0:0:
256,192,197672,1,8,0:0:0:0:
256,192,197903,1,0,0:0:0:0:
256,192,198134,1,8,0:0:0:0:
256,192,198249,1,8,0:0:0:0:
256,192,198364,1,0,0:0:0:0:
256,192,198595,1,12,0:0:0:0:
256,192,198826,1,4,0:0:0:0:
256,192,199057,1,8,0:0:0:0:
256,192,199287,1,0,0:0:0:0:
256,192,199518,1,0,0:0:0:0:
256,192,199749,1,8,0:0:0:0:
256,192,199980,1,8,0:0:0:0:
256,192,200095,1,8,0:0:0:0:
256,192,200210,1,0,0:0:0:0:
256,192,200441,1,8,0:0:0:0:
256,192,200556,1,0,0:0:0:0:
256,192,200672,1,0,0:0:0:0:
256,192,200787,1,8,0:0:0:0:
256,192,200903,1,8,0:0:0:0:
256,192,201133,1,0,0:0:0:0:
256,192,201364,1,0,0:0:0:0:
256,192,201595,1,8,0:0:0:0:
256,192,201826,1,8,0:0:0:0:
256,192,201941,1,8,0:0:0:0:
256,192,202056,1,0,0:0:0:0:
256,192,202287,1,0,0:0:0:0:
256,192,202518,1,8,0:0:0:0:
256,192,202633,1,0,0:0:0:0:
256,192,202749,1,0,0:0:0:0:
256,192,202980,1,0,0:0:0:0:
256,192,203210,1,8,0:0:0:0:
256,192,203441,1,0,0:0:0:0:
256,192,203556,1,0,0:0:0:0:
256,192,203672,1,8,0:0:0:0:
256,192,203787,1,8,0:0:0:0:
256,192,203903,1,0,0:0:0:0:
256,192,204133,1,8,0:0:0:0:
256,192,204364,1,0,0:0:0:0:
256,192,204480,1,8,0:0:0:0:
256,192,204595,1,0,0:0:0:0:
256,192,204826,1,0,0:0:0:0:
256,192,204941,1,0,0:0:0:0:
256,192,205056,1,8,0:0:0:0:
256,192,205287,1,8,0:0:0:0:
256,192,205518,1,8,0:0:0:0:
256,192,205633,1,8,0:0:0:0:
256,192,205749,1,0,0:0:0:0:
256,192,205980,1,8,0:0:0:0:
256,192,206210,1,8,0:0:0:0:
256,192,206326,1,0,0:0:0:0:
256,192,206441,1,0,0:0:0:0:
256,192,206672,1,8,0:0:0:0:
256,192,206787,1,0,0:0:0:0:
256,192,206903,1,8,0:0:0:0:
256,192,207018,1,0,0:0:0:0:
256,192,207133,1,8,0:0:0:0:
256,192,207249,1,0,0:0:0:0:
256,192,207364,1,0,0:0:0:0:
256,192,207480,1,8,0:0:0:0:
256,192,207595,1,0,0:0:0:0:
256,192,207710,1,0,0:0:0:0:
256,192,207826,1,0,0:0:0:0:
256,192,207941,1,0,0:0:0:0:
256,192,208056,1,0,0:0:0:0:
256,192,208172,1,8,0:0:0:0:
256,192,208287,1,0,0:0:0:0:
256,192,208403,1,0,0:0:0:0:
256,192,208518,1,8,0:0:0:0:
256,192,208633,1,0,0:0:0:0:
256,192,208749,1,0,0:0:0:0:
256,192,208864,1,0,0:0:0:0:
256,192,208980,1,8,0:0:0:0:
256,192,209095,1,0,0:0:0:0:
256,192,209210,1,0,0:0:0:0:
256,192,209326,1,8,0:0:0:0:
256,192,209441,1,8,0:0:0:0:
256,192,209556,1,0,0:0:0:0:
256,192,209672,1,0,0:0:0:0:
256,192,209787,1,8,0:0:0:0:
256,192,209903,1,0,0:0:0:0:
256,192,210018,1,8,0:0:0:0:
256,192,210133,1,0,0:0:0:0:
256,192,210249,1,0,0:0:0:0:
256,192,210306,1,0,0:0:0:0:
256,192,210364,1,8,0:0:0:0:
256,192,210480,1,0,0:0:0:0:
256,192,210595,1,0,0:0:0:0:
256,192,210710,1,0,0:0:0:0:
256,192,210826,1,0,0:0:0:0:
256,192,210941,1,0,0:0:0:0:
256,192,211056,1,8,0:0:0:0:
256,192,211172,1,0,0:0:0:0:
256,192,211230,1,0,0:0:0:0:
256,192,211287,1,8,0:0:0:0:
256,192,211403,1,0,0:0:0:0:
256,192,211518,1,8,0:0:0:0:
256,192,211633,1,8,0:0:0:0:
256,192,211749,1,0,0:0:0:0:
256,192,211864,1,0,0:0:0:0:
256,192,211980,1,8,0:0:0:0:
256,192,212095,1,0,0:0:0:0:
256,192,212153,1,0,0:0:0:0:
256,192,212210,1,8,0:0:0:0:
256,192,212326,1,0,0:0:0:0:
256,192,212441,1,8,0:0:0:0:
256,192,212556,1,0,0:0:0:0:
256,192,212614,1,0,0:0:0:0:
256,192,212672,1,8,0:0:0:0:
256,192,212787,1,0,0:0:0:0:
256,192,212903,1,8,0:0:0:0:
256,192,213018,1,0,0:0:0:0:
256,192,213076,1,0,0:0:0:0:
256,192,213133,1,8,0:0:0:0:
256,192,213249,1,0,0:0:0:0:
256,192,213364,1,8,0:0:0:0:
256,192,213480,1,0,0:0:0:0:
256,192,213537,1,0,0:0:0:0:
256,192,213595,1,4,0:0:0:0:
256,192,214057,1,4,0:0:0:0:
256,192,214288,1,8,0:0:0:0:
256,192,214404,1,0,0:0:0:0:
256,192,214519,1,8,0:0:0:0:
256,192,214750,1,0,0:0:0:0:
256,192,214865,1,8,0:0:0:0:
256,192,214981,1,0,0:0:0:0:
256,192,215096,1,8,0:0:0:0:
256,192,215211,1,0,0:0:0:0:
256,192,215442,1,8,0:0:0:0:
256,192,215557,1,8,0:0:0:0:
256,192,215673,1,0,0:0:0:0:
256,192,215904,1,0,0:0:0:0:
256,192,216019,1,8,0:0:0:0:
256,192,216134,1,8,0:0:0:0:
256,192,216250,1,0,0:0:0:0:
256,192,216365,1,8,0:0:0:0:
256,192,216596,1,8,0:0:0:0:
256,192,216711,1,8,0:0:0:0:
256,192,216827,1,0,0:0:0:0:
256,192,216942,1,0,0:0:0:0:
256,192,217057,1,8,0:0:0:0:
256,192,217288,1,8,0:0:0:0:
256,192,217404,1,0,0:0:0:0:
256,192,217519,1,8,0:0:0:0:
256,192,217750,1,8,0:0:0:0:
256,192,217865,1,8,0:0:0:0:
256,192,217981,1,0,0:0:0:0:
256,192,218096,1,8,0:0:0:0:
256,192,218212,1,8,0:0:0:0:
256,192,218327,1,0,0:0:0:0:
256,192,218442,1,8,0:0:0:0:
256,192,218558,1,0,0:0:0:0:
256,192,218673,1,0,0:0:0:0:
256,192,218789,1,8,0:0:0:0:
256,192,218904,1,0,0:0:0:0:
256,192,219019,1,0,0:0:0:0:
256,192,219135,1,0,0:0:0:0:
256,192,219250,1,0,0:0:0:0:
256,192,219365,1,8,0:0:0:0:
256,192,219423,1,8,0:0:0:0:
256,192,219481,1,8,0:0:0:0:
256,192,219596,1,8,0:0:0:0:
256,192,219712,1,8,0:0:0:0:
256,192,219827,1,0,0:0:0:0:
256,192,219942,1,8,0:0:0:0:
256,192,220057,1,8,0:0:0:0:
256,192,220173,1,0,0:0:0:0:
256,192,220289,1,0,0:0:0:0:
256,192,220404,1,8,0:0:0:0:
256,192,220519,1,8,0:0:0:0:
256,192,220635,1,0,0:0:0:0:
256,192,220750,1,8,0:0:0:0:
256,192,220807,1,8,0:0:0:0:
256,192,220865,1,0,0:0:0:0:
256,192,220981,1,8,0:0:0:0:
256,192,221038,1,8,0:0:0:0:
256,192,221096,1,0,0:0:0:0:
256,192,221211,1,8,0:0:0:0:
256,192,221327,1,8,0:0:0:0:
256,192,221442,1,12,0:0:0:0:
256,192,221673,1,8,0:0:0:0:
256,192,221788,1,0,0:0:0:0:
256,192,221904,1,8,0:0:0:0:
256,192,222134,1,0,0:0:0:0:
256,192,222250,1,0,0:0:0:0:
256,192,222365,1,8,0:0:0:0:
256,192,222481,1,0,0:0:0:0:
256,192,222596,1,0,0:0:0:0:
256,192,222711,1,8,0:0:0:0:
256,192,222827,1,0,0:0:0:0:
256,192,222942,1,0,0:0:0:0:
256,192,223057,1,0,0:0:0:0:
256,192,223288,1,8,0:0:0:0:
256,192,223346,1,8,0:0:0:0:
256,192,223404,1,0,0:0:0:0:
256,192,223519,1,8,0:0:0:0:
256,192,223634,1,8,0:0:0:0:
256,192,223750,1,0,0:0:0:0:
256,192,223981,1,0,0:0:0:0:
256,192,224096,1,0,0:0:0:0:
256,192,224211,1,8,0:0:0:0:
256,192,224327,1,8,0:0:0:0:
256,192,224442,1,0,0:0:0:0:
256,192,224557,1,8,0:0:0:0:
256,192,224673,1,0,0:0:0:0:
256,192,224788,1,0,0:0:0:0:
256,192,224904,1,8,0:0:0:0:
256,192,225018,1,0,0:0:0:0:
256,192,225076,1,0,0:0:0:0:
256,192,225134,1,8,0:0:0:0:
256,192,225250,1,8,0:0:0:0:
256,192,225365,1,8,0:0:0:0:
256,192,225480,1,8,0:0:0:0:
256,192,225596,1,0,0:0:0:0:
256,192,225711,1,8,0:0:0:0:
256,192,225827,1,0,0:0:0:0:
256,192,225942,1,0,0:0:0:0:
256,192,225999,1,0,0:0:0:0:
256,192,226057,1,8,0:0:0:0:
256,192,226173,1,8,0:0:0:0:
256,192,226288,1,0,0:0:0:0:
256,192,226404,1,0,0:0:0:0:
256,192,226519,1,0,0:0:0:0:
256,192,226634,1,0,0:0:0:0:
256,192,226750,1,8,0:0:0:0:
256,192,226864,1,0,0:0:0:0:
256,192,226922,1,0,0:0:0:0:
256,192,226980,1,8,0:0:0:0:
256,192,227095,1,0,0:0:0:0:
256,192,227210,1,8,0:0:0:0:
256,192,227326,1,0,0:0:0:0:
256,192,227383,1,0,0:0:0:0:
256,192,227441,1,8,0:0:0:0:
256,192,227556,1,0,0:0:0:0:
256,192,227672,1,8,0:0:0:0:
256,192,227787,1,12,0:0:0:0:
256,192,227903,1,8,0:0:0:0:
256,192,228018,1,0,0:0:0:0:
256,192,228133,1,12,0:0:0:0:
256,192,228249,1,0,0:0:0:0:
256,192,228306,1,0,0:0:0:0:
256,192,228364,1,0,0:0:0:0:
256,192,228480,1,12,0:0:0:0:
256,192,228595,1,0,0:0:0:0:
256,192,228653,1,0,0:0:0:0:
256,192,228710,1,0,0:0:0:0:
256,192,228768,1,0,0:0:0:0:
256,192,228826,1,4,0:0:0:0:
256,192,229057,1,8,0:0:0:0:
256,192,229287,1,0,0:0:0:0:
256,192,229518,1,8,0:0:0:0:
256,192,229634,1,8,0:0:0:0:
256,192,229749,1,8,0:0:0:0:
256,192,229980,1,0,0:0:0:0:
256,192,230211,1,0,0:0:0:0:
256,192,230326,1,8,0:0:0:0:
256,192,230441,1,8,0:0:0:0:
256,192,230672,1,0,0:0:0:0:
256,192,230903,1,8,0:0:0:0:
256,192,231018,1,8,0:0:0:0:
256,192,231134,1,0,0:0:0:0:
256,192,231364,1,8,0:0:0:0:
256,192,231480,1,8,0:0:0:0:
256,192,231595,1,0,0:0:0:0:
256,192,231826,1,8,0:0:0:0:
256,192,232057,1,0,0:0:0:0:
256,192,232172,1,0,0:0:0:0:
256,192,232287,1,8,0:0:0:0:
256,192,232518,1,0,0:0:0:0:
256,192,232749,1,8,0:0:0:0:
256,192,232980,1,0,0:0:0:0:
256,192,233211,1,8,0:0:0:0:
256,192,233326,1,0,0:0:0:0:
256,192,233441,1,8,0:0:0:0:
256,192,233672,1,0,0:0:0:0:
256,192,233903,1,8,0:0:0:0:
256,192,234018,1,0,0:0:0:0:
256,192,234134,1,0,0:0:0:0:
256,192,234364,1,8,0:0:0:0:
256,192,234480,1,0,0:0:0:0:
256,192,234595,1,8,0:0:0:0:
256,192,234711,1,8,0:0:0:0:
256,192,234826,1,0,0:0:0:0:
256,192,234941,1,8,0:0:0:0:
256,192,235172,1,0,0:0:0:0:
256,192,235287,1,0,0:0:0:0:
256,192,235518,1,0,0:0:0:0:
256,192,235749,1,0,0:0:0:0:
256,192,235864,1,8,0:0:0:0:
256,192,235980,1,8,0:0:0:0:
256,192,236211,1,0,0:0:0:0:
256,192,236441,1,8,0:0:0:0:
256,192,236557,1,8,0:0:0:0:
256,192,236672,1,0,0:0:0:0:
256,192,236903,1,0,0:0:0:0:
256,192,237018,1,8,0:0:0:0:
256,192,237134,1,0,0:0:0:0:
256,192,237364,1,0,0:0:0:0:
256,192,237480,1,8,0:0:0:0:
256,192,237595,1,8,0:0:0:0:
256,192,237711,1,0,0:0:0:0:
256,192,237826,1,0,0:0:0:0:
256,192,238057,1,0,0:0:0:0:
256,192,238172,1,0,0:0:0:0:
256,192,238287,1,8,0:0:0:0:
256,192,238403,1,0,0:0:0:0:
256,192,238518,1,8,0:0:0:0:
256,192,238634,1,0,0:0:0:0:
256,192,238749,1,0,0:0:0:0:
256,192,238864,1,0,0:0:0:0:
256,192,238980,1,8,0:0:0:0:
256,192,239095,1,0,0:0:0:0:
256,192,239211,1,0,0:0:0:0:
256,192,239326,1,0,0:0:0:0:
256,192,239441,1,8,0:0:0:0:
256,192,239557,1,0,0:0:0:0:
256,192,239672,1,8,0:0:0:0:
256,192,239787,1,0,0:0:0:0:
256,192,239845,1,0,0:0:0:0:
256,192,239903,1,8,0:0:0:0:
256,192,240018,1,0,0:0:0:0:
256,192,240134,1,0,0:0:0:0:
256,192,240249,1,0,0:0:0:0:
256,192,240364,1,8,0:0:0:0:
256,192,240480,1,8,0:0:0:0:
256,192,240595,1,8,0:0:0:0:
256,192,240711,1,0,0:0:0:0:
256,192,240768,1,0,0:0:0:0:
256,192,240826,1,8,0:0:0:0:
256,192,240941,1,8,0:0:0:0:
256,192,241057,1,8,0:0:0:0:
256,192,241172,1,0,0:0:0:0:
256,192,241230,1,0,0:0:0:0:
256,192,241287,1,8,0:0:0:0:
256,192,241403,1,0,0:0:0:0:
256,192,241518,1,0,0:0:0:0:
256,192,241634,1,0,0:0:0:0:
256,192,241691,1,0,0:0:0:0:
256,192,241749,1,8,0:0:0:0:
256,192,241864,1,8,0:0:0:0:
256,192,241980,1,8,0:0:0:0:
256,192,242095,1,0,0:0:0:0:
256,192,242153,1,0,0:0:0:0:
256,192,242211,1,8,0:0:0:0:
256,192,242326,1,8,0:0:0:0:
256,192,242441,1,0,0:0:0:0:
256,192,242557,1,0,0:0:0:0:
256,192,242614,1,0,0:0:0:0:
256,192,242672,1,8,0:0:0:0:
256,192,242787,1,0,0:0:0:0:
256,192,242903,1,8,0:0:0:0:
256,192,243018,1,8,0:0:0:0:
256,192,243134,1,4,0:0:0:0:
256,192,243595,1,4,0:0:0:0:
256,192,243826,1,8,0:0:0:0:
256,192,243942,1,0,0:0:0:0:
256,192,244057,1,8,0:0:0:0:
256,192,244288,1,0,0:0:0:0:
256,192,244403,1,8,0:0:0:0:
256,192,244519,1,0,0:0:0:0:
256,192,244634,1,8,0:0:0:0:
256,192,244749,1,0,0:0:0:0:
256,192,244980,1,8,0:0:0:0:
256,192,245095,1,8,0:0:0:0:
256,192,245211,1,0,0:0:0:0:
256,192,245442,1,0,0:0:0:0:
256,192,245557,1,8,0:0:0:0:
256,192,245672,1,8,0:0:0:0:
256,192,245788,1,0,0:0:0:0:
256,192,245903,1,8,0:0:0:0:
256,192,246134,1,8,0:0:0:0:
256,192,246249,1,8,0:0:0:0:
256,192,246365,1,0,0:0:0:0:
256,192,246480,1,0,0:0:0:0:
256,192,246595,1,8,0:0:0:0:
256,192,246826,1,8,0:0:0:0:
256,192,246942,1,0,0:0:0:0:
256,192,247057,1,8,0:0:0:0:
256,192,247288,1,8,0:0:0:0:
256,192,247403,1,8,0:0:0:0:
256,192,247519,1,0,0:0:0:0:
256,192,247634,1,8,0:0:0:0:
256,192,247750,1,8,0:0:0:0:
256,192,247865,1,0,0:0:0:0:
256,192,247980,1,8,0:0:0:0:
256,192,248096,1,0,0:0:0:0:
256,192,248211,1,0,0:0:0:0:
256,192,248327,1,8,0:0:0:0:
256,192,248442,1,0,0:0:0:0:
256,192,248557,1,0,0:0:0:0:
256,192,248673,1,0,0:0:0:0:
256,192,248788,1,0,0:0:0:0:
256,192,248903,1,8,0:0:0:0:
256,192,248961,1,8,0:0:0:0:
256,192,249019,1,8,0:0:0:0:
256,192,249134,1,8,0:0:0:0:
256,192,249250,1,8,0:0:0:0:
256,192,249365,1,0,0:0:0:0:
256,192,249480,1,8,0:0:0:0:
256,192,249595,1,8,0:0:0:0:
256,192,249711,1,0,0:0:0:0:
256,192,249827,1,0,0:0:0:0:
256,192,249942,1,8,0:0:0:0:
256,192,250057,1,8,0:0:0:0:
256,192,250173,1,0,0:0:0:0:
256,192,250288,1,8,0:0:0:0:
256,192,250345,1,8,0:0:0:0:
256,192,250403,1,0,0:0:0:0:
256,192,250519,1,8,0:0:0:0:
256,192,250576,1,8,0:0:0:0:
256,192,250634,1,0,0:0:0:0:
256,192,250749,1,8,0:0:0:0:
256,192,250865,1,8,0:0:0:0:
256,192,250980,1,12,0:0:0:0:
256,192,251211,1,8,0:0:0:0:
256,192,251326,1,0,0:0:0:0:
256,192,251442,1,8,0:0:0:0:
256,192,251672,1,0,0:0:0:0:
256,192,251788,1,0,0:0:0:0:
256,192,251903,1,8,0:0:0:0:
256,192,252019,1,0,0:0:0:0:
256,192,252134,1,0,0:0:0:0:
256,192,252249,1,8,0:0:0:0:
256,192,252365,1,0,0:0:0:0:
256,192,252480,1,0,0:0:0:0:
256,192,252595,1,0,0:0:0:0:
256,192,252826,1,8,0:0:0:0:
256,192,252884,1,8,0:0:0:0:
256,192,252942,1,0,0:0:0:0:
256,192,253057,1,8,0:0:0:0:
256,192,253172,1,8,0:0:0:0:
256,192,253288,1,0,0:0:0:0:
256,192,253519,1,0,0:0:0:0:
256,192,253634,1,0,0:0:0:0:
256,192,253749,1,8,0:0:0:0:
256,192,253865,1,8,0:0:0:0:
256,192,253980,1,0,0:0:0:0:
256,192,254095,1,8,0:0:0:0:
256,192,254211,1,0,0:0:0:0:
256,192,254326,1,0,0:0:0:0:
256,192,254441,1,8,0:0:0:0:
256,192,254557,1,0,0:0:0:0:
256,192,254615,1,0,0:0:0:0:
256,192,254673,1,8,0:0:0:0:
256,192,254789,1,8,0:0:0:0:
256,192,254904,1,8,0:0:0:0:
256,192,255019,1,8,0:0:0:0:
256,192,255135,1,0,0:0:0:0:
256,192,255250,1,8,0:0:0:0:
256,192,255366,1,0,0:0:0:0:
256,192,255481,1,0,0:0:0:0:
256,192,255538,1,0,0:0:0:0:
256,192,255596,1,8,0:0:0:0:
256,192,255712,1,8,0:0:0:0:
256,192,255827,1,0,0:0:0:0:
256,192,255943,1,0,0:0:0:0:
256,192,256058,1,0,0:0:0:0:
256,192,256173,1,0,0:0:0:0:
256,192,256289,1,0,0:0:0:0:
256,192,256403,1,0,0:0:0:0:
256,192,256461,1,0,0:0:0:0:
256,192,256519,1,8,0:0:0:0:
256,192,256634,1,0,0:0:0:0:
256,192,256749,1,8,0:0:0:0:
256,192,256865,1,0,0:0:0:0:
256,192,256922,1,0,0:0:0:0:
256,192,256980,1,8,0:0:0:0:
256,192,257095,1,0,0:0:0:0:
256,192,257211,1,8,0:0:0:0:
256,192,257326,1,12,0:0:0:0:
256,192,257442,1,0,0:0:0:0:
256,192,257557,1,0,0:0:0:0:
256,192,257673,1,0,0:0:0:0:
256,192,257788,1,0,0:0:0:0:
256,192,257903,1,0,0:0:0:0:
256,192,257961,1,0,0:0:0:0:
256,192,258018,1,0,0:0:0:0:
256,192,258076,1,0,0:0:0:0:
256,192,258134,1,0,0:0:0:0:
256,192,258191,1,0,0:0:0:0:
256,192,258249,1,0,0:0:0:0:
256,192,258307,1,0,0:0:0:0:
256,192,258364,1,4,0:0:0:0:
256,192,258595,1,8,0:0:0:0:
256,192,258825,1,0,0:0:0:0:
256,192,259056,1,8,0:0:0:0:
256,192,259172,1,8,0:0:0:0:
256,192,259287,1,8,0:0:0:0:
256,192,259518,1,0,0:0:0:0:
256,192,259749,1,0,0:0:0:0:
256,192,259864,1,8,0:0:0:0:
256,192,259979,1,8,0:0:0:0:
256,192,260210,1,0,0:0:0:0:
256,192,260441,1,8,0:0:0:0:
256,192,260556,1,8,0:0:0:0:
256,192,260672,1,0,0:0:0:0:
256,192,260902,1,8,0:0:0:0:
256,192,261018,1,8,0:0:0:0:
256,192,261133,1,0,0:0:0:0:
256,192,261364,1,8,0:0:0:0:
256,192,261595,1,0,0:0:0:0:
256,192,261710,1,0,0:0:0:0:
256,192,261825,1,8,0:0:0:0:
256,192,262056,1,0,0:0:0:0:
256,192,262287,1,8,0:0:0:0:
256,192,262518,1,0,0:0:0:0:
256,192,262749,1,8,0:0:0:0:
256,192,262864,1,0,0:0:0:0:
256,192,262979,1,8,0:0:0:0:
256,192,263210,1,0,0:0:0:0:
256,192,263441,1,8,0:0:0:0:
256,192,263556,1,0,0:0:0:0:
256,192,263672,1,0,0:0:0:0:
256,192,263902,1,8,0:0:0:0:
256,192,264018,1,0,0:0:0:0:
256,192,264133,1,8,0:0:0:0:
256,192,264249,1,8,0:0:0:0:
256,192,264364,1,0,0:0:0:0:
256,192,264479,1,8,0:0:0:0:
256,192,264710,1,0,0:0:0:0:
256,192,264825,1,0,0:0:0:0:
256,192,265056,1,0,0:0:0:0:
256,192,265287,1,0,0:0:0:0:
256,192,265402,1,8,0:0:0:0:
256,192,265518,1,8,0:0:0:0:
256,192,265749,1,0,0:0:0:0:
256,192,265979,1,8,0:0:0:0:
256,192,266095,1,8,0:0:0:0:
256,192,266210,1,0,0:0:0:0:
256,192,266441,1,0,0:0:0:0:
256,192,266556,1,8,0:0:0:0:
256,192,266672,1,0,0:0:0:0:
256,192,266902,1,0,0:0:0:0:
256,192,267018,1,8,0:0:0:0:
256,192,267133,1,8,0:0:0:0:
256,192,267249,1,0,0:0:0:0:
256,192,267364,1,0,0:0:0:0:
256,192,267595,1,0,0:0:0:0:
256,192,267825,1,8,0:0:0:0:
256,192,268056,1,8,0:0:0:0:
256,192,268287,1,0,0:0:0:0:
256,192,268402,1,0,0:0:0:0:
256,192,268518,1,8,0:0:0:0:
256,192,268633,1,0,0:0:0:0:
256,192,268749,1,0,0:0:0:0:
256,192,268864,1,0,0:0:0:0:
256,192,268979,1,8,0:0:0:0:
256,192,269095,1,0,0:0:0:0:
256,192,269210,1,8,0:0:0:0:
256,192,269325,1,0,0:0:0:0:
256,192,269383,1,0,0:0:0:0:
256,192,269441,1,8,0:0:0:0:
256,192,269556,1,0,0:0:0:0:
256,192,269672,1,0,0:0:0:0:
256,192,269787,1,0,0:0:0:0:
256,192,269902,1,8,0:0:0:0:
256,192,270018,1,8,0:0:0:0:
256,192,270133,1,8,0:0:0:0:
256,192,270249,1,0,0:0:0:0:
256,192,270306,1,0,0:0:0:0:
256,192,270364,1,8,0:0:0:0:
256,192,270479,1,8,0:0:0:0:
256,192,270595,1,8,0:0:0:0:
256,192,270710,1,0,0:0:0:0:
256,192,270825,1,0,0:0:0:0:
256,192,270941,1,0,0:0:0:0:
256,192,271056,1,0,0:0:0:0:
256,192,271172,1,0,0:0:0:0:
256,192,271229,1,0,0:0:0:0:
256,192,271287,1,8,0:0:0:0:
256,192,271402,1,8,0:0:0:0:
256,192,271518,1,8,0:0:0:0:
256,192,271633,1,0,0:0:0:0:
256,192,271691,1,0,0:0:0:0:
256,192,271749,1,8,0:0:0:0:
256,192,271864,1,8,0:0:0:0:
256,192,271979,1,0,0:0:0:0:
256,192,272095,1,0,0:0:0:0:
256,192,272152,1,0,0:0:0:0:
256,192,272210,1,8,0:0:0:0:
256,192,272325,1,0,0:0:0:0:
256,192,272441,1,8,0:0:0:0:
256,192,272556,1,8,0:0:0:0:
256,192,272672,1,4,0:0:0:0:
256,192,273134,1,0,0:0:0:0:
256,192,274057,1,8,0:0:0:0:
256,192,274980,1,0,0:0:0:0:
256,192,275326,1,8,0:0:0:0:
256,192,275441,1,8,0:0:0:0:
256,192,275672,1,0,0:0:0:0:
256,192,275903,1,8,0:0:0:0:
256,192,276018,1,0,0:0:0:0:
256,192,276134,1,8,0:0:0:0:
256,192,276364,1,0,0:0:0:0:
256,192,276595,1,8,0:0:0:0:
256,192,276826,1,0,0:0:0:0:
256,192,277749,1,8,0:0:0:0:
256,192,278211,1,8,0:0:0:0:
256,192,278441,1,0,0:0:0:0:
256,192,278672,1,8,0:0:0:0:
256,192,278787,1,0,0:0:0:0:
256,192,279018,1,8,0:0:0:0:
256,192,279134,1,8,0:0:0:0:
256,192,279249,1,8,0:0:0:0:
256,192,279480,1,0,0:0:0:0:
256,192,279711,1,0,0:0:0:0:
256,192,279826,1,0,0:0:0:0:
256,192,280172,1,0,0:0:0:0:
256,192,280287,1,8,0:0:0:0:
256,192,280518,1,0,0:0:0:0:
256,192,280864,1,8,0:0:0:0:
256,192,281211,1,0,0:0:0:0:
256,192,281441,1,0,0:0:0:0:
256,192,281787,1,8,0:0:0:0:
256,192,282134,1,0,0:0:0:0:
256,192,282364,1,8,0:0:0:0:
256,192,282595,1,0,0:0:0:0:
256,192,282826,1,8,0:0:0:0:
256,192,283057,1,0,0:0:0:0:
256,192,283287,1,8,0:0:0:0:
256,192,283518,1,8,0:0:0:0:
256,192,283749,1,8,0:0:0:0:
256,192,283980,1,0,0:0:0:0:
256,192,284095,1,0,0:0:0:0:
256,192,284153,1,0,0:0:0:0:
256,192,284211,1,8,0:0:0:0:
256,192,284326,1,0,0:0:0:0:
256,192,284441,1,0,0:0:0:0:
256,192,284557,1,0,0:0:0:0:
256,192,284672,1,8,0:0:0:0:
256,192,284787,1,8,0:0:0:0:
256,192,284903,1,8,0:0:0:0:
256,192,285018,1,0,0:0:0:0:
256,192,285076,1,0,0:0:0:0:
256,192,285134,1,8,0:0:0:0:
256,192,285249,1,0,0:0:0:0:
256,192,285364,1,0,0:0:0:0:
256,192,285480,1,0,0:0:0:0:
256,192,285595,1,0,0:0:0:0:
256,192,285711,1,0,0:0:0:0:
256,192,285826,1,0,0:0:0:0:
256,192,285941,1,0,0:0:0:0:
256,192,285999,1,0,0:0:0:0:
256,192,286057,1,4,0:0:0:0:
256,192,286172,1,0,0:0:0:0:
256,192,286287,1,0,0:0:0:0:
256,192,286403,1,0,0:0:0:0:
256,192,286461,1,0,0:0:0:0:
256,192,286518,1,12,0:0:0:0:
256,192,286634,1,8,0:0:0:0:
256,192,286749,1,8,0:0:0:0:
256,192,286864,1,0,0:0:0:0:
256,192,286922,1,0,0:0:0:0:
256,192,286980,1,4,0:0:0:0:
256,192,287326,1,8,0:0:0:0:
256,192,287441,1,4,0:0:0:0:
256,192,287672,1,0,0:0:0:0:
256,192,287903,1,4,0:0:0:0:
256,192,288018,1,8,0:0:0:0:
256,192,288134,1,0,0:0:0:0:
256,192,288364,1,8,0:0:0:0:
256,192,288595,1,0,0:0:0:0:
256,192,288710,1,8,0:0:0:0:
256,192,288826,1,8,0:0:0:0:
256,192,288941,1,0,0:0:0:0:
256,192,289057,1,12,0:0:0:0:
256,192,289287,1,8,0:0:0:0:
256,192,289403,1,0,0:0:0:0:
256,192,289518,1,0,0:0:0:0:
256,192,289749,1,0,0:0:0:0:
256,192,289864,1,8,0:0:0:0:
256,192,289980,1,0,0:0:0:0:
256,192,290210,1,0,0:0:0:0:
256,192,290441,1,0,0:0:0:0:
256,192,290557,1,8,0:0:0:0:
256,192,290672,1,8,0:0:0:0:
256,192,290787,1,0,0:0:0:0:
256,192,290903,1,0,0:0:0:0:
256,192,291134,1,8,0:0:0:0:
256,192,291249,1,0,0:0:0:0:
256,192,291364,1,8,0:0:0:0:
256,192,291595,1,8,0:0:0:0:
256,192,291710,1,8,0:0:0:0:
256,192,291826,1,0,0:0:0:0:
256,192,291941,1,8,0:0:0:0:
256,192,292057,1,8,0:0:0:0:
256,192,292172,1,0,0:0:0:0:
256,192,292287,1,8,0:0:0:0:
256,192,292403,1,0,0:0:0:0:
256,192,292518,1,0,0:0:0:0:
256,192,292634,1,8,0:0:0:0:
256,192,292749,1,0,0:0:0:0:
256,192,292864,1,0,0:0:0:0:
256,192,292980,1,0,0:0:0:0:
256,192,293095,1,0,0:0:0:0:
256,192,293210,1,0,0:0:0:0:
256,192,293326,1,0,0:0:0:0:
256,192,293441,1,0,0:0:0:0:
256,192,293557,1,0,0:0:0:0:
256,192,293672,1,8,0:0:0:0:
256,192,293787,1,0,0:0:0:0:
256,192,293903,1,0,0:0:0:0:
256,192,294018,1,8,0:0:0:0:
256,192,294134,1,0,0:0:0:0:
256,192,294249,1,8,0:0:0:0:
256,192,294364,1,8,0:0:0:0:
256,192,294480,1,0,0:0:0:0:
256,192,294595,1,8,0:0:0:0:
256,192,294710,1,8,0:0:0:0:
256,192,294826,1,8,0:0:0:0:
256,192,294941,1,0,0:0:0:0:
256,192,295057,1,8,0:0:0:0:
256,192,295172,1,0,0:0:0:0:
256,192,295287,1,8,0:0:0:0:
256,192,295403,1,8,0:0:0:0:
256,192,295518,1,0,0:0:0:0:
256,192,295749,1,8,0:0:0:0:
256,192,295864,1,0,0:0:0:0:
256,192,295980,1,8,0:0:0:0:
256,192,296095,1,0,0:0:0:0:
256,192,296211,1,0,0:0:0:0:
256,192,296326,1,0,0:0:0:0:
256,192,296441,1,12,0:0:0:0:
256,192,296672,1,8,0:0:0:0:
256,192,296787,1,0,0:0:0:0:
256,192,296903,1,0,0:0:0:0:
256,192,297134,1,0,0:0:0:0:
256,192,297249,1,8,0:0:0:0:
256,192,297364,1,0,0:0:0:0:
256,192,297595,1,0,0:0:0:0:
256,192,297711,1,0,0:0:0:0:
256,192,297826,1,0,0:0:0:0:
256,192,297941,1,8,0:0:0:0:
256,192,298057,1,0,0:0:0:0:
256,192,298172,1,0,0:0:0:0:
256,192,298287,1,8,0:0:0:0:
256,192,298403,1,0,0:0:0:0:
256,192,298518,1,8,0:0:0:0:
256,192,298634,1,0,0:0:0:0:
256,192,298749,1,8,0:0:0:0:
256,192,298864,1,0,0:0:0:0:
256,192,298922,1,0,0:0:0:0:
256,192,298980,1,8,0:0:0:0:
256,192,299095,1,0,0:0:0:0:
256,192,299210,1,0,0:0:0:0:
256,192,299326,1,8,0:0:0:0:
256,192,299441,1,0,0:0:0:0:
256,192,299557,1,0,0:0:0:0:
256,192,299672,1,8,0:0:0:0:
256,192,299787,1,0,0:0:0:0:
256,192,299845,1,0,0:0:0:0:
256,192,299903,1,8,0:0:0:0:
256,192,300018,1,0,0:0:0:0:
256,192,300134,1,0,0:0:0:0:
256,192,300249,1,8,0:0:0:0:
256,192,300364,1,0,0:0:0:0:
256,192,300480,1,0,0:0:0:0:
256,192,300595,1,8,0:0:0:0:
256,192,300710,1,0,0:0:0:0:
256,192,300768,1,0,0:0:0:0:
256,192,300826,1,8,0:0:0:0:
256,192,300941,1,0,0:0:0:0:
256,192,301057,1,8,0:0:0:0:
256,192,301172,1,0,0:0:0:0:
256,192,301229,1,0,0:0:0:0:
256,192,301287,1,8,0:0:0:0:
256,192,301403,1,0,0:0:0:0:
256,192,301518,1,8,0:0:0:0:
256,192,301634,1,0,0:0:0:0:
256,192,301692,1,0,0:0:0:0:
256,192,301749,1,8,0:0:0:0:
256,192,301980,1,8,0:0:0:0:
256,192,302211,1,4,0:0:0:0:
256,192,302672,1,12,0:0:0:0:
