osu file format v14

[General]
AudioFilename: Utada Hikaru - Merry Christmas Mr. Lawrence -FYI.mp3
AudioLeadIn: 0
PreviewTime: 65005
Countdown: 0
SampleSet: Soft
StackLeniency: 0.7
Mode: 0
LetterboxInBreaks: 0
WidescreenStoryboard: 1

[Editor]
Bookmarks: 76182
DistanceSpacing: 1.4
BeatDivisor: 4
GridSize: 4
TimelineZoom: 1

[Metadata]
Title:Merry Christmas Mr. Lawrence - FYI
TitleUnicode:Merry Christmas Mr. Lawrence - FYI
Artist:Utada Hikaru
ArtistUnicode:宇多田ヒカル
Creator:Dark_Ai
Version:Hard
Source:
Tags:this is the one tng thenutritiousguy xmas
BeatmapID:1151046
BeatmapSetID:543076

[Difficulty]
HPDrainRate:6
CircleSize:4
OverallDifficulty:7
ApproachRate:8
SliderMultiplier:1.8
SliderTickRate:1

[Events]
//Background and Video events
0,0,"a2T9C21BG.jpg",0,0
//Break Periods
2,85205,93667
2,160499,168961
//Storyboard Layer 0 (Background)
//Storyboard Layer 1 (Fail)
//Storyboard Layer 2 (Pass)
//Storyboard Layer 3 (Foreground)
//Storyboard Sound Samples

[TimingPoints]
300,588.235294117647,4,2,1,30,1,0
1917,-100,4,2,1,10,0,0
2799,-100,4,2,1,30,0,0
6623,-100,4,2,1,10,0,0
7505,-100,4,2,1,30,0,0
9711,-100,4,2,2,60,0,0
65594,-200,4,2,1,25,0,0
65888,-100,4,2,1,25,0,0
66182,-100,4,2,2,60,0,1
85005,-100,4,2,2,60,0,0
122064,-200,4,2,1,25,0,0
122358,-100,4,2,1,25,0,0
122652,-100,4,2,2,60,0,1
141476,-100,4,2,2,60,0,0
178535,-200,4,2,1,25,0,0
178829,-100,4,2,1,50,0,0
179123,-100,4,2,2,60,0,1
197358,-100,4,2,1,60,0,0
197947,-100,4,2,2,60,0,1
217947,-100,4,2,1,20,0,0

[Colours]
Combo1 : 0,128,255
Combo2 : 128,0,255
Combo3 : 255,0,128
Combo4 : 255,255,255

[HitObjects]
88,144,300,6,0,L|84:52,1,90,2|0,0:0|0:0,0:0:0:0:
136,244,888,2,0,L|140:336,1,90
188,156,1476,2,0,B|280:128|280:184|368:156,1,180
384,140,2652,1,2,0:0:0:0:
432,312,3241,5,0,0:0:0:0:
280,220,3535,1,0,0:0:0:0:
340,284,3829,1,2,0:0:0:0:
216,152,4123,2,0,L|124:152,1,90
296,96,4711,1,0,0:0:0:0:
373,54,5005,6,0,P|384:97|372:140,1,90,2|0,0:0|0:0,0:0:0:0:
298,281,5594,2,0,P|287:238|300:196,1,90
388,216,6182,2,0,B|312:216|308:148|216:156,1,180,2|0,0:0|0:0,0:0:0:0:
128,308,7358,1,2,0:0:0:0:
116,296,7947,6,0,L|84:116,1,180,0|2,0:0|0:0,0:0:0:0:
80,96,8829,2,0,P|128:108|172:100,1,90
336,36,9711,6,0,P|380:29|423:41,1,90,2|0,0:0|0:0,0:0:0:0:
440,84,10152,2,0,L|444:128,1,45,0|8,0:0|0:0,0:0:0:0:
352,284,10594,2,0,L|288:348,1,90
112,320,11182,2,0,L|176:256,1,90,2|8,0:0|0:0,0:0:0:0:
300,128,11770,6,0,L|344:124,1,45
300,128,12064,2,0,P|332:164|344:204,1,90,2|0,0:0|0:0,0:0:0:0:
296,280,12652,2,0,B|352:216|352:216|440:180,1,180,8|0,0:0|0:0,0:0:0:0:
404,36,13535,1,2,0:0:0:0:
472,96,13829,1,8,0:0:0:0:
328,80,14123,2,0,P|288:100|244:100,1,90,0|2,0:0|0:0,0:0:0:0:
104,116,14711,6,0,L|56:120,1,45
104,116,15005,2,0,P|76:152|64:196,1,90,8|0,0:0|0:0,0:0:0:0:
112,272,15594,1,0,0:0:0:0:
180,212,15888,2,0,P|216:184|260:172,1,90,2|8,0:0|0:0,0:0:0:0:
424,240,16476,6,0,L|420:288,1,45
424,240,16770,2,0,P|388:268|344:280,1,90,2|0,0:0|0:0,0:0:0:0:
428,140,17358,1,8,0:0:0:0:
348,184,17652,2,0,B|292:152|300:96|300:96|272:144|236:144,1,180,0|2,0:0|0:0,0:0:0:0:
144,288,18535,2,0,P|184:264|212:220,1,90,8|0,0:0|0:0,0:0:0:0:
240,56,19123,6,0,P|200:80|172:124,2,90,2|0|8,0:0|0:0|0:0,0:0:0:0:
356,100,20005,1,0,0:0:0:0:
356,100,20299,2,0,B|396:120|440:104|440:104|416:148|444:196,1,180,0|8,0:0|0:0,0:0:0:0:
472,316,21182,2,0,L|464:268,1,45
472,316,21476,2,0,P|424:316|384:332,1,90,2|0,0:0|0:0,0:0:0:0:
304,364,22064,5,8,0:0:0:0:
148,276,22358,1,0,0:0:0:0:
248,288,22652,2,0,P|292:272|324:244,1,90
264,96,23241,2,0,P|220:112|188:140,1,90
308,292,23829,6,0,P|344:320|388:328,2,90,2|0|8,0:0|0:0|0:0,0:0:0:0:
284,152,24711,1,0,0:0:0:0:
332,76,25005,2,0,P|284:152|200:180,1,180,0|8,0:0|0:0,0:0:0:0:
140,116,25888,2,0,L|96:140,1,45
140,116,26182,2,0,P|112:164|112:200,1,90,2|0,0:0|0:0,0:0:0:0:
372,268,26770,6,0,P|400:220|400:184,1,90,8|0,0:0|0:0,0:0:0:0:
176,92,27358,1,0,0:0:0:0:
300,196,27652,1,2,0:0:0:0:
148,180,27947,1,8,0:0:0:0:
276,96,28241,1,0,0:0:0:0:
424,164,28535,6,0,P|432:212|424:252,1,90,2|0,0:0|0:0,0:0:0:0:
423,252,28976,1,0,0:0:0:0:
423,252,29123,1,8,0:0:0:0:
344,296,29417,2,0,B|300:296|260:308|272:328|272:328|284:308|244:296|200:296,1,180,0|2,0:0|0:0,0:0:0:0:
116,324,30299,1,8,0:0:0:0:
128,236,30594,5,0,0:0:0:0:
128,236,30741,1,0,0:0:0:0:
128,236,30888,2,0,P|168:208|208:204,1,90,2|0,0:0|0:0,0:0:0:0:
308,308,31476,1,8,0:0:0:0:
384,188,31770,2,0,P|424:264|416:356,1,180,0|2,0:0|0:0,0:0:0:0:
272,142,32652,1,8,0:0:0:0:
340,56,32947,1,0,0:0:0:0:
232,40,33241,6,0,L|140:48,1,90,2|0,0:0|0:0,0:0:0:0:
132,60,33682,2,0,L|124:112,1,45,0|8,0:0|0:0,0:0:0:0:
72,200,34123,2,0,P|136:136|224:136,1,180,0|2,0:0|0:0,0:0:0:0:
308,200,35005,5,8,0:0:0:0:
368,292,35299,2,0,L|396:340,1,45
368,292,35594,2,0,P|412:280|456:256,1,90,2|0,0:0|0:0,0:0:0:0:
440,152,36182,1,8,0:0:0:0:
356,84,36476,2,0,L|264:88,1,90
98,163,37064,2,0,L|188:160,1,90,2|8,0:0|0:0,0:0:0:0:
292,184,37652,1,0,0:0:0:0:
216,260,37947,1,2,0:0:0:0:
188,160,38241,6,0,L|208:72,1,90,0|8,0:0|0:0,0:0:0:0:
324,224,38829,2,0,L|304:312,1,90
304,311,39270,1,0,0:0:0:0:
304,311,39417,1,2,0:0:0:0:
416,168,39711,2,0,L|436:80,1,90,8|0,0:0|0:0,0:0:0:0:
435,80,40152,1,0,0:0:0:0:
435,80,40299,1,2,0:0:0:0:
292,60,40594,6,0,P|248:56|204:36,1,90,0|8,0:0|0:0,0:0:0:0:
348,148,41182,2,0,P|324:184|316:232,1,90
315,229,41623,1,0,0:0:0:0:
315,229,41770,1,2,0:0:0:0:
212,320,42064,2,0,P|200:272|172:236,1,90,8|0,0:0|0:0,0:0:0:0:
28,84,42652,6,0,P|40:132|68:168,1,90,2|0,0:0|0:0,0:0:0:0:
92,164,43094,1,0,0:0:0:0:
116,156,43241,2,0,L|144:244,1,90,8|0,0:0|0:0,0:0:0:0:
396,228,43829,2,0,L|368:140,1,90,0|2,0:0|0:0,0:0:0:0:
304,56,44417,1,8,0:0:0:0:
196,32,44711,1,0,0:0:0:0:
28,96,45005,6,0,B|76:92|112:56,1,90,2|0,0:0|0:0,0:0:0:0:
108,48,45447,1,0,0:0:0:0:
104,32,45594,2,0,L|144:112,1,90,8|0,0:0|0:0,0:0:0:0:
208,248,46182,1,0,0:0:0:0:
380,96,46476,1,2,0:0:0:0:
344,228,46770,1,8,0:0:0:0:
240,112,47064,1,0,0:0:0:0:
104,152,47358,5,4,3:0:0:0:
52,288,47652,2,0,L|36:332,2,45,0|0|8,0:0|0:0|0:0,0:0:0:0:
192,260,48241,2,0,L|232:288,2,45
104,152,48829,2,0,P|144:128|192:120,1,90,2|8,0:0|0:0,0:0:0:0:
408,232,49417,2,0,P|368:256|320:264,1,90,0|2,0:0|0:0,0:0:0:0:
188,224,50005,6,0,L|152:256,2,45,0|0|8,0:0|0:0|0:0,0:0:0:0:
204,80,50594,2,0,L|240:48,2,45
124,152,51182,2,0,P|84:132|56:96,1,90,2|8,0:0|0:0,0:0:0:0:
272,164,51770,2,0,P|312:184|340:220,1,90,0|2,0:0|0:0,0:0:0:0:
364,324,52358,5,0,0:0:0:0:
364,324,52505,1,0,0:0:0:0:
364,324,52652,1,8,0:0:0:0:
430,268,52947,1,0,0:0:0:0:
430,268,53094,1,0,0:0:0:0:
430,268,53241,1,0,0:0:0:0:
472,168,53535,2,0,L|436:128,1,45,2|0,0:0|0:0,0:0:0:0:
424,140,53829,2,0,P|380:152|336:148,1,90,8|0,0:0|0:0,0:0:0:0:
256,40,54417,5,2,0:0:0:0:
40,168,54711,2,0,L|76:128,1,45
88,140,55005,2,0,P|132:152|176:148,1,90,8|0,0:0|0:0,0:0:0:0:
256,256,55594,1,0,0:0:0:0:
256,256,55888,2,0,L|256:164,1,90,2|8,0:0|0:0,0:0:0:0:
328,52,56476,1,0,0:0:0:0:
184,52,56770,5,4,3:0:0:0:
112,168,57064,2,0,L|84:208,2,45,0|0|8,0:0|0:0|0:0,0:0:0:0:
232,112,57652,2,0,L|257:75,2,45
172,232,58241,2,0,P|160:280|160:320,1,90,2|8,0:0|0:0,0:0:0:0:
340,152,58829,2,0,P|352:104|352:64,1,90,0|2,0:0|0:0,0:0:0:0:
220,48,59417,6,0,L|168:52,2,45,0|0|8,0:0|0:0|0:0,0:0:0:0:
59,119,60005,2,0,L|104:116,2,45
8,180,60594,2,0,P|20:136|16:80,1,90,2|8,0:0|0:0,0:0:0:0:
84,264,61182,2,0,P|72:308|76:364,1,90,0|2,0:0|0:0,0:0:0:0:
200,348,61770,6,0,L|244:340,2,45,0|0|8,0:0|0:0|0:0,0:0:0:0:
328,232,62358,2,0,L|284:240,2,45
448,192,62947,2,0,P|476:164|504:108,2,90,2|8|0,0:0|0:0|0:0,0:0:0:0:
376,88,63829,1,0,0:0:0:0:
264,144,64123,2,0,P|236:172|208:228,2,90,0|8|0,0:0|0:0|0:0,0:0:0:0:
440,324,65299,5,0,0:0:0:0:
440,324,65594,2,0,L|452:276,1,45,2|0,0:0|0:0,0:0:0:0:
448,192,66182,6,0,L|468:104,1,90,2|0,0:0|0:0,0:0:0:0:
480,16,66770,2,0,P|432:88|344:104,1,180,8|0,0:0|0:0,0:0:0:0:
256,16,67652,1,2,0:0:0:0:
167,104,67947,2,0,L|144:148,2,45,8|0|0,0:0|0:0|0:0,0:0:0:0:
256,192,68535,6,0,L|256:100,1,90,2|0,0:0|0:0,0:0:0:0:
368,256,69123,2,0,L|368:348,1,90,8|0,0:0|0:0,0:0:0:0:
416,164,69711,1,0,0:0:0:0:
368,48,70005,1,2,0:0:0:0:
276,132,70299,2,0,P|232:132|184:112,1,90,8|0,0:0|0:0,0:0:0:0:
44,272,70888,6,0,L|92:196,1,90,2|0,0:0|0:0,0:0:0:0:
104,180,71329,1,0,0:0:0:0:
116,168,71476,2,0,P|152:196|176:236,1,90,8|0,0:0|0:0,0:0:0:0:
256,328,72064,2,0,L|344:344,1,90,0|2,0:0|0:0,0:0:0:0:
256,108,72652,2,0,L|168:92,1,90,8|0,0:0|0:0,0:0:0:0:
60,248,73241,6,0,P|52:204|60:159,1,90,2|0,0:0|0:0,0:0:0:0:
160,272,73829,2,0,P|168:316|160:360,1,90,8|0,0:0|0:0,0:0:0:0:
124,208,74417,2,0,P|168:200|213:208,1,90,0|0,0:0|0:3,0:3:0:0:
100,308,75005,2,0,P|56:316|12:308,1,90,8|0,0:0|0:3,0:3:0:0:
360,204,75594,6,0,L|408:120,1,90,2|0,0:0|0:0,0:0:0:0:
152,180,76182,2,0,P|104:248|120:340,1,180,8|0,0:0|0:0,0:0:0:0:
256,128,77064,1,2,0:0:0:0:
332,228,77358,1,8,0:0:0:0:
332,228,77505,1,0,0:0:0:0:
332,228,77652,1,0,0:0:0:0:
372,108,77947,6,0,P|388:68|424:40,1,90,2|0,0:0|0:0,0:0:0:0:
332,228,78535,2,0,P|316:268|280:296,1,90,8|0,0:0|0:0,0:0:0:0:
408,192,79123,1,0,0:0:0:0:
296,148,79417,2,0,P|256:132|228:96,1,90,2|0,0:0|0:0,0:0:0:0:
124,36,80005,1,0,0:0:0:0:
60,144,80299,6,0,P|48:188|60:232,1,90,2|0,0:0|0:0,0:0:0:0:
58,229,80741,1,0,0:0:0:0:
58,229,80888,1,8,0:0:0:0:
164,300,81182,1,0,0:0:0:0:
220,188,81476,2,0,P|264:176|312:188,1,90,0|2,0:0|0:0,0:0:0:0:
300,312,82064,1,8,0:0:0:0:
428,152,82358,1,0,0:0:0:0:
320,84,82652,2,0,P|300:40|300:0,1,90,2|0,0:0|0:0,0:0:0:0:
428,152,83241,6,0,P|448:196|448:236,1,90,8|0,0:0|0:0,0:0:0:0:
343,312,83829,2,0,P|324:272|324:228,1,90,0|2,0:0|0:0,0:0:0:0:
316,104,84417,2,0,P|272:100|228:112,1,90,8|0,0:0|0:0,0:0:0:0:
176,228,85005,1,4,3:0:0:0:
256,40,94417,5,2,0:0:0:0:
204,156,94711,6,0,L|184:200,1,45
200,240,95005,2,0,L|168:324,1,90,8|0,0:0|0:0,0:0:0:0:
52,268,95594,1,0,0:0:0:0:
52,252,95741,1,0,0:0:0:0:
52,236,95888,1,2,0:0:0:0:
104,120,96182,2,0,L|136:36,1,90,8|0,0:0|0:0,0:0:0:0:
176,204,96770,1,2,0:0:0:0:
256,132,97064,6,0,L|300:132,1,45
340,156,97358,2,0,P|384:164|428:156,1,90,8|0,0:0|0:0,0:0:0:0:
452,36,97947,2,0,L|400:28,1,45
388,28,98241,1,2,0:0:0:0:
300,40,98535,2,0,P|260:60|232:96,1,90,8|0,0:0|0:0,0:0:0:0:
304,168,99123,1,2,0:0:0:0:
392,336,99417,5,0,0:0:0:0:
272,292,99711,2,0,P|228:304|184:304,1,90,8|0,0:0|0:0,0:0:0:0:
432,212,100299,1,0,0:0:0:0:
336,60,100594,1,2,0:0:0:0:
336,240,100888,1,8,0:0:0:0:
432,88,101182,1,0,0:0:0:0:
264,156,101476,6,0,P|216:164|172:184,1,90,2|0,0:0|0:0,0:0:0:0:
164,224,101917,1,0,0:0:0:0:
140,264,102064,2,0,P|100:288|56:292,1,90,8|0,0:0|0:0,0:0:0:0:
64,168,102652,1,0,0:0:0:0:
164,88,102947,2,0,L|256:68,2,90,2|8|0,0:0|0:0|0:0,0:0:0:0:
408,28,103829,1,2,0:0:0:0:
480,132,104123,5,0,0:0:0:0:
480,148,104270,1,0,0:0:0:0:
480,164,104417,1,8,0:0:0:0:
372,260,104711,1,0,0:0:0:0:
372,244,104858,1,0,0:0:0:0:
372,228,105005,1,0,0:0:0:0:
272,128,105299,2,0,L|176:124,1,90,2|8,0:0|0:0,0:0:0:0:
56,280,105888,2,0,L|152:284,1,90,0|2,0:0|0:0,0:0:0:0:
260,336,106476,5,0,0:0:0:0:
276,336,106623,1,0,0:0:0:0:
292,336,106770,1,8,0:0:0:0:
428,220,107064,1,0,0:0:0:0:
412,220,107211,1,0,0:0:0:0:
396,220,107358,1,0,0:0:0:0:
280,164,107652,2,0,P|260:120|256:72,1,90,2|8,0:0|0:0,0:0:0:0:
460,220,108241,2,0,P|480:264|484:312,1,90,0|2,0:0|0:0,0:0:0:0:
224,232,108829,5,0,0:0:0:0:
216,248,108976,1,0,0:0:0:0:
208,264,109123,2,0,P|172:296|136:316,1,90,8|0,0:0|0:0,0:0:0:0:
120,308,109564,2,0,L|88:264,1,45
148,100,110006,2,0,L|184:60,1,45,2|0,0:0|0:0,0:0:0:0:
196,72,110300,2,0,P|240:84|284:80,1,90,8|0,0:0|0:0,0:0:0:0:
460,52,110888,1,2,0:0:0:0:
460,240,111182,6,0,L|424:200,1,45
412,212,111476,2,0,P|368:224|324:220,1,90,8|0,0:0|0:0,0:0:0:0:
472,116,112064,1,0,0:0:0:0:
360,20,112358,1,2,0:0:0:0:
272,132,112652,2,0,B|256:176|268:228,1,90,8|0,0:0|0:0,0:0:0:0:
460,300,113241,1,2,0:0:0:0:
476,144,113535,6,0,L|480:92,2,45,0|0|8,0:0|0:0|0:0,0:0:0:0:
356,240,114123,2,0,L|348:288,2,45
328,100,114711,2,0,P|284:108|244:128,1,90,2|8,0:0|0:0,0:0:0:0:
184,284,115299,2,0,P|228:276|268:256,1,90,0|2,0:0|0:0,0:0:0:0:
324,124,115888,6,0,L|344:80,2,45,0|0|8,0:0|0:0|0:0,0:0:0:0:
188,124,116476,2,0,L|168:80,2,45
256,252,117064,2,0,L|256:344,1,90,2|8,0:0|0:0,0:0:0:0:
416,208,117652,2,0,L|416:116,1,90,0|2,0:0|0:0,0:0:0:0:
332,88,118241,6,0,P|348:64|372:48,2,45,0|0|8,0:0|0:0|0:0,0:0:0:0:
180,88,118829,2,0,P|164:64|140:48,2,45
96,208,119417,2,0,L|96:116,2,90,2|8|0,0:0|0:0|0:0,0:0:0:0:
200,304,120299,1,2,0:0:0:0:
332,248,120594,1,0,0:0:0:0:
380,112,120888,2,0,P|424:124|460:160,1,90
436,296,121476,1,0,0:0:0:0:
292,284,121770,5,0,0:0:0:0:
292,284,122064,2,0,L|288:228,1,45,2|0,0:0|0:0,0:0:0:0:
248,204,122652,6,0,L|252:296,1,90,2|0,0:0|0:0,0:0:0:0:
332,336,123241,2,0,B|372:312|420:332|420:332|440:296|496:288,1,180,8|0,0:0|0:0,0:0:0:0:
240,356,124123,1,2,0:0:0:0:
167,280,124418,2,0,L|144:236,2,45,8|0|0,0:0|0:0|0:0,0:0:0:0:
256,192,125006,2,0,L|256:284,1,90,2|0,0:0|0:0,0:0:0:0:
368,128,125594,2,0,L|368:36,1,90,8|0,0:0|0:0,0:0:0:0:
416,220,126182,1,0,0:0:0:0:
368,336,126476,1,2,0:0:0:0:
276,252,126770,6,0,P|232:252|184:272,1,90,8|0,0:0|0:0,0:0:0:0:
44,112,127359,2,0,L|92:188,1,90,2|0,0:0|0:0,0:0:0:0:
104,204,127800,1,0,0:0:0:0:
116,216,127947,2,0,P|152:188|176:148,1,90,8|0,0:0|0:0,0:0:0:0:
256,56,128535,2,0,L|344:40,1,90,0|2,0:0|0:0,0:0:0:0:
256,276,129123,2,0,L|168:292,1,90,8|0,0:0|0:0,0:0:0:0:
60,136,129711,6,0,P|52:180|60:225,1,90,2|0,0:0|0:0,0:0:0:0:
160,112,130300,2,0,P|168:68|160:24,1,90,8|0,0:0|0:0,0:0:0:0:
136,192,130888,2,0,P|180:201|224:193,1,90,0|2,0:0|0:0,0:0:0:0:
284,80,131476,1,8,0:0:0:0:
284,80,131770,1,0,0:0:0:0:
360,180,132065,6,0,L|408:264,1,90,2|0,0:0|0:0,0:0:0:0:
152,204,132653,2,0,P|104:136|120:44,1,180,8|0,0:0|0:0,0:0:0:0:
256,256,133535,1,2,0:0:0:0:
332,156,133829,1,8,0:0:0:0:
332,156,133976,1,0,0:0:0:0:
332,156,134123,1,0,0:0:0:0:
372,276,134418,6,0,L|416:356,1,90,2|0,0:0|0:0,0:0:0:0:
332,156,135005,2,0,L|288:76,1,90,8|0,0:0|0:0,0:0:0:0:
408,192,135594,1,0,0:0:0:0:
296,236,135888,2,0,L|208:256,1,90,2|8,0:0|0:0,0:0:0:0:
124,348,136476,1,0,0:0:0:0:
60,240,136770,6,0,P|48:196|60:152,1,90,2|0,0:0|0:0,0:0:0:0:
58,155,137212,1,0,0:0:0:0:
58,155,137359,1,8,0:0:0:0:
164,84,137653,1,0,0:0:0:0:
220,196,137947,2,0,P|264:208|312:196,1,90,0|2,0:0|0:0,0:0:0:0:
300,72,138535,1,8,0:0:0:0:
428,232,138829,1,0,0:0:0:0:
320,300,139123,2,0,P|300:344|300:384,1,90,2|0,0:0|0:0,0:0:0:0:
428,232,139712,6,0,P|448:188|448:148,1,90,8|0,0:0|0:0,0:0:0:0:
343,72,140300,2,0,P|324:112|324:156,1,90,0|2,0:0|0:0,0:0:0:0:
316,280,140888,2,0,P|272:284|228:272,1,90,8|0,0:0|0:0,0:0:0:0:
176,156,141476,1,6,3:0:0:0:
176,156,142064,6,0,L|160:244,1,90,8|0,0:0|0:0,0:0:0:0:
244,84,142652,2,0,B|336:56|336:112|424:84,1,180,0|8,0:0|0:0,0:0:0:0:
472,200,143535,1,0,0:0:0:0:
472,200,143682,1,0,0:0:0:0:
472,200,143829,2,0,L|492:288,1,90,2|0,0:0|0:0,0:0:0:0:
356,168,144417,1,8,0:0:0:0:
256,92,144711,1,0,0:0:0:0:
156,168,145005,2,0,P|128:204|116:248,1,90,0|2,0:0|0:0,0:0:0:0:
292,356,145594,2,0,P|320:320|332:276,1,90,8|0,0:0|0:0,0:0:0:0:
256,116,146182,5,4,0:3:0:0:
356,192,146476,1,0,0:0:0:0:
356,192,146623,1,0,0:0:0:0:
356,192,146770,2,0,P|400:196|448:180,1,90
420,276,147358,2,0,P|440:188|516:144,1,180,0|8,0:0|0:0,0:0:0:0:
432,48,148241,1,0,0:0:0:0:
432,48,148388,1,0,0:0:0:0:
432,48,148535,6,0,P|388:56|332:44,1,90,2|0,0:0|0:0,0:0:0:0:
168,48,149123,1,8,0:0:0:0:
256,140,149417,1,0,0:0:0:0:
256,140,149711,2,0,L|236:228,1,90,0|2,0:0|0:0,0:0:0:0:
40,320,150299,2,0,L|60:232,1,90,8|0,0:0|0:0,0:0:0:0:
156,152,150888,5,4,0:3:0:0:
276,108,151182,1,0,0:0:0:0:
276,108,151329,1,0,0:0:0:0:
276,108,151476,2,0,L|364:92,1,90,8|0,0:0|0:0,0:0:0:0:
476,32,152064,2,0,P|496:120|448:196,1,180,0|8,0:0|0:0,0:0:0:0:
336,240,152947,1,0,0:0:0:0:
336,240,153241,6,0,L|248:268,1,90,2|0,0:0|0:0,0:0:0:0:
128,232,153829,1,8,0:0:0:0:
112,108,154123,1,0,0:0:0:0:
212,28,154417,2,0,L|312:20,1,90,0|2,0:0|0:0,0:0:0:0:
292,148,155005,1,8,0:0:0:0:
168,140,155299,1,0,0:0:0:0:
64,72,155594,5,4,0:3:0:0:
64,72,156182,2,0,P|80:120|72:164,1,90,8|0,0:0|0:0,0:0:0:0:
28,276,156770,2,0,P|64:208|156:172,1,180,0|8,0:0|0:0,0:0:0:0:
256,252,157652,1,0,0:0:0:0:
256,268,157799,1,0,0:0:0:0:
256,288,157947,2,0,P|284:324|324:340,1,90,2|0,0:0|0:0,0:0:0:0:
472,296,158535,2,0,P|445:260|404:244,1,90,8|0,0:0|0:0,0:0:0:0:
336,140,159123,6,0,L|424:108,1,90,0|2,0:0|0:0,0:0:0:0:
208,64,159711,2,0,L|120:96,1,90,8|0,0:0|0:0,0:0:0:0:
240,164,160299,1,4,0:3:0:0:
96,224,169711,5,2,0:0:0:0:
152,72,170005,1,0,0:0:0:0:
204,224,170299,1,8,0:0:0:0:
72,128,170594,1,0,0:0:0:0:
232,128,170888,2,0,B|292:120|312:72|312:72|336:108|376:116,1,180,0|8,0:0|0:0,0:0:0:0:
456,208,171770,1,0,0:0:0:0:
424,328,172064,6,0,P|376:320|344:296,1,90,2|0,0:0|0:0,0:0:0:0:
343,295,172505,1,0,0:0:0:0:
343,295,172652,1,8,0:0:0:0:
256,200,172947,1,0,0:0:0:0:
169,295,173241,2,0,P|128:280|92:240,1,90,0|2,0:0|0:0,0:0:0:0:
92,232,173682,1,0,0:0:0:0:
88,216,173829,2,0,P|76:168|48:136,1,90,8|0,0:0|0:0,0:0:0:0:
136,48,174417,6,0,L|228:32,1,90,2|0,0:0|0:0,0:0:0:0:
224,32,174858,1,0,0:0:0:0:
224,32,175005,1,8,0:0:0:0:
296,136,175299,1,0,0:0:0:0:
344,60,175593,2,0,P|296:136|212:160,1,180,0|8,0:0|0:0,0:0:0:0:
168,44,176476,1,0,0:0:0:0:
84,140,176770,6,0,L|44:224,1,90,2|0,0:0|0:0,0:0:0:0:
45,221,177211,1,0,0:0:0:0:
45,221,177358,1,8,0:0:0:0:
116,328,177652,2,0,L|88:372,2,45
232,280,178241,5,2,0:0:0:0:
232,280,178535,2,0,L|256:240,1,45,2|0,0:0|0:0,0:0:0:0:
260,348,179123,6,0,B|304:268,1,90,2|0,0:3|0:0,0:0:0:0:
356,156,179711,2,0,B|316:112|328:64|328:64|288:72|248:60,1,180,8|0,0:0|0:0,0:0:0:0:
228,184,180594,1,2,0:0:0:0:
136,100,180888,1,8,0:0:0:0:
128,84,181035,1,0,0:0:0:0:
120,68,181182,1,0,0:0:0:0:
32,44,181476,6,0,P|28:88|44:132,1,90,2|0,0:0|0:0,0:0:0:0:
176,212,182064,2,0,B|224:232|268:220|268:220|256:264|256:316,1,180,8|0,0:0|0:0,0:0:0:0:
188,364,182947,1,2,0:3:0:0:
324,364,183241,2,0,L|416:356,1,90,8|0,0:0|0:0,0:0:0:0:
452,236,183829,6,0,L|472:144,1,90,2|0,0:0|0:0,0:0:0:0:
367,28,184417,2,0,L|348:116,1,90,8|0,0:0|0:0,0:0:0:0:
280,220,185005,2,0,P|196:216|160:136,1,180,0|8,0:0|0:0,0:0:0:0:
224,28,185888,1,0,0:0:0:0:
100,40,186182,6,0,P|64:76|48:112,1,90,2|0,0:0|0:0,0:0:0:0:
112,292,186770,2,0,P|148:256|164:220,1,90,8|0,0:0|0:0,0:0:0:0:
204,100,187358,2,0,P|240:76|288:68,1,90,0|2,0:0|0:0,0:0:0:0:
372,160,187947,1,8,0:0:0:0:
448,60,188241,1,0,0:0:0:0:
500,176,188535,6,0,L|492:265,1,90,2|0,0:0|0:0,0:0:0:0:
404,356,189123,2,0,P|340:312|240:316,1,180,8|0,0:0|0:0,0:0:0:0:
160,352,190005,1,2,0:3:0:0:
104,280,190299,2,0,L|80:236,2,45,8|0|0,0:0|0:0|0:0,0:0:0:0:
136,156,190888,5,2,0:0:0:0:
188,40,191182,1,0,0:0:0:0:
324,40,191476,2,0,B|380:56|420:44|420:44|416:88|432:124,1,180,8|0,0:0|0:0,0:0:0:0:
420,252,192358,1,2,0:0:0:0:
296,228,192652,2,0,P|304:180|328:144,1,90,8|0,0:0|0:0,0:0:0:0:
312,40,193241,6,0,L|252:108,1,90,2|0,0:0|0:0,0:0:0:0:
184,164,193829,2,0,P|100:124|84:44,1,180,8|0,0:0|0:0,0:0:0:0:
172,20,194711,1,2,0:0:0:0:
172,20,195005,2,0,L|264:24,1,90,8|0,0:0|0:0,0:0:0:0:
280,28,195447,1,0,0:0:0:0:
296,32,195594,2,0,L|336:112,1,90,2|0,0:0|0:0,0:0:0:0:
328,308,196182,6,0,L|288:228,1,90,8|0,0:0|0:0,0:0:0:0:
232,116,196770,1,0,0:0:0:0:
124,52,197064,1,2,0:0:0:0:
136,176,197358,2,0,L|116:264,1,90,8|0,0:0|0:0,0:0:0:0:
340,332,197947,6,0,P|376:304|420:288,1,90,2|0,0:0|0:0,0:0:0:0:
452,296,198535,2,0,P|384:236|372:152,1,180,8|0,0:0|0:0,0:0:0:0:
432,40,199417,1,2,0:0:0:0:
308,32,199711,1,0,0:0:0:0:
300,36,199858,1,0,0:0:0:0:
292,40,200005,1,0,0:0:0:0:
220,144,200299,6,0,P|184:172|140:180,1,90,2|0,0:0|0:0,0:0:0:0:
60,96,200888,2,0,P|32:136|24:176,1,90,8|0,0:0|0:0,0:0:0:0:
68,280,201476,1,0,0:0:0:0:
212,72,201770,1,2,0:3:0:0:
176,192,202064,2,0,P|216:220|256:228,1,90,8|0,0:0|0:0,0:0:0:0:
432,192,202652,6,0,L|484:268,1,90,2|0,0:0|0:0,0:0:0:0:
308,128,203241,2,0,L|256:52,1,90,8|0,0:0|0:0,0:0:0:0:
132,44,203829,2,0,B|84:60|40:48|40:48|40:92|24:136,1,180,0|8,0:0|0:0,0:0:0:0:
144,172,204711,1,0,0:0:0:0:
220,272,205005,6,0,P|176:292|128:296,1,90,2|0,0:0|0:0,0:0:0:0:
292,112,205594,2,0,P|336:92|384:88,1,90,8|0,0:0|0:0,0:0:0:0:
340,220,206182,2,0,P|360:264|364:312,1,90,0|2,0:0|0:0,0:0:0:0:
176,152,206770,1,8,0:0:0:0:
176,152,207064,1,0,0:0:0:0:
376,72,207358,6,0,L|468:60,1,90,2|0,0:0|0:0,0:0:0:0:
436,148,207947,2,0,P|364:100|272:104,1,180,8|0,0:0|0:0,0:0:0:0:
256,228,208829,1,2,0:0:0:0:
184,332,209123,2,0,L|124:332,2,45,8|0|0,0:0|0:0|0:0,0:0:0:0:
328,332,209711,2,0,L|420:332,1,90,2|0,0:0|0:0,0:0:0:0:
492,228,210299,2,0,P|524:136|512:56,1,180,8|0,0:0|0:0,0:0:0:0:
396,104,211182,1,2,0:0:0:0:
396,104,211476,2,0,P|380:148|384:192,1,90,8|0,0:0|0:0,0:0:0:0:
243,350,212064,6,0,P|259:308|256:264,1,90,2|0,0:0|0:0,0:0:0:0:
244,252,212505,1,0,0:0:0:0:
232,240,212652,2,0,P|204:200|204:160,1,90,8|0,0:0|0:0,0:0:0:0:
168,76,213241,2,0,P|176:168|156:256,1,180,0|8,0:0|0:0,0:0:0:0:
104,368,214123,1,0,0:0:0:0:
228,364,214417,2,0,L|320:356,1,90,2|0,0:0|0:0,0:0:0:0:
493,256,215005,6,0,L|404:264,1,90,8|0,0:0|0:0,0:0:0:0:
316,128,215594,1,0,0:0:0:0:
304,232,215888,1,2,0:0:0:0:
212,80,216182,1,8,0:0:0:0:
120,128,216476,1,0,0:0:0:0:
256,192,216623,12,2,217947,0:0:0:0:
