osu file format v14

[General]
AudioFilename: audio.mp3
AudioLeadIn: 1000
PreviewTime: 17250
Countdown: 0
SampleSet: Soft
StackLeniency: 0.7
Mode: 0
LetterboxInBreaks: 0
WidescreenStoryboard: 1

[Editor]
Bookmarks: 34115,92681,93202,125941,142768
DistanceSpacing: 1.9
BeatDivisor: 4
GridSize: 32
TimelineZoom: 1.2

[Metadata]
Title:Beautiful World
TitleUnicode:Beautiful World
Artist:Utada Hikaru
ArtistUnicode:宇多田ヒカル
Creator:Milan-
Version:Hard
Source:ヱヴァンゲリヲン新劇場版:序
Tags:deetz EVA Neon Genesis Evangelion anime japanese jpop pop movie Shin Gekijouban: Jo 1.0 You Are (Not) Alone
BeatmapID:2527227
BeatmapSetID:669465

[Difficulty]
HPDrainRate:5
CircleSize:4
OverallDifficulty:6
ApproachRate:7
SliderMultiplier:1.6
SliderTickRate:1

[Events]
//Background and Video events
0,0,"f4793dfbfca03f324e4aea2e.jpg",0,0
//Break Periods
//Storyboard Layer 0 (Background)
//Storyboard Layer 1 (Fail)
//Storyboard Layer 2 (Pass)
//Storyboard Layer 3 (Foreground)
//Storyboard Layer 4 (Overlay)
//Storyboard Sound Samples

[TimingPoints]
685,521.739130434783,4,1,0,20,1,0
685,-200,4,2,0,20,0,0
9293,-166.666666666667,4,2,0,20,0,0
17380,-100,4,1,0,40,0,1
50771,-100,4,1,0,35,0,0
59119,-142.857142857143,4,1,0,30,0,0
92511,-117.647058823529,4,1,0,40,0,0
109206,-90.9090909090909,4,1,0,50,0,1
142598,-90.9090909090909,4,1,0,50,0,0

[Colours]
Combo1 : 159,255,64
Combo2 : 85,170,255
Combo3 : 140,140,140
Combo4 : 170,85,255

[HitObjects]
492,151,7728,6,0,P|505:183|511:234,1,80,0|0,0:0|0:0,0:0:0:0:
436,256,8511,2,0,P|429:297|409:338,1,80,0|0,0:0|2:2,0:0:0:0:
323,365,9293,6,0,L|262:347,1,47.9999985351563,2|0,0:0|0:0,0:0:0:0:
330,283,9815,2,0,L|269:265,1,47.9999985351563,0|2,0:0|0:0,0:0:0:0:
250,136,10467,1,2,0:0:0:0:
226,4,10858,1,2,0:0:0:0:
226,4,11119,6,0,L|178:12,1,47.9999985351563,2|0,0:0|0:0,0:0:0:0:
92,8,11641,2,0,L|100:55,1,47.9999985351563,2|0,0:0|0:0,0:0:0:0:
97,141,12163,2,0,L|176:124,2,71.9999978027344,2|2|2,0:0|0:0|0:0,0:0:0:0:
51,234,13206,6,0,P|52:253|47:283,1,47.9999985351563,0|2,0:0|0:0,0:0:0:0:
112,338,13728,2,0,P|127:327|156:316,1,47.9999985351563,0|0,0:0|0:0,0:0:0:0:
241,327,14250,2,0,L|321:339,2,71.9999978027344,2|2|2,0:0|0:0|0:0,0:0:0:0:
338,258,15293,6,0,L|385:254,1,47.9999985351563,2|0,0:0|0:0,0:0:0:0:
400,168,15815,2,0,L|352:164,1,47.9999985351563,2|0,0:0|0:0,0:0:0:0:
305,91,16337,2,0,L|384:81,1,71.9999978027344,2|2,0:0|0:0,0:0:0:0:
269,9,17119,1,2,0:0:0:0:
143,129,17380,6,0,P|131:159|149:215,1,80,4|0,0:0|0:0,0:0:0:0:
284,261,17902,2,0,P|294:299|281:336,1,80,8|0,0:0|0:0,0:0:0:0:
210,359,18293,1,0,0:0:0:0:
210,359,18424,2,0,L|88:342,1,120,0|0,0:0|0:0,0:0:0:0:
26,303,18945,2,0,P|16:265|29:228,1,80,8|0,0:0|0:0,0:0:0:0:
181,213,19467,5,0,0:0:0:0:
187,205,19728,1,0,0:0:0:0:
193,199,19989,1,8,0:0:0:0:
446,285,20380,1,0,0:0:0:0:
378,249,20511,2,0,P|369:196|363:131,1,120
417,77,21032,2,0,P|461:77|512:70,1,80,8|2,0:0|0:3,0:0:0:0:
326,20,21554,6,0,P|249:13|143:11,1,160,0|8,0:2|0:0,0:0:0:0:
36,91,22337,2,0,L|39:138,1,40,0|0,0:0|0:0,0:0:0:0:
95,182,22598,2,0,P|153:177|209:162,1,80,0|0,0:0|0:0,0:0:0:0:
245,199,22989,2,0,P|252:234|254:256,1,40,0|8,0:0|0:0,0:0:0:0:
103,270,23380,1,0,0:0:0:0:
331,304,23641,6,0,P|340:231|341:125,1,160,4|8,0:2|0:0,0:0:0:0:
427,42,24424,2,0,P|436:115|437:221,1,160,4|2,0:2|0:2,0:0:0:0:
496,257,25076,1,2,0:2:0:0:
496,257,25206,2,0,P|490:296|479:351,1,80,10|2,0:0|0:0,0:0:0:0:
414,362,25598,1,0,0:0:0:0:
343,375,25728,6,0,P|294:368|254:326,1,80,4|0,0:0|0:0,0:0:0:0:
273,197,26250,2,0,P|283:235|270:272,1,80,8|0,0:0|0:0,0:0:0:0:
205,310,26641,1,0,0:0:0:0:
205,310,26772,2,0,L|81:324,1,120,0|0,0:0|0:0,0:0:0:0:
21,363,27293,1,8,0:0:0:0:
99,232,27554,1,0,0:0:0:0:
11,107,27815,5,0,0:0:0:0:
10,97,28076,1,0,0:0:0:0:
9,87,28337,1,8,0:0:0:0:
278,6,28728,1,0,0:0:0:0:
249,75,28859,2,0,P|254:134|264:193,1,120
337,215,29380,2,0,P|381:215|432:208,1,80,10|2,0:0|0:0,0:0:0:0:
286,305,29902,6,0,P|209:298|103:296,1,160,4|8,0:2|0:0,0:0:0:0:
26,180,30685,1,0,0:0:0:0:
170,224,30945,2,0,P|181:183|184:125,1,80,2|2,0:2|0:2,0:0:0:0:
134,87,31337,1,0,0:0:0:0:
134,87,31467,2,0,P|127:28|114:-16,1,80,8|2,0:0|0:2,0:0:0:0:
256,84,31989,5,0,0:0:0:0:
260,73,32250,1,2,0:2:0:0:
385,112,32511,1,8,0:0:0:0:
389,101,32772,1,2,0:2:0:0:
401,95,33032,1,0,0:0:0:0:
419,103,33293,1,8,0:3:0:0:
434,131,33554,2,0,L|488:139,2,40,8|0|4,0:3|0:0|0:3,0:0:0:0:
390,197,33945,1,0,0:0:0:0:
331,254,34076,6,0,P|247:268|186:276,1,120,4|0,0:0|0:0,0:0:0:0:
199,362,34598,2,0,P|139:351|80:343,1,120,8|0,0:0|0:0,0:0:0:0:
27,237,35119,2,0,P|16:180|10:107,1,120,4|2,0:2|0:2,0:0:0:0:
94,60,35641,2,0,P|94:119|100:160,1,80,0|4,0:0|0:2,0:0:0:0:
165,194,36032,1,0,0:0:0:0:
165,194,36163,6,0,B|260:158|230:210|332:175,2,160,0|2|0,0:0|0:2|0:0,0:0:0:0:
143,266,37337,1,2,0:0:0:0:
282,325,37598,1,2,0:0:0:0:
282,325,37728,2,0,P|328:319|375:311,1,80,0|0,0:0|0:0,0:0:0:0:
482,320,38250,6,0,P|492:241|493:182,1,120,4|0,0:2|0:0,0:0:0:0:
416,198,38771,2,0,P|416:125|403:58,1,120,8|0,0:0|0:0,0:0:0:0:
301,46,39293,2,0,P|253:73|176:96,1,120,2|2,0:2|0:2,0:0:0:0:
188,183,39815,2,0,P|127:175|81:157,1,80,0|4,0:0|0:2,0:0:0:0:
34,201,40206,2,0,P|19:174|8:139,1,40,0|0,0:0|0:0,0:0:0:0:
52,313,40598,5,2,0:2:0:0:
51,324,40858,1,2,0:2:0:0:
50,336,41119,1,2,0:2:0:0:
50,348,41380,2,0,P|149:341|191:333,1,120,0|4,0:0|0:2,0:0:0:0:
241,368,41902,1,0,0:0:0:0:
249,216,42163,1,4,0:3:0:0:
249,63,42424,6,0,P|300:57|393:49,1,120,4|0,0:0|0:0,0:0:0:0:
435,128,42945,2,0,P|384:134|291:142,1,120,8|0,0:0|0:0,0:0:0:0:
249,216,43467,2,0,P|265:256|281:340,1,120,4|2,0:2|0:2,0:0:0:0:
201,363,43989,2,0,P|173:302|156:278,1,80,0|4,0:0|0:2,0:0:0:0:
91,269,44380,1,0,0:0:0:0:
91,269,44511,6,0,B|11:289|60:362|-19:381,2,160,0|2|0,0:0|0:2|0:0,0:0:0:0:
145,215,45685,1,2,0:0:0:0:
79,78,45945,1,2,0:0:0:0:
79,78,46076,2,0,P|141:81|189:83,1,80,0|0,0:0|0:0,0:0:0:0:
301,26,46598,6,0,P|349:49|443:74,1,120,4|0,0:2|0:0,0:0:0:0:
450,142,47119,2,0,P|420:180|387:251,1,120,8|0,0:0|0:0,0:0:0:0:
310,284,47641,2,0,P|262:261|168:236,1,120,2|2,0:2|0:2,0:0:0:0:
134,176,48163,2,0,P|102:196|35:207,1,80,0|4,0:0|0:2,0:0:0:0:
8,130,48554,2,0,P|16:98|20:56,1,40,0|0,0:0|0:0,0:0:0:0:
318,50,49206,5,8,0:0:0:0:
319,38,49467,1,4,0:3:0:0:
319,26,49728,2,0,P|220:33|178:41,1,120,0|0,0:0|0:0,0:0:0:0:
143,88,50250,1,8,0:0:0:0:
260,184,50511,1,0,0:0:0:0:
260,184,50641,1,8,0:3:0:0:
260,184,50771,6,0,P|270:226|278:318,1,120,4|0,0:0|0:0,0:0:0:0:
337,350,51293,2,0,P|400:343|478:324,1,120,8|0,0:0|0:0,0:0:0:0:
507,274,51815,2,0,P|492:184|483:103,1,160,0|8,0:0|0:0,0:0:0:0:
358,28,52598,1,0,0:0:0:0:
484,115,52858,5,0,0:0:0:0:
347,181,53119,1,0,0:0:0:0:
223,92,53380,2,0,P|176:96|119:100,1,80,8|0,0:0|0:0,0:0:0:0:
61,282,53902,2,0,P|108:278|165:274,1,80,2|0,0:2|0:0,0:0:0:0:
202,223,54293,1,2,0:2:0:0:
202,223,54424,2,0,P|241:220|281:216,1,80,0|2,0:0|0:2,0:0:0:0:
347,181,54815,2,0,P|357:203|342:244,1,40,0|4,0:0|0:2,0:0:0:0:
202,223,55206,5,2,0:2:0:0:
387,295,55467,2,0,P|437:289|488:276,1,80,8|0,0:0|0:0,0:0:0:0:
509,219,55858,1,0,0:0:0:0:
509,219,55989,2,0,P|495:139|490:78,1,120,0|2,0:0|0:2,0:0:0:0:
426,61,56511,5,8,0:0:0:0:
276,39,56771,1,0,0:0:0:0:
426,61,57032,2,0,P|371:84|323:137,1,120,4|0,0:3|0:0,0:0:0:0:
266,170,57554,2,0,P|213:162|165:156,1,80,8|8,0:0|0:3,0:0:0:0:
338,271,58076,2,0,P|391:263|439:257,1,80,8|4,0:3|0:3,0:0:0:0:
238,360,58598,2,0,P|185:352|137:346,1,80,4|4,0:3|0:3,0:0:0:0:
81,359,58989,1,0,0:0:0:0:
81,359,59119,6,0,L|62:226,1,111.999996582031,4|8,0:2|0:0,0:0:0:0:
37,144,59902,2,0,P|82:110|174:158,1,167.999994873047,0|8,0:0|0:0,0:0:0:0:
221,249,60945,1,0,0:0:0:0:
172,154,61206,6,0,P|206:148|287:128,1,111.999996582031,4|8,0:2|0:0,0:0:0:0:
374,78,61989,2,0,P|387:152|423:177,1,111.999996582031,4|0,0:2|0:0,0:0:0:0:
502,104,62771,2,0,P|495:73|477:50,1,55.9999982910157,8|0,0:0|0:0,0:0:0:0:
421,179,63293,6,0,L|496:184,2,55.9999982910157,4|0|4,0:0|0:0|0:3,0:0:0:0:
391,281,64076,2,0,P|354:308|277:298,1,111.999996582031,2|0,0:0|0:0,0:0:0:0:
247,208,64858,1,8,0:0:0:0:
141,194,65119,1,0,0:0:0:0:
82,294,65380,6,0,P|45:309|14:321,2,55.9999982910157,4|0|8,0:2|0:0|0:0,0:0:0:0:
133,200,66163,2,0,P|122:147|165:87,1,111.999996582031,2|0,0:0|0:0,0:0:0:0:
246,56,66945,1,8,0:0:0:0:
358,176,67337,5,8,0:0:0:0:
358,176,67467,2,0,P|433:170|494:159,1,111.999996582031,4|8,0:2|0:0,0:0:0:0:
235,259,68511,2,0,P|310:265|371:276,1,111.999996582031,0|8,0:0|0:0,0:0:0:0:
168,115,69554,2,0,P|243:109|304:98,1,111.999996582031,4|8,0:2|0:0,0:0:0:0:
346,20,70337,2,0,P|401:23|457:31,1,111.999996582031,0|4,0:0|0:3,0:0:0:0:
505,126,71119,1,8,0:0:0:0:
426,329,71641,6,0,P|399:283|384:222,1,111.999996582031,4|8,0:2|0:0,0:0:0:0:
284,187,72424,1,4,0:3:0:0:
379,234,72685,2,0,L|446:243,2,55.9999982910157,4|0|8,0:3|0:0|0:0,0:0:0:0:
278,199,73467,1,0,0:0:0:0:
236,297,73728,5,4,0:2:0:0:
228,306,73989,1,0,0:0:0:0:
142,242,74250,1,8,0:0:0:0:
133,249,74511,1,0,0:0:0:0:
136,143,74771,1,0,0:0:0:0:
126,139,75032,1,4,0:3:0:0:
210,74,75293,1,8,0:0:0:0:
402,92,75685,5,0,0:0:0:0:
402,92,75815,2,0,P|406:126|423:215,1,111.999996582031,4|8,0:2|0:0,0:0:0:0:
370,296,76598,2,0,P|317:291|290:289,2,55.9999982910157,0|0|0,0:0|0:0|0:0,0:0:0:0:
452,363,77380,1,8,0:0:0:0:
264,215,77902,6,0,P|189:241|140:252,1,111.999996582031,4|8,0:2|0:0,0:0:0:0:
58,290,78685,2,0,P|54:335|61:365,2,55.9999982910157,0|0|0,0:0|0:0|0:0,0:0:0:0:
21,189,79467,1,8,0:0:0:0:
164,11,79989,6,0,P|180:65|184:146,1,111.999996582031,4|8,0:0|0:0,0:0:0:0:
283,160,80771,2,0,P|316:151|358:137,1,55.9999982910157,2|0,0:0|0:0,0:0:0:0:
417,214,81293,2,0,P|390:222|363:229,2,55.9999982910157,0|8|0,0:0|0:0|0:0,0:0:0:0:
484,315,82076,6,0,P|447:309|405:307,1,55.9999982910157,4|0,0:2|0:0,0:0:0:0:
323,326,82598,1,0,0:0:0:0:
217,340,82858,2,0,P|185:309|192:222,1,111.999996582031,2|0,0:0|0:0,0:0:0:0:
254,171,83641,2,0,P|255:133|240:65,1,83.9999974365235,8|8,0:0|0:0,0:0:0:0:
237,83,84163,6,0,L|176:90,1,55.9999982910157,4|0,0:2|0:0,0:0:0:0:
76,70,84685,2,0,L|88:148,2,55.9999982910157,0|0|0,0:0|0:0|0:0,0:0:0:0:
256,178,85728,2,0,L|268:256,1,55.9999982910157,8|0,0:0|0:0,0:0:0:0:
372,303,86250,6,0,P|401:247|388:196,1,111.999996582031,4|8,0:2|0:3,0:0:0:0:
239,97,87163,1,0,0:0:0:0:
239,97,87293,2,0,P|313:84|338:72,1,83.9999974365235,8|0,0:3|0:0,0:0:0:0:
395,96,87815,1,8,0:0:0:0:
189,150,88337,6,0,P|135:136|69:128,1,111.999996582031,4|8,0:2|0:0,0:0:0:0:
253,271,89380,2,0,P|268:324|294:385,1,111.999996582031,0|4,0:0|0:2,0:0:0:0:
325,154,90424,6,0,P|364:115|404:62,1,111.999996582031,4|8,0:0|0:0,0:0:0:0:
293,63,91206,1,4,0:2:0:0:
243,135,91467,1,8,0:3:0:0:
263,210,91728,1,8,0:3:0:0:
229,278,91989,1,4,0:3:0:0:
281,337,92250,1,4,0:3:0:0:
185,375,92511,6,0,P|156:369|119:326,1,68.0000012969971,4|6,0:0|0:2,0:0:0:0:
29,260,93032,2,0,P|19:231|38:178,1,68.0000012969971,6|0,0:2|0:0,0:0:0:0:
31,122,93424,2,0,P|50:99|106:89,1,68.0000012969971,6|0,0:2|0:0,0:0:0:0:
142,38,93815,2,0,P|171:43|208:86,1,68.0000012969971,2|2,0:2|0:0,0:0:0:0:
329,63,94337,1,2,0:0:0:0:
326,192,94598,5,4,0:2:0:0:
446,147,94858,1,2,0:2:0:0:
326,192,95119,1,2,0:2:0:0:
329,63,95380,2,0,L|294:29,2,34.0000006484985,0|2|0,0:0|0:2|0:0,0:0:0:0:
411,83,95771,1,0,0:2:0:0:
411,83,95902,2,0,P|411:172|414:248,1,136.000002593994,2|2,0:2|0:2,0:0:0:0:
319,351,96685,6,0,P|276:344|233:329,1,68.0000012969971,4|0,0:2|0:0,0:0:0:0:
147,261,97206,2,0,P|190:254|233:239,1,68.0000012969971,8|0,0:0|0:0,0:0:0:0:
353,169,97728,2,0,P|310:162|267:147,1,68.0000012969971,0|0,0:0|0:0,0:0:0:0:
116,77,98250,2,0,P|159:70|202:55,1,68.0000012969971,8|0,0:0|0:0,0:0:0:0:
182,62,98771,6,0,P|149:71|115:76,1,68.0000012969971,4|2,0:2|0:3,0:0:0:0:
286,154,99293,2,0,P|319:164|353:169,1,68.0000012969971,8|2,0:0|0:3,0:0:0:0:
213,246,99815,2,0,P|180:256|147:261,1,68.0000012969971,0|2,0:0|0:3,0:0:0:0:
252,336,100337,2,0,P|285:346|319:351,1,68.0000012969971,8|2,0:0|0:3,0:0:0:0:
398,343,100728,1,8,0:0:0:0:
398,343,100858,6,0,P|421:325|437:270,1,68.0000012969971,4|6,0:0|0:2,0:0:0:0:
489,171,101380,2,0,P|485:141|445:100,1,68.0000012969971,6|0,0:2|0:0,0:0:0:0:
429,48,101771,2,0,P|401:36|346:50,1,68.0000012969971,6|0,0:2|0:0,0:0:0:0:
294,19,102163,2,0,P|270:36|254:91,1,68.0000012969971,2|0,0:2|0:0,0:0:0:0:
142,136,102684,1,0,0:0:0:0:
203,249,102945,5,4,0:2:0:0:
311,179,103205,1,2,0:2:0:0:
203,249,103466,1,2,0:2:0:0:
250,120,103728,2,0,L|240:79,2,34.0000006484985,0|2|0,0:0|0:2|0:0,0:0:0:0:
311,179,104119,1,0,0:2:0:0:
311,179,104249,2,0,P|390:184|464:184,1,136.000002593994,2|2,0:2|0:2,0:0:0:0:
432,55,105032,6,0,P|381:62|347:64,1,68.0000012969971,4|0,0:0|0:0,0:0:0:0:
239,97,105554,2,0,P|205:93|171:88,1,68.0000012969971,8|0,0:0|0:0,0:0:0:0:
59,189,106076,2,0,P|110:196|144:198,1,68.0000012969971,0|0,0:0|0:0,0:0:0:0:
254,289,106598,2,0,P|287:285|321:280,1,68.0000012969971,8|0,0:0|0:0,0:0:0:0:
506,326,107119,5,4,0:0:0:0:
433,59,107641,1,2,0:2:0:0:
429,69,107902,1,2,0:2:0:0:
326,57,108163,1,2,0:2:0:0:
324,70,108424,1,2,0:2:0:0:
216,67,108685,1,2,0:2:0:0:
216,77,108945,1,2,0:2:0:0:
115,144,109206,6,0,P|61:137|-18:108,1,132.00000402832,4|0,0:0|0:0,0:0:0:0:
25,178,109728,2,0,P|35:199|39:272,1,88.000002685547,8|0,0:0|0:0,0:0:0:0:
101,318,110119,1,0,0:0:0:0:
101,318,110250,1,2,0:2:0:0:
238,270,110511,1,0,0:0:0:0:
382,353,110771,1,8,0:0:0:0:
505,239,111032,1,0,0:0:0:0:
359,156,111293,6,0,P|361:227|370:269,1,88.000002685547,4|0,0:2|0:0,0:0:0:0:
319,310,111685,1,0,0:0:0:0:
319,310,111815,2,0,P|261:322|179:336,1,132.00000402832,4|0,0:2|0:0,0:0:0:0:
123,372,112337,1,4,0:2:0:0:
26,52,112858,1,8,0:0:0:0:
73,212,113119,1,0,0:0:0:0:
239,226,113380,6,0,P|276:223|353:208,1,88.000002685547,4|0,0:0|0:0,0:0:0:0:
390,161,113771,1,0,0:0:0:0:
390,161,113902,2,0,P|377:88|372:-3,1,132.00000402832,8|0,0:0|0:0,0:0:0:0:
447,2,114424,1,0,0:0:0:0:
198,31,114815,1,0,0:0:0:0:
198,31,114945,2,0,P|206:74|210:138,1,88.000002685547,8|0,0:0|0:0,0:0:0:0:
121,287,115467,6,0,P|75:295|28:199,1,132.00000402832,4|0,0:2|0:0,0:0:0:0:
69,180,115989,2,0,P|140:175|175:167,1,88.000002685547,8|4,0:0|0:2,0:0:0:0:
303,252,116511,2,0,P|374:257|409:265,2,88.000002685547,0|2|10,0:0|0:0|0:0,0:0:0:0:
447,168,117293,2,0,P|488:158|512:148,1,44.0000013427735,2|0,0:0|0:0,0:0:0:0:
500,74,117554,6,0,P|445:73|347:37,1,132.00000402832,4|0,0:0|0:0,0:0:0:0:
296,88,118076,2,0,P|296:128|287:197,1,88.000002685547,8|0,0:0|0:0,0:0:0:0:
208,185,118467,1,0,0:0:0:0:
208,185,118598,1,2,0:2:0:0:
331,300,118858,1,0,0:0:0:0:
371,139,119118,1,8,0:0:0:0:
248,24,119379,1,0,0:0:0:0:
371,139,119641,6,0,P|373:210|382:252,1,88.000002685547,4|0,0:2|0:0,0:0:0:0:
426,300,120032,1,0,0:0:0:0:
426,300,120162,2,0,P|473:301|504:217,1,132.00000402832,4|0,0:2|0:0,0:0:0:0:
451,176,120684,1,4,0:2:0:0:
128,261,121205,1,10,0:0:0:0:
290,221,121466,1,2,0:0:0:0:
451,176,121728,6,0,P|455:130|456:86,1,88.000002685547,4|0,0:0|0:0,0:0:0:0:
407,25,122119,2,0,P|387:22|348:25,1,44.0000013427735,0|8,0:0|0:0,0:0:0:0:
206,83,122511,1,0,0:0:0:0:
351,164,122771,1,4,0:0:0:0:
213,259,123032,1,2,0:0:0:0:
358,340,123293,2,0,P|417:334|468:318,1,88.000002685547,2|0,0:0|0:0,0:0:0:0:
495,259,123685,1,0,0:0:0:0:
495,259,123815,6,0,P|488:215|484:151,1,88.000002685547,4|2,0:2|0:0,0:0:0:0:
317,156,124337,2,0,P|324:112|328:48,1,88.000002685547,4|2,0:2|0:0,0:0:0:0:
139,103,124858,2,0,P|210:108|245:116,2,88.000002685547,8|8|4,0:3|0:3|0:3,0:0:0:0:
36,235,125640,2,0,P|77:225|101:215,1,44.0000013427735,4|0,0:3|0:0,0:0:0:0:
155,258,125901,6,0,P|217:278|274:359,1,132.00000402832,4|0,0:0|0:0,0:0:0:0:
318,263,126424,2,0,P|364:334|371:395,1,132.00000402832,8|0,0:0|0:0,0:0:0:0:
444,298,126945,2,0,P|473:228|529:157,1,132.00000402832,4|4,0:2|0:2,0:0:0:0:
426,156,127467,2,0,P|407:77|379:43,1,88.000002685547,0|4,0:0|0:2,0:0:0:0:
330,46,127858,1,0,0:0:0:0:
330,46,127989,6,0,B|221:20|267:70|137:42,2,176.000005371094,0|0|0,0:0|0:0|0:0,0:0:0:0:
391,0,129163,1,2,0:0:0:0:
351,193,129424,1,2,0:0:0:0:
351,193,129554,2,0,P|305:187|243:179,1,88.000002685547,0|0,0:0|0:0,0:0:0:0:
461,299,130076,6,0,P|398:337|333:357,1,132.00000402832,4|0,0:0|0:0,0:0:0:0:
294,288,130598,2,0,P|229:287|142:263,1,132.00000402832,8|0,0:0|0:0,0:0:0:0:
164,139,131119,2,0,P|125:168|30:205,1,132.00000402832,4|2,0:2|0:2,0:0:0:0:
38,121,131641,2,0,P|72:74|86:12,1,88.000002685547,0|4,0:0|0:2,0:0:0:0:
158,27,132032,2,0,P|183:51|210:65,1,44.0000013427735,0|0,0:0|0:0,0:0:0:0:
358,40,132424,5,8,0:3:0:0:
303,197,132684,1,2,0:2:0:0:
468,172,132945,1,2,0:2:0:0:
408,328,133206,2,0,P|309:321|247:310,1,132.00000402832,4|8,0:2|0:3,0:0:0:0:
214,361,133728,1,0,0:0:0:0:
303,197,133989,1,4,0:3:0:0:
214,361,134250,6,0,P|160:349|54:332,1,132.00000402832,4|0,0:0|0:0,0:0:0:0:
35,270,134771,2,0,P|102:256|193:232,1,132.00000402832,8|0,0:0|0:0,0:0:0:0:
241,153,135293,2,0,P|230:94|200:28,1,132.00000402832,4|4,0:2|0:2,0:0:0:0:
301,1,135815,2,0,P|328:44|343:82,1,88.000002685547,0|4,0:0|0:2,0:0:0:0:
404,141,136206,1,0,0:0:0:0:
404,141,136337,6,0,B|485:127|432:26|533:10,2,176.000005371094,0|0|0,0:0|0:0|0:0,0:0:0:0:
327,159,137511,1,2,0:0:0:0:
472,312,137771,1,2,0:0:0:0:
472,312,137902,2,0,P|410:315|346:312,1,88.000002685547,0|0,0:0|0:0,0:0:0:0:
194,368,138424,6,0,P|168:331|136:232,1,132.00000402832,4|0,0:0|0:0,0:0:0:0:
213,210,138945,2,0,P|232:272|268:328,1,132.00000402832,8|0,0:0|0:0,0:0:0:0:
383,234,139467,2,0,P|339:190|256:150,1,132.00000402832,4|2,0:2|0:2,0:0:0:0:
227,89,139989,2,0,P|182:108|107:116,1,88.000002685547,0|4,0:0|0:2,0:0:0:0:
61,72,140380,2,0,P|69:40|68:-4,1,44.0000013427735,0|4,0:0|0:2,0:0:0:0:
404,40,141032,5,4,0:2:0:0:
278,156,141293,1,8,0:3:0:0:
404,40,141554,2,0,P|411:80|422:181,1,132.00000402832,4|4,0:2|0:3,0:0:0:0:
378,232,142076,1,4,0:2:0:0:
194,207,142337,1,0,0:0:0:0:
194,207,142467,1,0,0:0:0:0:
194,207,142598,5,4,0:0:0:0:
