osu file format v14

[General]
AudioFilename: audio.mp3
AudioLeadIn: 0
PreviewTime: 52374
Countdown: 0
SampleSet: Soft
StackLeniency: 0.7
Mode: 0
LetterboxInBreaks: 0
WidescreenStoryboard: 0

[Editor]
Bookmarks: 46089,46803,46946,49715,52660,61803,84660,92517,102946,137231,137517,137803,138089,138660,139374,150946,155517,155803,156374,159517,160089
DistanceSpacing: 0.9
BeatDivisor: 4
GridSize: 4
TimelineZoom: 2.899999

[Metadata]
Title:Saredo kijutsushi wa sai o furu
TitleUnicode:されど奇術師は賽を振る
Artist:Uso to Chameleon
ArtistUnicode:嘘とカメレオン
Creator:_Marvin
Version:Super
Source:
Tags:Resurreccion Hinae JUGEM ヲトシアナ Wotoshiana Lie and a Chameleon Japanese Rock J-Rock JRock Usokame 嘘カメ However the Illusionist Shake the Dice Cham(.△) チャム(.△) Sugeno Yuta 菅野悠太 Watanabe Sosuke 渡辺壮亮 Shibue Asahi 渋江アサヒ Aoyama Takaumi 青山拓心 Coolkid12 Grimmjow
BeatmapID:3047744
BeatmapSetID:1486374

[Difficulty]
HPDrainRate:5
CircleSize:4
OverallDifficulty:9.4
ApproachRate:9.8
SliderMultiplier:2.1
SliderTickRate:1

[Events]
//Background and Video events
0,0,"OSUBG.jpeg",0,0
//Break Periods
2,85201,88722
2,89772,92008
2,142144,150762
//Storyboard Layer 0 (Background)
//Storyboard Layer 1 (Fail)
//Storyboard Layer 2 (Pass)
//Storyboard Layer 3 (Foreground)
//Storyboard Layer 4 (Overlay)
//Storyboard Sound Samples

[TimingPoints]
430,285.714285714286,4,2,3,50,1,0
430,-100,4,2,3,50,0,0
644,-100,4,2,3,5,0,0
715,-100,4,2,3,50,0,0
930,-100,4,2,3,5,0,0
1001,-100,4,2,3,50,0,0
1215,-100,4,2,3,5,0,0
1287,-100,4,2,3,50,0,0
1501,-100,4,2,3,5,0,0
1572,-100,4,2,3,50,0,0
1787,-100,4,2,3,5,0,0
1858,-100,4,2,3,50,0,0
2001,-100,4,3,2,50,0,0
2287,-100,4,2,3,50,0,0
2644,-100,4,2,3,5,0,0
2715,-111.111111111111,4,2,3,50,0,0
4430,-200,4,2,3,50,0,0
4930,-200,4,2,3,5,0,0
5001,-100,4,2,3,70,0,0
5215,-100,4,2,3,5,0,0
5287,-100,4,2,3,70,0,0
5501,-100,4,2,3,5,0,0
5572,-100,4,2,3,70,0,0
7501,-100,4,2,3,5,0,0
7572,-100,4,2,3,70,0,0
7787,-100,4,2,3,5,0,0
7858,-100,4,2,3,70,0,0
9787,-100,4,2,3,5,0,0
9858,-100,4,2,3,70,0,0
10072,-100,4,2,3,5,0,0
10144,-100,4,2,3,70,0,0
12072,-100,4,2,3,5,0,0
12144,-100,4,2,3,70,0,0
12358,-100,4,2,3,5,0,0
12430,-100,4,2,3,70,0,0
13072,-100,4,2,3,5,0,0
13144,-100,4,2,3,70,0,0
14358,-100,4,2,3,5,0,0
14430,-100,4,2,3,70,0,0
14644,-100,4,2,3,5,0,0
14715,-100,4,2,3,70,0,0
16644,-100,4,2,3,5,0,0
16715,-100,4,2,3,70,0,0
16930,-100,4,2,3,5,0,0
17001,-100,4,2,3,70,0,0
18930,-100,4,2,3,5,0,0
19001,-100,4,2,3,70,0,0
19215,-100,4,2,3,5,0,0
19287,-100,4,2,3,70,0,0
21215,-100,4,2,3,5,0,0
21287,-100,4,2,3,70,0,0
21501,-100,4,2,3,5,0,0
21572,-100,4,2,3,70,0,0
22001,-90.9090909090909,4,2,3,70,0,0
22215,-100,4,2,3,5,0,0
22287,-100,4,2,3,70,0,0
23287,-133.333333333333,4,2,3,50,0,0
25215,-133.333333333333,4,2,3,5,0,0
25287,-133.333333333333,4,2,3,50,0,0
25787,-133.333333333333,4,2,3,5,0,0
25858,-133.333333333333,4,2,3,50,0,0
26358,-133.333333333333,4,2,3,5,0,0
26430,-133.333333333333,4,2,3,50,0,0
28644,-133.333333333333,4,2,3,5,0,0
28715,-133.333333333333,4,2,3,50,0,0
29215,-133.333333333333,4,2,3,5,0,0
29287,-133.333333333333,4,2,3,50,0,0
29787,-133.333333333333,4,2,3,5,0,0
29858,-133.333333333333,4,2,3,50,0,0
31215,-133.333333333333,4,2,3,5,0,0
31287,-133.333333333333,4,2,3,50,0,0
32001,-133.333333333333,4,2,3,60,0,0
32430,-125,4,2,3,60,0,0
32644,-125,4,2,3,5,0,0
32715,-125,4,2,3,60,0,0
32930,-125,4,2,3,5,0,0
33001,-125,4,2,3,60,0,0
33215,-125,4,2,3,5,0,0
33287,-125,4,2,3,60,0,0
34358,-125,4,2,3,5,0,0
34430,-125,4,2,3,60,0,0
35001,-90.9090909090909,4,2,3,60,0,0
35287,-125,4,2,3,60,0,0
35572,-90.9090909090909,4,2,3,60,0,0
35858,-111.111111111111,4,2,3,60,0,0
36930,-111.111111111111,4,2,3,5,0,0
37001,-111.111111111111,4,2,3,60,0,0
37215,-111.111111111111,4,2,3,5,0,0
37287,-111.111111111111,4,2,3,60,0,0
37501,-111.111111111111,4,2,3,5,0,0
37572,-111.111111111111,4,2,3,60,0,0
37787,-111.111111111111,4,2,3,5,0,0
37858,-111.111111111111,4,2,3,60,0,0
38930,-111.111111111111,4,2,3,5,0,0
39001,-111.111111111111,4,2,3,60,0,0
39572,-83.3333333333333,4,2,3,60,0,0
39858,-111.111111111111,4,2,3,60,0,0
40144,-83.3333333333333,4,2,3,60,0,0
40430,-111.111111111111,4,2,3,60,0,0
41572,-133.333333333333,4,2,3,60,0,0
43501,-133.333333333333,4,2,3,5,0,0
43572,-111.111111111111,4,2,3,60,0,0
43858,-100,4,2,3,60,0,0
45001,-90.9090909090909,4,2,3,65,0,0
48430,-90.9090909090909,4,3,2,75,0,0
48644,-90.9090909090909,4,2,3,5,0,0
48715,-90.9090909090909,4,3,2,75,0,0
48930,-90.9090909090909,4,2,3,5,0,0
49001,-90.9090909090909,4,3,2,75,0,0
49215,-90.9090909090909,4,2,3,5,0,0
49287,-90.9090909090909,4,3,2,75,0,0
49501,-90.9090909090909,4,2,3,5,0,0
49572,-90.9090909090909,4,3,2,75,0,0
49787,-90.9090909090909,4,2,3,5,0,0
49858,-90.9090909090909,4,3,2,75,0,0
50072,-90.9090909090909,4,2,3,5,0,0
50144,-90.9090909090909,4,3,2,75,0,0
50358,-90.9090909090909,4,2,3,5,0,0
50430,-90.9090909090909,4,3,2,75,0,0
50644,-90.9090909090909,4,2,3,5,0,0
50715,-90.9090909090909,4,3,2,75,0,0
51858,-100,4,2,3,75,0,0
52001,-100,4,2,3,5,0,0
52144,-100,4,2,3,75,0,0
52287,-100,4,2,3,5,0,0
52430,-100,4,2,3,75,0,0
52644,-100,4,2,3,5,0,0
52715,-133.333333333333,4,2,3,55,0,1
52930,-133.333333333333,4,2,3,5,0,1
53001,-86.9565217391303,4,2,3,75,0,1
53215,-86.9565217391303,4,2,3,5,0,1
53287,-86.9565217391303,4,2,3,75,0,1
53501,-86.9565217391303,4,2,3,5,0,1
53572,-86.9565217391303,4,2,3,75,0,1
54644,-86.9565217391303,4,2,3,5,0,1
54715,-86.9565217391303,4,2,3,75,0,1
55215,-86.9565217391303,4,2,3,5,0,1
55287,-86.9565217391303,4,2,3,75,0,1
56930,-86.9565217391303,4,2,3,5,0,1
57001,-86.9565217391303,4,2,3,75,0,1
57787,-86.9565217391303,4,2,3,5,0,1
57858,-86.9565217391303,4,2,3,75,0,1
58072,-86.9565217391303,4,2,3,5,0,1
58144,-86.9565217391303,4,2,3,75,0,1
59215,-86.9565217391303,4,2,3,5,0,1
59287,-86.9565217391303,4,2,3,75,0,1
59787,-86.9565217391303,4,2,3,5,0,1
59858,-86.9565217391303,4,2,3,75,0,1
61501,-86.9565217391303,4,2,3,5,0,1
61572,-86.9565217391303,4,2,3,75,0,1
62144,-66.6666666666667,4,2,3,75,0,1
62358,-66.6666666666667,4,2,3,5,0,1
62430,-66.6666666666667,4,2,3,75,0,1
62644,-66.6666666666667,4,2,3,5,0,1
62715,-66.6666666666667,4,2,3,75,0,1
62930,-66.6666666666667,4,2,3,5,0,1
63001,-66.6666666666667,4,2,3,75,0,1
63572,-86.9565217391304,4,2,3,75,0,1
66072,-86.9565217391304,4,2,3,5,0,1
66144,-86.9565217391304,4,2,3,75,0,1
66715,-66.6666666666667,4,2,3,75,0,1
66930,-66.6666666666667,4,2,3,5,0,1
67001,-66.6666666666667,4,2,3,75,0,1
67215,-66.6666666666667,4,2,3,5,0,1
67287,-66.6666666666667,4,2,3,75,0,1
67501,-66.6666666666667,4,2,3,5,0,1
67572,-66.6666666666667,4,2,3,75,0,1
68144,-86.9565217391304,4,2,3,75,0,1
69215,-86.9565217391304,4,2,3,5,0,1
69287,-86.9565217391304,4,2,3,75,0,1
70430,-86.9565217391304,4,3,2,75,0,1
71001,-86.9565217391304,4,2,3,75,0,1
71215,-86.9565217391304,4,2,3,5,0,1
71287,-86.9565217391304,4,2,3,75,0,1
71501,-86.9565217391304,4,2,3,5,0,1
71572,-86.9565217391304,4,2,3,75,0,1
73572,-125,4,2,3,65,0,0
75644,-125,4,2,3,5,0,0
75858,-142.857142857143,4,2,3,55,0,0
77787,-142.857142857143,4,2,3,5,0,0
77858,-142.857142857143,4,2,3,55,0,0
78072,-142.857142857143,4,2,3,5,0,0
78144,-142.857142857143,4,2,3,55,0,0
78358,-142.857142857143,4,2,3,5,0,0
78430,-142.857142857143,4,2,3,55,0,0
78644,-142.857142857143,4,2,3,5,0,0
78715,-142.857142857143,4,2,3,55,0,0
78930,-142.857142857143,4,2,3,5,0,0
79001,-142.857142857143,4,2,3,55,0,0
79215,-142.857142857143,4,2,3,5,0,0
79287,-142.857142857143,4,2,3,55,0,0
79715,-111.111111111111,4,2,3,55,0,0
80001,-142.857142857143,4,2,3,55,0,0
80430,-200,4,2,3,55,0,0
80644,-142.857142857143,4,2,3,5,0,0
80715,-142.857142857143,4,2,3,65,0,0
81001,-111.111111111111,4,2,3,65,0,0
82930,-111.111111111111,4,2,3,5,0,0
83001,-111.111111111111,4,2,3,65,0,0
83215,-111.111111111111,4,2,3,5,0,0
83287,-111.111111111111,4,2,3,65,0,0
83501,-111.111111111111,4,2,3,5,0,0
83572,-111.111111111111,4,2,3,65,0,0
93001,-111.111111111111,4,3,2,65,0,0
93144,-111.111111111111,4,2,3,65,0,0
93501,-111.111111111111,4,2,3,5,0,0
93572,-111.111111111111,4,2,3,65,0,0
94144,-95.2380952380952,4,2,3,65,0,0
94358,-95.2380952380952,4,2,3,5,0,0
94430,-95.2380952380952,4,2,3,65,0,0
95501,-95.2380952380952,4,2,3,5,0,0
95572,-95.2380952380952,4,2,3,65,0,0
96644,-95.2380952380952,4,2,3,5,0,0
96715,-95.2380952380952,4,2,3,65,0,0
97787,-95.2380952380952,4,2,3,5,0,0
97858,-125,4,2,3,65,0,0
98072,-125,4,2,3,5,0,0
98144,-125,4,2,3,65,0,0
98930,-125,4,2,3,5,0,0
99001,-125,4,2,3,65,0,0
99787,-125,4,2,3,5,0,0
99858,-125,4,2,3,65,0,0
100072,-125,4,2,3,5,0,0
100144,-125,4,2,3,65,0,0
100287,-125,4,3,2,65,0,0
100715,-125,4,2,3,65,0,0
100930,-125,4,2,3,5,0,0
101001,-90.9090909090909,4,3,2,75,0,0
101215,-90.9090909090909,4,2,3,5,0,0
101287,-90.9090909090909,4,3,2,75,0,0
101501,-90.9090909090909,4,2,3,5,0,0
101572,-90.9090909090909,4,3,2,75,0,0
101787,-90.9090909090909,4,2,3,5,0,0
101858,-90.9090909090909,4,3,2,75,0,0
102072,-90.9090909090909,4,2,3,5,0,0
102144,-90.9090909090909,4,3,2,75,0,0
102358,-90.9090909090909,4,2,3,5,0,0
102430,-90.9090909090909,4,3,2,75,0,0
102644,-90.9090909090909,4,2,3,5,0,0
102715,-333.333333333333,4,2,3,65,0,0
103215,-333.333333333333,4,2,3,5,0,0
103287,-86.9565217391304,4,2,3,75,0,1
103501,-86.9565217391304,4,2,3,5,0,1
103572,-86.9565217391304,4,2,3,75,0,1
103787,-86.9565217391304,4,2,3,5,0,1
103858,-86.9565217391304,4,2,3,75,0,1
104930,-86.9565217391304,4,2,3,5,0,1
105001,-86.9565217391304,4,2,3,75,0,1
105501,-86.9565217391304,4,2,3,5,0,1
105572,-86.9565217391304,4,2,3,75,0,1
107215,-86.9565217391304,4,2,3,5,0,1
107287,-86.9565217391304,4,2,3,75,0,1
107787,-86.9565217391304,4,2,3,5,0,1
107858,-86.9565217391304,4,2,3,75,0,1
108072,-86.9565217391304,4,2,3,5,0,1
108144,-86.9565217391304,4,2,3,75,0,1
108358,-86.9565217391304,4,2,3,5,0,1
108430,-86.9565217391304,4,2,3,75,0,1
109501,-86.9565217391304,4,2,3,5,0,1
109572,-86.9565217391304,4,2,3,75,0,1
110072,-86.9565217391304,4,2,3,5,0,1
110144,-86.9565217391304,4,2,3,75,0,1
110358,-86.9565217391304,4,2,3,5,0,1
110430,-86.9565217391304,4,2,3,75,0,1
110644,-86.9565217391304,4,2,3,5,0,1
110715,-86.9565217391304,4,2,3,75,0,1
111787,-86.9565217391304,4,2,3,5,0,1
111858,-86.9565217391304,4,2,3,75,0,1
112430,-66.6666666666667,4,2,3,75,0,1
112644,-66.6666666666667,4,2,3,5,0,1
112715,-66.6666666666667,4,2,3,75,0,1
112930,-66.6666666666667,4,2,3,5,0,1
113001,-66.6666666666667,4,2,3,75,0,1
113215,-66.6666666666667,4,2,3,5,0,1
113287,-66.6666666666667,4,2,3,75,0,1
113858,-86.9565217391304,4,2,3,75,0,1
116358,-86.9565217391304,4,2,3,5,0,1
116430,-86.9565217391304,4,2,3,75,0,1
117001,-66.6666666666667,4,2,3,75,0,1
117215,-66.6666666666667,4,2,3,5,0,1
117287,-66.6666666666667,4,2,3,75,0,1
117501,-66.6666666666667,4,2,3,5,0,1
117572,-66.6666666666667,4,2,3,75,0,1
117787,-66.6666666666667,4,2,3,5,0,1
117858,-66.6666666666667,4,2,3,75,0,1
118430,-86.9565217391304,4,2,3,75,0,1
120858,-86.9565217391304,4,3,2,75,0,1
121144,-86.9565217391304,4,2,3,75,0,1
121501,-86.9565217391304,4,2,3,5,0,1
121572,-86.9565217391304,4,2,3,75,0,1
121787,-86.9565217391304,4,2,3,5,0,1
121858,-86.9565217391304,4,2,3,75,0,1
123858,-125,4,2,3,65,0,0
126001,-90.9090909090909,4,2,3,55,0,0
126715,-125,4,2,3,55,0,0
127144,-90.9090909090909,4,2,3,55,0,0
128644,-90.9090909090909,4,2,3,5,0,0
128715,-90.9090909090909,4,2,3,55,0,0
129287,-111.111111111111,4,2,3,55,0,0
129501,-111.111111111111,4,2,3,5,0,0
129572,-90.9090909090909,4,2,3,55,0,0
133001,-90.9090909090909,4,2,3,60,0,0
133215,-90.9090909090909,4,2,3,5,0,0
133287,-90.9090909090909,4,2,3,60,0,0
133501,-90.9090909090909,4,2,3,5,0,0
133572,-90.9090909090909,4,2,3,60,0,0
135501,-90.9090909090909,4,2,3,5,0,0
135572,-90.9090909090909,4,2,3,60,0,0
135787,-90.9090909090909,4,2,3,5,0,0
135858,-90.9090909090909,4,2,3,60,0,0
140072,-90.9090909090909,4,2,3,5,0,0
140144,-111.111111111111,4,2,3,55,0,0
140358,-111.111111111111,4,2,3,5,0,0
140430,-142.857142857143,4,2,3,55,0,0
140644,-142.857142857143,4,2,3,5,0,0
140715,-200,4,2,3,55,0,0
140930,-200,4,2,3,5,0,0
141001,-200,4,3,2,55,0,0
141144,-200,4,2,3,55,0,0
141287,-133.333333333333,4,2,3,55,0,0
151287,-133.333333333333,4,2,3,40,0,0
152072,-133.333333333333,4,2,3,5,0,0
152144,-133.333333333333,4,2,3,40,0,0
153001,-142.857142857143,4,2,3,40,0,0
155858,-111.111111111111,4,2,3,55,0,0
156715,-90.9090909090909,4,2,3,55,0,0
157572,-90.9090909090909,4,2,3,75,0,0
158144,-100,4,2,3,75,0,0
158358,-100,4,2,3,5,0,0
158430,-100,4,2,3,75,0,0
158787,-100,4,2,3,5,0,0
158858,-100,4,2,3,75,0,0
159001,-86.9565217391304,4,2,3,75,0,0
159215,-86.9565217391304,4,2,3,5,0,0
159287,-86.9565217391304,4,2,3,75,0,0
160144,-111.111111111111,4,2,3,55,0,0
160358,-100,4,2,3,5,0,0
160430,-86.9565217391304,4,2,3,75,0,0
160644,-86.9565217391304,4,2,3,5,0,0
160715,-86.9565217391304,4,2,3,75,0,0
161287,-125,4,2,3,75,0,0
161715,-125,4,3,2,75,0,0
161858,-125,4,3,3,75,0,0
162144,-125,4,3,2,75,0,0
162287,-125,4,3,3,75,0,0
162715,-86.9565217391304,4,2,3,75,0,1
162930,-86.9565217391304,4,2,3,5,0,1
163001,-86.9565217391304,4,2,3,75,0,1
164358,-86.9565217391304,4,2,3,5,0,1
164430,-86.9565217391304,4,2,3,75,0,1
164930,-86.9565217391304,4,2,3,5,0,1
165001,-86.9565217391304,4,2,3,75,0,1
165215,-86.9565217391304,4,2,3,5,0,1
165287,-86.9565217391304,4,2,3,75,0,1
165501,-86.9565217391304,4,2,3,5,0,1
165572,-86.9565217391304,4,2,3,75,0,1
166644,-86.9565217391304,4,2,3,5,0,1
166715,-86.9565217391304,4,2,3,75,0,1
167215,-86.9565217391304,4,2,3,5,0,1
167287,-86.9565217391304,4,2,3,75,0,1
167501,-86.9565217391304,4,2,3,5,0,1
167572,-86.9565217391304,4,2,3,75,0,1
167787,-86.9565217391304,4,2,3,5,0,1
167858,-86.9565217391304,4,2,3,75,0,1
168930,-86.9565217391304,4,2,3,5,0,1
169001,-86.9565217391304,4,2,3,75,0,1
177858,-86.9565217391304,4,3,2,75,0,1
178430,-86.9565217391304,4,2,3,75,0,1
178644,-86.9565217391304,4,2,3,5,0,1
178715,-86.9565217391304,4,2,3,75,0,1
181001,-111.111111111111,4,2,3,55,0,0
182358,-111.111111111111,4,2,3,5,0,0
182430,-111.111111111111,4,2,3,55,0,0
182644,-111.111111111111,4,2,3,5,0,0
182715,-111.111111111111,4,2,3,55,0,0
182930,-111.111111111111,4,2,3,5,0,0
183001,-111.111111111111,4,2,3,55,0,0
183501,-111.111111111111,4,2,3,5,0,0
183572,-111.111111111111,4,2,3,55,0,0
183787,-111.111111111111,4,2,3,5,0,0
183858,-111.111111111111,4,2,3,55,0,0
184430,-100,4,2,3,55,0,0
184644,-100,4,2,3,5,0,0
184715,-100,4,2,3,55,0,0
184930,-100,4,2,3,5,0,0
185001,-100,4,2,3,55,0,0
186930,-100,4,2,3,5,0,0
187001,-100,4,2,3,55,0,0
187215,-100,4,2,3,5,0,0
187287,-100,4,2,3,55,0,0
189215,-100,4,2,3,5,0,0
189287,-100,4,2,3,55,0,0
189501,-100,4,2,3,5,0,0
189572,-100,4,2,3,55,0,0
191501,-100,4,2,3,5,0,0
191572,-100,4,2,3,55,0,0
191787,-100,4,2,3,5,0,0
191858,-100,4,2,3,55,0,0
192501,-100,4,2,3,5,0,0
192572,-100,4,2,3,55,0,0
193787,-100,4,2,3,5,0,0
193858,-100,4,2,3,55,0,0
194072,-100,4,2,3,5,0,0
194144,-100,4,2,3,55,0,0
196072,-100,4,2,3,5,0,0
196144,-100,4,2,3,55,0,0
196358,-100,4,2,3,5,0,0
196430,-100,4,2,3,55,0,0
198358,-100,4,2,3,5,0,0
198430,-100,4,2,3,55,0,0
198644,-100,4,2,3,5,0,0
198715,-100,4,2,3,55,0,0
200644,-100,4,2,3,5,0,0
200715,-100,4,2,3,55,0,0
200930,-100,4,2,3,5,0,0
201001,-100,4,2,3,55,0,0
201644,-100,4,2,3,5,0,0
201715,-100,4,2,3,55,0,0
203287,-125,4,2,3,55,0,0
203715,-100,4,3,2,55,0,0
204144,-100,4,2,3,55,0,0

[Colours]
Combo1 : 128,0,64
Combo2 : 192,192,192
Combo3 : 255,128,64
Combo4 : 0,128,0

[HitObjects]
162,116,430,6,0,B|204:106|204:106|264:127|264:127|326:118,1,157.5,4|0,3:2|0:0,0:0:0:0:
386,180,715,2,0,B|300:194|300:194|278:217|278:217|226:232,1,157.5,0|0,3:2|0:0,0:0:0:0:
225,231,1001,2,0,P|185:294|226:357,1,157.5,0|0,3:2|0:0,0:0:0:0:
306,292,1287,6,0,B|361:282|361:282|415:309|415:309|390:267,1,157.5,0|0,3:2|0:0,0:0:0:0:
312,213,1572,2,0,B|384:199|384:199|389:193|389:193|484:174,1,157.5,0|0,3:2|0:0,0:0:0:0:
368,121,1858,1,0,3:2:0:0:
368,121,2001,5,0,0:3:0:0:
352,123,2072,1,0,0:3:0:0:
341,127,2144,1,0,0:3:0:0:
316,31,2287,1,0,3:2:0:0:
260,164,2430,2,0,B|277:178|267:219|267:219|274:227|274:227|256:277|298:328,1,157.5,8|0,2:2|0:0,0:0:0:0:
298,328,2715,6,0,P|254:314|206:341,1,94.499997116089,2|2,0:0|0:0,0:0:0:0:
159,267,3001,2,0,P|128:301|133:356,1,94.499997116089,2|2,0:0|0:0,0:0:0:0:
100,148,3287,2,0,P|134:178|189:173,1,94.499997116089,2|2,0:0|0:0,0:0:0:0:
169,90,3572,2,0,P|211:70|228:18,1,94.499997116089,2|2,0:0|0:0,0:0:0:0:
349,42,3858,5,2,0:0:0:0:
419,117,4001,1,2,0:0:0:0:
325,134,4144,5,2,0:0:0:0:
286,223,4287,1,2,0:0:0:0:
432,313,4430,6,0,B|351:318|351:318|345:323|345:323|239:329,1,183.75,2|0,0:0|0:0,0:0:0:0:
244,337,5001,6,0,B|226:295|226:295|240:227|240:227|211:147,1,157.5,6|0,3:2|0:0,0:0:0:0:
152,231,5287,2,0,B|28:214|28:214|79:189,1,157.5,10|0,3:2|0:0,0:0:0:0:
128,140,5572,2,0,B|132:92|132:92|135:86|135:86|139:35,1,105,2|2,3:2|0:0,0:0:0:0:
220,54,5787,1,2,0:0:0:0:
233,61,5858,1,10,0:0:0:0:
48,95,6001,1,2,0:0:0:0:
135,29,6144,5,2,3:2:0:0:
237,178,6287,1,2,0:0:0:0:
84,300,6430,1,10,0:0:0:0:
246,186,6572,2,0,L|350:176,1,105,2|0,0:0|3:2,0:0:0:0:
168,248,6858,1,2,0:0:0:0:
168,248,6930,1,0,0:0:0:0:
168,248,7001,2,0,P|148:196|186:117,1,105,10|2,0:0|0:0,0:0:0:0:
383,98,7287,6,0,B|418:75|418:75|384:78|384:78|379:75|379:75|374:80|374:80|283:92,1,157.5,2|0,3:2|0:0,0:0:0:0:
340,171,7572,2,0,B|319:207|338:244|338:244|363:297|323:361,1,157.5,10|0,3:2|0:0,0:0:0:0:
261,289,7858,1,2,3:2:0:0:
416,204,8001,1,2,0:0:0:0:
433,202,8072,1,2,0:0:0:0:
448,199,8144,1,10,0:0:0:0:
267,141,8287,1,2,0:0:0:0:
370,44,8430,5,2,3:2:0:0:
250,149,8572,1,2,0:0:0:0:
359,313,8715,1,10,0:0:0:0:
464,118,8858,2,0,B|422:121|422:121|415:125|415:125|331:133,1,105,2|0,0:0|3:0,0:0:0:0:
133,51,9144,1,2,0:0:0:0:
133,51,9215,1,0,0:0:0:0:
133,51,9287,2,0,P|121:119|170:172,1,105,10|0,0:0|0:0,0:0:0:0:
219,330,9572,6,0,B|177:348|177:348|109:334|109:334|70:349,1,157.5,6|0,3:2|0:0,0:0:0:0:
95,249,9858,2,0,B|173:265|173:265|244:232,1,157.5,10|0,3:2|0:0,0:0:0:0:
303,166,10144,2,0,P|255:145|207:161,1,105,2|2,3:2|0:0,0:0:0:0:
244,232,10358,1,2,0:0:0:0:
244,232,10430,1,10,0:0:0:0:
143,92,10572,1,2,0:0:0:0:
115,202,10715,5,2,3:2:0:0:
274,106,10858,1,2,0:0:0:0:
433,181,11001,1,10,0:0:0:0:
268,113,11144,2,0,L|254:8,1,105,2|0,0:0|3:0,0:0:0:0:
53,144,11430,1,2,0:0:0:0:
53,144,11501,1,0,0:0:0:0:
53,144,11572,2,0,P|30:190|42:240,1,105,10|0,0:0|0:0,0:0:0:0:
261,258,11858,6,0,B|218:253|218:253|151:282|151:282|84:273,1,157.5,2|0,3:2|0:0,0:0:0:0:
48,348,12144,2,0,B|162:369|162:369|222:342,1,157.5,10|0,3:2|0:0,0:0:0:0:
285,338,12430,1,2,3:2:0:0:
186,129,12572,1,2,0:0:0:0:
182,144,12644,1,2,0:0:0:0:
179,155,12715,1,10,0:0:0:0:
446,164,12858,6,0,B|384:156|384:156|336:171|336:171|380:129,1,157.5,2|0,0:0|0:0,0:0:0:0:
434,67,13144,1,2,0:0:0:0:
357,259,13287,1,10,0:0:0:0:
456,176,13430,1,2,0:0:0:0:
198,241,13572,1,2,3:2:0:0:
283,339,13715,5,10,0:0:0:0:
280,297,13786,1,8,0:0:0:0:
276,255,13858,1,10,0:0:0:0:
274,213,13929,1,8,0:0:0:0:
272,171,14000,1,10,0:0:0:0:
269,129,14072,1,8,0:0:0:0:
266,87,14144,6,0,B|226:94|188:72|188:72|131:101|67:79,1,157.5,6|0,3:2|0:0,0:0:0:0:
16,69,14430,2,0,P|43:144|19:262,1,157.5,10|0,3:2|0:0,0:0:0:0:
76,303,14715,2,0,P|120:253|118:175,1,105,2|2,3:2|0:0,0:0:0:0:
184,164,14930,1,2,0:0:0:0:
196,173,15001,1,10,0:0:0:0:
70,313,15144,1,2,0:0:0:0:
0,148,15287,5,2,3:2:0:0:
168,80,15430,1,2,0:0:0:0:
126,216,15572,1,10,0:0:0:0:
383,124,15715,2,0,P|334:109|283:122,1,105,2|0,0:0|3:0,0:0:0:0:
347,301,16001,1,2,0:0:0:0:
347,301,16072,1,0,0:0:0:0:
347,301,16144,2,0,B|339:249|339:249|341:243|341:243|324:148,1,105,10|2,0:0|0:0,0:0:0:0:
417,358,16430,6,0,P|341:386|249:328,1,157.5,2|0,3:2|0:0,0:0:0:0:
154,346,16715,2,0,B|194:322|194:322|178:181,1,157.5,10|0,3:2|3:2,3:2:0:0:
268,279,17001,1,2,3:2:0:0:
36,161,17144,1,2,0:0:0:0:
50,155,17215,1,2,0:0:0:0:
66,148,17287,1,10,0:0:0:0:
226,49,17430,1,2,0:0:0:0:
358,140,17572,5,2,3:2:0:0:
143,106,17715,1,2,0:0:0:0:
14,242,17858,1,10,0:0:0:0:
148,120,18001,2,0,L|269:136,1,105,2|0,0:0|3:0,0:0:0:0:
301,354,18287,1,10,0:0:0:0:
89,277,18430,1,2,0:0:0:0:
335,204,18572,1,14,0:0:0:0:
139,120,18715,6,0,P|60:136|32:212,1,157.5,2|0,3:2|0:0,0:0:0:0:
115,194,19001,2,0,B|149:219|183:207|183:207|235:191|263:224,1,157.5,10|0,3:2|0:0,0:0:0:0:
212,280,19287,2,0,L|224:392,1,105,2|2,3:2|0:0,0:0:0:0:
296,320,19501,1,2,0:0:0:0:
304,308,19572,1,10,0:0:0:0:
107,273,19715,1,2,0:0:0:0:
222,375,19858,5,2,3:2:0:0:
273,177,20001,1,2,0:0:0:0:
157,78,20144,1,10,0:0:0:0:
346,221,20287,2,0,B|394:226|394:226|397:232|397:232|480:242,1,105,2|0,0:0|3:0,0:0:0:0:
280,272,20572,1,2,0:0:0:0:
280,272,20644,1,0,0:0:0:0:
280,272,20715,2,0,P|257:221|310:155,1,105,10|2,0:0|0:0,0:0:0:0:
433,55,21001,6,0,B|326:99|326:99|256:80,1,157.5,2|0,3:2|0:0,0:0:0:0:
153,130,21287,2,0,B|116:140|116:140|80:121|80:121|114:99|114:99|152:107,1,157.5,10|0,3:2|0:0,0:0:0:0:
323,176,21572,2,0,B|298:170|298:170|266:179,1,52.5,2|0,3:2|0:0,0:0:0:0:
65,224,21715,1,0,0:0:0:0:
77,220,21787,1,2,0:0:0:0:
89,216,21858,2,0,B|119:221|119:221|157:209,1,52.5,10|0,0:0|0:0,0:0:0:0:
276,282,22001,6,0,B|312:295|344:276|344:276|381:290|381:290|419:269|461:289,1,173.250005287171,2|0,0:0|0:0,0:0:0:0:
425,357,22287,1,2,0:0:0:0:
260,282,22430,1,10,0:0:0:0:
504,227,22572,1,2,0:0:0:0:
248,282,22715,1,2,3:2:0:0:
469,147,22858,5,10,0:0:0:0:
427,152,22929,1,8,0:0:0:0:
385,158,23001,1,10,0:0:0:0:
344,164,23072,1,8,0:0:0:0:
302,169,23143,1,10,0:0:0:0:
260,175,23215,1,8,0:0:0:0:
221,182,23287,6,0,B|209:232|209:232|231:291|231:291|221:346,1,157.500006008148,6|8,3:2|0:0,0:0:0:0:
298,227,23715,1,2,0:0:0:0:
134,162,23858,2,0,P|179:100|255:99,1,157.500006008148,2|8,3:2|0:0,0:0:0:0:
221,182,24287,1,2,0:0:0:0:
50,132,24430,6,0,B|46:180|46:180|66:221|66:221|70:222|70:222|96:278,1,157.500006008148,2|8,3:2|0:0,0:0:0:0:
134,162,24858,1,2,0:0:0:0:
206,338,25001,2,0,B|151:344|151:344|146:349|146:349|86:358,1,118.125004506111,2|0,3:2|0:0,0:0:0:0:
173,263,25287,2,0,B|251:254,1,78.7500030040742,10|0,2:0|2:0,2:0:0:0:
444,283,25572,6,0,P|387:292|354:339,1,118.125004506111,2|0,3:2|0:0,0:0:0:0:
325,242,25858,2,0,P|315:205|283:182,1,78.7500030040742,10|0,0:0|0:0,0:0:0:0:
99,188,26144,2,0,P|152:209|173:263,1,118.125004506111,2|0,3:2|0:0,0:0:0:0:
212,159,26430,2,0,P|230:125|266:109,1,78.7500030040742,10|0,0:0|0:0,0:0:0:0:
239,315,26715,5,2,3:2:0:0:
353,147,26858,2,0,B|370:159|370:159|387:215,1,78.7500030040742,2|8,0:0|0:0,0:0:0:0:
362,357,27144,2,0,B|345:345|345:345|328:289,1,78.7500030040742,2|0,0:0|3:2,0:0:0:0:
449,137,27430,1,2,0:0:0:0:
295,213,27572,1,10,0:0:0:0:
141,119,27715,1,2,0:0:0:0:
222,27,27858,6,0,B|219:97|219:97|221:106|221:106|218:189,1,157.500006008148,2|8,3:2|0:0,0:0:0:0:
298,74,28287,1,2,0:0:0:0:
139,203,28430,2,0,P|165:253|232:262,1,118.125004506111,2|0,3:2|0:0,0:0:0:0:
318,290,28715,2,0,P|283:307|272:347,1,78.7500030040742,10|0,0:0|0:0,0:0:0:0:
476,275,29001,6,0,P|420:262|398:199,1,118.125004506111,2|0,3:2|0:0,0:0:0:0:
332,148,29287,2,0,P|324:185|288:207,1,78.7500030040742,10|0,0:0|0:0,0:0:0:0:
404,16,29572,2,0,B|402:109|402:109|428:139,1,118.125004506111,2|0,3:2|0:0,0:0:0:0:
328,69,29858,2,0,L|239:84,1,78.7500030040742,10|0,0:0|0:0,0:0:0:0:
79,138,30144,6,0,B|73:103|73:103|69:97|69:97|64:61,1,78.7500030040742,2|0,3:2|0:0,0:0:0:0:
184,161,30430,2,0,B|178:197|178:197|175:203|175:203|165:265,1,78.7500030040742,10|0,0:0|0:0,0:0:0:0:
66,352,30715,2,0,P|98:331|166:341,1,78.7500030040742,2|0,3:2|0:0,0:0:0:0:
387,277,31001,2,0,P|331:253|254:289,1,118.125004506111,10|0,0:0|0:0,0:0:0:0:
328,332,31287,5,2,3:2:0:0:
337,160,31430,1,0,0:0:0:0:
344,22,31572,2,0,L|422:12,1,78.7500030040742,10|0,0:0|0:0,0:0:0:0:
245,94,31858,1,2,3:2:0:0:
442,100,32001,1,8,0:0:0:0:
454,107,32072,1,8,0:0:0:0:
464,113,32144,1,0,3:0:0:0:
258,236,32287,1,8,0:0:0:0:
246,243,32358,1,8,0:0:0:0:
235,248,32430,6,0,B|179:241|179:241|175:236|175:236|97:226,1,126,6|0,3:2|0:0,0:0:0:0:
24,189,32715,2,0,B|29:269|29:269|66:323,1,126,10|0,3:2|0:0,0:0:0:0:
138,321,33001,2,0,L|266:337,1,126,2|0,3:2|0:0,0:0:0:0:
271,325,33287,1,10,0:0:0:0:
426,230,33430,1,2,0:0:0:0:
379,345,33572,5,2,3:2:0:0:
339,172,33715,1,2,0:0:0:0:
433,126,33858,1,10,0:0:0:0:
248,219,34001,1,2,0:0:0:0:
381,357,34144,2,0,P|440:351|486:283,1,126,2|0,3:2|0:0,0:0:0:0:
399,276,34430,2,0,L|315:265,1,84,10|0,0:0|0:0,0:0:0:0:
148,123,34715,6,0,P|190:117|241:146,1,84,2|0,3:2|0:0,0:0:0:0:
118,289,35001,2,0,P|132:233|196:200,1,115.50000352478,10|0,0:0|0:0,0:0:0:0:
396,137,35287,2,0,P|389:178|346:219,1,84,2|0,3:2|0:0,0:0:0:0:
250,59,35573,2,0,P|299:88|312:159,1,115.50000352478,10|0,0:0|0:0,0:0:0:0:
372,51,35858,5,2,3:2:0:0:
306,144,36001,1,0,0:0:0:0:
447,218,36144,1,10,0:0:0:0:
386,356,36287,1,0,0:0:0:0:
237,379,36430,2,0,P|223:334|231:288,1,94.499997116089,2|0,3:2|0:0,0:0:0:0:
449,304,36715,2,0,B|384:313|384:313|377:318|377:318|286:332,1,141.749995674133,10|0,0:0|0:0,0:0:0:0:
307,241,37001,6,0,P|247:201|156:241,1,141.749995674133,2|0,3:2|0:0,0:0:0:0:
107,295,37287,2,0,B|99:228|99:228|93:230|93:230|99:228|99:228|92:153,1,141.749995674133,10|0,3:2|0:0,0:0:0:0:
47,90,37572,2,0,B|85:75|85:75|145:85|145:85|212:59,1,141.749995674133,2|0,3:2|0:0,0:0:0:0:
135,2,37858,1,10,0:0:0:0:
246,19,38001,1,2,0:0:0:0:
97,182,38145,5,2,3:2:0:0:
63,85,38287,1,2,0:0:0:0:
271,130,38429,1,10,0:0:0:0:
211,194,38572,1,2,0:0:0:0:
249,33,38715,2,0,P|317:41|361:95,1,141.749995674133,2|0,3:2|0:0,0:0:0:0:
271,130,39001,2,0,P|225:152|221:228,1,94.499997116089,10|0,0:0|0:0,0:0:0:0:
14,177,39287,6,0,B|58:183|58:183|63:186|63:186|149:199,1,94.499997116089,2|0,3:2|0:0,0:0:0:0:
204,298,39572,2,0,B|145:289|145:289|139:283|139:283|55:269,1,125.999996154785,10|0,0:0|0:0,0:0:0:0:
297,218,39858,2,0,B|341:211|341:211|346:208|346:208|432:195,1,94.499997116089,2|0,3:2|0:0,0:0:0:0:
498,95,40144,2,0,B|439:104|439:104|433:110|433:110|349:124,1,125.999996154785,10|0,0:0|0:0,0:0:0:0:
235,281,40430,6,0,P|215:189|239:157,1,94.499997116089,2|0,3:2|0:0,0:0:0:0:
359,45,40715,2,0,L|249:61,1,94.499997116089,10|0,0:0|0:0,0:0:0:0:
156,139,41001,1,2,3:2:0:0:
9,42,41144,1,8,0:0:0:0:
20,55,41215,1,8,0:0:0:0:
28,71,41287,1,4,3:0:0:0:
91,210,41572,6,0,P|159:237|245:183,1,157.500006008148,2|0,3:2|3:0,3:0:0:0:
310,173,42144,2,0,B|327:210|308:247|308:247|285:297|313:327,1,157.500006008148,2|0,3:2|3:2,0:0:0:0:
442,278,42572,1,2,0:0:0:0:
310,173,42715,6,0,B|295:60|295:60|334:14,1,157.500006008148,2|0,3:2|3:0,0:0:0:0:
198,132,43144,1,2,0:0:0:0:
396,86,43287,2,0,B|453:90|453:90|458:94|458:94|542:99,1,118.125004506111,2|0,3:2|0:0,0:0:0:0:
449,169,43572,2,0,B|392:165|392:165|387:168,1,62.9999980773926,8|0,0:0|0:0,0:0:0:0:
397,331,43858,6,0,P|359:317|329:275,1,70,6|0,3:2|0:0,0:0:0:0:
256,314,44049,6,0,P|257:273|288:232,1,70,2|0,0:0|3:0,0:0:0:0:
232,173,44239,6,0,P|270:161|319:178,1,70,2|0,0:0|0:0,0:0:0:0:
356,104,44430,6,0,P|378:137|378:189,1,70,2|0,3:2|0:0,0:0:0:0:
461,195,44620,6,0,P|435:226|386:242,3,70,2|0|0|2,0:0|3:0|0:0|0:2,0:0:0:0:
299,167,45001,5,10,3:2:0:0:
286,167,45072,1,8,0:0:0:0:
275,168,45144,2,0,P|270:141|213:99,1,57.7500017623902,8|8,0:0|0:0,0:0:0:0:
146,306,45287,1,10,3:2:0:0:
158,307,45358,1,8,0:0:0:0:
166,312,45430,2,0,P|171:337|193:363,1,57.7500017623902,8|8,0:0|0:0,0:0:0:0:
430,313,45572,1,10,3:2:0:0:
386,280,45643,1,8,0:0:0:0:
339,270,45715,1,8,0:0:0:0:
289,278,45786,1,8,0:0:0:0:
248,306,45857,1,4,3:2:0:0:
108,346,46144,6,0,B|133:306|108:263|108:263|77:216|117:149,1,173.250005287171,6|0,3:2|0:0,0:0:0:0:
182,212,46430,1,8,0:0:0:0:
197,199,46501,1,8,0:0:0:0:
219,193,46572,1,10,0:0:0:0:
263,199,46644,1,8,0:0:0:0:
311,216,46715,1,8,3:2:0:0:
361,203,46787,1,8,0:0:0:0:
391,160,46858,2,0,P|391:133|398:103,1,57.7500017623902,8|8,0:0|0:0,0:0:0:0:
228,21,47001,2,0,P|236:49|234:78,1,57.7500017623902,10|8,3:2|0:0,0:0:0:0:
236,270,47144,5,10,0:0:0:0:
241,287,47215,1,8,0:0:0:0:
247,303,47287,2,0,B|218:305|218:305|189:322,1,57.7500017623902,10|8,3:2|0:0,0:0:0:0:
54,145,47430,1,8,0:0:0:0:
49,162,47501,1,8,0:0:0:0:
43,178,47573,2,0,B|72:180|72:180|99:197,1,57.7500017623902,8|8,3:2|0:0,0:0:0:0:
318,208,47715,5,10,0:0:0:0:
362,178,47786,1,8,0:0:0:0:
381,128,47858,1,8,3:2:0:0:
366,76,47929,1,8,0:0:0:0:
326,43,48000,1,8,0:0:0:0:
272,41,48072,1,8,0:0:0:0:
232,66,48144,2,0,L|224:169,1,57.7500017623902,10|8,3:2|0:0,0:0:0:0:
165,304,48287,1,8,0:0:0:0:
167,326,48358,1,8,0:0:0:0:
170,349,48430,6,0,B|116:326|116:326|-3:356,1,173.250005287171,2|0,0:2|0:3,0:3:0:0:
62,233,48715,2,0,B|124:218|124:218|162:185|162:185|219:173,1,173.250005287171,2|0,0:2|0:0,0:0:0:0:
331,75,49001,2,0,B|299:121|299:121|307:275,1,173.250005287171,2|0,0:2|0:0,0:0:0:0:
468,243,49287,2,0,B|504:199|504:199|506:83,1,173.250005287171,2|0,0:2|0:0,0:0:0:0:
400,127,49572,6,0,B|383:151|383:151|386:208|386:208|423:165|423:165|424:135,1,173.250005287171,2|0,0:2|0:0,0:0:0:0:
455,14,49858,2,0,B|417:39|370:11|370:11|329:-10|290:10,1,173.250005287171,2|0,0:2|0:0,0:0:0:0:
159,89,50144,2,0,B|198:77|230:94|230:94|250:88|250:88|293:110|326:89,1,173.250005287171,2|0,0:2|0:0,0:0:0:0:
175,171,50430,2,0,P|109:164|81:67,1,173.250005287171,2|0,0:2|0:0,0:0:0:0:
159,89,50715,5,2,0:2:0:0:
274,207,51858,6,0,B|265:190|265:190|179:180,1,105,10|0,3:2|0:0,0:0:0:0:
261,107,52144,2,0,B|306:111|306:111|311:115|311:115|365:121,1,105,10|0,3:2|0:0,0:0:0:0:
274,25,52430,2,0,B|234:20|234:20|206:38|206:38|154:11|103:52,1,157.5,10|0,3:2|0:0,0:0:0:0:
134,153,52715,6,0,B|160:139|165:105|165:105|181:135|235:145,1,118.125004506111,2|0,0:0|0:0,0:0:0:0:
190,217,53001,2,0,B|204:352|204:352|237:284,1,181.125003454685,6|0,3:2|0:0,0:0:0:0:
351,325,53287,2,0,P|361:247|280:192,1,181.125003454685,10|0,3:2|0:0,0:0:0:0:
288,275,53572,1,2,3:2:0:0:
430,92,53715,1,0,3:0:0:0:
130,70,53858,2,0,B|189:78|189:78|193:74|193:74|263:84,1,120.750002303124,10|0,0:0|3:0,0:0:0:0:
172,274,54144,6,0,B|163:214|163:214|167:210|167:210|157:140,1,120.750002303124,2|0,0:0|3:0,0:0:0:0:
308,335,54430,2,0,B|267:315|226:343|226:343|164:384|95:318,1,181.125003454685,10|0,0:0|0:0,0:0:0:0:
184,275,54715,1,2,3:2:0:0:
378,152,54858,1,0,3:0:0:0:
95,198,55001,2,0,B|94:257|94:257|58:313|58:313|58:370,1,181.125003454685,10|0,0:0|0:0,0:0:0:0:
51,130,55287,6,0,B|99:101|145:130|145:130|180:105|180:105|241:131|284:87,1,241.500004606247,2|8,3:2|0:0,0:0:0:0:
12,20,55715,1,2,0:0:0:0:
95,198,55858,1,2,3:2:0:0:
225,37,56001,1,0,3:0:0:0:
87,205,56144,1,8,0:0:0:0:
270,315,56287,1,2,3:2:0:0:
355,154,56430,6,0,P|297:141|244:169,1,120.750002303124,2|0,0:0|3:0,0:0:0:0:
339,379,56715,2,0,P|340:250|261:220,1,181.125003454685,10|0,0:0|0:0,0:0:0:0:
270,315,57001,1,2,3:2:0:0:
417,214,57144,1,0,3:0:0:0:
291,43,57287,2,0,B|349:35|349:35|355:37|355:37|440:25,1,120.750002303124,10|0,0:0|0:0,0:0:0:0:
201,201,57572,6,0,B|170:165|196:114|196:114|220:72|194:29,1,181.125003454685,6|0,3:2|0:0,0:0:0:0:
129,72,57858,2,0,B|53:91|53:91|-4:88|-4:88|50:118,1,181.125003454685,10|0,3:2|0:0,0:0:0:0:
49,11,58144,1,2,3:2:0:0:
110,193,58287,1,0,3:0:0:0:
8,349,58430,2,0,B|50:334|50:334|152:349,1,120.750002303124,10|0,0:0|3:0,0:0:0:0:
301,353,58715,6,0,P|277:292|338:208,1,120.750002303124,2|0,0:0|3:0,0:0:0:0:
512,134,59001,2,0,B|462:166|411:140|411:140|401:121|381:107|381:107|451:81,1,181.125003454685,10|0,0:0|0:0,0:0:0:0:
337,176,59287,1,2,3:2:0:0:
467,47,59430,1,0,3:0:0:0:
422,267,59572,2,0,B|356:283|293:243|293:243|310:268|308:296,1,181.125003454685,10|0,0:0|0:0,0:0:0:0:
225,332,59858,6,0,B|231:279|193:254|193:254|176:246|176:246|178:231|178:231|134:171|178:103,1,241.500004606247,2|8,3:2|0:0,0:0:0:0:
390,170,60287,5,2,0:0:0:0:
146,319,60430,1,2,3:2:0:0:
122,21,60572,1,0,3:0:0:0:
406,171,60715,1,10,0:0:0:0:
57,172,60858,1,0,3:0:0:0:
356,17,61001,5,10,3:2:0:0:
423,171,61144,1,0,3:3:0:0:
316,350,61287,2,0,B|288:315|310:271|310:271|338:215|309:180,1,181.125003454685,10|0,0:0|0:0,0:0:0:0:
300,181,61572,1,2,3:2:0:0:
33,234,61715,1,8,0:0:0:0:
27,253,61787,1,8,0:0:0:0:
33,270,61858,1,8,0:0:0:0:
135,108,62001,1,8,0:0:0:0:
148,107,62072,1,8,0:0:0:0:
160,98,62144,6,0,B|208:66|257:96|257:96|301:127|343:101|343:101|313:108|297:97,1,236.250009012223,2|0,3:2|0:0,0:0:0:0:
208,167,62430,2,0,B|202:231|135:249|135:249|206:283|189:392,1,236.250009012223,10|0,3:2|0:0,0:0:0:0:
92,335,62715,2,0,P|29:269|128:163,1,236.250009012223,2|0,3:2|0:0,0:0:0:0:
130,246,63001,5,10,0:0:0:0:
433,177,63144,1,2,0:0:0:0:
116,247,63287,5,2,3:2:0:0:
438,323,63430,1,2,0:0:0:0:
230,73,63572,6,0,B|236:127|236:127|233:134|233:134|244:235,1,120.750002303124,10|0,0:0|0:0,0:0:0:0:
357,353,63858,1,2,3:2:0:0:
427,121,64001,1,0,0:0:0:0:
432,130,64072,1,0,0:0:0:0:
437,139,64144,2,0,L|302:155,1,120.750002303124,8|0,0:0|0:0,0:0:0:0:
147,292,64430,6,0,P|181:346|247:358,1,120.750002303124,2|0,3:2|0:0,0:0:0:0:
157,175,64715,2,0,P|93:177|49:228,1,120.750002303124,10|0,0:0|0:0,0:0:0:0:
255,252,65001,2,0,P|284:195|262:132,1,120.750002303124,2|0,3:2|0:0,0:0:0:0:
37,318,65287,5,10,0:0:0:0:
327,318,65430,1,2,0:0:0:0:
195,86,65572,5,2,3:2:0:0:
188,328,65715,1,2,0:0:0:0:
367,173,65858,6,0,B|312:174|271:144|271:144|254:158|233:172|233:172|258:167|275:171,1,181.125003454685,10|0,0:0|0:0,0:0:0:0:
292,244,66144,2,0,B|294:285|310:321|310:321|296:344|292:372,1,120.750002303124,2|0,3:2|0:0,0:0:0:0:
374,364,66358,1,0,0:0:0:0:
384,350,66430,1,8,0:0:0:0:
450,174,66572,1,0,0:0:0:0:
219,22,66715,6,0,P|174:115|286:103,1,236.250009012223,2|0,3:2|0:0,0:0:0:0:
314,33,67001,2,0,B|359:46|392:34|392:34|369:53|358:76|358:76|392:130|354:198,1,236.250009012223,10|0,3:2|0:0,0:0:0:0:
279,230,67287,2,0,B|231:266|231:266|318:259|318:259|323:264|323:264|327:258|327:258|413:249,1,236.250009012223,2|0,3:2|0:0,0:0:0:0:
366,175,67572,5,10,0:2:0:0:
157,191,67715,1,2,0:0:0:0:
283,366,67858,5,2,3:2:0:0:
320,46,68001,1,2,0:0:0:0:
40,194,68144,6,0,B|119:177|119:177|193:204,1,120.750002303124,10|0,0:0|0:0,0:0:0:0:
20,110,68430,1,2,3:2:0:0:
261,206,68572,1,0,0:0:0:0:
271,195,68644,1,0,0:0:0:0:
281,181,68715,2,0,B|202:198|202:198|128:171,1,120.750002303124,10|0,0:0|0:0,0:0:0:0:
400,63,69001,6,0,B|374:146|374:146|395:249,1,181.125003454685,2|0,3:2|0:0,0:0:0:0:
402,246,69287,1,8,0:0:0:0:
322,66,69430,1,2,0:0:0:0:
322,66,69572,2,0,B|300:123|300:123|250:163,1,120.750002303124,2|0,3:2|0:0,0:0:0:0:
310,227,69787,1,0,0:0:0:0:
310,227,69858,1,8,0:0:0:0:
220,365,70001,1,2,0:0:0:0:
295,305,70144,6,0,B|229:278|229:278|180:294,1,120.750002303124,2|0,3:2|0:0,0:0:0:0:
15,182,70430,5,2,0:2:0:0:
166,276,70572,1,0,0:0:0:0:
174,284,70644,1,0,0:0:0:0:
182,293,70715,1,2,0:2:0:0:
394,186,70858,1,0,0:0:0:0:
259,74,71001,6,0,B|209:34|144:65|144:65|102:81|55:44,1,181.125003454685,10|0,0:2|0:0,0:0:0:0:
80,49,71287,5,2,3:2:0:0:
272,52,71430,2,0,P|249:37|200:34,1,60.3750011515618,2|0,0:0|0:0,0:0:0:0:
195,146,71572,2,0,B|197:202|197:202|201:207|201:207|203:265,1,120.750002303124,10|2,0:0|0:0,0:0:0:0:
343,147,71858,5,2,3:2:0:0:
180,148,72001,1,0,3:0:0:0:
103,328,72144,2,0,P|139:374|198:383,1,120.750002303124,12|0,0:0|0:0,0:0:0:0:
346,357,72430,5,2,3:2:0:0:
182,303,72572,1,0,3:0:0:0:
24,346,72715,1,8,0:0:0:0:
1,216,72858,1,0,3:0:0:0:
164,158,73001,5,2,1:2:0:0:
280,232,73144,1,0,0:0:0:0:
417,122,73287,2,0,B|271:139,1,120.750002303124,12|0,0:0|0:0,0:0:0:0:
139,0,73572,6,0,B|157:81|157:81|153:167,1,168,10|0,3:2|3:0,0:0:0:0:
191,377,74001,1,10,0:0:0:0:
109,311,74144,2,0,P|190:291|291:325,1,168,10|0,3:2|3:0,0:0:0:0:
217,163,74572,1,10,0:0:0:0:
31,250,74715,5,10,0:0:0:0:
228,165,75001,1,10,0:0:0:0:
438,261,75287,1,10,0:0:0:0:
229,177,75572,2,0,P|235:204|231:239,1,42,2|0,0:0|0:0,0:0:0:0:
160,289,75858,6,0,P|232:320|310:285,1,146.999995513916,10|0,3:2|3:0,0:0:0:0:
323,203,76287,1,2,0:0:0:0:
138,226,76430,2,0,B|147:296|147:296|141:293|141:293|147:296|147:296|158:381,1,146.999995513916,2|0,3:2|3:0,0:0:0:0:
45,260,76858,1,2,0:0:0:0:
177,133,77001,6,0,B|125:129|125:129|80:151|80:151|8:147,1,146.999995513916,2|0,3:2|3:0,0:0:0:0:
185,38,77430,1,2,0:0:0:0:
254,190,77572,2,0,P|271:138|246:66,1,110.249996635437,2|0,3:2|0:0,0:0:0:0:
183,48,77858,2,0,P|126:59|73:36,1,110.249996635437,2|0,3:2|0:0,0:0:0:0:
69,31,78144,6,0,L|90:174,1,110.249996635437,2|0,3:2|0:0,0:0:0:0:
89,155,78430,2,0,L|73:292,1,110.249996635437,2|2,3:2|0:0,0:2:0:0:
27,339,78715,2,0,B|77:352|77:352|158:323,1,110.249996635437,2|0,3:2|0:0,0:0:0:0:
139,321,79001,2,0,B|194:301|194:301|244:314,1,110.249996635437,2|0,3:2|0:0,0:0:0:0:
245,333,79287,5,2,3:2:0:0:
347,361,79430,2,0,P|351:324|338:291,1,73.4999977569581,2|0,0:0|3:0,0:0:0:0:
274,144,79715,2,0,P|259:192|285:256,1,94.499997116089,2|0,0:0|3:0,0:0:0:0:
447,312,80001,1,10,0:0:0:0:
345,198,80144,1,10,0:0:0:0:
469,45,80287,1,10,0:0:0:0:
469,45,80430,6,0,B|430:51|430:51|421:49|421:49|370:56,1,78.75,2|0,0:0|0:0,0:0:0:0:
411,137,80715,1,12,0:0:0:0:
411,137,80858,1,2,0:0:0:0:
238,19,81001,2,0,B|247:66|247:66|226:147,1,94.499997116089,2|0,3:2|0:0,0:0:0:0:
296,235,81287,1,8,0:0:0:0:
365,351,81430,1,2,0:0:0:0:
245,319,81572,6,0,B|200:314|200:314|195:309|195:309|153:305,1,94.499997116089,2|0,3:2|0:0,0:0:0:0:
141,157,81858,1,8,0:0:0:0:
112,381,82001,1,2,0:0:0:0:
20,248,82144,2,0,L|119:236,1,94.499997116089,2|0,3:2|0:0,0:0:0:0:
205,89,82430,1,10,0:0:0:0:
46,127,82572,1,2,0:0:0:0:
250,165,82715,6,0,B|307:155|307:155|335:131|335:131|409:118,1,141.749995674133,2|0,3:2|0:0,0:0:0:0:
373,204,83001,2,0,B|401:198|401:198|378:235|378:235|382:237|382:237|378:235|378:235|345:292,1,141.749995674133,10|0,3:2|0:0,0:0:0:0:
282,345,83287,2,0,P|341:372|427:319,1,141.749995674133,2|0,3:2|0:0,0:0:0:0:
414,332,83572,1,10,0:0:0:0:
265,243,83715,1,0,0:0:0:0:
467,155,83858,6,0,L|454:53,1,94.499997116089,2|0,3:2|0:0,0:0:0:0:
278,54,84144,2,0,B|266:138|266:138|268:149|268:149|253:250,1,188.999994232178,14|2,0:0|0:2,0:0:0:0:
181,279,84525,5,8,0:0:0:0:
104,258,84620,5,8,0:0:0:0:
33,288,84715,5,8,0:0:0:0:
33,288,85001,5,6,3:2:0:0:
251,187,89572,5,6,3:2:0:0:
123,102,92858,5,0,3:0:0:0:
272,148,93001,2,8,L|258:241,1,94.499997116089,2|0,0:2|3:2,0:0:0:0:
103,327,93287,2,0,P|167:311|273:350,1,141.749995674133,12|0,0:0|0:0,0:0:0:0:
240,344,93572,1,2,3:2:0:0:
43,219,93715,1,8,0:0:0:0:
56,214,93787,1,8,0:0:0:0:
68,211,93858,1,8,3:0:0:0:
247,140,94001,1,8,0:0:0:0:
259,143,94072,1,8,0:0:0:0:
271,148,94144,6,0,B|350:140|350:140|357:144|357:144|438:135,1,165.374994953156,14|0,3:2|0:0,0:0:0:0:
440,126,94430,1,8,0:0:0:0:
346,43,94572,1,2,0:0:0:0:
350,242,94715,1,2,3:2:0:0:
259,332,94858,1,0,3:0:0:0:
444,333,95001,1,8,0:0:0:0:
232,227,95144,1,2,0:0:0:0:
232,227,95287,6,0,B|194:235|164:192|164:192|173:246|137:265,1,165.374994953156,2|0,3:2|0:0,0:0:0:0:
125,264,95572,1,8,0:0:0:0:
209,312,95715,1,2,0:0:0:0:
238,149,95858,1,2,3:2:0:0:
146,84,96001,1,0,3:0:0:0:
255,42,96144,2,0,P|237:96|270:169,1,110.249996635437,8|0,0:0|0:0,0:0:0:0:
440,246,96430,6,0,B|408:224|362:245|362:245|313:264|282:240,1,165.374994953156,6|0,3:2|0:0,3:0:0:0:
326,176,96715,1,8,0:0:0:0:
394,313,96858,1,2,0:0:0:0:
466,170,97001,1,2,3:2:0:0:
406,61,97144,1,0,3:0:0:0:
282,240,97287,1,8,0:0:0:0:
217,133,97430,1,2,0:0:0:0:
171,24,97572,6,0,B|91:37|91:37|91:42|91:42|-14:63,1,165.374994953156,2|0,3:2|0:0,0:0:0:0:
86,123,97858,2,0,B|145:132|145:132|155:138|155:138|228:150,1,126,2|0,3:2|0:0,0:0:0:0:
133,217,98144,1,2,3:2:0:0:
245,74,98287,1,8,0:0:0:0:
259,71,98358,1,8,0:0:0:0:
273,68,98430,1,8,0:0:0:0:
314,226,98572,1,8,0:0:0:0:
296,216,98643,1,8,0:0:0:0:
282,209,98715,6,0,B|299:288|299:288|269:366,1,126,10|0,3:2|0:0,0:0:0:0:
216,280,99001,1,8,0:0:0:0:
364,338,99144,1,2,0:0:0:0:
374,128,99287,1,0,3:0:0:0:
227,149,99430,1,0,3:0:0:0:
443,235,99572,2,0,B|386:243|386:243|382:247|382:247|286:259,1,126,10|0,0:0|0:0,0:0:0:0:
239,317,99858,6,0,L|380:340,1,126,2|0,3:2|0:0,0:0:0:0:
373,329,100144,1,8,0:0:0:0:
443,227,100287,1,2,0:2:0:0:
438,219,100358,1,0,0:0:0:0:
434,211,100430,1,0,0:0:0:0:
359,128,100572,1,0,0:3:0:0:
224,306,100715,2,0,P|213:244|232:184,1,126,10|0,1:2|0:0,0:0:0:0:
442,131,101001,6,0,B|362:126|362:126|356:132|356:132|263:124,1,173.250005287171,2|0,0:2|0:0,0:0:0:0:
154,63,101287,2,0,B|197:35|197:35|319:45,1,173.250005287171,2|0,0:2|0:0,0:0:0:0:
183,146,101572,2,0,B|188:191|188:191|261:241|261:241|269:278,1,173.250005287171,2|0,0:2|0:0,0:0:0:0:
189,367,101858,2,0,B|175:292|175:292|71:223,1,173.250005287171,2|0,0:2|0:0,0:0:0:0:
45,109,102144,6,0,B|81:126|128:84|128:84|162:52|206:66,1,173.250005287171,2|0,0:2|0:0,0:0:0:0:
303,169,102430,2,0,P|228:206|183:137,1,173.250005287171,2|0,0:2|0:0,0:0:0:0:
375,227,102715,6,0,L|484:241,1,110.249996635437,10|0,0:2|0:0,0:0:0:0:
437,311,103287,6,0,B|366:301|366:301|359:303|359:303|226:284,1,181.125003454685,6|0,3:2|0:0,0:0:0:0:
279,210,103572,2,0,B|278:165|332:143|332:143|273:145|252:109,1,181.125003454685,10|0,0:0|0:0,0:0:0:0:
322,64,103858,1,2,3:2:0:0:
152,190,104001,1,0,3:0:0:0:
365,249,104144,2,0,P|371:197|291:130,1,120.750002303124,10|0,0:0|3:0,0:0:0:0:
161,313,104430,6,0,B|216:295|216:295|276:312,1,120.750002303124,2|0,0:0|3:0,0:0:0:0:
96,375,104715,2,0,B|65:337|78:289|78:289|96:225|29:165,1,181.125003454685,10|0,0:0|0:0,0:0:0:0:
0,262,105001,1,2,3:2:0:0:
163,227,105144,1,0,3:0:0:0:
217,72,105287,2,0,B|251:50|251:50|184:55|184:55|182:48|182:48|178:56|178:56|120:60,1,181.125003454685,10|0,0:0|0:0,0:0:0:0:
28,58,105572,6,0,B|35:119|35:119|56:141|56:141|64:201|64:201|83:154|131:142,1,241.500004606247,2|8,3:2|0:0,0:0:0:0:
157,222,106001,1,2,0:0:0:0:
254,44,106144,1,2,3:2:0:0:
14,59,106287,1,0,3:0:0:0:
163,213,106430,1,8,0:0:0:0:
368,163,106572,1,2,3:2:0:0:
155,221,106715,6,0,P|144:279|168:334,1,120.750002303124,2|0,0:0|3:0,0:0:0:0:
409,293,107001,2,0,B|317:283|317:283|312:279|312:279|213:269,1,181.125003454685,10|0,0:0|0:0,0:0:0:0:
254,356,107287,1,2,3:2:0:0:
366,174,107430,1,0,3:0:0:0:
164,142,107572,2,0,P|126:91|214:118,1,181.125003454685,10|0,0:0|0:0,0:0:0:0:
258,139,107858,6,0,B|325:167|388:134|388:134|371:148|365:179,1,181.125003454685,6|0,3:2|0:0,0:0:0:0:
452,191,108144,2,0,P|480:130|370:64,1,181.125003454685,10|0,3:2|0:0,0:0:0:0:
330,70,108430,1,2,3:2:0:0:
203,247,108572,1,0,3:0:0:0:
10,131,108715,2,0,P|67:115|135:137,1,120.750002303124,10|0,0:0|3:0,0:0:0:0:
69,313,109001,6,0,P|53:256|75:188,1,120.750002303124,2|0,0:0|3:0,0:0:0:0:
324,320,109287,2,0,B|295:286|238:313|238:313|187:333|153:301,1,181.125003454685,10|0,0:0|0:0,0:0:0:0:
202,243,109573,1,2,3:2:0:0:
1,215,109716,1,0,3:0:0:0:
156,56,109858,2,0,B|204:81|274:61|274:61|231:92|245:147,1,181.125003454685,10|0,0:0|0:0,0:0:0:0:
327,129,110144,6,0,P|405:103|503:138,1,181.125003454685,6|0,3:2|0:0,0:0:0:0:
426,185,110430,2,0,P|360:228|452:255,1,181.125003454685,10|0,0:0|0:0,0:0:0:0:
499,238,110715,5,10,3:2:0:0:
263,205,110858,1,0,3:0:0:0:
370,377,111001,1,10,0:0:0:0:
415,56,111144,1,0,3:0:0:0:
209,344,111287,5,10,0:0:0:0:
512,237,111430,1,0,3:0:0:0:
176,133,111572,2,0,B|135:153|135:153|293:192,1,181.125003454685,10|0,0:0|0:0,0:0:0:0:
268,93,111858,1,2,3:2:0:0:
74,209,112001,1,8,0:0:0:0:
84,222,112072,1,8,0:0:0:0:
102,230,112144,1,8,0:0:0:0:
338,157,112287,1,8,0:0:0:0:
348,174,112359,1,8,0:0:0:0:
348,193,112430,6,0,B|326:253|370:291|370:291|384:314|386:350|386:350|413:307|503:306,1,236.250009012223,2|0,3:2|0:0,0:0:0:0:
436,220,112715,2,0,B|461:170|438:123|438:123|407:79|433:37|433:37|426:67|451:90,1,236.250009012223,10|0,3:2|0:0,0:0:0:0:
331,61,113001,2,0,B|276:79|276:79|268:85|268:85|219:100|219:100|158:90|158:90|186:102|204:121,1,236.250009012223,2|0,3:2|0:0,0:0:0:0:
216,23,113287,5,10,0:0:0:0:
147,284,113430,1,2,0:0:0:0:
204,121,113572,5,2,3:2:0:0:
244,358,113715,1,2,0:0:0:0:
408,211,113858,6,0,B|354:217|354:217|348:222|348:222|235:237,1,120.750002303124,10|0,0:0|0:0,0:0:0:0:
394,294,114144,1,2,3:2:0:0:
341,46,114287,1,0,0:0:0:0:
325,40,114358,1,0,0:0:0:0:
309,34,114430,2,0,L|296:156,1,120.750002303124,8|0,0:0|0:0,0:0:0:0:
124,329,114715,6,0,B|89:291|89:291|88:222,1,120.750002303124,2|0,3:2|0:0,0:0:0:0:
296,153,115001,2,0,B|281:202|281:202|222:239,1,120.750002303124,10|0,0:0|0:0,0:0:0:0:
61,96,115287,2,0,B|111:85|111:85|172:118,1,120.750002303124,2|0,3:2|0:0,0:0:0:0:
211,346,115572,5,10,0:0:0:0:
11,286,115715,1,2,0:0:0:0:
52,84,115858,5,2,3:2:0:0:
266,145,116001,1,2,0:0:0:0:
335,312,116144,6,0,B|332:272|332:272|278:228|278:228|270:135,1,181.125003454685,10|0,0:0|0:0,0:0:0:0:
201,214,116430,2,0,B|205:270|205:270|202:278|202:278|206:334,1,120.750002303124,2|0,3:2|0:0,0:0:0:0:
136,361,116644,1,0,0:0:0:0:
131,343,116715,1,8,0:0:0:0:
41,205,116858,1,0,0:0:0:0:
151,39,117001,6,0,B|229:28|229:28|263:48|263:48|297:28|297:28|431:45,1,236.250009012223,2|0,3:2|0:0,0:0:0:0:
338,118,117287,2,0,B|356:130|386:125|386:125|343:166|343:166|342:173|342:173|295:220|295:220|331:211|371:229,1,236.250009012223,2|0,3:2|0:0,0:0:0:0:
244,151,117572,2,0,P|213:255|311:299,1,236.250009012223,2|0,3:2|0:0,0:0:0:0:
296,220,117858,5,10,0:0:0:0:
14,324,118001,1,2,0:0:0:0:
220,366,118144,5,2,3:2:0:0:
143,79,118287,1,2,0:0:0:0:
339,119,118430,6,0,B|323:209|323:209|268:231,1,120.750002303124,10|0,0:0|0:0,0:0:0:0:
229,366,118715,1,2,3:2:0:0:
113,195,118858,1,0,0:0:0:0:
109,208,118930,1,0,0:0:0:0:
104,222,119001,2,0,B|183:215|183:215|229:237,1,120.750002303124,8|0,0:0|0:0,0:0:0:0:
25,376,119287,6,0,B|31:259|31:259|24:251|24:251|31:118,1,241.500004606247,2|8,3:2|0:0,0:0:0:0:
188,47,119715,1,2,0:0:0:0:
23,126,119858,2,0,B|74:90|136:123|136:123|199:152|265:114,1,241.500004606247,2|8,3:2|0:0,0:0:0:0:
82,195,120287,1,2,0:0:0:0:
288,257,120430,5,2,3:2:0:0:
106,374,120572,1,0,0:0:0:0:
173,130,120715,2,0,L|188:262,1,120.750002303124,2|0,0:0|0:3,0:0:0:0:
228,317,120930,1,0,0:3:0:0:
242,326,121001,1,2,0:2:0:0:
388,138,121144,1,0,3:3:0:0:
90,88,121287,2,0,P|162:51|271:121,1,181.125003454685,10|0,0:0|0:0,0:0:0:0:
173,130,121572,5,2,3:2:0:0:
321,99,121715,2,0,P|288:103|248:88,1,60.3750011515618,2|2,0:0|0:0,0:0:0:0:
144,207,121858,2,0,B|151:258|151:258|156:264|156:264|167:339,1,120.750002303124,10|2,0:0|0:0,0:0:0:0:
56,350,122144,5,2,3:2:0:0:
249,236,122287,1,0,3:0:0:0:
45,104,122430,2,0,P|9:166|37:232,1,120.750002303124,12|0,0:0|0:0,0:0:0:0:
196,28,122715,5,2,3:2:0:0:
97,163,122858,1,0,3:0:0:0:
207,259,123001,1,8,0:0:0:0:
125,344,123144,1,0,3:0:0:0:
195,112,123287,5,2,1:2:0:0:
327,305,123430,1,0,3:0:0:0:
86,246,123572,2,0,L|221:260,1,120.750002303124,12|0,0:0|0:0,0:0:0:0:
428,184,123858,6,0,B|389:161|348:183|348:183|307:202|266:180,1,168,10|0,3:2|3:0,0:0:0:0:
314,110,124287,1,2,0:0:0:0:
387,254,124430,2,0,B|368:376|368:376|348:314,1,168,2|0,3:2|3:0,0:0:0:0:
460,315,124858,1,2,0:0:0:0:
288,253,125001,6,0,B|210:262|210:262|204:267|204:267|99:280,1,168,2|0,3:2|3:0,0:0:0:0:
211,343,125430,1,2,0:0:0:0:
139,196,125572,2,0,L|152:73,1,84,2|2,3:2|0:0,0:0:0:0:
32,149,125858,1,2,0:0:0:0:
205,42,126001,6,0,P|161:24|76:67,1,115.50000352478,10|2,0:2|3:2,0:0:0:0:
140,208,126287,1,8,0:3:0:0:
324,52,126430,2,0,P|270:70|217:51,1,115.50000352478,0|2,0:3|0:2,0:0:0:0:
214,141,126715,2,0,B|225:213|225:213|223:218|223:218|243:339,1,168,2|0,3:2|3:0,0:0:0:0:
426,253,127144,6,0,L|269:233,1,115.50000352478,10|2,0:2|3:2,0:0:0:0:
123,320,127430,2,0,L|279:300,1,115.50000352478,8|0,0:3|3:0,0:0:0:0:
335,339,127715,1,2,0:0:0:0:
214,209,127858,1,2,3:2:0:0:
372,54,128001,2,0,B|364:109|364:109|366:115|366:115|357:187,1,115.50000352478,10|2,0:0|3:2,0:0:0:0:
175,42,128287,1,14,0:0:0:0:
106,118,128430,6,0,B|188:124|188:124|194:122|194:122|303:133,1,173.250005287171,2|0,3:2|0:0,0:0:0:0:
214,209,128715,2,0,P|194:260|215:319,1,115.50000352478,8|0,3:2|0:0,0:0:0:0:
411,311,129001,1,2,3:2:0:0:
276,264,129144,1,8,3:2:0:0:
131,333,129287,2,0,B|26:323|26:323|51:318|71:297,1,141.749995674133,0|0,3:3|0:0,0:0:0:0:
18,247,129572,6,0,B|-7:161|-7:161|46:55,1,173.250005287171,10|0,0:2|0:0,0:0:0:0:
37,80,129858,1,0,3:0:0:0:
82,170,130144,1,2,3:2:0:0:
32,252,130430,1,0,3:0:0:0:
206,151,130572,6,0,P|149:141|84:175,1,115.50000352478,8|2,0:3|0:0,0:0:0:0:
287,222,130858,1,8,0:3:0:0:
112,313,131001,2,0,P|168:322|233:288,1,115.50000352478,10|0,3:2|0:0,0:0:0:0:
156,219,131287,1,10,0:0:0:0:
159,231,131358,1,8,0:0:0:0:
163,246,131430,1,8,0:0:0:0:
353,165,131572,2,0,P|372:214|325:306,1,115.50000352478,2|0,3:2|0:0,0:0:0:0:
287,222,131858,5,2,3:2:0:0:
427,136,132144,1,2,3:2:0:0:
431,302,132430,1,2,3:2:0:0:
238,143,132572,1,8,0:0:0:0:
204,188,132643,1,8,0:0:0:0:
203,245,132714,1,10,0:0:0:0:
237,291,132786,1,8,0:0:0:0:
291,308,132857,1,8,0:0:0:0:
300,290,132930,1,8,0:0:0:0:
307,272,133001,6,0,B|188:298|188:298|127:278,1,173.250005287171,6|0,3:2|0:0,0:0:0:0:
39,197,133287,2,0,B|116:185|116:185|124:180|124:180|226:164,1,173.250005287171,10|0,0:0|0:0,0:0:0:0:
297,151,133572,2,0,P|270:105|202:77,1,115.50000352478,2|2,3:2|0:0,0:0:0:0:
107,96,133858,1,10,0:0:0:0:
304,138,134001,1,2,0:0:0:0:
118,206,134144,6,0,L|135:348,1,115.50000352478,2|2,3:2|0:0,0:0:0:0:
5,276,134430,1,8,0:0:0:0:
214,239,134572,2,0,B|265:246|265:246|273:251|273:251|326:259,1,115.50000352478,2|0,0:0|3:0,0:0:0:0:
232,343,134858,1,2,0:0:0:0:
381,180,135001,2,0,P|415:219|419:293,1,115.50000352478,10|2,0:0|0:0,0:0:0:0:
254,99,135287,6,0,B|294:121|336:101|336:101|381:79|420:104,1,173.250005287171,2|0,3:2|0:0,0:0:0:0:
465,40,135572,2,0,P|394:12|280:43,1,173.250005287171,10|0,0:0|0:0,0:0:0:0:
215,71,135858,2,0,P|249:111|323:113,1,115.50000352478,2|2,3:2|0:0,0:0:0:0:
123,32,136144,1,10,0:0:0:0:
147,208,136287,1,2,0:0:0:0:
324,232,136430,6,0,B|315:180|315:180|317:173|317:173|304:93,1,115.50000352478,2|2,3:2|0:0,0:0:0:0:
435,194,136715,1,8,0:0:0:0:
240,301,136858,2,0,L|391:319,1,115.50000352478,2|0,0:0|0:0,0:0:0:0:
191,373,137144,5,10,0:0:0:0:
169,346,137215,1,8,0:0:0:0:
159,313,137286,1,10,0:0:0:0:
161,278,137358,1,8,0:0:0:0:
176,247,137429,1,10,0:0:0:0:
178,212,137501,1,8,0:0:0:0:
169,184,137572,6,0,L|260:193,1,77.0000023498536,2|2,3:2|0:0,0:0:0:0:
318,126,137763,5,0,0:0:0:0:
318,126,137858,2,0,L|341:199,1,77.0000023498536,10|2,0:0|0:0,0:0:0:0:
435,237,138049,5,2,0:0:0:0:
435,237,138144,2,0,L|366:298,1,77.0000023498536,10|2,0:0|0:0,0:0:0:0:
381,384,138334,5,2,0:0:0:0:
381,384,138429,2,0,L|296:346,1,77.0000023498536,10|2,0:0|0:0,0:0:0:0:
220,384,138620,5,2,0:0:0:0:
220,384,138715,2,0,L|219:291,1,77.0000023498536,10|0,0:0|0:0,0:0:0:0:
282,262,138906,5,2,0:0:0:0:
282,262,139001,5,10,0:0:0:0:
210,234,139096,5,2,0:0:0:0:
145,274,139191,5,2,0:0:0:0:
76,239,139287,6,0,L|91:124,1,77.0000023498536,10|0,0:0|0:0,0:0:0:0:
175,21,139477,5,2,0:0:0:0:
175,21,139573,2,0,L|157:151,1,115.50000352478,10|10,0:0|0:0,0:0:0:0:
253,126,139787,5,8,0:0:0:0:
265,124,139858,2,0,B|312:105|358:138|358:138|391:165|459:140,1,173.250005287171,6|0,3:2|0:0,0:0:0:0:
429,149,140144,2,4,P|369:182|336:265,1,141.749995674133,6|0,3:2|0:0,0:0:0:0:
338,245,140430,2,0,P|319:193|278:157,1,110.249996635437,6|0,3:2|0:0,0:0:0:0:
278,157,140715,2,0,P|316:165|364:151,1,78.75,6|0,3:2|0:0,0:0:0:0:
354,156,141001,5,2,3:2:0:0:
462,281,141144,1,8,0:0:0:0:
452,294,141215,1,8,0:0:0:0:
442,309,141287,2,0,L|363:317,1,78.7500030040742,10|0,0:0|3:0,0:0:0:0:
268,278,141572,1,10,0:0:0:0:
170,333,141715,1,0,3:0:0:0:
13,275,141858,1,12,0:0:0:0:
186,192,151287,6,0,B|220:169|259:192|259:192|307:214|334:189,1,157.500006008148,2|2,3:2|3:2,0:0:0:0:
400,129,151858,2,0,P|427:171|394:254,1,118.125004506111,2|0,3:2|0:0,0:0:0:0:
403,248,152144,2,0,B|374:282|394:320,1,78.7500030040742,2|2,3:2|0:2,0:0:0:0:
277,285,152430,5,2,3:2:0:0:
333,189,152572,1,2,0:0:0:0:
217,81,152715,1,2,3:2:0:0:
115,122,152858,1,2,0:0:0:0:
113,46,153001,2,0,B|14:46|5:202|128:202|128:202|201:147|271:197|271:197|342:258|429:162|429:162|383:193|332:187|332:187|335:225|315:261|315:261|307:252|307:252|255:328|186:297|186:297|169:292|146:294|146:294|190:286|213:247,1,1028.99996859741
258,188,155287,1,0,3:0:0:0:
273,175,155572,1,0,3:0:0:0:
287,165,155858,6,0,B|329:171|329:171|328:177|328:177|329:171|329:171|385:179|385:179|361:142,1,141.749995674133,2|0,3:2|0:0,0:0:0:0:
201,100,156144,2,0,P|179:165|222:253,1,141.749995674133,2|0,3:2|0:0,0:0:0:0:
240,340,156430,1,10,3:2:0:0:
206,320,156501,1,8,0:0:0:0:
170,312,156572,1,8,0:0:0:0:
132,317,156644,1,8,0:0:0:0:
101,333,156715,2,0,P|70:340|24:315,1,57.7500017623902,10|8,3:2|0:0,0:0:0:0:
67,156,156858,5,8,0:0:0:0:
78,168,156930,1,8,0:0:0:0:
88,179,157001,2,8,L|77:275,1,57.7500017623902,10|8,3:2|0:0,0:0:0:0:
263,30,157144,1,8,0:0:0:0:
252,42,157216,1,8,0:0:0:0:
242,53,157287,2,8,L|252:148,1,57.7500017623902,10|8,3:2|0:0,0:0:0:0:
389,234,157430,1,8,0:0:0:0:
400,242,157501,1,8,0:0:0:0:
412,256,157572,5,10,3:2:0:0:
387,307,157643,1,8,0:0:0:0:
338,335,157714,1,8,0:0:0:0:
281,332,157786,1,8,0:0:0:0:
230,319,157858,2,8,P|202:315|170:326,1,57.7500017623902,8|8,3:2|0:0,0:0:0:0:
165,125,158001,1,8,0:0:0:0:
165,138,158072,1,8,0:0:0:0:
167,153,158144,6,0,B|215:150|215:150|267:122|267:122|235:180,1,157.5,10|0,0:0|0:0,0:0:0:0:
191,235,158430,1,2,3:2:0:0:
370,56,158572,6,0,B|260:30|260:30|193:67,1,157.5,10|0,0:0|0:0,0:0:0:0:
268,123,158858,1,2,3:2:0:0:
14,54,159001,6,0,B|7:19|7:19|33:46|33:46|15:97|15:97|18:104|18:104|-5:187,1,181.125003454685,10|0,0:0|0:0,0:0:0:0:
57,219,159287,1,2,3:2:0:0:
289,19,159430,5,8,0:0:0:0:
282,76,159501,1,8,0:0:0:0:
276,134,159572,1,8,0:0:0:0:
269,192,159644,1,8,0:0:0:0:
263,250,159715,1,8,0:0:0:0:
256,308,159787,1,8,0:0:0:0:
248,360,159858,2,0,P|279:349|312:353,1,60.3750011515618,2|0,0:0|0:0,0:0:0:0:
450,272,160001,2,0,P|420:283|387:279,1,60.3750011515618,2|0,0:0|0:0,0:0:0:0:
281,154,160144,6,0,B|266:263|266:263|308:227,1,141.749995674133,2|0,0:0|0:0,0:0:0:0:
184,252,160430,2,0,B|151:227|106:252|106:252|52:284|15:250,1,181.125003454685,10|0,0:0|0:0,0:0:0:0:
62,190,160715,5,10,0:0:0:0:
84,170,160786,1,8,0:0:0:0:
89,134,160857,1,8,0:0:0:0:
56,89,160929,1,8,0:0:0:0:
4,106,161000,5,10,0:0:0:0:
72,130,161072,1,8,0:0:0:0:
139,102,161143,1,8,0:0:0:0:
215,118,161215,1,8,0:0:0:0:
275,78,161287,2,0,B|295:67|309:44|309:44|282:114|330:168,1,168,2|2,3:2|0:0,0:0:0:0:
212,284,161715,5,2,0:2:0:0:
394,91,161858,1,10,0:2:0:0:
198,289,162144,5,2,0:2:0:0:
462,291,162287,1,10,0:2:0:0:
446,301,162715,6,0,B|388:309|388:309|326:290|326:290|226:302,1,181.125003454685,6|0,3:2|0:0,0:0:0:0:
321,372,163001,1,8,0:0:0:0:
412,153,163144,1,2,0:0:0:0:
220,224,163287,2,0,B|294:214|294:214|334:185,1,120.750002303124,2|0,3:2|3:0,0:0:0:0:
247,45,163572,1,8,0:0:0:0:
204,230,163715,1,2,3:2:0:0:
395,349,163858,6,0,P|417:280|376:221,1,120.750002303124,2|0,0:0|3:0,0:0:0:0:
167,301,164144,2,0,B|208:322|252:294|252:294|294:264|338:289,1,181.125003454685,10|0,0:0|0:0,0:0:0:0:
307,357,164430,1,2,3:2:0:0:
166,154,164572,1,0,3:0:0:0:
39,363,164715,2,0,B|29:274|29:274|31:267|31:267|21:179,1,181.125003454685,10|0,0:0|0:0,0:0:0:0:
0,93,165001,6,0,B|140:78|140:78|69:127,1,181.125003454685,6|0,3:2|0:0,0:0:0:0:
166,153,165287,2,0,P|223:86|176:5,1,181.125003454685,10|0,0:0|0:0,0:0:0:0:
139,77,165572,1,2,3:2:0:0:
357,117,165715,1,0,3:0:0:0:
173,277,165858,2,0,L|158:158,1,120.750002303124,10|0,0:0|3:0,0:0:0:0:
424,65,166144,6,0,P|371:37|313:48,1,120.750002303124,2|0,0:0|3:0,0:0:0:0:
326,221,166430,2,0,B|339:253|339:253|350:168|350:168|355:169|355:169|350:167|350:167|359:93,1,181.125003454685,10|0,0:2|0:0,0:0:0:0:
277,116,166715,1,2,3:2:0:0:
416,266,166858,1,0,3:0:0:0:
154,309,167001,2,0,P|221:280|302:338,1,181.125003454685,10|0,0:0|0:0,0:0:0:0:
219,366,167287,6,0,B|160:359|160:359|120:321|120:321|51:312,1,181.125003454685,6|0,3:2|0:0,0:0:0:0:
104,238,167572,2,0,B|90:144|90:144|94:137|94:137|78:33,1,181.125003454685,10|0,0:0|0:0,0:0:0:0:
6,133,167858,1,2,3:2:0:0:
249,219,168001,1,0,3:0:0:0:
448,85,168144,2,0,B|370:62|370:62|328:80,1,120.750002303124,10|0,0:0|3:0,0:0:0:0:
103,324,168430,5,10,3:2:0:0:
440,166,168572,1,0,3:0:0:0:
54,66,168715,2,0,B|112:70|112:70|142:58|142:58|173:68|173:68|230:60,1,181.125003454685,10|0,0:0|0:0,0:0:0:0:
148,140,169001,1,2,3:2:0:0:
218,276,169144,1,8,0:0:0:0:
205,284,169215,1,8,0:0:0:0:
192,293,169287,1,8,0:0:0:0:
316,53,169430,5,8,0:0:0:0:
326,61,169501,1,8,0:0:0:0:
337,70,169572,6,0,B|320:102|333:135|333:135|317:180|317:180|336:217|323:243,1,181.125003454685,14|0,3:2|0:0,0:0:0:0:
409,102,169858,2,0,P|442:53|499:37,1,120.750002303124,10|2,0:0|0:0,0:0:0:0:
405,268,170144,2,0,P|371:316|314:332,1,120.750002303124,10|2,0:0|0:0,0:0:0:0:
246,127,170430,5,10,0:0:0:0:
246,127,170572,1,2,3:2:0:0:
76,225,170715,5,10,0:0:0:0:
335,155,170858,1,2,3:2:0:0:
272,39,171001,1,10,0:0:0:0:
121,331,171144,1,2,3:2:0:0:
328,243,171287,5,10,0:0:0:0:
76,225,171430,1,2,3:2:0:0:
156,129,171572,1,10,0:0:0:0:
310,353,171715,1,2,3:2:0:0:
454,141,171858,6,2,L|303:158,1,120.750002303124,10|2,0:0|0:0,0:0:0:0:
152,44,172144,2,2,L|302:61,1,120.750002303124,10|2,0:0|0:0,0:0:0:0:
51,134,172430,5,10,0:0:0:0:
51,134,172572,1,2,3:2:0:0:
282,348,172715,5,10,0:0:0:0:
373,296,172858,1,2,3:2:0:0:
105,203,173001,1,10,0:0:0:0:
127,308,173144,1,2,3:2:0:0:
382,200,173287,6,0,B|388:150|388:150|379:134|379:134|387:82,1,120.750002303124,10|2,0:2|3:2,0:2:0:0:
174,32,173572,2,0,B|181:83|181:83|172:99|172:99|179:149,1,120.750002303124,10|2,0:2|3:2,0:2:0:0:
395,206,173858,5,8,0:0:0:0:
238,285,174001,1,0,3:0:0:0:
472,265,174144,5,10,0:0:0:0:
147,228,174287,1,2,3:2:0:0:
159,226,174358,1,0,0:0:0:0:
170,224,174430,5,10,0:0:0:0:
123,328,174572,1,2,3:2:0:0:
19,32,174715,5,10,0:0:0:0:
87,177,174858,1,0,3:0:0:0:
324,32,175001,5,10,0:0:0:0:
161,56,175144,1,0,3:0:0:0:
209,300,175287,5,10,0:0:0:0:
254,131,175430,1,0,3:0:0:0:
15,270,175572,5,10,0:0:0:0:
151,356,175715,1,0,3:0:0:0:
157,158,175858,5,10,0:0:0:0:
119,261,176001,1,0,3:0:0:0:
373,119,176144,6,0,B|318:126|318:126|310:123|310:123|253:131,1,120.750002303124,10|0,0:0|3:0,0:0:0:0:
55,43,176430,2,0,B|110:50|110:50|118:47|118:47|175:55,1,120.750002303124,10|0,0:0|3:0,0:0:0:0:
280,225,176715,5,8,0:0:0:0:
441,62,176858,2,0,P|385:40|329:58,1,120.750002303124,2|10,3:2|0:0,0:0:0:0:
280,225,177144,5,0,3:0:0:0:
469,370,177287,2,0,B|457:284|457:284|479:253,1,120.750002303124,8|2,0:0|3:2,0:0:0:0:
383,125,177572,6,0,B|408:207|408:207|388:235,1,120.750002303124,10|0,0:0|3:0,0:0:0:0:
220,319,177858,1,6,0:2:0:0:
90,220,178001,1,0,0:3:0:0:
87,208,178072,1,0,0:3:0:0:
83,194,178144,1,2,0:2:0:0:
154,49,178287,1,0,3:3:0:0:
269,162,178430,2,0,B|288:245|288:245|292:250|292:250|313:338,1,181.125003454685,14|0,0:0|0:0,0:0:0:0:
325,337,178715,5,2,3:2:0:0:
162,231,178858,1,0,0:0:0:0:
279,160,179001,1,8,0:0:0:0:
246,31,179144,1,0,0:0:0:0:
116,21,179287,1,2,3:2:0:0:
65,145,179430,1,0,3:0:0:0:
174,236,179572,2,0,B|229:244|229:244|236:248|236:248|293:258,1,120.750002303124,12|0,0:0|0:0,0:0:0:0:
376,50,179858,5,2,3:2:0:0:
228,164,180001,1,0,3:0:0:0:
322,364,180144,2,0,P|336:306|308:254,1,120.750002303124,8|0,0:0|3:0,0:0:0:0:
99,259,180430,1,10,1:2:0:0:
255,321,180572,1,0,3:0:0:0:
369,147,180715,2,0,B|357:226|357:226|322:249,1,120.750002303124,12|0,0:0|0:0,0:0:0:0:
123,73,181001,6,0,B|120:111|66:173|66:173|103:156|141:170,1,188.999994232178,10|0,3:2|3:0,0:0:0:0:
244,197,181430,1,10,0:0:0:0:
217,7,181572,2,0,B|219:71|269:113|269:113|230:105|185:131,1,188.999994232178,10|0,3:2|3:2,0:0:0:0:
244,206,182001,1,10,0:0:0:0:
54,274,182144,6,0,P|113:251|149:322,1,141.749995674133,10|0,3:2|0:0,0:0:0:0:
153,306,182430,2,0,P|99:262|146:198,1,141.749995674133,10|0,3:2|0:0,0:0:0:0:
129,203,182715,2,0,P|115:264|40:261,1,141.749995674133,10|0,3:2|0:0,0:0:0:0:
146,352,183001,1,0,0:0:0:0:
353,315,183144,1,10,0:2:0:0:
353,315,183287,6,0,B|287:307|287:307|281:304|281:304|187:292,1,141.749995674133,10|0,3:2|0:0,0:0:0:0:
235,209,183572,2,0,B|300:201|300:201|307:198|307:198|401:186,1,141.749995674133,10|0,3:2|0:0,0:0:0:0:
294,105,183858,1,10,3:2:0:0:
147,204,184001,1,8,0:0:0:0:
147,223,184073,1,8,0:0:0:0:
154,239,184144,1,8,0:0:0:0:
21,128,184287,1,8,0:0:0:0:
205,139,184430,6,0,B|234:105|231:66|231:66|252:100|295:106,1,157.5,6|0,3:2|0:0,0:0:0:0:
371,142,184715,2,0,P|369:67|305:28,1,157.5,10|0,3:2|0:0,0:0:0:0:
233,67,185001,2,0,B|186:60|186:60|181:57|181:57|120:49|120:49,1,105,2|2,3:2|0:0,0:0:0:0:
101,120,185215,1,2,0:0:0:0:
110,131,185287,1,10,0:0:0:0:
273,293,185430,1,2,0:0:0:0:
239,153,185572,5,2,3:2:0:0:
106,352,185715,1,2,0:0:0:0:
26,231,185858,1,10,0:0:0:0:
282,288,186001,2,0,L|402:274,1,105,2|0,0:0|3:0,0:0:0:0:
210,245,186287,1,2,0:0:0:0:
210,245,186358,1,0,0:0:0:0:
210,245,186430,2,0,P|202:311|241:366,1,105,10|0,0:0|0:0,0:0:0:0:
324,165,186715,6,0,B|289:193|244:168|244:168|205:150|174:171,1,157.5,2|0,3:2|0:0,0:0:0:0:
109,217,187001,2,0,P|102:133|173:86,1,157.5,10|0,3:2|0:0,0:0:0:0:
181,165,187287,1,2,3:2:0:0:
299,34,187430,1,2,0:0:0:0:
296,44,187501,1,2,0:0:0:0:
291,53,187572,1,10,0:0:0:0:
109,217,187715,1,2,0:0:0:0:
336,157,187858,5,2,3:2:0:0:
79,102,188001,1,2,0:0:0:0:
240,259,188144,1,10,0:0:0:0:
186,29,188287,2,0,L|203:157,1,105,2|0,0:0|3:0,0:0:0:0:
179,312,188572,1,2,0:0:0:0:
188,322,188644,1,0,0:0:0:0:
200,330,188715,2,0,P|255:339|325:295,1,105,10|2,0:0|0:0,0:0:0:0:
93,206,189001,6,0,B|101:278|101:278|99:284|99:284|108:363,1,157.5,6|0,3:2|0:0,0:0:0:0:
25,309,189287,2,0,B|16:221|16:221|11:222|11:222|16:221|16:221|9:139,1,157.5,10|0,3:2|0:0,0:0:0:0:
96,117,189572,2,0,B|147:121|147:121|201:104,1,105,2|2,3:2|0:0,0:0:0:0:
141,37,189787,1,2,0:0:0:0:
141,50,189858,1,10,0:0:0:0:
284,135,190001,1,2,0:0:0:0:
161,250,190144,5,2,3:2:0:0:
20,174,190287,1,2,0:0:0:0:
198,121,190430,1,10,0:0:0:0:
156,331,190572,2,0,B|217:323|217:323|265:336,1,105,2|0,0:0|3:0,0:0:0:0:
412,379,190858,1,2,0:0:0:0:
422,384,190930,1,0,0:0:0:0:
422,384,191001,2,0,P|440:336|428:286,1,105,10|2,0:0|0:0,0:0:0:0:
275,71,191287,6,0,B|296:107|277:144|277:144|252:197|292:261,1,157.5,2|0,3:2|0:0,0:0:0:0:
347,182,191572,2,0,B|415:174|415:174|420:169|420:169|425:172|425:172|459:169|459:169|424:192,1,157.5,10|0,3:2|0:0,0:0:0:0:
355,264,191858,1,2,3:2:0:0:
208,105,192001,1,2,0:0:0:0:
196,111,192072,1,2,0:0:0:0:
185,116,192144,1,10,0:0:0:0:
51,301,192287,6,0,P|120:269|196:313,1,157.5,2|0,0:0|0:0,0:0:0:0:
120,349,192572,1,2,0:0:0:0:
25,201,192715,1,10,0:0:0:0:
122,59,192858,1,2,0:0:0:0:
209,199,193001,1,2,3:2:0:0:
278,32,193144,5,10,0:0:0:0:
307,62,193215,1,8,0:0:0:0:
329,97,193287,1,10,0:0:0:0:
345,136,193358,1,8,0:0:0:0:
353,177,193429,1,10,0:0:0:0:
353,219,193501,1,8,0:0:0:0:
345,260,193572,6,0,B|297:264|297:264|270:277|270:277|240:268|240:268|155:277,1,157.5,6|0,3:2|0:0,0:0:0:0:
140,345,193858,2,0,P|104:277|129:205,1,157.5,10|0,3:2|0:0,0:0:0:0:
217,181,194144,2,0,B|224:132|224:132|227:128|227:128|237:63,1,105,2|2,3:2|0:0,0:0:0:0:
150,91,194358,1,2,0:0:0:0:
141,99,194430,1,10,0:0:0:0:
364,167,194572,1,2,0:0:0:0:
126,217,194715,5,2,3:2:0:0:
313,67,194858,1,2,0:0:0:0:
258,286,195001,1,10,0:0:0:0:
126,95,195144,2,0,L|17:103,1,105,2|0,0:0|3:0,0:0:0:0:
191,42,195430,1,2,0:0:0:0:
199,48,195501,1,0,0:0:0:0:
199,48,195572,2,0,P|213:115|169:174,1,105,10|2,0:0|0:0,0:0:0:0:
11,213,195858,6,0,P|62:176|165:227,1,157.5,2|0,3:2|0:0,0:0:0:0:
83,247,196144,2,0,B|94:362|94:362|120:303,1,157.5,10|0,3:2|0:0,0:0:0:0:
186,302,196430,1,2,3:2:0:0:
77,170,196572,1,2,0:0:0:0:
82,157,196644,1,2,0:0:0:0:
87,143,196715,1,10,0:0:0:0:
295,77,196858,1,2,0:0:0:0:
168,187,197001,5,2,3:2:0:0:
206,38,197144,1,2,0:0:0:0:
272,245,197287,1,10,0:0:0:0:
122,26,197430,2,0,L|-15:45,1,105,2|0,0:0|3:0,0:0:0:0:
199,113,197715,1,10,0:0:0:0:
208,118,197787,1,8,0:0:0:0:
215,122,197858,2,0,B|260:128|260:128|266:133|266:133|349:144,1,105,2|14,3:2|0:0,0:0:0:0:
356,336,198144,6,0,B|308:321|308:321|249:330|249:330|174:309,1,157.5,2|0,3:2|0:0,0:0:0:0:
159,225,198430,2,0,B|254:252|254:252|339:240,1,157.5,10|0,3:2|0:0,0:0:0:0:
260,175,198715,2,0,B|213:162|213:162|206:154|206:154|148:137,1,105,2|2,3:2|0:0,0:0:0:0:
231,77,198930,1,2,0:0:0:0:
245,83,199001,1,10,0:0:0:0:
152,234,199144,1,2,0:0:0:0:
44,58,199287,5,2,3:2:0:0:
152,250,199430,1,2,0:0:0:0:
260,88,199572,1,10,0:0:0:0:
101,308,199715,2,0,P|146:329|199:311,1,105,2|0,0:0|3:0,0:0:0:0:
173,157,200001,1,2,0:0:0:0:
156,151,200072,1,0,0:0:0:0:
138,145,200144,2,0,L|152:258,1,105,10|0,0:2|0:0,0:0:0:0:
392,195,200430,6,0,B|320:207|320:207|314:206|314:206|219:223,1,157.5,2|0,3:2|0:0,0:0:0:0:
220,300,200715,2,0,B|220:337|220:337|255:295|255:295|320:284,1,157.5,10|0,3:2|0:0,0:0:0:0:
300,371,201001,1,2,3:2:0:0:
77,312,201144,1,2,0:0:0:0:
83,299,201215,1,2,0:0:0:0:
92,283,201287,1,10,0:0:0:0:
245,211,201430,6,0,B|239:161|239:161|199:109|199:109|192:38,1,157.5,2|0,0:0|0:0,0:0:0:0:
277,77,201715,1,2,0:0:0:0:
162,197,201858,1,10,0:0:0:0:
343,225,202001,1,2,0:0:0:0:
102,73,202144,1,2,3:2:0:0:
397,56,202287,1,10,0:0:0:0:
404,49,202358,1,8,0:0:0:0:
413,41,202430,2,0,P|377:46|331:23,1,52.5,10|8,0:0|0:0,0:0:0:0:
162,197,202572,2,8,P|191:188|215:191,1,52.5,10|8,0:0|0:0,0:0:0:0:
256,104,203001,5,10,0:0:0:0:
243,304,203287,6,0,B|206:244|246:176|246:176|279:106|233:78,1,210,10|0,0:0|0:0,0:0:0:0:
179,123,203715,5,2,0:2:0:0:
171,114,203787,1,0,0:3:0:0:
164,106,203858,2,0,B|99:120|99:120|31:96,1,105,2|2,0:2|0:2,0:0:0:0:
235,32,204144,1,10,3:2:0:0:
84,200,204287,1,2,3:2:0:0:
310,241,204430,1,10,0:0:0:0:
