osu file format v14

[General]
AudioFilename: audio.mp3
AudioLeadIn: 0
PreviewTime: 46750
Countdown: 0
SampleSet: Soft
StackLeniency: 0.5
Mode: 0
LetterboxInBreaks: 0
WidescreenStoryboard: 0

[Editor]
Bookmarks: 85,4084,9417,14750,20083,25417,30750,36083,41417,46750,52083,57417,62750,68083,70417
DistanceSpacing: 0.8
BeatDivisor: 4
GridSize: 8
TimelineZoom: 1.4

[Metadata]
Title:Taiyou Iwaku Moeyo Chaos (An-bootleg)
TitleUnicode:太陽曰く燃えよカオス (An-bootleg)
Artist:Ushirokara Haiyoritai G
ArtistUnicode:後ろから這いより隊G
Creator:Oriental
Version:Insane
Source:這いよれ!ニャル子さん
Tags:haiyore! nyaruko san nyaruko-san Remix op opening japanese electronic drum and bass dnb anime Nyaruko: Crawling With Love! Nyarko-san: Another ニャル子 阿澄佳奈 Asumi Kana 八坂真尋 Mahiro Yasaka 喜多村英梨 Kitamura Eri クー子 Cthuko 松来未祐 Matsuki Miyu ハス太 Hasuta 釘宮理恵 Kugimiya Rie 暮井珠緒 Kurei Tamao 大坪由佳 Ootsubo Yuka 余市健彦 Yoichi Takehiko 羽多野渉 Hatano Wataru ルーヒー・ジストーン Jistone Luhy 國府田マリ子 Kouda Mariko 八坂頼子 Yasaka Yoriko 久川綾 Hisakawa Aya
BeatmapID:2750923
BeatmapSetID:1327910

[Difficulty]
HPDrainRate:5
CircleSize:3.8
OverallDifficulty:8
ApproachRate:9
SliderMultiplier:1.7
SliderTickRate:1

[Events]
//Background and Video events
0,0,"bg.jpg",0,0
//Break Periods
//Storyboard Layer 0 (Background)
//Storyboard Layer 1 (Fail)
//Storyboard Layer 2 (Pass)
//Storyboard Layer 3 (Foreground)
//Storyboard Layer 4 (Overlay)
//Storyboard Sound Samples

[TimingPoints]
-1241,333.333333333333,4,2,1,50,1,0
1425,-100,4,2,1,60,0,0
4092,-100,4,2,1,70,0,0
9424,-100,4,2,1,60,0,0
46758,-83.3333333333333,4,2,1,80,0,1
68092,-100,4,2,1,70,0,0

[Colours]
Combo1 : 243,248,167
Combo2 : 245,207,150
Combo3 : 215,191,207
Combo4 : 146,241,220

[HitObjects]
79,101,1425,6,0,P|72:121|71:142,1,42.5,2|0,3:2|0:0,0:0:0:0:
62,111,1592,2,0,P|58:131|61:152,1,42.5,2|0,3:2|0:0,0:0:0:0:
119,216,1758,2,0,B|157:233|157:233|207:218,1,85,10|0,0:2|0:0,0:0:0:0:
256,157,2092,6,0,L|259:114,1,42.5,2|0,3:2|0:0,0:0:0:0:
269,151,2258,2,0,L|272:108,1,42.5,2|0,3:2|0:0,0:0:0:0:
333,48,2425,2,0,B|371:31|371:31|421:46,1,85,10|0,0:2|0:0,0:0:0:0:
471,114,2758,5,2,3:2:0:0:
471,114,2925,1,0,3:0:0:0:
432,189,3092,2,0,P|437:228|441:276,1,85,10|0,0:2|3:0,0:0:0:0:
352,211,3425,2,0,L|349:253,1,42.5,10|0,0:2|0:0,0:0:0:0:
279,303,3592,1,2,3:2:0:0:
276,295,3675,1,0,3:0:0:0:
271,288,3758,2,0,P|231:273|189:277,1,85,10|0,0:2|0:0,0:0:0:0:
55,339,4092,5,6,3:2:0:0:
55,339,4258,1,0,3:0:0:0:
92,224,4425,2,0,P|108:171|109:121,1,85,8|8,0:0|0:0,0:0:0:0:
114,98,4675,1,8,0:0:0:0:
114,98,4758,1,2,3:2:0:0:
191,30,4925,2,0,L|192:73,1,42.5,0|0,3:0|0:0,0:0:0:0:
260,124,5092,2,0,B|300:138|300:138|353:125,1,85,8|0,0:0|0:0,0:0:0:0:
377,105,5342,1,0,0:0:0:0:
377,105,5425,5,2,3:2:0:0:
420,32,5592,1,0,3:0:0:0:
495,123,5758,2,0,P|489:170|484:235,1,85,8|8,0:0|0:0,0:0:0:0:
480,249,6008,1,8,0:0:0:0:
480,249,6092,1,2,3:2:0:0:
402,334,6258,1,0,3:0:0:0:
402,334,6342,1,0,0:0:0:0:
402,334,6425,2,0,P|353:303|360:256,1,85,8|0,0:0|0:0,0:0:0:0:
407,176,6758,5,2,3:2:0:0:
407,176,6925,1,0,3:0:0:0:
356,69,7092,2,0,P|312:77|256:74,1,85,8|8,0:0|0:0,0:0:0:0:
229,68,7342,1,8,0:0:0:0:
229,68,7425,1,2,3:2:0:0:
153,9,7592,2,0,L|145:51,1,42.5,0|0,3:0|0:0,0:0:0:0:
93,117,7758,2,0,B|97:169|97:169|128:193,1,85,8|0,0:0|3:0,0:0:0:0:
160,209,8008,1,0,3:0:0:0:
160,209,8092,5,0,3:0:0:0:
333,192,8258,1,0,3:0:0:0:
184,288,8425,5,8,0:0:0:0:
263,145,8592,1,0,3:0:0:0:
347,284,8758,1,8,0:0:0:0:
272,325,8925,2,0,P|231:317|169:309,2,85,8|8|0,0:0|0:0|3:0,0:0:0:0:
404,353,9425,5,6,3:2:0:0:
472,303,9592,1,2,0:2:0:0:
472,303,9758,2,0,P|469:261|467:203,1,85,10|0,0:2|0:0,0:0:0:0:
358,119,10092,2,0,P|376:184|406:190,1,85,2|0,3:2|3:0,0:0:0:0:
432,68,10425,2,0,P|401:39|358:32,1,85,10|0,0:2|0:0,0:0:0:0:
236,71,10758,5,2,3:2:0:0:
236,71,10925,2,0,P|242:113|246:155,1,85,2|8,0:2|0:0,0:0:0:0:
197,224,11258,1,2,0:2:0:0:
46,186,11425,2,0,B|83:166|83:166|124:178,1,85,2|0,3:2|3:0,0:0:0:0:
158,304,11758,2,0,P|114:298|73:295,1,85,10|0,0:2|0:0,0:0:0:0:
197,224,12092,5,2,3:2:0:0:
281,275,12258,1,2,0:2:0:0:
281,275,12342,1,2,0:2:0:0:
281,275,12425,2,0,P|276:321|272:371,1,85,10|0,0:2|0:0,0:0:0:0:
401,308,12758,2,0,B|428:279|428:279|422:240|416:191,1,127.5,2|0,3:2|3:0,0:0:0:0:
406,177,13092,2,0,P|363:179|321:182,1,85,10|0,0:2|0:0,0:0:0:0:
192,194,13425,6,0,P|160:145|171:113,1,85,2|0,3:2|0:0,0:0:0:0:
190,88,13675,1,0,0:0:0:0:
190,88,13758,1,10,0:2:0:0:
322,106,13925,1,2,0:2:0:0:
309,190,14092,2,0,P|305:237|303:295,1,85,10|0,0:2|3:0,0:0:0:0:
435,377,14425,2,0,P|447:316|391:310,1,127.5,10|0,0:2|0:0,0:0:0:0:
383,315,14758,5,6,3:2:0:0:
229,354,14925,1,2,0:2:0:0:
229,354,15092,2,0,P|187:348|130:341,1,85,10|0,0:2|0:0,0:0:0:0:
45,243,15425,2,0,P|89:225|145:248,1,85,2|0,3:2|3:0,0:0:0:0:
37,341,15758,2,0,P|46:299|51:257,1,85,10|0,0:2|0:0,0:0:0:0:
25,144,16092,5,2,3:2:0:0:
83,82,16258,1,2,0:2:0:0:
83,82,16425,2,0,P|126:86|175:90,1,85,8|2,0:0|0:2,0:0:0:0:
302,119,16758,2,0,P|271:146|229:148,1,85,2|0,3:2|3:0,0:0:0:0:
379,77,17092,2,0,P|391:118|380:160,1,85,10|0,0:2|0:0,0:0:0:0:
271,246,17425,5,2,3:2:0:0:
315,332,17592,1,2,0:2:0:0:
315,332,17675,1,2,0:2:0:0:
315,332,17758,2,0,P|358:328|411:324,1,85,10|0,0:2|0:0,0:0:0:0:
473,219,18092,2,0,P|441:152|380:161,1,127.5,2|0,3:2|3:0,0:0:0:0:
380,158,18425,2,0,P|337:154|295:147,1,85,10|0,0:2|0:0,0:0:0:0:
181,94,18758,6,0,P|140:85|103:105,1,85,2|0,3:2|0:0,0:0:0:0:
71,134,19008,1,0,0:0:0:0:
71,134,19092,1,10,0:2:0:0:
214,173,19258,1,2,0:2:0:0:
175,249,19425,2,0,P|179:291|184:340,1,85,10|0,0:2|3:0,0:0:0:0:
290,220,19758,2,0,P|282:287|277:356,1,127.5,10|0,0:2|0:0,0:0:0:0:
286,356,20092,6,0,P|327:372|374:360,1,85,6|0,3:2|0:0,0:0:0:0:
439,257,20425,2,0,P|443:301|447:341,1,85,10|0,0:2|0:0,0:0:0:0:
333,287,20758,2,0,P|337:244|341:202,1,85,2|0,3:2|3:0,0:0:0:0:
342,189,21008,1,0,0:0:0:0:
343,176,21092,1,10,0:2:0:0:
255,120,21258,1,2,0:2:0:0:
348,96,21425,5,0,3:0:0:0:
248,207,21592,1,2,0:2:0:0:
248,207,21758,2,0,B|206:216|206:216|168:197,1,85,10|0,0:2|0:0,0:0:0:0:
28,94,22092,1,2,3:2:0:0:
163,116,22258,1,2,3:2:0:0:
64,191,22425,2,0,P|72:232|79:300,1,85,10|0,0:2|0:0,0:0:0:0:
45,355,22758,5,2,3:2:0:0:
163,293,22925,1,0,0:0:0:0:
163,293,23092,2,0,P|204:303|276:308,1,85,8|0,0:0|0:0,0:0:0:0:
337,221,23425,1,0,3:0:0:0:
337,221,23508,1,0,0:0:0:0:
337,221,23592,2,0,L|343:163,2,42.5,0|0|8,3:0|0:0|0:0,0:0:0:0:
328,306,23925,1,0,0:0:0:0:
254,208,24092,5,10,0:2:0:0:
411,277,24258,1,2,3:2:0:0:
411,277,24342,1,2,3:2:0:0:
411,277,24425,1,10,0:2:0:0:
230,322,24592,1,2,3:2:0:0:
337,221,24758,2,0,P|346:179|345:136,1,85,10|0,0:2|3:0,0:0:0:0:
161,83,25092,2,0,P|205:22|266:53,1,127.5,8|0,0:0|0:0,0:0:0:0:
258,41,25425,5,6,3:2:0:0:
250,177,25592,1,2,0:2:0:0:
250,177,25758,2,0,P|247:222|245:275,1,85,10|0,0:2|0:0,0:0:0:0:
144,340,26092,2,0,P|104:339|66:314,1,85,2|0,3:2|3:0,0:0:0:0:
152,189,26425,2,0,P|158:230|128:259,1,85,10|0,0:2|0:0,0:0:0:0:
62,168,26758,5,2,3:2:0:0:
101,91,26925,1,2,0:2:0:0:
101,91,27092,2,0,P|143:98|186:101,1,85,8|2,0:0|0:2,0:0:0:0:
325,64,27425,2,0,P|287:33|248:50,1,85,2|0,3:2|3:0,0:0:0:0:
234,176,27758,2,0,P|275:169|318:166,1,85,10|0,0:2|0:0,0:0:0:0:
438,212,28092,5,2,3:2:0:0:
398,294,28258,1,2,0:2:0:0:
398,294,28342,1,2,0:2:0:0:
398,294,28425,2,0,P|351:288|281:282,1,85,10|0,0:2|0:0,0:0:0:0:
186,342,28758,2,0,P|128:325|121:266,1,127.5,2|0,3:2|3:0,0:0:0:0:
134,254,29092,2,0,P|153:216|153:174,1,85,10|0,0:2|0:0,0:0:0:0:
36,84,29425,6,0,P|82:92|126:92,1,85,2|0,3:2|0:0,0:0:0:0:
160,77,29675,1,0,0:0:0:0:
160,77,29758,1,10,0:2:0:0:
291,17,29925,1,2,0:2:0:0:
379,39,30092,2,0,P|409:66|410:108,1,85,10|0,0:2|3:0,0:0:0:0:
288,220,30425,2,0,P|224:210|161:204,1,127.5,10|0,0:2|0:0,0:0:0:0:
148,213,30758,5,6,3:2:0:0:
40,274,30925,1,2,0:2:0:0:
40,274,31092,2,0,P|31:320|63:349,1,85,10|0,0:2|0:0,0:0:0:0:
203,314,31425,2,0,P|164:299|122:296,1,85,2|0,3:2|3:0,0:0:0:0:
269,367,31758,2,0,P|288:329|282:287,1,85,10|0,0:2|0:0,0:0:0:0:
202,183,32092,5,2,3:2:0:0:
250,113,32258,1,2,0:2:0:0:
250,113,32425,2,0,P|293:119|359:125,1,85,8|2,0:0|0:2,0:0:0:0:
469,83,32758,2,0,P|398:60|382:79,1,85,2|0,3:2|3:0,0:0:0:0:
383,193,33092,2,0,P|388:235|391:277,1,85,10|0,0:2|0:0,0:0:0:0:
292,341,33425,5,2,3:2:0:0:
204,305,33592,1,2,0:2:0:0:
204,305,33675,1,2,0:2:0:0:
204,305,33758,2,0,B|186:267|186:267|198:226,1,85,10|0,0:2|0:0,0:0:0:0:
302,132,34092,2,0,P|237:139|136:148,1,127.5,2|0,3:2|3:0,0:0:0:0:
162,153,34425,2,0,P|133:123|134:81,1,85,10|0,0:2|0:0,0:0:0:0:
245,24,34758,6,0,P|341:37|360:37,1,85,2|0,3:2|0:0,0:0:0:0:
371,37,35008,1,0,0:0:0:0:
371,37,35092,1,10,0:2:0:0:
432,116,35258,1,2,0:2:0:0:
395,208,35425,2,0,P|352:212|311:220,1,85,10|0,0:2|3:0,0:0:0:0:
233,333,35758,1,10,0:2:0:0:
343,303,35925,1,0,0:0:0:0:
201,251,36092,6,0,P|209:208|210:150,1,85,6|0,3:2|0:0,0:0:0:0:
95,96,36425,2,0,P|93:136|125:161,1,85,10|0,0:2|0:0,0:0:0:0:
278,116,36758,2,0,P|233:83|191:83,1,85,2|0,3:2|3:0,0:0:0:0:
193,86,37008,1,0,0:0:0:0:
182,91,37092,1,10,0:2:0:0:
44,164,37258,1,2,0:2:0:0:
72,255,37425,5,0,3:0:0:0:
72,255,37592,2,0,P|116:249|165:244,1,85,0|8,0:0|0:0,0:0:0:0:
265,283,37925,2,0,P|277:328|249:360,1,85,0|0,0:0|3:0,0:0:0:0:
223,191,38258,1,0,3:0:0:0:
223,191,38425,2,0,P|267:196|316:202,1,85,8|0,0:0|0:0,0:0:0:0:
420,155,38758,6,0,P|444:106|423:67,1,85,2|0,3:2|0:0,0:0:0:0:
325,29,39092,2,0,P|283:39|226:45,1,85,10|0,0:2|0:0,0:0:0:0:
147,123,39425,2,0,P|74:105|53:75,1,85,2|0,3:2|3:0,0:0:0:0:
61,89,39675,1,0,0:0:0:0:
55,78,39758,1,10,0:2:0:0:
131,41,39925,1,2,0:2:0:0:
232,125,40092,6,0,P|229:174|224:230,1,85,10|2,0:2|3:2,0:0:0:0:
220,252,40342,1,2,3:2:0:0:
220,252,40425,1,10,0:2:0:0:
100,349,40592,1,2,3:2:0:0:
273,323,40758,2,0,P|322:331|369:357,1,85,10|0,0:2|3:0,0:0:0:0:
107,355,41092,2,0,P|149:349|187:333,1,85,10|0,0:2|0:0,0:0:0:0:
23,260,41425,6,0,P|19:216|44:178,1,85,2|0,3:2|0:0,0:0:0:0:
210,176,41758,2,0,P|167:172|126:161,1,85,10|0,0:2|0:0,0:0:0:0:
15,86,42092,2,0,P|56:75|98:71,1,85,2|0,3:2|3:0,0:0:0:0:
111,74,42342,1,0,0:0:0:0:
123,79,42425,1,10,0:2:0:0:
220,165,42592,1,2,0:2:0:0:
147,231,42758,5,0,3:0:0:0:
147,231,42925,2,0,P|153:273|158:325,1,85,2|10,0:2|0:2,0:0:0:0:
273,346,43258,1,0,0:0:0:0:
315,219,43425,1,2,3:2:0:0:
233,273,43592,1,2,3:2:0:0:
361,366,43758,2,0,P|365:323|371:281,1,85,10|0,0:2|0:0,0:0:0:0:
442,224,44092,1,2,3:2:0:0:
227,283,44425,5,8,0:0:0:0:
241,167,44592,1,0,0:0:0:0:
241,167,44758,2,0,P|246:120|249:65,1,85,2|0,3:2|0:0,0:0:0:0:
151,35,45092,1,8,0:0:0:0:
151,35,45175,1,0,0:0:0:0:
151,35,45258,1,0,3:0:0:0:
51,70,45425,6,0,P|36:114|64:153,1,85,2|2,3:2|0:2,0:0:0:0:
143,252,45758,1,2,3:2:0:0:
48,233,45925,1,0,0:0:0:0:
19,346,46092,2,0,P|61:342|103:338,1,85,2|0,3:2|3:0,0:0:0:0:
116,336,46342,1,0,3:0:0:0:
128,334,46425,2,0,P|165:354|206:346,1,85,8|0,0:0|0:0,0:0:0:0:
266,281,46758,5,6,3:2:0:0:
199,188,46925,1,0,0:0:0:0:
199,188,47092,2,0,P|206:124|210:57,1,101.999996887207,10|0,0:2|0:0,0:0:0:0:
346,166,47425,1,2,3:2:0:0:
346,166,47508,1,0,0:0:0:0:
346,166,47592,2,0,L|295:171,1,50.9999984436036,0|0,3:0|0:0,0:0:0:0:
314,83,47758,2,0,B|364:71|364:71|416:101,1,101.999996887207,10|0,0:2|0:0,0:0:0:0:
460,259,48092,5,0,3:0:0:0:
480,151,48258,2,0,P|473:201|466:252,1,101.999996887207,2|10,0:2|0:2,0:0:0:0:
396,310,48592,1,0,0:0:0:0:
304,216,48758,1,2,3:2:0:0:
304,216,48842,1,0,0:0:0:0:
304,216,48925,2,0,P|310:250|312:284,1,50.9999984436036,0|0,3:0|0:0,0:0:0:0:
386,167,49092,2,0,P|320:165|219:155,1,152.999995330811,10|0,0:2|0:0,0:0:0:0:
219,151,49425,5,0,3:0:0:0:
87,201,49592,2,0,P|78:249|127:279,1,101.999996887207,2|10,0:2|0:2,0:0:0:0:
219,242,49925,1,0,0:0:0:0:
132,127,50092,1,2,3:2:0:0:
132,127,50175,1,0,0:0:0:0:
132,127,50258,2,0,L|137:57,1,50.9999984436036,0|0,3:0|0:0,0:0:0:0:
208,29,50425,2,0,B|257:16|257:16|304:35,1,101.999996887207,10|0,0:2|0:0,0:0:0:0:
419,86,50758,5,2,3:2:0:0:
338,216,50925,1,2,0:2:0:0:
281,116,51092,1,8,0:0:0:0:
439,172,51258,1,10,0:2:0:0:
437,182,51342,1,8,0:0:0:0:
435,192,51425,6,0,P|431:222|426:262,1,50.9999984436036,10|0,0:2|0:0,0:0:0:0:
362,351,51592,2,0,P|358:320|353:281,1,50.9999984436036,2|0,3:2|0:0,0:0:0:0:
358,154,51758,6,0,P|354:184|349:224,1,50.9999984436036,10|0,0:2|0:0,0:0:0:0:
278,338,51925,2,0,P|274:307|269:268,1,50.9999984436036,2|0,3:2|0:0,0:0:0:0:
281,116,52092,5,6,3:2:0:0:
200,194,52258,1,0,0:0:0:0:
200,194,52425,2,0,P|149:183|80:177,1,101.999996887207,10|0,0:2|0:0,0:0:0:0:
202,42,52758,1,2,3:2:0:0:
202,42,52842,1,0,0:0:0:0:
202,42,52925,2,0,P|200:72|196:95,1,50.9999984436036,0|0,3:0|0:0,0:0:0:0:
290,123,53092,2,0,P|310:76|290:31,1,101.999996887207,10|0,0:2|0:0,0:0:0:0:
185,99,53425,5,0,3:0:0:0:
242,219,53592,2,0,P|294:209|344:209,1,101.999996887207,2|10,0:2|0:2,0:0:0:0:
432,151,53925,1,0,0:0:0:0:
496,238,54092,1,2,3:2:0:0:
496,238,54175,1,0,0:0:0:0:
496,238,54258,2,0,P|495:265|493:290,1,50.9999984436036,0|0,3:0|0:0,0:0:0:0:
434,351,54425,2,0,B|354:366|374:303|292:315,1,152.999995330811,10|0,0:2|0:0,0:0:0:0:
281,327,54758,5,0,3:0:0:0:
141,365,54925,2,0,P|184:332|195:256,1,101.999996887207,2|10,0:2|0:2,0:0:0:0:
125,213,55258,1,0,0:0:0:0:
41,276,55425,1,2,3:2:0:0:
41,276,55508,1,0,0:0:0:0:
41,276,55592,2,0,P|36:237|29:195,1,50.9999984436036,0|0,3:0|0:0,0:0:0:0:
65,140,55758,2,0,B|90:118|90:118|157:128,1,101.999996887207,10|0,0:2|0:0,0:0:0:0:
239,179,56092,5,2,3:2:0:0:
345,329,56425,1,2,3:2:0:0:
423,164,56758,1,2,3:2:0:0:
418,155,56842,1,0,0:0:0:0:
413,146,56925,1,2,3:2:0:0:
367,68,57092,2,0,P|316:73|265:75,1,101.999996887207,10|0,0:2|3:0,0:0:0:0:
254,73,57342,1,0,3:0:0:0:
243,70,57425,5,6,3:2:0:0:
134,39,57592,1,0,0:0:0:0:
134,39,57758,2,0,P|88:56|75:104,1,101.999996887207,10|0,0:2|0:0,0:0:0:0:
69,258,58092,1,2,3:2:0:0:
69,258,58175,1,0,0:0:0:0:
69,258,58258,2,0,P|101:250|131:247,1,50.9999984436036,0|0,3:0|0:0,0:0:0:0:
30,173,58425,2,0,B|76:150|76:150|137:164,1,101.999996887207,10|0,0:2|0:0,0:0:0:0:
206,278,58758,5,0,3:0:0:0:
211,167,58925,2,0,P|212:217|216:268,1,101.999996887207,2|10,0:2|0:2,0:0:0:0:
287,323,59258,1,0,0:0:0:0:
363,213,59425,1,2,3:2:0:0:
363,213,59508,1,0,0:0:0:0:
363,213,59592,2,0,P|361:243|358:264,1,50.9999984436036,0|0,3:0|0:0,0:0:0:0:
311,134,59758,2,0,B|326:121|326:121|333:115|341:114|341:114|377:118|415:127|415:127|423:129|428:137|428:137|439:159,1,152.999995330811,10|0,0:2|0:0,0:0:0:0:
445,178,60092,5,0,3:0:0:0:
420,316,60258,2,0,P|377:343|327:339,1,101.999996887207,2|10,0:2|0:2,0:0:0:0:
226,260,60592,1,0,0:0:0:0:
149,350,60758,1,2,3:2:0:0:
149,350,60842,1,0,0:0:0:0:
149,350,60925,2,0,P|146:325|143:300,1,50.9999984436036,0|0,3:0|0:0,0:0:0:0:
210,158,61092,2,0,B|230:205|230:205|216:254,1,101.999996887207,10|0,0:2|0:0,0:0:0:0:
67,259,61425,5,2,3:2:0:0:
69,147,61592,2,0,P|65:197|59:286,1,101.999996887207,2|8,0:2|0:0,0:0:0:0:
121,73,61925,1,2,0:2:0:0:
210,158,62092,6,0,P|236:160|261:155,1,50.9999984436036,10|0,0:2|0:0,0:0:0:0:
391,81,62258,2,0,P|366:76|340:77,1,50.9999984436036,2|0,3:2|0:0,0:0:0:0:
248,16,62425,6,0,P|252:48|254:107,1,50.9999984436036,10|0,0:2|0:0,0:0:0:0:
350,164,62592,2,0,P|346:196|344:255,1,50.9999984436036,2|0,3:2|0:0,0:0:0:0:
216,253,62758,5,6,3:2:0:0:
278,342,62925,1,0,0:0:0:0:
278,342,63092,2,0,P|324:335|392:329,1,101.999996887207,10|0,0:2|0:0,0:0:0:0:
447,215,63425,1,2,3:2:0:0:
447,215,63508,1,0,0:0:0:0:
447,215,63592,2,0,P|442:251|437:304,1,50.9999984436036,0|0,3:0|0:0,0:0:0:0:
410,130,63758,2,0,P|361:118|325:158,1,101.999996887207,10|0,0:2|0:0,0:0:0:0:
296,248,64092,5,0,3:0:0:0:
194,172,64258,2,0,P|202:217|210:295,1,101.999996887207,2|10,0:2|0:2,0:0:0:0:
250,101,64592,1,0,0:0:0:0:
108,165,64758,1,2,3:2:0:0:
108,165,64842,1,0,0:0:0:0:
108,165,64925,2,0,P|74:160|39:158,1,50.9999984436036,0|0,3:0|0:0,0:0:0:0:
93,42,65092,2,0,P|145:48|160:100,1,101.999996887207,10|0,0:2|0:0,0:0:0:0:
114,249,65425,5,0,3:0:0:0:
170,344,65592,2,0,P|219:332|270:332,1,101.999996887207,2|10,0:2|0:2,0:0:0:0:
354,248,65925,1,0,0:0:0:0:
262,191,66092,1,2,3:2:0:0:
262,191,66175,1,0,0:0:0:0:
262,191,66258,2,0,P|264:223|266:248,1,50.9999984436036,0|0,3:0|0:0,0:0:0:0:
355,335,66425,2,0,P|403:322|433:282,1,101.999996887207,10|0,0:2|0:0,0:0:0:0:
424,190,66758,5,2,3:2:0:0:
339,23,67092,1,2,3:2:0:0:
223,166,67425,1,2,3:2:0:0:
218,157,67508,1,0,0:0:0:0:
213,148,67592,1,2,3:2:0:0:
111,83,67758,2,0,B|87:109|87:109|103:176,1,101.999996887207,10|0,0:2|3:0,0:0:0:0:
126,243,68008,1,0,3:0:0:0:
131,253,68092,6,0,L|181:248,1,42.5,6|0,3:2|0:0,0:0:0:0:
141,266,68258,2,0,L|191:261,1,42.5,2|0,3:2|0:0,0:0:0:0:
265,295,68425,2,0,B|278:255|278:255|259:216,1,85,10|0,0:2|0:0,0:0:0:0:
199,126,68758,6,0,L|249:131,1,42.5,2|0,3:2|0:0,0:0:0:0:
209,113,68925,2,0,L|259:118,1,42.5,2|0,3:2|0:0,0:0:0:0:
333,84,69092,2,0,B|346:124|346:124|327:162,1,85,10|0,0:2|0:0,0:0:0:0:
259,216,69425,5,2,3:2:0:0:
259,216,69592,1,0,3:0:0:0:
312,282,69758,2,0,P|351:289|393:273,1,85,10|0,0:2|3:0,0:0:0:0:
409,147,70092,2,0,L|414:190,1,42.5,10|0,0:2|0:0,0:0:0:0:
478,247,70258,1,2,3:2:0:0:
477,256,70342,1,0,3:0:0:0:
476,265,70425,5,10,0:2:0:0:
