osu file format v14

[General]
AudioFilename: audio.mp3
AudioLeadIn: 0
PreviewTime: 3586
Countdown: 0
SampleSet: Soft
StackLeniency: 0.6
Mode: 0
LetterboxInBreaks: 0
WidescreenStoryboard: 1

[Editor]
DistanceSpacing: 0.9
BeatDivisor: 4
GridSize: 8
TimelineZoom: 1

[Metadata]
Title:Koi wa Chaos no Shimobenari (TV Size)
TitleUnicode:恋は渾沌の隷也 (TV Size)
Artist:Ushirokara Haiyoritai G
ArtistUnicode:後ろから這いより隊G
Creator:KwAIMSuckASFuk
Version:Normal
Source:這いよれ!ニャル子さんW
Tags:gary00737 Haiyore! Nyaruko-san W opening op anime japanese Nyaruko Kuuko Hasuta Asumi Kana Matsuki Miyu Kugimiya Rie
BeatmapID:2064240
BeatmapSetID:986763

[Difficulty]
HPDrainRate:4
CircleSize:3
OverallDifficulty:4
ApproachRate:5
SliderMultiplier:1.27999990463257
SliderTickRate:1

[Events]
//Background and Video events
0,0,"bg.jpg",0,0
Video,250,"video.mp4"
//Break Periods
//Storyboard Layer 0 (Background)
//Storyboard Layer 1 (Fail)
//Storyboard Layer 2 (Pass)
//Storyboard Layer 3 (Foreground)
//Storyboard Layer 4 (Overlay)
//Storyboard Sound Samples

[TimingPoints]
643,379.746835443038,4,2,1,60,1,0
643,-100,4,2,1,60,0,0
3680,-100,4,2,1,60,0,0
15832,-100,4,2,1,60,0,0
40136,-100,4,2,1,60,0,0
66718,-100,4,2,1,60,0,0
67478,-100,4,2,1,70,0,1
85516,-100,4,2,1,65,0,0

[Colours]
Combo1 : 187,183,132
Combo2 : 224,177,252
Combo3 : 128,255,128
Combo4 : 128,128,192

[HitObjects]
1,265,643,6,0,L|156:265,1,127.999990463257,8|8,3:2|3:2,0:0:0:0:
244,263,1402,2,0,P|260:307|254:354,2,95.9999928474428,10|10|10,3:2|3:2|3:2,0:0:0:0:
170,173,2351,1,10,3:2:0:0:
170,173,2541,2,0,L|90:176,1,63.9999952316285,10|10,3:2|3:2,0:0:0:0:
48,179,2921,1,10,3:2:0:0:
45,63,3301,1,10,3:2:0:0:
157,40,3680,6,0,P|227:20|286:53,1,127.999990463257,6|10,3:2|3:2,0:0:0:0:
314,90,4250,1,2,0:2:0:0:
314,90,4440,2,0,L|313:177,1,63.9999952316285,2|2,3:2|0:2,0:0:0:0:
311,211,4820,1,10,3:2:0:0:
308,325,5199,2,0,L|225:320,1,63.9999952316285,2|2,3:2|0:2,0:0:0:0:
190,343,5579,2,0,L|112:348,1,63.9999952316285,10|0,3:2|0:2,0:0:0:0:
73,322,5959,1,2,3:2:0:0:
51,208,6339,2,0,P|41:166|59:126,1,63.9999952316285,10|10,3:2|3:2,0:0:0:0:
97,120,6718,5,10,3:2:0:0:
202,73,7098,1,10,3:2:0:0:
307,119,7478,2,0,L|409:113,2,95.9999928474428,2|2|2,3:2|0:2|0:2,0:0:0:0:
265,158,8237,2,0,P|241:221|282:286,1,127.999990463257,2|10,3:2|3:2,0:0:0:0:
365,216,8997,1,2,3:2:0:0:
365,216,9187,2,0,L|433:211,1,63.9999952316285,2|10,0:2|0:2,0:0:0:0:
480,314,9756,6,0,L|352:324,1,127.999990463257,6|10,3:2|3:2,0:0:0:0:
301,351,10326,1,2,0:2:0:0:
301,351,10516,2,0,L|218:348,1,63.9999952316285,2|2,3:2|0:2,0:0:0:0:
187,317,10896,1,10,3:2:0:0:
262,230,11275,2,0,L|257:164,1,63.9999952316285,2|2,3:2|0:2,0:0:0:0:
231,114,11655,2,0,L|159:120,1,63.9999952316285,10|0,3:2|0:2,0:0:0:0:
130,164,12035,1,2,3:2:0:0:
37,233,12415,2,0,P|29:279|47:319,1,63.9999952316285,10|10,3:2|3:2,0:0:0:0:
77,332,12794,5,10,3:2:0:0:
189,305,13174,1,10,3:2:0:0:
285,368,13554,2,0,L|408:359,2,95.9999928474428,2|2|10,3:2|3:2|3:2,0:0:0:0:
288,252,14503,1,8,3:2:0:0:
288,252,14693,2,0,L|293:162,1,63.9999952316285,10|8,3:2|3:2,0:0:0:0:
298,130,15073,1,10,3:2:0:0:
281,15,15453,1,10,3:2:0:0:
179,68,15832,6,0,P|156:121|182:211,1,127.999990463257,6|8,3:2|3:2,0:0:0:0:
211,228,16402,1,2,0:2:0:0:
211,228,16592,2,0,L|278:222,1,63.9999952316285,2|0,3:2|0:2,0:0:0:0:
332,219,16972,1,10,3:2:0:0:
335,330,17351,2,0,P|300:358|267:361,1,63.9999952316285,2|2,3:2|0:2,0:0:0:0:
224,363,17731,2,0,P|189:359|149:336,1,63.9999952316285,10|2,3:2|0:2,0:0:0:0:
119,308,18111,2,0,L|111:166,1,127.999990463257,2|8,3:2|3:2,0:0:0:0:
108,64,18870,5,0,3:2:0:0:
209,118,19250,2,0,L|292:111,1,63.9999952316285,10|2,3:2|0:2,0:0:0:0:
330,111,19630,2,0,P|364:168|345:231,1,127.999990463257,2|10,3:2|3:2,0:0:0:0:
259,296,20389,2,0,P|222:283|183:290,1,63.9999952316285,2|2,3:2|0:2,0:0:0:0:
144,306,20769,2,0,P|120:321|101:354,1,63.9999952316285,10|2,3:2|0:2,0:0:0:0:
50,377,21149,1,2,3:2:0:0:
4,271,21529,1,10,3:2:0:0:
92,198,21908,6,0,L|101:68,1,127.999990463257,6|8,3:2|3:2,0:0:0:0:
114,14,22478,1,2,0:2:0:0:
114,14,22668,2,0,L|190:27,1,63.9999952316285,2|0,3:2|0:2,0:0:0:0:
233,36,23048,1,10,3:2:0:0:
344,62,23427,2,0,P|361:96|362:134,1,63.9999952316285,2|2,3:2|0:2,0:0:0:0:
347,176,23807,2,0,P|321:203|277:219,1,63.9999952316285,10|2,3:2|0:2,0:0:0:0:
243,235,24187,2,0,L|104:239,1,127.999990463257,2|8,3:2|3:2,0:0:0:0:
47,331,24946,5,0,3:2:0:0:
151,380,25326,2,0,L|242:374,1,63.9999952316285,10|2,3:2|0:2,0:0:0:0:
272,367,25706,2,0,P|290:319|263:239,1,127.999990463257,2|10,3:2|3:2,0:0:0:0:
190,163,26465,2,0,P|175:127|183:87,1,63.9999952316285,2|2,3:2|0:2,0:0:0:0:
212,57,26845,2,0,P|244:47|275:51,1,63.9999952316285,10|2,3:2|0:2,0:0:0:0:
322,82,27225,1,2,3:2:0:0:
301,195,27605,1,10,3:2:0:0:
364,290,27984,6,0,B|426:312|426:312|503:280,2,127.999990463257,4|0|0,3:2|3:2|3:2,0:0:0:0:
426,192,29124,1,0,3:2:0:0:
416,77,29503,2,0,L|276:87,1,127.999990463257,2|2,3:2|3:2,0:0:0:0:
173,94,30263,2,0,P|165:63|173:32,2,63.9999952316285,2|2|2,3:2|0:2|3:2,0:0:0:0:
249,180,31022,6,0,B|277:239|277:239|257:319,2,127.999990463257,0|0|0,3:2|3:2|3:2,0:0:0:0:
158,251,32161,1,0,3:2:0:0:
42,244,32541,2,0,L|33:107,1,127.999990463257,2|2,3:2|3:2,0:0:0:0:
32,58,33111,1,2,0:2:0:0:
32,58,33301,2,0,L|104:63,1,63.9999952316285,2|2,3:2|0:2,0:0:0:0:
144,93,33680,2,0,L|225:89,1,63.9999952316285,2|2,3:2|0:2,0:0:0:0:
265,89,34060,6,0,B|318:48|318:48|385:64,2,127.999990463257,4|0|0,3:2|3:2|3:2,0:0:0:0:
349,167,35199,1,0,3:2:0:0:
343,282,35579,2,0,P|401:279|450:224,1,127.999990463257,2|2,3:2|3:2,0:0:0:0:
481,121,36339,2,0,L|475:54,2,63.9999952316285,2|2|2,3:2|0:2|3:2,0:0:0:0:
380,63,37098,6,0,B|321:34|321:34|253:57,2,127.999990463257,0|0|0,3:2|3:2|3:2,0:0:0:0:
314,158,38237,1,0,3:2:0:0:
344,269,38617,2,0,B|299:320|299:320|260:258,1,127.999990463257,6|10,3:2|3:2,0:0:0:0:
219,164,39377,2,0,B|176:114|176:114|135:173,1,127.999990463257,2|10,3:2|3:2,0:0:0:0:
61,248,40136,6,0,P|72:317|128:358,1,127.999990463257,6|8,3:2|3:2,0:0:0:0:
171,359,40706,1,2,0:2:0:0:
171,359,40896,2,0,L|261:348,1,63.9999952316285,2|0,3:2|0:2,0:0:0:0:
291,343,41275,1,10,3:2:0:0:
405,325,41655,2,0,P|417:288|414:250,1,63.9999952316285,2|2,3:2|0:2,0:0:0:0:
390,211,42035,2,0,P|363:193|322:185,1,63.9999952316285,10|2,3:2|0:2,0:0:0:0:
276,197,42415,2,0,L|267:62,1,127.999990463257,2|8,3:2|3:2,0:0:0:0:
169,7,43174,5,0,3:2:0:0:
68,63,43554,2,0,L|65:134,1,63.9999952316285,10|2,3:2|0:2,0:0:0:0:
67,184,43934,2,0,P|112:212|185:188,1,127.999990463257,2|10,3:2|3:2,0:0:0:0:
260,109,44693,2,0,P|296:83|338:82,1,63.9999952316285,2|2,3:2|0:2,0:0:0:0:
370,96,45073,2,0,P|400:130|403:171,1,63.9999952316285,10|2,3:2|0:2,0:0:0:0:
391,203,45453,1,2,3:2:0:0:
279,230,45832,1,10,3:2:0:0:
310,340,46212,6,0,P|375:355|442:304,1,127.999990463257,6|8,3:2|3:2,0:0:0:0:
477,307,46782,1,2,0:2:0:0:
477,307,46972,2,0,L|470:228,1,63.9999952316285,2|0,3:2|0:2,0:0:0:0:
466,185,47351,1,10,3:2:0:0:
424,77,47731,2,0,P|389:66|353:75,1,63.9999952316285,2|2,3:2|0:2,0:0:0:0:
314,103,48111,2,0,P|295:137|294:178,1,63.9999952316285,10|2,3:2|0:2,0:0:0:0:
312,215,48491,2,0,P|330:277|292:356,1,127.999990463257,2|8,3:2|3:2,0:0:0:0:
203,377,49250,5,0,3:2:0:0:
92,343,49630,2,0,P|78:304|81:261,1,63.9999952316285,10|2,3:2|0:2,0:0:0:0:
92,225,50010,2,0,L|235:210,1,127.999990463257,2|10,3:2|3:2,0:0:0:0:
322,161,50769,2,0,P|335:125|329:96,1,63.9999952316285,2|2,3:2|0:2,0:0:0:0:
308,46,51149,2,0,P|285:28|231:27,1,63.9999952316285,10|2,3:2|0:2,0:0:0:0:
207,59,51529,1,2,3:2:0:0:
214,173,51908,1,10,3:2:0:0:
227,287,52288,6,0,L|316:291,1,63.9999952316285,6|2,3:2|0:2,0:0:0:0:
348,291,52668,2,0,L|435:297,1,63.9999952316285,10|2,3:2|0:2,0:0:0:0:
469,298,53048,1,2,3:2:0:0:
477,183,53427,1,10,3:2:0:0:
477,183,53617,2,0,P|497:117|463:50,1,127.999990463257,2|2,0:2|0:2,0:0:0:0:
424,38,54187,1,10,3:2:0:0:
424,38,54377,2,0,L|284:50,1,127.999990463257,2|2,0:2|0:2,0:0:0:0:
239,54,54946,1,10,3:2:0:0:
124,62,55326,6,0,L|118:138,1,63.9999952316285,2|2,3:2|0:2,0:0:0:0:
114,183,55706,2,0,L|110:268,1,63.9999952316285,10|2,3:2|0:2,0:0:0:0:
108,304,56086,1,2,3:2:0:0:
216,343,56465,2,0,P|251:352|301:333,1,63.9999952316285,10|2,3:2|0:2,0:0:0:0:
329,320,56845,2,0,L|334:177,1,127.999990463257,2|10,3:2|3:2,0:0:0:0:
336,76,57605,2,0,L|202:72,1,127.999990463257,2|10,3:2|3:2,0:0:0:0:
150,71,58174,1,2,3:2:0:0:
150,71,58364,6,0,P|124:117|128:154,1,63.9999952316285,6|2,3:2|0:2,0:0:0:0:
137,183,58744,2,0,P|159:217|190:228,1,63.9999952316285,2|2,3:2|0:2,0:0:0:0:
237,220,59124,1,2,3:2:0:0:
350,196,59503,1,10,3:2:0:0:
350,196,59693,2,0,P|425:180|485:217,1,127.999990463257,2|2,0:2|0:2,0:0:0:0:
494,252,60263,1,10,3:2:0:0:
494,252,60453,2,0,P|492:324|457:363,1,127.999990463257,2|2,0:2|0:2,0:0:0:0:
398,363,61022,1,10,3:2:0:0:
309,288,61402,6,0,P|275:271|226:277,1,63.9999952316285,2|2,3:2|0:2,0:0:0:0:
193,284,61782,2,0,P|172:308|160:352,1,63.9999952316285,10|2,3:2|0:2,0:0:0:0:
110,365,62161,2,0,P|67:304|81:243,1,127.999990463257,2|10,3:2|3:2,0:0:0:0:
117,215,62731,2,0,P|153:144|131:80,1,127.999990463257,2|2,0:2|0:2,0:0:0:0:
109,52,63301,1,10,3:2:0:0:
109,52,63491,2,0,B|199:40|199:40|276:82|276:82|376:62,1,255.999980926514,2|2,0:2|0:2,0:0:0:0:
450,127,64630,6,0,L|444:209,1,63.9999952316285,10|10,3:2|3:2,0:0:0:0:
445,248,65010,1,10,3:2:0:0:
445,248,65199,1,10,3:2:0:0:
262,323,65769,2,0,L|191:330,1,63.9999952316285,10|10,3:2|3:2,0:0:0:0:
140,336,66149,2,0,L|69:343,1,63.9999952316285,10|10,3:2|3:2,0:0:0:0:
18,348,66529,1,10,3:2:0:0:
18,348,66718,1,10,3:2:0:0:
53,238,67098,1,10,3:2:0:0:
85,127,67478,6,0,P|146:94|224:121,1,127.999990463257,6|10,3:2|3:2,0:0:0:0:
247,209,68237,2,0,L|254:329,2,95.9999928474428,2|2|2,3:2|0:2|0:2,0:0:0:0:
287,168,68997,1,2,3:2:0:0:
329,60,69377,1,10,3:2:0:0:
435,102,69756,1,0,3:2:0:0:
435,102,69946,2,0,P|438:149|425:185,1,63.9999952316285,8|8,3:2|3:2,0:0:0:0:
396,274,70516,6,0,L|247:266,1,127.999990463257,2|10,3:2|3:2,0:0:0:0:
210,263,71086,1,2,0:2:0:0:
210,263,71275,2,0,P|191:217|193:185,1,63.9999952316285,2|2,3:2|0:2,0:0:0:0:
217,152,71655,1,10,3:2:0:0:
165,49,72035,2,0,P|115:24|44:52,1,127.999990463257,0|10,3:2|3:2,0:0:0:0:
48,161,72794,2,0,L|54:250,1,63.9999952316285,2|2,3:2|0:2,0:0:0:0:
55,282,73174,2,0,L|61:365,1,63.9999952316285,10|2,3:2|3:2,0:0:0:0:
113,367,73554,6,0,P|175:335|247:361,1,127.999990463257,6|10,3:2|3:2,0:0:0:0:
342,326,74313,2,0,L|449:334,2,95.9999928474428,2|2|2,3:2|0:2|0:2,0:0:0:0:
300,285,75073,1,2,3:2:0:0:
350,181,75453,1,10,3:2:0:0:
304,75,75832,1,0,3:2:0:0:
304,75,76022,2,0,L|232:82,1,63.9999952316285,8|8,3:2|3:2,0:0:0:0:
125,91,76592,6,0,P|110:156|135:214,1,127.999990463257,2|10,3:2|3:2,0:0:0:0:
177,246,77161,1,2,0:2:0:0:
177,246,77351,2,0,L|255:239,1,63.9999952316285,2|2,3:2|0:2,0:0:0:0:
298,233,77731,1,10,3:2:0:0:
412,218,78111,2,0,P|431:151|402:84,1,127.999990463257,0|10,3:2|3:2,0:0:0:0:
309,47,78870,2,0,P|267:53|231:78,1,63.9999952316285,10|2,3:2|0:2,0:0:0:0:
207,104,79250,2,0,P|197:150|206:191,1,63.9999952316285,10|2,3:2|3:2,0:0:0:0:
231,213,79630,5,6,3:2:0:0:
201,324,80010,1,10,3:2:0:0:
89,297,80389,2,0,L|81:152,1,127.999990463257,2|10,3:2|3:2,0:0:0:0:
80,111,80959,1,2,0:2:0:0:
80,111,81149,2,0,L|146:100,1,63.9999952316285,2|2,3:2|0:2,0:0:0:0:
195,90,81529,2,0,L|270:78,1,63.9999952316285,10|2,3:2|0:2,0:0:0:0:
315,70,81908,1,2,3:2:0:0:
336,182,82288,1,10,3:2:0:0:
317,295,82668,5,4,3:2:0:0:
208,337,83048,2,0,P|197:297|203:264,1,63.9999952316285,10|2,3:2|0:2,0:0:0:0:
223,222,83427,2,0,P|283:182|359:192,1,127.999990463257,2|10,3:2|3:2,0:0:0:0:
451,200,84187,1,2,3:2:0:0:
454,84,84567,2,0,P|422:62|389:58,1,63.9999952316285,10|2,3:2|0:2,0:0:0:0:
340,59,84946,2,0,P|271:102|256:150,1,127.999990463257,2|10,3:2|3:2,0:0:0:0:
227,255,85706,6,0,L|83:254,1,127.999990463257,10|8,3:2|3:2,0:0:0:0:
27,163,86465,2,0,L|25:56,2,95.9999928474428,10|10|10,3:2|3:2|3:2,0:0:0:0:
39,277,87415,1,10,3:2:0:0:
39,277,87605,2,0,L|121:283,1,63.9999952316285,10|10,3:2|3:2,0:0:0:0:
160,286,87984,1,10,3:2:0:0:
240,368,88364,1,14,3:2:0:0:
