osu file format v14

[General]
AudioFilename: audio.mp3
AudioLeadIn: 0
PreviewTime: 3586
Countdown: 0
SampleSet: Soft
StackLeniency: 0.3
Mode: 0
LetterboxInBreaks: 0
WidescreenStoryboard: 1

[Editor]
DistanceSpacing: 0.7
BeatDivisor: 4
GridSize: 8
TimelineZoom: 1

[Metadata]
Title:Koi wa Chaos no Shimobenari (TV Size)
TitleUnicode:恋は渾沌の隷也 (TV Size)
Artist:Ushirokara Haiyoritai G
ArtistUnicode:後ろから這いより隊G
Creator:KwAIMSuckASFuk
Version:Chaos
Source:這いよれ!ニャル子さんW
Tags:gary00737 Haiyore! Nyaruko-san W opening op anime japanese Nyaruko Kuuko Hasuta Asumi Kana Matsuki Miyu Kugimiya Rie
BeatmapID:2064236
BeatmapSetID:986763

[Difficulty]
HPDrainRate:5
CircleSize:4
OverallDifficulty:9
ApproachRate:9.3
SliderMultiplier:3.59999990463257
SliderTickRate:1

[Events]
//Background and Video events
0,0,"bg.jpg",0,0
Video,250,"video.mp4"
//Break Periods
//Storyboard Layer 0 (Background)
//Storyboard Layer 1 (Fail)
//Storyboard Layer 2 (Pass)
//Storyboard Layer 3 (Foreground)
//Storyboard Layer 4 (Overlay)
//Storyboard Sound Samples

[TimingPoints]
643,379.746835443038,4,2,1,60,1,0
1972,-500,4,2,1,60,0,0
2541,-100,4,2,1,60,0,0
2921,-500,4,2,1,60,0,0
3301,-100,4,2,1,60,0,0
3680,-83.3333333333333,4,2,1,60,0,1
5674,-125,4,2,1,60,0,1
5769,-83.3333333333333,4,2,1,5,0,1
5864,-83.3333333333333,4,2,1,60,0,1
6339,-71.4285714285714,4,2,1,60,0,1
7573,-125,4,2,1,60,0,1
7668,-83.3333333333333,4,2,1,5,0,1
7763,-83.3333333333333,4,2,1,60,0,1
8617,-71.4285714285714,4,2,1,60,0,1
9567,-500,4,2,1,60,0,1
9756,-83.3333333333333,4,2,1,60,0,1
11750,-125,4,2,1,60,0,1
11845,-125,4,2,1,5,0,1
11940,-125,4,2,1,60,0,1
12035,-83.3333333333333,4,2,1,60,0,1
12415,-71.4285714285714,4,2,1,60,0,1
13649,-125,4,2,1,60,0,1
13744,-125,4,2,1,5,0,1
13839,-125,4,2,1,60,0,1
14124,-71.4285714285714,4,2,1,60,0,1
15832,-166.666666666667,4,2,1,55,0,0
21149,-166.666666666667,4,2,1,55,0,0
21529,-83.3333333333333,4,2,1,60,0,0
21908,-166.666666666667,4,2,1,55,0,0
27605,-83.3333333333333,4,2,1,60,0,0
27984,-166.666666666667,4,2,1,50,0,0
29883,-83.3333333333333,4,2,1,50,0,0
30263,-166.666666666667,4,2,1,50,0,0
30643,-166.666666666667,4,2,1,50,0,0
31022,-125,4,2,1,55,0,0
32541,-100,4,2,1,55,0,0
34060,-125,4,2,1,55,0,0
34155,-125,4,2,1,5,0,0
34250,-125,4,2,1,55,0,0
35959,-83.3333333333333,4,2,1,55,0,0
36339,-166.666666666667,4,2,1,55,0,0
37098,-83.3333333333333,4,2,1,55,0,0
37193,-71.4285714285714,4,2,1,5,0,0
37288,-71.4285714285714,4,2,1,55,0,0
38617,-100,4,2,1,60,0,0
38997,-83.3333333333333,4,2,1,60,0,0
39377,-100,4,2,1,60,0,0
39756,-83.3333333333333,4,2,1,60,0,0
40136,-166.666666666667,4,2,1,60,0,0
42794,-100,4,2,1,60,0,0
43934,-166.666666666667,4,2,1,60,0,0
45832,-83.3333333333333,4,2,1,60,0,0
46212,-166.666666666667,4,2,1,60,0,0
48870,-100,4,2,1,60,0,0
50010,-166.666666666667,4,2,1,60,0,0
51908,-71.4285714285714,4,2,1,60,0,0
52288,-166.666666666667,4,2,1,60,0,0
53427,-125,4,2,1,60,0,0
54377,-166.666666666667,4,2,1,60,0,0
56086,-125,4,2,1,60,0,0
56655,-166.666666666667,4,2,1,60,0,0
57605,-125,4,2,1,60,0,0
57984,-100,4,2,1,60,0,0
58364,-166.666666666667,4,2,1,60,0,0
59693,-125,4,2,1,60,0,0
60453,-166.666666666667,4,2,1,60,0,0
61402,-100,4,2,1,60,0,0
62161,-100,4,2,1,60,0,0
63491,-250,4,2,1,60,0,0
63680,-125,4,2,1,60,0,0
64250,-1000,4,2,1,60,0,0
64630,-100,4,2,1,60,0,0
65199,-1000,4,2,1,60,0,0
65389,-1000,4,2,1,5,0,0
65579,-62.5,4,2,1,60,0,0
65769,-71.4285714285714,4,2,1,65,0,0
67098,-62.5,4,2,1,65,0,0
67478,-100,4,2,1,70,0,1
67858,-166.666666666667,4,2,1,70,0,1
68475,-166.666666666667,4,2,1,5,0,1
68522,-166.666666666667,4,2,1,70,0,1
68617,-62.5,4,2,1,70,0,1
68997,-166.666666666667,4,2,1,70,0,1
69614,-166.666666666667,4,2,1,5,0,1
69661,-100,4,2,1,70,0,1
69946,-62.5,4,2,1,70,0,1
70516,-100,4,2,1,70,0,1
71845,-125,4,2,1,70,0,1
72035,-166.666666666667,4,2,1,70,0,1
72415,-83.3333333333333,4,2,1,70,0,1
72794,-62.5,4,2,1,70,0,1
73554,-100,4,2,1,70,0,1
73934,-166.666666666667,4,2,1,70,0,1
74551,-166.666666666667,4,2,1,5,0,1
74598,-166.666666666667,4,2,1,70,0,1
74693,-62.5,4,2,1,70,0,1
75548,-166.666666666667,4,2,1,70,0,1
75690,-166.666666666667,4,2,1,5,0,1
75737,-166.666666666667,4,2,1,70,0,1
75832,-100,4,2,1,70,0,1
76022,-62.5,4,2,1,70,0,1
76592,-100,4,2,1,70,0,1
77921,-125,4,2,1,70,0,1
78111,-166.666666666667,4,2,1,70,0,1
78491,-83.3333333333333,4,2,1,70,0,1
78870,-62.5,4,2,1,70,0,1
80389,-166.666666666667,4,2,1,70,0,1
80484,-166.666666666667,4,2,1,5,0,1
80579,-166.666666666667,4,2,1,70,0,1
80864,-166.666666666667,4,2,1,5,0,1
80959,-166.666666666667,4,2,1,70,0,1
81054,-166.666666666667,4,2,1,5,0,1
81149,-100,4,2,1,70,0,1
81244,-100,4,2,1,5,0,1
81339,-100,4,2,1,70,0,1
81434,-100,4,2,1,5,0,1
81529,-71.4285714285714,4,2,1,70,0,1
81908,-71.4285714285714,4,2,1,70,0,1
84946,-83.3333333333333,4,2,1,70,0,1
85706,-55.5555555555556,4,2,1,65,0,0
87035,-500,4,2,1,60,0,0
87605,-62.5,4,2,1,60,0,0
87984,-500,4,2,1,60,0,0
88364,-45.4545454545455,4,2,1,60,0,0

[Colours]
Combo1 : 187,183,132
Combo2 : 224,177,252
Combo3 : 128,255,128
Combo4 : 128,128,192

[HitObjects]
63,90,643,69,8,3:2:0:0:
141,65,1022,1,8,3:2:0:0:
188,131,1402,1,10,3:2:0:0:
196,129,1497,1,2,0:2:0:0:
141,197,1687,1,10,3:2:0:0:
63,171,1972,6,0,P|79:138|92:98,1,71.9999980926514,10|10,3:2|3:2,0:2:0:0:
76,339,2541,70,0,P|75:295|62:229,1,89.9999976158143,10|0,3:2|0:2,0:2:0:0:
21,73,2731,2,0,P|35:124|46:170,1,89.9999976158143,10|0,3:2|0:2,0:2:0:0:
76,339,2921,6,0,P|75:295|72:278,1,53.9999985694885,10|0,3:2|0:2,0:2:0:0:
73,285,3301,70,0,B|53:282|52:328|52:328|108:379|208:351|207:252,1,269.999992847443,10|0,3:2|0:2,0:2:0:0:
202,239,3680,21,6,3:2:0:0:
194,166,3775,1,2,0:2:0:0:
185,90,3870,1,2,0:2:0:0:
33,166,4060,6,0,B|11:185|14:217|14:217|58:214|73:184,1,107.999993843079,10|0,3:2|0:2,0:2:0:0:
185,90,4250,2,0,B|179:61|150:48|150:48|130:87|149:115,1,107.999993843079,2|0,0:2|0:2,0:2:0:0:
202,239,4440,69,2,3:2:0:0:
211,284,4535,1,2,0:2:0:0:
144,336,4630,1,2,0:2:0:0:
134,379,4725,1,2,0:2:0:0:
72,347,4820,6,0,B|141:294|204:295|238:349|185:376|143:335,1,215.999987686158,10|2,3:2|0:2,0:2:0:0:
329,324,5199,21,2,3:2:0:0:
316,238,5294,1,2,0:2:0:0:
300,151,5389,1,2,0:2:0:0:
335,337,5579,69,10,3:2:0:0:
430,357,5674,2,0,P|457:304|461:272,1,71.9999980926514,2|0,0:2|0:2,0:2:0:0:
450,96,5864,5,2,0:2:0:0:
443,88,5959,2,0,B|422:69|381:77|381:77|369:180|442:221,1,215.999987686158,2|0,3:2|0:2,0:2:0:0:
445,215,6339,70,0,P|406:170|330:178,1,125.999992816925,10|0,3:2|0:2,0:2:0:0:
262,225,6529,2,0,P|218:253|144:223,1,125.999992816925,10|0,3:2|0:2,0:2:0:0:
53,143,6718,54,0,B|-19:188|-67:89|76:28|177:103|37:245|131:310|231:278|288:227,1,377.999978450776,10|0,3:2|0:2,0:2:0:0:
265,204,7098,2,0,P|215:181|71:297,1,251.999985633851,10|0,3:2|0:2,0:2:0:0:
61,119,7478,5,2,3:2:0:0:
92,17,7573,2,0,P|135:10|174:33,1,71.9999980926514,2|0,0:2|0:2,0:2:0:0:
215,117,7763,69,2,0:2:0:0:
225,132,7858,2,0,B|223:216|223:216|207:256|207:256|210:367,1,215.999987686158,10|2,3:2|0:2,0:2:0:0:
448,360,8237,22,0,P|428:296|289:290,1,215.999987686158,2|0,3:2|0:2,0:2:0:0:
325,383,8522,1,2,0:2:0:0:
359,347,8617,2,0,B|395:286|359:228|359:228|318:153|375:83,1,251.999985633851,10|0,3:2|0:2,0:2:0:0:
509,156,8902,1,0,0:0:0:0:
512,168,8997,6,0,P|456:198|423:152,1,125.999992816925,2|0,3:2|0:2,0:2:0:0:
394,0,9187,2,0,P|450:36|473:110,1,125.999992816925,2|0,0:2|0:2,0:2:0:0:
412,259,9377,2,0,P|352:289|277:272,1,125.999992816925,10|0,0:2|0:2,0:2:0:0:
152,224,9567,1,2,0:2:0:0:
152,224,9756,37,6,3:2:0:0:
75,246,9851,1,2,0:2:0:0:
0,274,9946,1,2,0:2:0:0:
175,42,10136,6,0,B|199:29|212:2|212:2|205:28|210:60,1,107.999993843079,10|0,3:2|0:2,0:2:0:0:
46,174,10326,2,0,B|22:159|-8:161|-8:161|18:155|44:134,1,107.999993843079,2|0,0:2|0:2,0:2:0:0:
235,238,10516,69,2,3:2:0:0:
227,264,10611,1,2,0:2:0:0:
186,340,10706,1,2,0:2:0:0:
189,366,10801,1,2,0:2:0:0:
115,379,10896,6,0,B|179:342|280:375|280:375|271:331|215:317,1,215.999987686158,10|2,3:2|0:2,0:2:0:0:
402,19,11275,5,2,3:2:0:0:
385,101,11370,1,2,0:2:0:0:
368,184,11465,1,2,0:2:0:0:
418,21,11655,5,10,3:2:0:0:
470,97,11750,2,0,P|474:140|468:193,1,71.9999980926514,2|0,0:2|0:2,0:2:0:0:
322,319,11940,69,2,0:2:0:0:
327,309,12035,2,0,P|433:282|512:373,1,215.999987686158,2|0,3:2|0:2,0:2:0:0:
502,361,12415,6,0,P|436:337|411:276,1,125.999992816925,10|0,3:2|0:2,0:2:0:0:
347,68,12605,2,0,P|344:103|272:153,1,125.999992816925,10|0,3:2|0:2,0:2:0:0:
66,132,12794,6,0,B|-10:104|26:3|160:31|222:132|54:311,1,377.999978450776,10|0,3:2|0:2,0:2:0:0:
16,312,13174,2,0,B|144:260|121:378|261:323,1,251.999985633851,10|0,3:2|0:2,0:2:0:0:
448,223,13554,5,2,3:2:0:0:
365,273,13649,2,0,P|355:212|354:171,1,71.9999980926514,2|0,0:2|0:2,0:2:0:0:
373,39,13839,2,0,P|381:85|463:57,1,143.999996185303,2|0,3:2|0:2,0:2:0:0:
466,46,14124,70,0,B|382:-13|303:54|303:54|261:26|261:26|205:108|85:61,1,377.999978450776,10|0,3:2|0:2,0:2:0:0:
42,49,14503,6,0,P|60:110|65:181,1,125.999992816925,8|0,3:2|0:2,0:2:0:0:
98,370,14693,2,0,P|111:321|115:227,1,125.999992816925,10|0,3:2|0:2,0:2:0:0:
169,0,14883,2,0,P|182:49|186:133,1,125.999992816925,8|0,3:2|0:2,0:2:0:0:
210,384,15073,70,0,B|230:226|358:335|349:146,1,251.999985633851,10|0,3:2|0:2,0:2:0:0:
312,361,15453,6,0,P|235:271|290:146,1,251.999985633851,10|0,3:2|0:2,0:2:0:0:
257,0,15832,22,0,P|235:58|91:57,1,215.999987686158,6|8,3:2|3:2,0:2:0:0:
0,47,16402,1,2,0:2:0:0:
52,205,16592,2,0,L|41:329,1,107.999993843079,2|0,3:2|0:2,0:2:0:0:
0,134,16972,1,10,3:2:0:0:
166,214,17161,1,2,0:2:0:0:
0,277,17351,69,2,3:2:0:0:
146,355,17541,1,2,0:2:0:0:
155,355,17636,1,2,0:2:0:0:
166,357,17731,1,10,3:2:0:0:
0,277,17921,1,2,0:2:0:0:
166,214,18111,2,0,P|166:142|165:73,2,107.999993843079,2|0|8,3:2|0:2|3:2,0:2:0:0:
183,29,18680,2,0,P|161:21|123:36,1,53.9999969215394,0|0,0:2|0:2,0:2:0:0:
79,125,18870,1,0,3:2:0:0:
301,100,19060,21,2,0:2:0:0:
297,78,19155,1,2,0:2:0:0:
294,56,19250,1,10,3:2:0:0:
391,118,19440,1,2,0:2:0:0:
299,262,19630,2,0,P|289:206|269:81,1,161.999990764618,2|0,3:2|0:2,0:2:0:0:
370,197,20010,2,0,L|391:322,1,107.999993843079,10|0,3:2|0:2,0:2:0:0:
509,169,20389,5,2,3:2:0:0:
463,259,20579,1,2,0:2:0:0:
463,97,20769,1,10,3:2:0:0:
464,274,20959,1,2,0:2:0:0:
386,49,21149,2,0,B|383:150|321:99|311:199,1,161.999990764618,2|0,3:2|0:2,0:2:0:0:
200,189,21529,22,0,B|156:143|199:77|325:72|340:231|243:305,1,323.999981529237,10|0,3:2|0:2,0:2:0:0:
184,310,21908,22,0,B|68:347|120:202|-18:237,1,215.999987686158,6|8,3:2|3:2,0:2:0:0:
17,314,22478,1,2,0:2:0:0:
94,163,22668,2,0,P|100:133|63:58,1,107.999993843079,2|0,3:2|0:2,0:2:0:0:
13,137,23048,1,10,3:2:0:0:
185,80,23237,1,2,0:2:0:0:
2,232,23427,69,2,3:2:0:0:
171,172,23617,1,2,0:2:0:0:
185,169,23712,1,2,0:2:0:0:
198,165,23807,1,10,3:2:0:0:
2,232,23997,1,2,0:2:0:0:
199,78,24187,2,0,P|147:77|66:78,2,107.999993843079,2|0|8,3:2|0:2|3:2,0:2:0:0:
23,36,24756,2,0,P|13:73|20:99,1,53.9999969215394,0|0,0:2|0:2,0:2:0:0:
130,228,24946,1,0,3:2:0:0:
370,78,25136,21,2,0:2:0:0:
365,57,25231,1,2,0:2:0:0:
360,38,25326,1,10,3:2:0:0:
283,169,25516,1,2,0:2:0:0:
453,308,25706,2,0,P|445:254|427:130,1,161.999990764618,2|0,3:2|0:2,0:2:0:0:
370,78,26086,2,0,P|310:62|263:104,1,107.999993843079,10|0,3:2|0:2,0:2:0:0:
264,38,26465,5,2,3:2:0:0:
283,169,26655,1,2,0:2:0:0:
366,24,26845,1,10,3:2:0:0:
277,179,27035,1,2,0:2:0:0:
449,227,27225,2,0,P|403:177|361:252,1,161.999990764618,2|0,3:2|0:2,0:2:0:0:
313,321,27605,22,0,B|256:318|240:380|240:380|152:281|274:273|248:161,1,323.999981529237,10|0,3:2|0:2,0:2:0:0:
226,95,27984,21,4,3:2:0:0:
229,87,28174,1,0,0:2:0:0:
136,143,28364,69,0,3:2:0:0:
144,141,28554,1,0,0:2:0:0:
51,92,28744,5,0,3:2:0:0:
56,98,28934,1,0,0:2:0:0:
68,0,29123,69,0,3:2:0:0:
65,8,29313,1,0,0:2:0:0:
184,291,29503,70,0,B|104:325|115:259|24:289,1,161.999990764618,2|0,3:2|0:2,0:2:0:0:
0,293,29883,2,0,B|57:333|107:283|107:283|105:257|105:257|148:182|237:214|237:214|252:256,1,323.999981529237,2|0,3:2|0:2,0:2:0:0:
254,357,30263,2,0,P|270:346|248:347,1,53.9999969215394,2|0,3:2|0:2,0:2:0:0:
125,192,30453,2,0,P|106:182|117:200,1,53.9999969215394,2|0,0:2|0:2,0:2:0:0:
214,73,30643,70,0,P|249:151|257:239,1,161.999990764618,2|0,3:2|0:2,0:2:0:0:
325,277,31022,53,0,3:2:0:0:
322,285,31212,1,0,0:2:0:0:
414,226,31402,5,0,3:2:0:0:
406,228,31592,1,0,0:2:0:0:
498,279,31782,69,0,3:2:0:0:
493,273,31972,1,0,0:2:0:0:
497,384,32161,5,0,3:2:0:0:
500,376,32351,1,0,0:2:0:0:
453,112,32541,6,0,P|480:146|480:215,1,89.9999976158143,2|0,3:2|0:2,0:2:0:0:
364,380,32731,2,0,P|379:339|439:305,1,89.9999976158143,2|0,0:2|0:2,0:2:0:0:
295,103,32921,6,0,P|335:118|369:178,1,89.9999976158143,2|0,3:2|0:2,0:2:0:0:
351,379,33111,2,0,P|344:336|379:276,1,89.9999976158143,2|0,0:2|0:2,0:2:0:0:
152,173,33301,70,0,P|194:166|254:201,1,89.9999976158143,2|0,3:2|0:2,0:2:0:0:
338,384,33491,2,0,P|310:350|311:281,1,89.9999976158143,2|0,0:2|0:2,0:2:0:0:
59,295,33680,6,0,P|93:268|162:268,1,89.9999976158143,2|0,3:2|0:2,0:2:0:0:
325,384,33870,2,0,P|284:368|250:308,1,89.9999976158143,2|0,0:2|0:2,0:2:0:0:
214,119,34060,6,0,B|237:148|237:148|236:201,1,71.9999980926514,4|0,3:2|0:2,0:2:0:0:
144,254,34250,1,0,0:2:0:0:
223,321,34440,5,0,3:2:0:0:
214,312,34630,1,0,0:2:0:0:
110,341,34820,69,0,3:2:0:0:
98,346,35010,1,0,0:2:0:0:
330,357,35199,5,0,3:2:0:0:
327,345,35389,1,0,0:2:0:0:
155,90,35579,38,0,P|101:132|146:255,1,215.999994277954,2|0,3:2|0:2,0:2:0:0:
162,266,35959,2,0,B|221:240|211:181|211:181|101:151|57:249|57:249|84:309,1,323.999981529237,2|0,3:2|0:2,0:2:0:0:
215,349,36339,2,0,P|205:335|202:358,1,53.9999969215394,2|0,3:2|0:2,0:2:0:0:
299,177,36529,2,0,P|318:182|299:198,1,53.9999969215394,2|0,0:2|0:2,0:2:0:0:
103,93,36718,6,0,P|210:85|290:80,1,161.999990764618,2|0,3:2|0:2,0:2:0:0:
342,94,37098,38,0,B|381:52|381:52|368:4,1,107.999993843079,0|0,3:2|0:2,0:2:0:0:
278,1,37288,1,0,0:2:0:0:
445,165,37478,5,0,3:2:0:0:
459,159,37668,1,0,0:2:0:0:
456,57,37858,69,0,3:2:0:0:
459,39,38048,1,0,0:2:0:0:
382,247,38237,5,0,3:2:0:0:
392,259,38427,1,0,0:2:0:0:
171,268,38617,6,0,P|154:308|180:371,1,89.9999976158143,6|0,3:2|0:2,0:2:0:0:
325,312,38807,2,0,L|219:318,1,89.9999976158143,2|0,0:2|0:2,0:2:0:0:
0,203,38997,6,0,P|46:226|102:178,1,107.999993843079,10|0,3:2|0:2,0:2:0:0:
261,58,39187,2,0,P|208:48|163:75,1,107.999993843079,2|0,0:2|0:2,0:2:0:0:
163,352,39377,70,0,B|195:374|195:374|222:122,1,269.999992847443,2|0,3:2|0:2,0:2:0:0:
355,17,39756,2,0,B|386:226|386:226|309:137,1,323.999981529237,10|0,3:2|0:2,0:2:0:0:
261,58,40136,22,0,B|215:32|163:77|163:77|105:125|41:72,1,215.999987686158,6|8,3:2|3:2,0:2:0:0:
107,8,40706,1,2,0:2:0:0:
98,182,40896,2,0,P|95:235|89:289,1,107.999993843079,2|0,3:2|0:2,0:2:0:0:
194,198,41275,1,10,3:2:0:0:
11,164,41465,1,2,0:2:0:0:
184,304,41655,5,2,3:2:0:0:
7,267,41845,1,2,0:2:0:0:
5,282,41940,1,2,0:2:0:0:
3,297,42035,1,10,3:2:0:0:
184,304,42225,1,2,0:2:0:0:
11,164,42415,2,0,P|16:96|20:44,1,107.999993843079,2|0,3:2|0:2,0:2:0:0:
213,24,42794,2,0,P|216:133|218:222,1,179.999995231629,8|0,3:2|0:2,0:2:0:0:
184,304,43079,1,0,0:2:0:0:
184,304,43174,1,0,3:2:0:0:
347,340,43364,5,2,0:2:0:0:
342,319,43459,1,2,0:2:0:0:
336,298,43554,1,10,3:2:0:0:
488,323,43744,1,2,0:2:0:0:
315,137,43934,2,0,P|325:222|339:321,1,161.999990764618,2|0,3:2|0:2,0:2:0:0:
417,289,44313,2,0,L|399:177,1,107.999993843079,10|0,3:2|0:2,0:2:0:0:
326,29,44693,5,2,3:2:0:0:
482,58,44883,1,2,0:2:0:0:
315,137,45073,1,10,3:2:0:0:
492,53,45263,1,2,0:2:0:0:
367,206,45453,2,0,B|425:263|425:263|423:156,1,161.999990764618,2|0,3:2|0:2,0:2:0:0:
368,68,45832,22,0,B|287:95|276:188|276:188|217:130|122:158,1,323.999981529237,10|0,3:2|0:2,0:2:0:0:
163,258,46212,22,0,B|207:227|207:178|207:178|147:140|162:41,1,215.999987686158,6|8,3:2|3:2,0:2:0:0:
268,80,46782,1,2,0:2:0:0:
107,195,46972,2,0,P|53:195|-1:194,1,107.999993843079,2|0,3:2|0:2,0:2:0:0:
62,87,47351,1,10,3:2:0:0:
19,280,47541,1,2,0:2:0:0:
161,98,47731,69,2,3:2:0:0:
114,307,47921,1,2,0:2:0:0:
110,326,48016,1,2,0:2:0:0:
107,342,48111,1,10,3:2:0:0:
161,98,48301,1,2,0:2:0:0:
29,263,48491,2,0,P|39:208|49:141,1,107.999993843079,2|0,3:2|0:2,0:2:0:0:
242,120,48870,2,0,L|207:332,1,179.999995231629,8|0,3:2|0:2,0:2:0:0:
247,379,49155,1,0,0:2:0:0:
247,379,49250,1,0,3:2:0:0:
372,178,49440,21,2,0:2:0:0:
367,159,49535,1,2,0:2:0:0:
362,143,49630,1,10,3:2:0:0:
312,42,49820,1,2,0:2:0:0:
473,172,50010,2,0,P|469:233|460:355,1,161.999990764618,2|0,3:2|0:2,0:2:0:0:
390,383,50389,2,0,P|333:362|310:295,1,107.999993843079,10|0,3:2|0:2,0:2:0:0:
424,83,50769,5,2,3:2:0:0:
376,249,50959,1,2,0:2:0:0:
326,45,51149,1,10,3:2:0:0:
378,261,51339,1,2,0:2:0:0:
181,118,51529,2,0,P|155:197|137:144,1,161.999990764618,2|0,3:2|0:2,0:2:0:0:
92,129,51908,22,0,B|88:105|68:85|68:85|113:8|235:-22|301:78|301:78|282:104|286:148,1,377.999978450776,10|0,3:2|0:2,0:2:0:0:
237,229,52288,5,6,3:2:0:0:
241,313,52478,1,2,0:2:0:0:
186,373,52668,1,10,3:2:0:0:
109,384,52858,1,2,0:2:0:0:
0,343,53048,2,0,P|58:296|108:318,1,107.999993843079,2|0,3:2|0:2,0:2:0:0:
13,14,53427,2,0,P|15:49|43:77,1,71.9999980926514,10|0,3:2|0:2,0:2:0:0:
245,237,53617,6,0,P|196:163|136:162,1,143.999996185303,2|0,0:2|3:2,0:2:0:0:
85,301,53997,1,2,0:2:0:0:
186,373,54187,1,10,3:2:0:0:
224,145,54377,2,0,L|215:20,1,107.999993843079,2|0,0:2|3:2,0:2:0:0:
122,298,54756,1,2,0:2:0:0:
105,300,54851,1,0,0:2:0:0:
85,301,54946,1,10,3:2:0:0:
30,208,55136,1,2,0:2:0:0:
171,365,55326,69,2,3:2:0:0:
285,344,55516,1,2,0:2:0:0:
154,369,55706,1,10,3:2:0:0:
297,342,55896,1,2,0:2:0:0:
277,194,56086,1,2,3:2:0:0:
126,215,56275,1,2,0:0:0:0:
43,373,56465,2,0,L|39:296,1,71.9999980926514,10|0,3:2|0:2,0:2:0:0:
31,127,56655,1,2,0:2:0:0:
200,197,56845,5,2,3:2:0:0:
217,271,57035,1,2,0:2:0:0:
144,288,57225,1,10,3:2:0:0:
126,215,57415,1,2,0:2:0:0:
139,300,57605,1,2,3:2:0:0:
294,194,57794,1,2,0:2:0:0:
233,23,57984,2,0,P|191:7|146:10,1,89.9999976158143,10|0,3:2|0:2,0:2:0:0:
253,120,58174,2,0,P|261:163|294:194,1,89.9999976158143,2|0,3:2|0:2,0:2:0:0:
497,24,58364,5,6,3:2:0:0:
405,28,58554,1,2,0:2:0:0:
344,96,58744,1,2,3:2:0:0:
333,182,58934,1,2,0:2:0:0:
470,257,59124,2,0,P|505:190|488:134,1,107.999993843079,2|2,3:2|0:2,0:2:0:0:
405,28,59503,1,10,3:2:0:0:
326,267,59693,6,0,B|471:256,1,143.999996185303,2|0,0:2|0:2,0:2:0:0:
249,318,60073,1,2,0:2:0:0:
346,366,60263,1,10,3:2:0:0:
333,182,60453,2,0,L|324:68,1,107.999993843079,2|0,0:2|3:2,0:2:0:0:
488,126,60832,1,2,0:2:0:0:
485,109,60927,1,2,0:2:0:0:
481,90,61022,1,10,3:2:0:0:
415,197,61212,1,2,0:2:0:0:
219,103,61402,69,2,3:2:0:0:
320,151,61592,1,2,0:2:0:0:
371,48,61782,1,10,3:2:0:0:
269,0,61972,1,2,0:2:0:0:
233,194,62161,6,0,B|207:168|143:174|122:249|148:315|236:277|240:360,1,269.999992847443,2|0,3:2|0:2,0:2:0:0:
260,366,62541,2,0,P|279:325|309:292,1,89.9999976158143,10|0,3:2|0:2,0:2:0:0:
266,190,62731,2,0,B|301:155|360:195|359:266|309:291,1,179.999995231629,2|2,0:2|3:2,0:2:0:0:
183,89,63111,1,2,0:2:0:0:
401,146,63301,1,10,3:2:0:0:
213,286,63491,1,2,0:2:0:0:
425,53,63680,6,0,B|421:18|421:18|417:55,1,71.9999980926514,2|0,3:2|0:2,0:2:0:0:
291,173,63870,2,0,B|262:193|262:193|296:178,1,71.9999980926514,2|0,0:2|0:2,0:2:0:0:
455,231,64060,2,0,B|487:245|487:245|457:224,1,71.9999980926514,10|0,3:2|0:2,0:2:0:0:
287,82,64250,6,0,P|276:81|257:71,1,26.9999992847443,2|0,0:2|0:2,0:2:0:0:
248,64,64630,70,0,P|259:125|247:199,1,89.9999976158143,10|0,3:2|0:2,0:2:0:0:
186,238,64820,2,0,P|233:197|303:171,1,89.9999976158143,10|0,3:2|0:2,0:2:0:0:
367,204,65010,2,0,P|308:183|250:135,1,89.9999976158143,10|0,3:2|0:2,0:2:0:0:
100,144,65199,6,0,P|103:161|103:173,1,26.9999992847443,10|0,3:2|0:2,0:2:0:0:
120,162,65579,70,0,B|149:165|177:128|177:128|170:87|122:73,1,143.999996185303,2|0,0:2|0:2,0:2:0:0:
104,171,65769,6,0,P|83:227|118:280,1,125.999992816925,10|0,3:2|0:2,0:2:0:0:
203,335,65959,2,0,P|165:288|101:292,1,125.999992816925,10|0,3:2|0:2,0:2:0:0:
18,336,66149,2,0,P|76:326|105:269,1,125.999992816925,10|0,3:2|0:2,0:2:0:0:
20,102,66339,2,0,P|44:157|103:171,1,125.999992816925,10|0,3:2|0:2,0:2:0:0:
283,181,66529,2,0,P|222:174|181:219,1,125.999992816925,10|0,3:2|0:2,0:2:0:0:
291,364,66718,70,0,B|321:242|424:183|532:176|571:302|465:317,1,377.999978450776,10|0,3:2|0:2,0:2:0:0:
403,336,67098,6,0,B|395:363|370:336|373:253|417:268|427:190|427:190|434:131|388:87|348:142|384:186|412:190,1,287.999992370606,10|0,3:2|0:2,0:2:0:0:
111,204,67478,22,0,B|10:146|81:37|81:37|131:64|132:117,1,269.999992847443,6|0,3:2|0:2,0:2:0:0:
127,90,67858,2,0,P|73:93|13:82,1,107.999993843079,10|0,3:2|0:2,0:2:0:0:
30,350,68237,69,2,3:2:0:0:
100,292,68332,2,0,P|168:282|209:294,1,107.999993843079,2|2,0:2|0:2,0:2:0:0:
213,320,68617,6,0,P|109:225|133:85,1,287.999992370606,8|2,3:2|0:2,0:2:0:0:
221,93,68997,69,2,3:2:0:0:
0,11,69187,1,2,0:2:0:0:
0,278,69377,5,10,3:2:0:0:
68,239,69472,2,0,P|126:224|190:252,1,107.999993843079,2|2,0:2|0:2,0:2:0:0:
202,269,69756,6,0,P|215:296|214:372,1,89.9999976158143,0|0,3:2|0:2,0:2:0:0:
0,367,69946,2,0,P|95:321|139:316,1,143.999996185303,8|0,3:2|0:2,0:2:0:0:
295,102,70136,6,0,B|333:87|295:3|177:27|183:174|294:211,1,287.999992370606,8|2,3:2|0:2,0:2:0:0:
506,341,70516,37,2,3:2:0:0:
462,166,70706,1,2,0:2:0:0:
288,209,70896,1,10,3:2:0:0:
331,384,71086,1,2,0:2:0:0:
213,349,71275,2,0,P|300:343|400:385,2,179.999995231629,2|2|10,3:2|0:2|3:2,0:2:0:0:
485,384,71845,2,0,L|458:218,1,143.999996185303,2|0,0:2|3:2,0:2:0:0:
429,5,72225,2,0,P|395:17|386:48,1,53.9999969215394,2|0,0:2|0:2,0:2:0:0:
375,343,72415,2,0,B|404:346|404:346|373:160,1,215.999987686158,10|2,3:2|0:2,0:2:0:0:
286,50,72699,1,0,0:2:0:0:
275,40,72794,22,0,B|242:29|225:8|225:8|154:78|212:174|212:174|235:151|269:151,2,287.999992370606,2|2|10,3:2|0:2|3:2,0:2:0:0:
196,274,73364,1,2,3:2:0:0:
79,132,73554,22,0,B|62:55|-57:63|-74:255|144:186|35:320,1,269.999992847443,6|0,3:2|0:2,0:2:0:0:
61,255,73934,2,0,P|37:328|54:374,1,107.999993843079,10|0,3:2|0:2,0:2:0:0:
284,268,74313,5,2,3:2:0:0:
234,193,74408,2,0,P|174:186|121:216,1,107.999993843079,2|2,0:2|0:2,0:2:0:0:
61,255,74693,70,0,B|24:184|91:131|91:131|166:69|127:3,1,287.999992370606,8|2,3:2|0:2,0:2:0:0:
16,47,75073,5,2,3:2:0:0:
240,29,75263,1,2,0:2:0:0:
174,270,75453,69,10,3:2:0:0:
120,346,75548,2,0,P|74:365|3:325,1,107.999993843079,2|2,0:2|0:2,0:2:0:0:
0,328,75832,6,0,P|-11:285|5:244,1,89.9999976158143,0|0,3:2|0:2,0:2:0:0:
333,247,76022,2,0,P|302:311|237:323,1,143.999996185303,8|0,3:2|0:2,0:2:0:0:
187,160,76212,6,0,B|117:140|154:36|273:74|301:150|218:313,1,287.999992370606,8|2,3:2|0:2,0:2:0:0:
124,216,76592,37,2,3:2:0:0:
188,18,76782,1,2,0:2:0:0:
394,85,76972,1,10,3:2:0:0:
330,283,77162,1,2,0:2:0:0:
303,7,77351,2,0,B|308:48|270:90|270:90|274:140|311:165,2,179.999995231629,2|2|10,3:2|0:2|3:2,0:2:0:0:
459,278,77921,2,0,B|407:248|407:248|297:296,1,143.999996185303,2|0,0:2|3:2,0:2:0:0:
162,2,78301,2,0,P|178:24|201:34,1,53.9999969215394,2|0,0:2|0:2,0:2:0:0:
410,59,78491,2,0,B|374:14|319:-1|319:-1|283:41|275:107,1,215.999987686158,10|2,3:2|0:2,0:2:0:0:
286,188,78775,1,0,0:2:0:0:
287,201,78870,22,0,B|196:254|200:168|125:193|125:193|188:209|182:106|250:126,2,287.999992370606,10|2|10,3:2|0:2|3:2,0:2:0:0:
347,276,79440,1,2,3:2:0:0:
325,380,79630,1,6,3:2:0:0:
212,129,79820,5,2,0:2:0:0:
148,384,80010,1,10,3:2:0:0:
12,184,80199,1,2,0:2:0:0:
50,384,80389,70,0,P|19:370|-14:364,1,53.9999969215394,2|0,3:2|0:2,0:2:0:0:
133,290,80579,1,2,0:2:0:0:
221,364,80769,6,0,P|241:344|277:329,1,53.9999969215394,10|0,3:2|0:2,0:2:0:0:
133,290,80959,2,0,P|121:242|112:219,1,53.9999969215394,2|0,0:2|0:2,0:2:0:0:
264,65,81149,70,0,P|261:109|280:150,1,89.9999976158143,2|0,3:2|0:2,0:2:0:0:
280,150,81339,2,0,P|282:105|263:64,1,89.9999976158143,2|0,0:2|0:2,0:2:0:0:
119,237,81529,2,0,B|178:202|252:243|252:243|196:204|184:142,1,251.999985633851,10|2,3:2|0:2,0:2:0:0:
325,217,81908,6,0,P|373:189|456:200,1,125.999992816925,2|0,3:2|0:2,0:2:0:0:
511,253,82098,2,0,P|463:224|431:147,1,125.999992816925,2|0,0:2|0:2,0:2:0:0:
448,74,82288,2,0,P|447:130|396:196,1,125.999992816925,10|0,3:2|0:2,0:2:0:0:
431,384,82478,2,0,P|388:338|315:323,1,125.999992816925,0|0,3:2|0:2,0:2:0:0:
108,348,82668,69,4,3:2:0:0:
193,312,82858,5,2,0:2:0:0:
157,273,82953,1,2,0:2:0:0:
108,259,83048,1,10,3:2:0:0:
217,164,83237,69,2,0:2:0:0:
138,153,83332,1,2,0:2:0:0:
84,212,83427,1,2,3:2:0:0:
185,49,83617,5,2,0:2:0:0:
89,77,83712,1,2,0:2:0:0:
58,168,83807,1,10,3:2:0:0:
226,151,83997,69,2,0:2:0:0:
293,92,84092,1,2,0:2:0:0:
396,98,84187,1,2,3:2:0:0:
217,164,84377,5,2,0:2:0:0:
326,187,84472,1,2,0:2:0:0:
374,276,84567,1,10,3:2:0:0:
208,178,84756,69,2,0:2:0:0:
285,274,84851,1,2,0:2:0:0:
217,363,84946,6,0,P|192:296|209:246,1,107.999993843079,2|0,3:2|0:2,0:2:0:0:
12,283,85136,2,0,P|34:239|86:203,1,107.999993843079,2|0,0:2|0:2,0:2:0:0:
430,172,85326,70,0,P|371:198|318:183,1,107.999993843079,10|0,3:2|0:2,0:2:0:0:
298,0,85516,2,0,P|295:61|262:98,1,107.999993843079,2|0,3:2|0:2,0:2:0:0:
105,94,85706,5,10,3:2:0:0:
6,150,86085,1,8,3:2:0:0:
10,258,86465,1,10,3:2:0:0:
3,263,86560,1,2,0:2:0:0:
102,327,86750,1,10,3:2:0:0:
254,285,87035,70,0,P|238:318|225:358,1,71.9999980926514,10|10,3:2|3:2,0:2:0:0:
493,349,87605,6,0,P|487:288|440:208,1,143.999996185303,10|0,3:2|0:2,0:2:0:0:
340,233,87794,2,0,P|395:258|488:258,1,143.999996185303,10|0,3:2|0:2,0:2:0:0:
378,43,87984,70,0,P|343:64|330:75,1,53.9999985694885,10|0,3:2|0:2,0:2:0:0:
324,83,88364,6,0,B|313:47|269:49|256:76|256:76|239:49|195:50|184:82|184:82|166:137|235:157|257:197|257:197|268:157|327:153|322:103,1,396.000001594544,14|0,3:2|0:2,0:2:0:0:
