osu file format v14

[General]
AudioFilename: audio.mp3
AudioLeadIn: 0
PreviewTime: 67085
Countdown: 0
SampleSet: Soft
StackLeniency: 0.5
Mode: 0
LetterboxInBreaks: 0
WidescreenStoryboard: 1

[Editor]
Bookmarks: 3667,15819,27971,40123,52275,67465,88731,100883,113035,125186,137338,152528,172845,173794,185946,201136,234554
DistanceSpacing: 1
BeatDivisor: 4
GridSize: 8
TimelineZoom: 2

[Metadata]
Title:Koi wa Chaos no Shimobenari
TitleUnicode:恋は渾沌の隷也
Artist:Ushirokara Haiyoritai G
ArtistUnicode:後ろから這いより隊G
Creator:Amamya
Version:Chaos
Source:這いよれ!ニャル子さんW
Tags:Nyaruko Kuuko Hasuta Asumi Kana Matsuki Miyu Kugimiya Rie ニャル子 クー子 ハス太 阿澄佳奈 松来未祐 釘宮理恵 Haiyore! Nyaruko-san W opening op anime pop jpop j-pop japanese osu! Japan Tournament 2021 ojt2021 Grand Finals DT4 GF Shirasaka Koume rollpan zetawin riana buckfro rihan atipir enon
BeatmapID:3509826
BeatmapSetID:1717491

[Difficulty]
HPDrainRate:5
CircleSize:3.5
OverallDifficulty:9.2
ApproachRate:9.6
SliderMultiplier:2.8
SliderTickRate:1

[Events]
//Background and Video events
0,0,"BG1.jpg",0,0
//Break Periods
//Storyboard Layer 0 (Background)
//Storyboard Layer 1 (Fail)
//Storyboard Layer 2 (Pass)
//Storyboard Layer 3 (Foreground)
//Storyboard Layer 4 (Overlay)
//Storyboard Sound Samples

[TimingPoints]
630,379.746835443038,4,2,1,65,1,0
630,-66.6666666666667,4,2,1,65,0,0
1484,-66.6666666666667,4,2,1,65,0,0
1674,-100,4,2,1,65,0,0
2338,-66.6666666666667,4,2,1,65,0,0
2528,-66.6666666666667,4,2,1,65,0,0
2718,-66.6666666666667,4,2,1,65,0,0
2908,-50,4,2,1,65,0,0
3288,-66.6666666666667,4,2,1,65,0,0
3667,-66.6666666666667,4,2,1,65,0,0
4047,-100,4,2,1,65,0,0
5186,-83.3333333333333,4,2,1,65,0,0
5946,-100,4,2,1,65,0,0
6326,-66.6666666666667,4,2,1,65,0,0
6705,-50,4,2,1,65,0,0
8224,-66.6666666666667,4,2,1,65,0,0
8794,-66.6666666666667,4,2,1,65,0,0
9364,-50,4,2,1,65,0,0
9743,-100,4,2,1,65,0,0
11262,-83.3333333333333,4,2,1,65,0,0
12781,-50,4,2,1,65,0,0
13636,-66.6666666666667,4,2,1,65,0,0
14490,-66.6666666666667,4,2,1,65,0,0
14680,-66.6666666666667,4,2,1,65,0,0
14870,-66.6666666666667,4,2,1,65,0,0
15060,-66.6666666666667,4,2,1,65,0,0
15440,-66.6666666666667,4,2,1,65,0,0
15819,-100,4,2,1,50,0,0
21136,-300.000003,4,2,1,50,0,0
21516,-66.6666666666667,4,2,1,50,0,0
21895,-100,4,2,1,50,0,0
27212,-300.000003,4,2,1,50,0,0
27592,-66.6666666666667,4,2,1,50,0,0
27971,-133.333333333333,4,2,2,40,0,0
29490,-66.6666666666667,4,2,2,40,0,0
29680,-133.333333333333,4,2,2,40,0,0
29870,-66.6666666666667,4,2,2,40,0,0
30060,-133.333333333333,4,2,2,40,0,0
30250,-66.6666666666667,4,2,2,40,0,0
30440,-133.333333333333,4,2,2,40,0,0
30630,-66.6666666666667,4,2,2,40,0,0
30820,-133.333333333333,4,2,2,40,0,0
31009,-133.333333333333,4,2,2,40,0,0
32528,-66.6666666666667,4,2,2,40,0,0
32718,-133.333333333333,4,2,2,40,0,0
32908,-66.6666666666667,4,2,2,40,0,0
33098,-133.333333333333,4,2,2,40,0,0
33288,-66.6666666666667,4,2,2,40,0,0
33478,-133.333333333333,4,2,2,40,0,0
33668,-66.6666666666667,4,2,2,40,0,0
33858,-133.333333333333,4,2,2,40,0,0
34047,-133.333333333333,4,2,2,40,0,0
35566,-66.6666666666667,4,2,2,40,0,0
35756,-133.333333333333,4,2,2,40,0,0
35946,-66.6666666666667,4,2,2,40,0,0
36136,-133.333333333333,4,2,2,40,0,0
36326,-66.6666666666667,4,2,2,40,0,0
36516,-133.333333333333,4,2,2,40,0,0
36706,-66.6666666666667,4,2,2,40,0,0
36896,-133.333333333333,4,2,2,40,0,0
37085,-100,4,2,2,40,0,0
37465,-83.3333333333333,4,2,2,40,0,0
37845,-71.4285714285714,4,2,2,40,0,0
38224,-62.5,4,2,2,40,0,0
38604,-55.5555555555556,4,2,1,40,0,0
39364,-80,4,2,1,40,0,0
39743,-66.6666666666667,4,2,1,40,0,0
40123,-100,4,2,1,50,0,0
45440,-300.000003,4,2,1,50,0,0
45820,-66.6666666666667,4,2,1,50,0,0
46199,-100,4,2,1,50,0,0
51516,-300.000003,4,2,1,50,0,0
51896,-66.6666666666667,4,2,1,50,0,0
52275,-66.6666666666667,4,2,1,50,0,0
53035,-83.3333333333333,4,2,1,50,0,0
53604,-50,4,2,1,50,0,0
54174,-33.3333333333333,4,2,1,50,0,0
54364,-50,4,2,1,50,0,0
55313,-50,4,2,1,50,0,0
56073,-66.6666666666667,4,2,1,50,0,0
56832,-66.6666666666667,4,2,1,50,0,0
57592,-83.3333333333333,4,2,1,50,0,0
58351,-50,4,2,1,50,0,0
59680,-50,4,2,1,50,0,0
60250,-33.3333333333333,4,2,1,50,0,0
60440,-50,4,2,1,50,0,0
60819,-50,4,2,1,50,0,0
61389,-41.6666666666667,4,2,1,50,0,0
62718,-55.5555555555556,4,2,1,50,0,0
64047,-55.5555555555556,4,2,1,50,0,0
64617,-50,4,2,1,60,0,0
64807,-200,4,2,1,60,0,0
64997,-50,4,2,1,60,0,0
65187,-200,4,2,1,60,0,0
65756,-50,4,2,1,60,0,0
65946,-200,4,2,1,60,0,0
66136,-50,4,2,1,60,0,0
66326,-200,4,2,1,60,0,0
66516,-50,4,2,1,60,0,0
66706,-200,4,2,1,60,0,0
67465,-50,4,2,1,70,0,1
68604,-50,4,2,1,70,0,1
68794,-50,4,2,1,70,0,1
69933,-50,4,2,1,70,0,1
70313,-66.6666666666667,4,2,1,70,0,1
70503,-50,4,2,1,70,0,1
70693,-58.8235294117647,4,2,1,70,0,1
70883,-71.4285714285714,4,2,1,70,0,1
71073,-90.9090909090909,4,2,1,70,0,1
71452,-71.4285714285714,4,2,1,70,0,1
71642,-58.8235294117647,4,2,1,70,0,1
71832,-50,4,2,1,70,0,1
73541,-50,4,2,1,70,0,1
74680,-50,4,2,1,70,0,1
74870,-50,4,2,1,70,0,1
76009,-50,4,2,1,70,0,1
76389,-66.6666666666667,4,2,1,70,0,1
76579,-50,4,2,1,70,0,1
76769,-58.8235294117647,4,2,1,70,0,1
76959,-71.4285714285714,4,2,1,70,0,1
77148,-90.9090909090909,4,2,1,70,0,1
77528,-71.4285714285714,4,2,1,70,0,1
77718,-58.8235294117647,4,2,1,70,0,1
78288,-50,4,2,1,70,0,1
80376,-100,4,2,1,70,0,1
81136,-50,4,2,1,70,0,1
81895,-25,4,2,1,70,0,1
82655,-133.333333333333,4,2,1,70,0,1
85503,-50,4,2,1,70,0,1
85693,-50,4,2,1,70,0,0
86737,-50,4,2,1,70,0,0
87022,-50,4,2,1,70,0,0
87401,-33.3333333333333,4,2,1,70,0,0
87591,-66.6666666666667,4,2,1,70,0,0
87781,-66.6666666666667,4,2,1,70,0,0
87971,-33.3333333333333,4,2,1,70,0,0
88351,-66.6666666666667,4,2,1,70,0,0
88731,-66.6666666666667,4,2,1,65,0,0
89111,-100,4,2,1,65,0,0
90250,-83.3333333333333,4,2,1,65,0,0
91009,-100,4,2,1,65,0,0
91390,-66.6666666666667,4,2,1,65,0,0
91769,-50,4,2,1,65,0,0
93288,-66.6666666666667,4,2,1,65,0,0
93858,-66.6666666666667,4,2,1,65,0,0
94428,-50,4,2,1,65,0,0
94807,-100,4,2,1,65,0,0
96326,-83.3333333333333,4,2,1,65,0,0
97845,-50,4,2,1,65,0,0
98700,-66.6666666666667,4,2,1,65,0,0
99554,-66.6666666666667,4,2,1,65,0,0
99744,-66.6666666666667,4,2,1,65,0,0
99934,-66.6666666666667,4,2,1,65,0,0
100124,-66.6666666666667,4,2,1,65,0,0
100504,-66.6666666666667,4,2,1,65,0,0
100883,-100,4,2,1,50,0,0
103921,-300.000003,4,2,1,50,0,0
106200,-300.000003,4,2,1,50,0,0
106580,-66.6666666666667,4,2,1,50,0,0
106959,-100,4,2,1,50,0,0
112276,-300.000003,4,2,1,50,0,0
112656,-66.6666666666667,4,2,1,50,0,0
113035,-133.333333333333,4,2,2,40,0,0
114554,-66.6666666666667,4,2,2,40,0,0
114744,-133.333333333333,4,2,2,40,0,0
114934,-66.6666666666667,4,2,2,40,0,0
115124,-133.333333333333,4,2,2,40,0,0
115314,-66.6666666666667,4,2,2,40,0,0
115504,-133.333333333333,4,2,2,40,0,0
115694,-66.6666666666667,4,2,2,40,0,0
115884,-133.333333333333,4,2,2,40,0,0
116073,-133.333333333333,4,2,2,40,0,0
117592,-66.6666666666667,4,2,2,40,0,0
117782,-133.333333333333,4,2,2,40,0,0
117972,-66.6666666666667,4,2,2,40,0,0
118162,-133.333333333333,4,2,2,40,0,0
118352,-66.6666666666667,4,2,2,40,0,0
118542,-133.333333333333,4,2,2,40,0,0
118732,-66.6666666666667,4,2,2,40,0,0
118922,-133.333333333333,4,2,2,40,0,0
119111,-133.333333333333,4,2,2,40,0,0
120630,-66.6666666666667,4,2,2,40,0,0
120820,-133.333333333333,4,2,2,40,0,0
121010,-66.6666666666667,4,2,2,40,0,0
121200,-133.333333333333,4,2,2,40,0,0
121390,-66.6666666666667,4,2,2,40,0,0
121580,-133.333333333333,4,2,2,40,0,0
121770,-66.6666666666667,4,2,2,40,0,0
121960,-133.333333333333,4,2,2,40,0,0
122149,-100,4,2,2,40,0,0
122528,-83.3333333333333,4,2,2,40,0,0
122908,-71.4285714285714,4,2,2,40,0,0
122909,-71.4285714285714,4,2,2,40,0,0
123288,-62.5,4,2,2,40,0,0
123668,-55.5555555555556,4,2,1,40,0,0
124428,-80,4,2,1,40,0,0
124807,-66.6666666666667,4,2,1,40,0,0
125187,-66.6666666666667,4,2,1,50,0,0
125376,-100,4,2,1,50,0,0
130504,-300.000003,4,2,1,50,0,0
130884,-66.6666666666667,4,2,1,50,0,0
131262,-66.6666666666667,4,2,1,50,0,0
131452,-100,4,2,1,50,0,0
136580,-300.000003,4,2,1,50,0,0
136960,-66.6666666666667,4,2,1,50,0,0
137338,-66.6666666666667,4,2,1,50,0,0
138098,-83.3333333333333,4,2,1,50,0,0
138667,-50,4,2,1,50,0,0
139237,-33.3333333333333,4,2,1,50,0,0
139427,-50,4,2,1,50,0,0
140376,-50,4,2,1,50,0,0
141136,-66.6666666666667,4,2,1,50,0,0
141895,-66.6666666666667,4,2,1,50,0,0
142655,-83.3333333333333,4,2,1,50,0,0
143414,-50,4,2,1,50,0,0
144743,-50,4,2,1,50,0,0
145313,-33.3333333333333,4,2,1,50,0,0
145503,-50,4,2,1,50,0,0
145882,-50,4,2,1,50,0,0
146452,-41.6666666666667,4,2,1,50,0,0
147781,-55.5555555555556,4,2,1,50,0,0
149110,-55.5555555555556,4,2,1,50,0,0
149681,-50,4,2,1,60,0,0
149871,-200,4,2,1,60,0,0
150061,-50,4,2,1,60,0,0
150251,-200,4,2,1,60,0,0
150820,-50,4,2,1,60,0,0
151010,-200,4,2,1,60,0,0
151200,-50,4,2,1,60,0,0
151390,-200,4,2,1,60,0,0
151580,-50,4,2,1,60,0,0
151769,-200,4,2,1,60,0,0
152528,-50,4,2,1,70,0,1
153668,-50,4,2,1,70,0,1
153858,-50,4,2,1,70,0,1
154997,-50,4,2,1,70,0,1
155377,-66.6666666666667,4,2,1,70,0,1
155566,-50,4,2,1,70,0,1
155946,-71.4285714285714,4,2,1,70,0,1
156705,-58.8235294117647,4,2,1,70,0,1
156895,-50,4,2,1,70,0,1
158605,-50,4,2,1,70,0,1
159744,-50,4,2,1,70,0,1
159934,-50,4,2,1,70,0,1
161073,-50,4,2,1,70,0,1
161453,-66.6666666666667,4,2,1,70,0,1
161642,-50,4,2,1,70,0,1
161832,-58.8235294117647,4,2,1,70,0,1
162022,-71.4285714285714,4,2,1,70,0,1
162212,-90.9090909090909,4,2,1,70,0,1
162592,-71.4285714285714,4,2,1,70,0,1
162781,-58.8235294117647,4,2,1,70,0,1
163351,-50,4,2,1,70,0,1
165440,-100,4,2,1,70,0,1
166199,-50,4,2,1,70,0,1
166959,-25,4,2,1,70,0,1
167719,-133.333333333333,4,2,1,70,0,1
170567,-50,4,2,1,70,0,1
170756,-50,4,2,1,70,0,0
172465,-90.9090909090909,4,2,1,70,0,0
172655,-66.6666666666667,4,2,1,70,0,0
172845,-57.1428571428571,4,2,1,70,0,0
173035,-50,4,2,1,70,0,0
173414,-66.6666666666667,4,2,1,70,0,0
173604,-50,4,2,1,70,0,1
173794,-50,4,2,1,60,0,0
174933,-66.6666666666667,4,2,1,60,0,0
185566,-200,4,2,1,60,0,0
185946,-100,4,2,1,65,0,0
186705,-66.6666666666667,4,2,1,65,0,0
187275,-66.6666666666667,4,2,1,65,0,0
187655,-100,4,2,1,65,0,0
188224,-66.6666666666667,4,2,1,65,0,0
188604,-50,4,2,1,65,0,0
188984,-66.6666666666667,4,2,1,65,0,0
190503,-100,4,2,1,65,0,0
190883,-66.6666666666667,4,2,1,65,0,0
191262,-50,4,2,1,65,0,0
192022,-100,4,2,1,65,0,0
192781,-66.6666666666667,4,2,1,65,0,0
193351,-66.6666666666667,4,2,1,65,0,0
193731,-100,4,2,1,65,0,0
194300,-66.6666666666667,4,2,1,65,0,0
194680,-50,4,2,1,65,0,0
195060,-100,4,2,1,65,0,0
196959,-66.6666666666667,4,2,1,65,0,0
198288,-50,4,2,1,65,0,0
198478,-200,4,2,1,65,0,0
198668,-50,4,2,1,65,0,0
198858,-200,4,2,1,65,0,0
199427,-50,4,2,1,65,0,0
199617,-200,4,2,1,65,0,0
199807,-50,4,2,1,65,0,0
199997,-200,4,2,1,65,0,0
200187,-50,4,2,1,65,0,0
200377,-200,4,2,1,65,0,0
201136,-50,4,2,1,70,0,1
202275,-50,4,2,1,70,0,1
202465,-50,4,2,1,70,0,1
203604,-50,4,2,1,70,0,1
204174,-66.6666666666667,4,2,1,70,0,1
204554,-58.8235294117647,4,2,1,70,0,1
204933,-90.9090909090909,4,2,1,70,0,1
205313,-71.4285714285714,4,2,1,70,0,1
205503,-50,4,2,1,70,0,1
207212,-50,4,2,1,70,0,1
208351,-50,4,2,1,70,0,1
208541,-50,4,2,1,70,0,1
209680,-50,4,2,1,70,0,1
210060,-66.6666666666667,4,2,1,70,0,1
210250,-50,4,2,1,70,0,1
210440,-58.8235294117647,4,2,1,70,0,1
210630,-71.4285714285714,4,2,1,70,0,1
210820,-90.9090909090909,4,2,1,70,0,1
211199,-71.4285714285714,4,2,1,70,0,1
211389,-58.8235294117647,4,2,1,70,0,1
211959,-50,4,2,1,70,0,1
213288,-50,4,2,1,70,0,1
214428,-50,4,2,1,70,0,1
214618,-50,4,2,1,70,0,1
215757,-50,4,2,1,70,0,1
216326,-50,4,2,1,70,0,1
216516,-58.8235294117647,4,2,1,70,0,1
216705,-71.4285714285714,4,2,1,70,0,1
216895,-90.9090909090909,4,2,1,70,0,1
217275,-71.4285714285714,4,2,1,70,0,1
217465,-58.8235294117647,4,2,1,70,0,1
217655,-50,4,2,1,70,0,1
219365,-50,4,2,1,70,0,1
220504,-50,4,2,1,70,0,1
220694,-50,4,2,1,70,0,1
221833,-50,4,2,1,70,0,1
222213,-66.6666666666667,4,2,1,70,0,1
222402,-50,4,2,1,70,0,1
222592,-58.8235294117647,4,2,1,70,0,1
222782,-71.4285714285714,4,2,1,70,0,1
222971,-90.9090909090909,4,2,1,70,0,1
223352,-71.4285714285714,4,2,1,70,0,1
223541,-58.8235294117647,4,2,1,70,0,1
224111,-50,4,2,1,70,0,1
226200,-100,4,2,1,70,0,1
226959,-50,4,2,1,70,0,1
227719,-25,4,2,1,70,0,1
228479,-133.333333333333,4,2,1,70,0,1
231327,-50,4,2,1,70,0,1
231516,-50,4,2,1,70,0,0
233225,-33.3333333333333,4,2,1,70,0,0
233415,-66.6666666666667,4,2,1,70,0,0
233605,-57.1428571428571,4,2,1,70,0,0
233795,-50,4,2,1,70,0,0
234174,-66.6666666666667,4,2,1,70,0,0

[Colours]
Combo1 : 232,220,164
Combo2 : 211,199,194

[HitObjects]
0,384,630,6,0,P|103:364|221:310,1,210.000008010865,2|0,3:2|0:0,0:0:0:0:
114,30,1009,2,0,P|79:129|67:258,1,210,2|0,3:2|0:0,0:0:0:0:
156,244,1389,1,2,3:2:0:0:
359,317,1484,2,0,P|290:237|184:162,1,210,2|2,1:2|3:2,0:0:0:0:
240,9,1959,6,0,B|224:63|256:118|320:116|320:116|291:97|286:28,1,210,2|0,3:2|0:0,0:0:0:0:
431,57,2338,2,0,B|411:42|380:57|380:57|410:1|473:2|513:41,2,210.000008010865,2|2|2,3:2|3:2|3:2,0:0:0:0:
491,274,2908,6,0,B|525:291|525:291|210:339,1,280,2|0,3:2|0:0,0:0:0:0:
167,264,3288,6,0,B|93:279|40:352|40:352|50:266|-17:202,1,315.000012016297,2|0,3:2|0:0,0:0:0:0:
101,164,3667,5,6,3:2:0:0:
156,89,3762,1,2,1:2:0:0:
239,119,3857,1,2,1:2:0:0:
264,384,4047,6,0,P|299:386|331:372,1,70,10|0,3:2|0:0,0:0:0:0:
316,289,4237,2,0,P|281:287|250:302,1,70,2|0,1:2|0:0,0:0:0:0:
481,384,4427,5,2,3:2:0:0:
512,304,4522,1,2,1:2:0:0:
442,239,4617,1,2,1:2:0:0:
512,143,4712,1,2,1:2:0:0:
401,62,4807,2,0,P|327:38|219:19,1,140,10|2,3:2|1:2,0:0:0:0:
0,283,5186,5,2,3:2:0:0:
170,331,5281,1,2,1:2:0:0:
62,376,5376,1,2,1:2:0:0:
168,31,5566,5,10,3:2:0:0:
191,150,5661,2,0,P|206:192|236:259,1,83.9999974365235,2|2,1:2|1:2,0:0:0:0:
428,211,5851,5,2,1:2:0:0:
336,290,5946,2,0,P|307:323|264:383,1,70,2|0,3:2|0:0,0:0:0:0:
303,0,6136,6,0,P|315:66|296:114,1,70,0|0,1:0|0:0,0:0:0:0:
293,187,6326,2,0,P|382:134|526:108,1,210.000008010865,10|2,3:2|1:2,0:0:0:0:
373,265,6705,6,0,B|255:274|198:376|198:376|211:265|124:187,1,420,2|0,3:2|0:0,0:0:0:0:
242,121,7085,2,0,B|124:111|67:9|67:9|80:121|-6:199,1,420,10|0,1:2|0:0,0:0:0:0:
0,300,7465,5,2,3:2:0:0:
72,251,7560,1,2,1:2:0:0:
378,379,7750,5,2,1:2:0:0:
373,265,7845,1,10,3:2:0:0:
512,66,8035,6,0,B|503:11|452:5|452:5|483:26|488:73,1,140,2|0,1:2|0:0,0:0:0:0:
148,51,8224,6,0,P|52:131|-29:252,1,210.000008010865,2|0,3:2|1:0,0:0:0:0:
254,108,8509,2,0,P|276:230|339:362,1,210.000008010865,2|0,1:2|0:0,0:0:0:0:
311,8,8794,2,0,P|428:50|574:61,1,210.000008010865,0|2,1:0|3:2,0:0:0:0:
109,315,9174,6,0,B|125:313|146:331|146:331|143:288|98:287,1,105.000004005432,2|0,1:2|0:0,0:0:0:0:
307,186,9364,6,0,B|298:237|245:275|245:275|201:200|148:214|148:214|173:218|205:259,1,280,10|2,3:2|1:2,0:0:0:0:
362,80,9743,5,6,3:2:0:0:
417,5,9838,1,2,1:2:0:0:
500,35,9933,1,2,1:2:0:0:
202,123,10123,6,0,P|213:88|228:57,1,70,10|0,3:2|0:0,0:0:0:0:
140,28,10313,2,0,P|129:63|114:94,1,70,2|0,1:2|0:0,0:0:0:0:
0,244,10503,5,2,3:2:0:0:
87,283,10598,1,2,1:2:0:0:
196,220,10693,1,2,1:2:0:0:
215,305,10788,1,2,1:2:0:0:
315,383,10883,1,10,3:2:0:0:
329,92,11073,6,0,P|312:56|298:-2,1,70,2|0,1:2|0:0,0:0:0:0:
512,177,11262,5,2,3:2:0:0:
418,138,11357,1,2,1:2:0:0:
499,275,11452,1,2,1:2:0:0:
211,353,11642,5,10,3:2:0:0:
302,273,11737,2,0,P|330:239|373:179,1,83.9999974365235,2|2,1:2|1:2,0:0:0:0:
38,104,11927,5,2,1:2:0:0:
152,144,12022,2,0,P|195:152|268:159,1,83.9999974365235,2|0,3:2|0:0,0:0:0:0:
95,289,12212,6,0,P|136:274|203:244,1,83.9999974365235,2|0,1:2|0:0,0:0:0:0:
424,305,12402,5,10,3:2:0:0:
333,382,12497,1,0,1:0:0:0:
215,348,12592,1,2,1:2:0:0:
341,130,12781,6,0,B|388:128|425:191|425:191|472:118|471:32|375:-18|375:-18|408:16|382:84,1,420,2|0,3:2|0:0,0:0:0:0:
242,160,13161,2,0,B|203:189|216:262|216:262|133:235|78:169|119:68|119:68|117:115|181:151,1,420,10|0,3:2|0:0,0:0:0:0:
228,73,13541,5,2,3:2:0:0:
399,293,13636,2,0,P|361:266|280:215,1,105.000004005432,2|2,1:2|1:2,0:0:0:0:
393,38,13826,2,0,P|438:33|535:29,1,105.000004005432,10|2,3:2|1:2,0:0:0:0:
92,333,14111,6,0,B|16:385|16:385|308:324,1,315.000012016297,2|0,3:2|0:0,0:0:0:0:
81,159,14490,6,0,P|50:107|44:29,1,105.000004005432,10|0,3:2|0:0,0:0:0:0:
339,154,14680,2,0,P|399:153|470:186,1,105.000004005432,2|0,3:2|0:0,0:0:0:0:
209,82,14870,6,0,P|238:29|303:-15,1,105.000004005432,10|0,3:2|0:0,0:0:0:0:
318,288,15060,2,0,P|349:340|354:418,1,105.000004005432,2|0,3:2|0:0,0:0:0:0:
448,55,15440,6,0,B|374:70|321:143|321:143|331:57|264:-7,1,315.000012016297,10|0,1:2|0:0,0:0:0:0:
169,25,15819,6,0,P|82:44|6:56,1,140,6|0,3:2|1:0,0:0:0:0:
49,359,16199,2,0,P|20:330|-28:269,1,70,8|0,3:2|0:0,0:0:0:0:
115,301,16389,2,0,P|86:272|38:211,1,70,2|0,1:2|0:0,0:0:0:0:
130,148,16579,2,0,P|196:172|263:193,1,140,2|0,3:2|1:0,0:0:0:0:
296,64,16959,5,10,3:2:0:0:
384,77,17054,1,0,1:0:0:0:
444,8,17148,1,2,1:2:0:0:
422,160,17338,1,2,3:2:0:0:
30,38,17528,5,2,1:2:0:0:
0,110,17623,1,2,1:2:0:0:
73,137,17718,1,10,3:2:0:0:
143,171,17813,1,0,1:0:0:0:
109,241,17908,1,2,1:2:0:0:
75,313,18003,1,0,1:0:0:0:
146,348,18098,1,2,3:2:0:0:
458,197,18288,6,0,P|441:172|412:133,1,70,0|0,1:0|0:0,0:0:0:0:
264,189,18478,2,0,P|294:187|342:180,1,70,8|0,3:2|0:0,0:0:0:0:
373,25,18667,2,0,P|359:51|340:96,1,70,0|0,1:0|0:0,0:0:0:0:
458,197,18857,6,0,P|441:172|412:133,1,70,0|0,3:0|0:0,0:0:0:0:
354,270,19047,1,2,1:2:0:0:
390,346,19142,1,2,1:2:0:0:
366,265,19237,1,10,3:2:0:0:
158,193,19427,5,2,1:2:0:0:
294,165,19617,6,0,P|263:268|237:331,1,140,2|0,3:2|1:0,0:0:0:0:
29,234,19997,2,0,P|59:130|85:67,1,140,10|0,3:2|1:0,0:0:0:0:
375,251,20376,6,0,P|391:326|402:366,1,70,2|0,3:2|0:0,0:0:0:0:
507,147,20566,2,0,P|491:222|480:262,1,70,2|0,1:2|0:0,0:0:0:0:
232,180,20756,6,0,P|307:164|347:153,1,70,10|0,3:2|0:0,0:0:0:0:
134,50,20946,2,0,P|209:66|249:77,1,70,2|0,1:2|0:0,0:0:0:0:
29,234,21136,6,0,P|13:309|2:349,1,70,2|0,3:2|0:0,0:0:0:0:
0,384,21516,6,0,P|166:362|401:341,1,315.000012016297,8|0,3:2|0:0,0:0:0:0:
195,169,21895,6,0,P|214:82|226:6,1,140,6|0,3:2|1:0,0:0:0:0:
488,46,22275,2,0,P|455:16|425:-8,1,70,8|0,3:2|0:0,0:0:0:0:
437,112,22465,2,0,P|404:82|374:58,1,70,2|0,1:2|0:0,0:0:0:0:
326,167,22655,2,0,P|350:232|370:299,1,140,2|0,3:2|1:0,0:0:0:0:
229,289,23035,5,10,3:2:0:0:
141,276,23130,1,0,1:0:0:0:
81,345,23224,1,2,1:2:0:0:
112,190,23414,1,2,3:2:0:0:
500,159,23604,5,2,1:2:0:0:
465,88,23699,1,2,1:2:0:0:
393,122,23794,1,10,3:2:0:0:
323,156,23889,1,0,1:0:0:0:
289,86,23984,1,2,1:2:0:0:
262,13,24079,1,0,1:0:0:0:
190,43,24174,1,2,3:2:0:0:
301,384,24364,6,0,P|317:359|346:320,1,70,0|0,1:0|0:0,0:0:0:0:
509,293,24554,2,0,P|479:291|431:285,1,70,8|0,3:2|0:0,0:0:0:0:
328,157,24743,2,0,P|341:183|360:228,1,70,0|0,1:0|0:0,0:0:0:0:
301,384,24933,6,0,P|317:359|346:320,1,70,0|0,3:0|0:0,0:0:0:0:
161,310,25123,1,2,1:2:0:0:
91,284,25218,1,2,1:2:0:0:
166,294,25313,1,10,3:2:0:0:
365,144,25503,5,2,1:2:0:0:
232,119,25693,6,0,P|262:222|288:285,1,140,2|0,3:2|1:0,0:0:0:0:
504,185,26073,2,0,P|473:81|447:18,1,140,10|0,3:2|1:0,0:0:0:0:
137,251,26452,6,0,P|121:326|110:366,1,70,2|0,3:2|0:0,0:0:0:0:
5,147,26642,2,0,P|21:222|32:262,1,70,2|0,1:2|0:0,0:0:0:0:
300,267,26832,6,0,P|225:251|185:240,1,70,10|0,3:2|0:0,0:0:0:0:
398,137,27022,2,0,P|323:153|283:164,1,70,2|0,1:2|0:0,0:0:0:0:
483,234,27212,6,0,P|499:309|510:349,1,70,2|0,3:2|0:0,0:0:0:0:
512,384,27592,6,0,P|346:362|111:341,1,315.000012016297,10|0,3:2|0:0,0:0:0:0:
23,283,27971,6,0,P|48:246|72:213,1,52.5000020027161,6|0,0:2|0:0,0:0:0:0:
97,361,28161,6,0,P|108:317|119:278,1,52.5000020027161,2|0,1:2|0:0,0:0:0:0:
206,325,28351,6,0,P|231:288|255:255,1,52.5000020027161,2|0,3:2|0:0,0:0:0:0:
302,384,28541,6,0,P|313:340|324:301,1,52.5000020027161,2|0,1:2|0:0,0:0:0:0:
411,372,28731,6,0,P|438:332|481:274,3,105.000004005432,2|2|2|2,3:2|1:2|3:2|1:2,0:0:0:0:
505,103,29490,6,0,B|512:90|536:88|536:88|521:71|486:67|455:110,1,105.000004005432,2|0,3:2|0:0,0:0:0:0:
394,15,29680,2,0,B|398:23|400:37|400:37|410:25|422:20,1,52.5000020027161,2|0,1:2|0:0,0:0:0:0:
369,159,29870,6,0,B|368:144|388:130|388:130|366:123|334:137|329:190,1,105.000004005432,2|0,3:2|0:0,0:0:0:0:
228,139,30060,2,0,B|236:144|245:155|245:155|248:139|256:129,1,52.5000020027161,2|0,1:2|0:0,0:0:0:0:
174,37,30250,6,0,B|166:24|176:2|176:2|154:7|133:35|155:83,1,105.000004005432,2|0,3:2|0:0,0:0:0:0:
42,89,30440,2,0,B|52:89|65:94|65:94|59:79|61:66,1,52.5000020027161,2|0,1:2|0:0,0:0:0:0:
154,182,30630,6,0,B|141:175|139:151|139:151|122:166|117:201|161:232,1,105.000004005432,2|0,3:2|0:0,0:0:0:0:
66,294,30820,2,0,B|74:289|88:287|88:287|76:277|71:265,1,52.5000020027161,2|0,1:2|0:0,0:0:0:0:
481,323,31009,6,0,P|474:348|468:374,1,52.5000020027161,2|0,3:2|0:0,0:0:0:0:
423,253,31199,6,0,P|407:274|393:296,1,52.5000020027161,2|0,1:2|0:0,0:0:0:0:
302,333,31389,6,0,P|290:289|279:250,1,52.5000020027161,2|0,3:2|0:0,0:0:0:0:
206,384,31579,6,0,P|210:339|212:298,1,52.5000020027161,2|0,1:2|0:0,0:0:0:0:
7,364,31769,6,0,P|53:351|122:330,3,105.000004005432,2|2|2|2,3:2|1:2|3:2|1:2,0:0:0:0:
35,164,32528,6,0,B|5:141|9:104|9:104|24:87|59:83|74:110,1,105.000004005432,2|0,3:2|0:0,0:0:0:0:
118,15,32718,2,0,B|113:23|111:37|111:37|101:25|89:20,1,52.5000020027161,2|0,1:2|0:0,0:0:0:0:
120,255,32908,6,0,B|105:220|127:190|127:190|148:182|181:196|180:227,1,105.000004005432,2|0,3:2|0:0,0:0:0:0:
266,167,33098,2,0,B|257:172|248:183|248:183|245:167|237:157,1,52.5000020027161,2|0,1:2|0:0,0:0:0:0:
342,127,33288,6,0,B|346:89|380:74|380:74|403:78|424:107|408:133,1,105.000004005432,2|0,3:2|0:0,0:0:0:0:
512,124,33478,2,0,B|501:124|488:129|488:129|494:114|492:101,1,52.5000020027161,2|0,1:2|0:0,0:0:0:0:
305,246,33668,6,0,B|328:216|365:220|365:220|382:235|386:270|359:285,1,105.000004005432,2|0,3:2|0:0,0:0:0:0:
454,328,33858,2,0,B|445:323|431:321|431:321|443:311|448:299,1,52.5000020027161,2|0,1:2|0:0,0:0:0:0:
23,283,34047,6,0,P|48:246|72:213,1,52.5000020027161,6|0,3:2|0:0,0:0:0:0:
97,361,34237,6,0,P|108:317|119:278,1,52.5000020027161,2|0,1:2|0:0,0:0:0:0:
206,325,34427,6,0,P|231:288|255:255,1,52.5000020027161,2|0,3:2|0:0,0:0:0:0:
302,384,34617,6,0,P|313:340|324:301,1,52.5000020027161,2|0,1:2|0:0,0:0:0:0:
411,372,34807,6,0,P|438:332|481:274,3,105.000004005432,2|2|2|2,3:2|1:2|3:2|1:2,0:0:0:0:
429,27,35566,6,0,B|444:59|465:63|465:63|471:96|447:139,1,105.000004005432,2|0,3:2|0:0,0:0:0:0:
384,189,35756,2,0,B|370:170|379:150|379:150|383:169|407:180,1,52.5000020027161,2|0,1:2|0:0,0:0:0:0:
251,23,35946,6,0,B|279:43|300:36|300:36|321:61|322:110,1,105.000004005432,2|0,3:2|0:0,0:0:0:0:
293,185,36136,2,0,B|271:175|269:153|269:153|282:168|308:165,1,52.5000020027161,2|0,1:2|0:0,0:0:0:0:
93,119,36326,6,0,B|128:122|142:105|142:105|173:117|198:159,1,105.000004005432,2|0,3:2|0:0,0:0:0:0:
211,238,36516,2,0,B|187:240|174:222|174:222|193:228|214:213,1,52.5000020027161,2|0,1:2|0:0,0:0:0:0:
1,271,36706,6,0,B|33:256|37:234|37:234|70:229|113:253,1,105.000004005432,2|0,3:2|0:0,0:0:0:0:
162,315,36896,2,0,B|143:329|122:320|122:320|141:316|153:292,1,52.5000020027161,2|0,1:2|0:0,0:0:0:0:
44,32,37085,6,0,B|12:49|12:49|61:-4,1,70,2|0,3:2|0:0,0:0:0:0:
129,115,37275,2,0,B|110:146|110:146|126:74,1,70,2|0,1:2|0:0,0:0:0:0:
257,107,37465,2,0,B|255:150|255:150|229:66,1,83.9999974365235,2|0,3:2|0:0,0:0:0:0:
357,23,37655,2,0,B|377:61|377:61|312:1,1,83.9999974365235,2|0,1:2|0:0,0:0:0:0:
478,355,37845,6,0,B|522:331|522:331|453:405,1,97.9999970092774,2|0,3:2|0:0,0:0:0:0:
393,262,38035,2,0,B|419:219|419:219|397:318,1,97.9999970092774,2|0,1:2|0:0,0:0:0:0:
251,260,38224,2,0,B|252:202|252:202|287:313,1,112,2|0,3:2|0:0,0:0:0:0:
156,364,38414,2,0,B|128:313|128:313|214:392,1,112,2|0,1:2|0:0,0:0:0:0:
89,206,38604,6,0,B|49:207|24:227|24:227|44:139|130:128|188:180,1,251.999992309571,6|0,3:2|0:0,0:0:0:0:
289,70,38984,2,0,B|329:71|354:91|354:91|334:3|248:-8|190:44,1,251.999992309571,6|0,3:2|0:0,0:0:0:0:
228,357,39364,6,0,P|221:310|198:203,1,87.5,6|0,3:2|0:0,0:0:0:0:
37,220,39554,2,0,P|84:213|191:190,1,87.5,0|0,0:2|0:0,0:0:0:0:
434,253,39743,6,0,B|486:213|456:134|365:120|313:218|318:297|482:236|485:322|402:392,1,315.000012016297,2|0,3:2|0:0,0:0:0:0:
354,350,40123,6,0,P|285:362|217:378,1,140,6|0,3:2|1:0,0:0:0:0:
357,10,40503,2,0,P|416:74|440:102,1,70,8|0,3:2|0:0,0:0:0:0:
293,72,40693,2,0,P|352:136|376:164,1,70,2|0,1:2|0:0,0:0:0:0:
228,170,40883,2,0,P|162:145|95:125,1,140,2|0,3:2|1:0,0:0:0:0:
246,322,41263,6,0,B|259:341|259:362|259:362|246:345|218:318,1,70,10|0,3:2|0:0,0:0:0:0:
134,245,41452,2,0,B|111:243|92:253|92:253|114:256|151:267,1,70,2|0,1:2|0:0,0:0:0:0:
151,341,41642,5,2,3:2:0:0:
320,19,41832,5,2,1:2:0:0:
391,54,41927,1,2,1:2:0:0:
357,126,42022,1,10,3:2:0:0:
323,196,42117,1,0,1:0:0:0:
393,230,42212,1,2,1:2:0:0:
466,257,42307,1,0,1:0:0:0:
436,329,42402,1,2,3:2:0:0:
62,218,42592,6,0,P|78:242|107:281,1,70,0|0,1:0|0:0,0:0:0:0:
294,332,42782,2,0,P|264:334|216:340,1,70,8|0,3:2|0:0,0:0:0:0:
139,359,42971,1,0,1:0:0:0:
62,218,43161,6,0,P|78:242|107:281,1,70,0|0,3:0|0:0,0:0:0:0:
188,238,43351,1,2,1:2:0:0:
224,162,43446,1,2,1:2:0:0:
200,243,43541,1,10,3:2:0:0:
391,191,43731,5,2,1:2:0:0:
363,55,43921,6,0,P|466:85|529:111,1,140,2|0,3:2|1:0,0:0:0:0:
432,320,44301,2,0,P|328:289|265:263,1,140,10|0,3:2|1:0,0:0:0:0:
37,79,44680,5,2,3:2:0:0:
62,154,44775,1,0,1:0:0:0:
137,132,44870,1,2,1:2:0:0:
97,275,45060,5,10,3:2:0:0:
122,350,45155,1,0,1:0:0:0:
197,328,45250,1,2,1:2:0:0:
483,150,45440,6,0,P|499:75|510:35,1,70,0|0,3:0|0:0,0:0:0:0:
512,0,45820,6,0,P|346:22|111:43,1,315.000012016297,10|0,3:2|0:0,0:0:0:0:
440,173,46199,6,0,P|421:259|409:336,1,140,6|0,3:2|1:0,0:0:0:0:
0,338,46579,2,0,P|32:367|62:392,1,70,8|0,3:2|0:0,0:0:0:0:
62,273,46769,2,0,P|94:302|124:327,1,70,2|0,1:2|0:0,0:0:0:0:
235,278,46959,2,0,P|210:212|190:145,1,140,2|0,3:2|1:0,0:0:0:0:
461,51,47339,6,0,B|480:38|501:38|501:38|484:51|457:79,1,70,10|0,3:2|0:0,0:0:0:0:
373,175,47528,2,0,B|371:197|381:216|381:216|384:194|395:157,1,70,2|0,1:2|0:0,0:0:0:0:
480,161,47718,5,2,3:2:0:0:
34,268,47908,5,2,1:2:0:0:
106,238,48003,1,2,1:2:0:0:
133,311,48098,1,10,3:2:0:0:
167,381,48193,1,0,1:0:0:0:
237,347,48288,1,2,1:2:0:0:
309,313,48383,1,0,1:0:0:0:
344,384,48478,1,2,3:2:0:0:
272,53,48668,6,0,P|255:77|226:116,1,70,0|0,1:0|0:0,0:0:0:0:
55,141,48858,2,0,P|85:143|133:149,1,70,8|0,3:2|0:0,0:0:0:0:
215,204,49047,1,0,1:0:0:0:
270,51,49237,6,0,P|253:75|224:114,1,70,0|0,3:0|0:0,0:0:0:0:
335,117,49427,1,2,1:2:0:0:
405,146,49522,1,2,1:2:0:0:
330,133,49617,1,10,3:2:0:0:
142,291,49807,5,2,1:2:0:0:
275,316,49997,6,0,P|244:212|218:149,1,140,2|0,3:2|1:0,0:0:0:0:
3,250,50377,2,0,P|33:353|59:416,1,140,10|0,3:2|1:0,0:0:0:0:
428,50,50756,5,2,3:2:0:0:
402,125,50851,1,0,1:0:0:0:
327,100,50946,1,2,1:2:0:0:
365,250,51136,5,10,3:2:0:0:
339,325,51231,1,0,1:0:0:0:
264,299,51326,1,2,1:2:0:0:
29,150,51516,6,0,P|13:75|2:35,1,70,2|0,3:2|0:0,0:0:0:0:
0,0,51896,6,0,P|166:22|401:43,1,315.000012016297,10|0,3:2|0:0,0:0:0:0:
443,206,52275,6,0,L|413:408,1,140.000005340576,6|0,3:2|0:0,0:0:0:0:
415,344,52465,2,0,L|442:159,1,140.000005340576,2|0,1:2|0:0,0:0:0:0:
333,187,52655,6,0,L|307:355,1,140.000005340576,10|0,3:2|0:0,0:0:0:0:
303,323,52845,2,0,L|327:177,1,140.000005340576,2|0,1:2|0:0,0:0:0:0:
176,260,53035,6,0,P|150:212|157:138,1,111.999996582031,2|0,3:2|0:0,0:0:0:0:
148,168,53224,2,0,P|120:214|52:245,1,111.999996582031,2|0,1:2|0:0,0:0:0:0:
85,237,53414,2,0,P|139:238|199:280,1,111.999996582031,10|0,3:2|0:0,0:0:0:0:
232,384,53604,6,0,L|557:334,2,280,2|0|2,1:2|3:0|1:2,0:0:0:0:
127,24,54174,6,0,L|452:73,1,280,10|0,3:2|0:0,0:0:0:0:
403,73,54364,2,0,L|126:30,1,280,2|0,1:2|3:0,0:0:0:0:
204,243,54743,6,0,P|106:245|32:182,1,186.666666666667,2|0,1:2|0:0,0:0:0:0:
34,171,54933,2,0,P|84:253|65:349,1,186.666666666667,10|0,3:2|0:0,0:0:0:0:
62,360,55123,2,0,P|108:274|200:243,1,186.666666666667,2|0,1:2|0:0,0:0:0:0:
326,154,55313,6,0,L|568:169,1,186.666666666667,2|0,3:2|0:0,0:0:0:0:
511,172,55503,2,0,L|325:160,1,186.666666666667,2|0,1:2|0:0,0:0:0:0:
326,154,55693,6,0,L|568:169,1,186.666666666667,10|0,3:2|0:0,0:0:0:0:
511,172,55883,2,0,L|325:160,1,186.666666666667,0|0,1:0|0:0,0:0:0:0:
262,306,56073,6,0,L|416:295,1,140.000005340576,2|0,3:2|0:0,0:0:0:0:
401,288,56262,2,0,L|262:299,1,140.000005340576,2|0,1:2|0:0,0:0:0:0:
262,306,56452,6,0,L|416:295,1,140.000005340576,10|0,3:2|0:0,0:0:0:0:
401,288,56641,2,0,L|262:299,1,140.000005340576,2|0,1:2|0:0,0:0:0:0:
174,206,56832,6,0,L|14:183,1,140.000005340576,2|0,3:2|0:0,0:0:0:0:
37,180,57022,2,0,L|198:203,1,140.000005340576,2|0,1:2|0:0,0:0:0:0:
174,206,57212,6,0,L|16:183,1,140.000005340576,10|0,3:2|0:0,0:0:0:0:
37,180,57402,2,0,L|198:203,1,140.000005340576,2|0,1:2|0:0,0:0:0:0:
296,90,57592,6,0,L|156:107,1,111.999996582031,2|0,3:2|0:0,0:0:0:0:
184,97,57781,2,0,L|304:82,1,111.999996582031,2|0,1:2|0:0,0:0:0:0:
296,90,57971,6,0,L|156:107,1,111.999996582031,10|0,3:2|0:0,0:0:0:0:
184,97,58160,2,0,L|304:82,1,111.999996582031,0|0,1:0|0:0,0:0:0:0:
482,137,58351,6,0,L|447:346,1,186.666666666667,6|0,3:2|0:0,0:0:0:0:
445,317,58541,2,0,L|477:121,1,186.666666666667,2|0,1:2|0:0,0:0:0:0:
386,119,58731,6,0,L|351:328,1,186.666666666667,10|0,3:2|0:0,0:0:0:0:
349,302,58921,2,0,L|381:106,1,186.666666666667,2|0,1:2|0:0,0:0:0:0:
259,100,59111,6,0,P|191:163|100:177,1,186.666666666667,2|0,3:2|0:0,0:0:0:0:
22,176,59300,2,0,P|109:202|166:274,1,186.666666666667,2|0,1:2|0:0,0:0:0:0:
210,345,59490,2,0,P|189:255|221:168,1,186.666666666667,10|0,3:2|0:0,0:0:0:0:
185,49,59680,6,0,L|549:98,2,280,2|0|2,1:2|3:0|1:2,0:0:0:0:
293,369,60250,2,0,L|-19:328,1,280.000010681153,10|0,3:2|0:0,0:0:0:0:
17,340,60440,2,0,L|305:379,1,280,2|0,1:2|3:0,0:0:0:0:
263,154,60820,6,0,P|354:190|409:272,1,186.666666666667,2|0,1:2|0:0,0:0:0:0:
440,343,61009,2,0,P|426:246|469:158,1,186.666666666667,10|0,3:2|0:0,0:0:0:0:
512,88,61199,2,0,P|435:148|337:156,1,186.666666666667,2|0,1:2|0:0,0:0:0:0:
272,68,61389,6,0,L|40:41,1,223.999993164063,2|0,3:2|0:0,0:0:0:0:
52,37,61579,2,0,L|284:63,1,223.999993164063,2|0,1:2|0:0,0:0:0:0:
261,166,61769,6,0,L|29:139,1,223.999993164063,10|0,3:2|0:0,0:0:0:0:
41,134,61959,2,0,L|273:160,1,223.999993164063,2|0,1:2|0:0,0:0:0:0:
372,252,62148,6,0,P|261:221|183:135,1,223.999993164063,2|0,3:2|0:0,0:0:0:0:
164,69,62338,2,0,P|192:180|158:290,1,223.999993164063,2|0,1:2|0:0,0:0:0:0:
108,343,62528,2,0,P|190:262|303:238,1,223.999993164063,10|0,3:2|0:0,0:0:0:0:
506,377,62718,6,0,L|470:117,1,251.999992309571,2|0,1:2|3:0,0:0:0:0:
6,377,63098,2,0,L|41:117,1,251.999992309571,2|10,1:2|3:2,0:0:0:0:
506,377,63478,6,0,L|470:117,2,251.999992309571,2|0|0,1:2|3:0|1:0,0:0:0:0:
159,232,64047,6,0,B|146:246|146:246|120:124|120:124|142:141,1,167.999994873047,8|0,3:2|0:0,0:0:0:0:
333,95,64237,6,0,B|346:81|346:81|372:203|372:203|350:186,1,167.999994873047,0|0,1:0|0:0,0:0:0:0:
0,345,64617,6,0,L|208:360,1,140,10|0,3:2|0:0,0:0:0:0:
150,355,64807,2,0,L|153:310,1,35,10|0,3:2|0:0,0:0:0:0:
511,204,64997,6,0,L|302:219,1,140,10|0,3:2|0:0,0:0:0:0:
360,216,65187,2,0,L|355:171,1,35,10|0,3:2|0:0,0:0:0:0:
10,58,65756,6,0,L|132:227,1,140,10|0,3:2|0:0,0:0:0:0:
97,178,65946,2,0,L|133:151,1,35,10|0,3:2|0:0,0:0:0:0:
290,9,66136,6,0,L|311:217,1,140,10|0,3:2|0:0,0:0:0:0:
306,159,66326,2,0,L|349:154,1,35,10|0,3:2|0:0,0:0:0:0:
512,156,66516,6,0,L|426:346,1,140,10|0,3:2|0:0,0:0:0:0:
449,291,66706,2,0,L|488:308,1,35,10|0,3:2|0:0,0:0:0:0:
280,210,67085,6,0,B|262:185|232:190|232:190|250:205|257:234,1,105,0|0,3:0|0:0,0:0:0:0:
333,43,67465,6,0,B|335:22|311:-4|311:-4|394:49|354:149|354:149|333:118|276:108,1,280,6|0,3:2|1:0,0:0:0:0:
229,104,67750,1,0,1:0:0:0:
22,176,67845,2,0,B|84:190|92:237|92:237|59:264|65:341|65:341|98:303|145:309,1,280,10|0,3:2|1:0,0:0:0:0:
506,309,68224,5,2,3:2:0:0:
371,365,68319,1,2,1:2:0:0:
506,309,68509,5,2,1:2:0:0:
426,237,68604,2,0,P|443:147|463:67,1,140,10|0,3:2|0:0,0:0:0:0:
303,148,68794,2,0,P|287:79|274:10,1,140,0|0,1:0|0:0,0:0:0:0:
182,95,68984,5,2,3:2:0:0:
98,124,69079,1,0,1:0:0:0:
34,69,69174,1,2,1:2:0:0:
465,384,69364,5,10,3:2:0:0:
281,278,69459,1,0,1:0:0:0:
446,81,69648,5,2,1:2:0:0:
303,148,69743,1,0,3:0:0:0:
150,309,69933,6,0,B|163:346|162:365|162:365|179:346|198:297|106:256,1,140,0|0,1:0|1:0,0:0:0:0:
56,245,70123,2,0,B|19:252|3:262|3:262|11:238|43:197|125:256,1,140,8|0,3:2|0:0,0:0:0:0:
314,0,70313,5,2,1:2:0:0:
314,0,70503,6,0,P|350:58|389:139,1,140,2|0,3:2|0:0,0:0:0:0:
305,199,70693,2,0,P|246:160|185:127,1,119.000002269745,2|0,1:2|0:0,0:0:0:0:
347,292,70883,6,0,P|314:352|264:426,1,97.9999970092774,10|0,3:2|0:0,0:0:0:0:
447,308,71073,2,0,P|445:346|442:384,1,77.0000023498536,2|0,1:2|0:0,0:0:0:0:
147,364,71262,6,0,P|181:347|215:329,1,77.0000023498536,2|0,3:2|0:0,0:0:0:0:
5,233,71452,2,0,P|53:234|102:231,1,97.9999970092774,2|0,1:2|0:0,0:0:0:0:
0,26,71642,2,0,P|49:59|101:88,1,119.000002269745,10|0,3:2|0:0,0:0:0:0:
472,243,71832,6,0,B|390:252|361:181|361:181|363:260|292:293|292:293|372:284|404:358|404:358|397:279|472:248,2,560,2|2|2,1:2|1:2|1:2,0:0:0:0:
85,31,72781,5,2,3:2:0:0:
183,65,72876,1,2,1:2:0:0:
101,134,72971,5,2,1:2:0:0:
164,223,73066,1,2,1:2:0:0:
60,231,73161,5,10,3:2:0:0:
88,331,73256,1,0,1:0:0:0:
0,384,73351,1,2,1:2:0:0:
453,60,73541,6,0,B|455:39|431:13|431:13|514:66|474:166|474:166|453:135|396:125,1,280,2|0,3:2|1:0,0:0:0:0:
349,121,73826,1,0,1:0:0:0:
268,295,73921,2,0,B|282:233|364:185|427:245|427:245|372:261|365:290,1,280,10|0,3:2|1:0,0:0:0:0:
170,344,74300,5,2,3:2:0:0:
118,233,74395,1,2,1:2:0:0:
170,344,74585,5,2,1:2:0:0:
201,165,74680,2,0,P|184:75|164:-5,1,140,10|0,3:2|0:0,0:0:0:0:
0,58,74870,2,0,P|14:126|27:195,1,140,2|0,1:2|0:0,0:0:0:0:
349,95,75060,5,2,3:2:0:0:
429,124,75155,1,0,1:0:0:0:
493,71,75250,1,2,1:2:0:0:
272,0,75440,5,10,3:2:0:0:
201,165,75535,1,0,1:0:0:0:
242,384,75724,5,0,1:0:0:0:
311,219,75819,1,2,3:2:0:0:
163,289,76009,5,0,1:0:0:0:
83,260,76104,1,0,1:0:0:0:
19,313,76199,1,8,3:2:0:0:
198,0,76389,5,2,1:2:0:0:
198,0,76579,6,0,P|211:77|229:231,1,140,2|0,3:2|0:0,0:0:0:0:
512,118,76769,2,0,P|451:167|327:260,1,119.000002269745,2|0,1:2|0:0,0:0:0:0:
314,174,76959,2,0,P|300:210|269:281,1,97.9999970092774,10|0,3:2|0:0,0:0:0:0:
471,314,77148,2,0,P|412:321|335:330,1,77.0000023498536,2|0,1:2|0:0,0:0:0:0:
98,325,77338,6,0,P|59:319|21:313,1,77.0000023498536,2|0,3:2|0:0,0:0:0:0:
222,156,77528,2,0,P|202:110|185:65,1,97.9999970092774,2|0,1:2|0:0,0:0:0:0:
97,192,77718,2,0,P|50:155|4:117,1,119.000002269745,10|0,3:2|0:0,0:0:0:0:
187,274,77908,5,2,1:2:0:0:
268,357,78003,2,0,P|333:373|393:386,1,119.000002269745,0|0,1:0|3:0,0:0:0:0:
481,82,78288,6,0,B|436:72|403:33|403:33|423:80|402:129|402:129|435:87|484:82,2,280,2|10|2,1:2|3:2|1:2,0:0:0:0:
73,198,78857,5,10,3:2:0:0:
54,283,78952,1,0,1:0:0:0:
138,256,79047,1,0,1:0:0:0:
173,259,79237,5,10,3:2:0:0:
34,308,79332,1,0,1:0:0:0:
66,164,79427,1,2,1:2:0:0:
427,273,79617,5,0,3:2:0:0:
427,273,79807,2,0,P|282:200|136:132,2,280,2|10|2,1:2|3:2|1:2,0:0:0:0:
37,43,80376,6,0,P|25:62|-4:109,1,70,2|0,3:2|0:0,0:0:0:0:
112,86,80566,2,0,P|100:105|71:152,1,70,2|0,1:2|0:0,0:0:0:0:
173,277,80756,6,0,P|185:296|214:343,1,70,10|0,3:2|0:0,0:0:0:0:
98,320,80946,2,0,P|110:339|139:386,1,70,2|0,1:2|0:0,0:0:0:0:
285,0,81136,6,0,P|273:19|196:154,1,140,2|0,3:2|0:0,0:0:0:0:
363,50,81326,2,0,P|351:69|274:204,1,140,2|0,1:2|0:0,0:0:0:0:
424,214,81516,6,0,P|436:233|513:368,1,140,10|0,3:2|0:0,0:0:0:0:
346,264,81706,2,0,P|358:283|435:418,1,140,2|0,1:2|0:0,0:0:0:0:
24,360,81895,6,0,P|253:199|478:32,3,560,2|2|10|2,3:2|1:2|3:2|1:2,0:0:0:0:
478,32,82655,1,0,3:0:0:0:
365,272,82845,5,2,1:2:0:0:
318,343,82940,1,2,1:2:0:0:
250,290,83035,1,10,3:2:0:0:
250,290,83224,5,2,1:2:0:0:
300,222,83319,1,2,1:2:0:0:
365,272,83414,1,2,3:2:0:0:
58,125,83604,5,2,1:2:0:0:
114,40,83699,1,2,1:2:0:0:
195,103,83794,1,10,3:2:0:0:
195,103,83983,5,2,1:2:0:0:
135,185,84078,1,2,1:2:0:0:
58,125,84173,1,2,3:2:0:0:
477,253,84364,5,2,1:2:0:0:
408,352,84459,1,2,1:2:0:0:
311,278,84554,1,10,3:2:0:0:
311,278,84743,5,2,1:2:0:0:
382,180,84838,1,2,1:2:0:0:
477,253,84933,1,2,3:2:0:0:
314,19,85123,5,2,1:2:0:0:
22,73,85313,5,10,3:2:0:0:
194,314,85503,5,2,1:2:0:0:
510,0,85693,6,0,P|407:20|206:123,1,280,6|0,3:2|0:0,0:0:0:0:
361,384,86072,2,0,P|396:285|406:97,1,280,10|2,3:2|1:2,0:0:0:0:
324,154,86452,1,10,3:2:0:0:
70,63,86547,2,0,P|139:143|312:256,1,280,2|10,1:2|3:2,0:0:0:0:
281,242,87022,6,0,B|170:178|78:299|92:378|92:378|152:306|209:321,1,420,2|0,3:2|0:0,0:0:0:0:
325,384,87402,6,0,B|325:256|475:237|538:289|538:289|444:306|429:362,2,420,2|2|2,3:2|3:2|3:2,0:0:0:0:
378,176,87971,6,0,B|444:154|444:154|0:87,1,420.000016021729,6|0,3:2|0:0,0:0:0:0:
0,81,88351,6,0,B|74:96|127:169|127:169|117:83|184:19,1,315.000012016297,10|0,3:2|0:0,0:0:0:0:
104,337,88731,5,6,3:2:0:0:
159,262,88826,1,2,1:2:0:0:
242,292,88921,1,2,1:2:0:0:
373,264,89111,6,0,P|408:266|440:252,1,70,10|0,3:2|0:0,0:0:0:0:
425,169,89301,2,0,P|390:167|359:182,1,70,2|0,1:2|0:0,0:0:0:0:
117,25,89491,5,2,3:2:0:0:
86,105,89586,1,2,1:2:0:0:
158,166,89681,1,2,1:2:0:0:
242,235,89776,1,2,1:2:0:0:
197,347,89871,2,0,P|271:371|379:390,1,140,10|2,3:2|1:2,0:0:0:0:
497,135,90250,5,2,3:2:0:0:
357,34,90345,1,2,1:2:0:0:
465,32,90440,1,2,1:2:0:0:
333,302,90630,5,10,3:2:0:0:
318,200,90725,2,0,P|303:158|273:91,1,83.9999974365235,2|2,1:2|1:2,0:0:0:0:
69,154,90915,5,2,1:2:0:0:
161,75,91009,2,0,P|190:42|233:-18,1,70,2|0,3:2|0:0,0:0:0:0:
11,330,91199,6,0,P|-1:264|18:216,1,70,0|0,1:0|0:0,0:0:0:0:
286,366,91390,2,0,P|197:313|53:287,1,210.000008010865,10|2,3:2|1:2,0:0:0:0:
0,112,91769,6,0,B|118:103|175:1|175:1|162:112|249:190,1,420,2|0,3:2|0:0,0:0:0:0:
512,194,92149,2,0,B|432:265|445:377|445:377|388:275|270:265,1,420,10|0,1:2|0:0,0:0:0:0:
373,122,92529,5,2,3:2:0:0:
420,37,92624,1,2,1:2:0:0:
139,119,92814,5,2,1:2:0:0:
80,4,92909,1,10,3:2:0:0:
0,318,93099,6,0,B|9:373|60:379|60:379|29:358|24:311,1,140,2|0,1:2|0:0,0:0:0:0:
364,333,93288,6,0,P|460:253|541:132,1,210.000008010865,2|0,3:2|1:0,0:0:0:0:
258,276,93573,2,0,P|236:154|173:22,1,210.000008010865,2|0,1:2|0:0,0:0:0:0:
201,376,93858,2,0,P|84:334|-62:323,1,210.000008010865,0|2,1:0|3:2,0:0:0:0:
459,222,94238,6,0,B|457:206|475:185|475:185|432:188|431:233,1,105.000004005432,2|0,1:2|0:0,0:0:0:0:
330,24,94428,6,0,B|381:33|419:86|419:86|344:130|358:183|358:183|362:158|403:126,1,280,10|2,3:2|1:2,0:0:0:0:
75,130,94807,5,6,3:2:0:0:
0,185,94902,1,2,1:2:0:0:
30,268,94997,1,2,1:2:0:0:
186,289,95187,6,0,P|175:324|160:355,1,70,10|0,3:2|0:0,0:0:0:0:
248,384,95377,2,0,P|259:349|274:318,1,70,2|0,1:2|0:0,0:0:0:0:
512,140,95567,5,2,3:2:0:0:
488,228,95662,1,2,1:2:0:0:
403,292,95757,1,2,1:2:0:0:
379,207,95852,1,2,1:2:0:0:
282,145,95947,1,10,3:2:0:0:
183,292,96137,6,0,P|200:328|214:386,1,70,2|0,1:2|0:0,0:0:0:0:
0,207,96326,5,2,3:2:0:0:
94,246,96421,1,2,1:2:0:0:
13,109,96516,1,2,1:2:0:0:
314,35,96706,5,10,3:2:0:0:
217,113,96801,2,0,P|189:147|146:207,1,83.9999974365235,2|2,1:2|1:2,0:0:0:0:
458,258,96991,5,2,1:2:0:0:
363,228,97086,2,0,P|320:220|247:213,1,83.9999974365235,2|0,3:2|0:0,0:0:0:0:
480,90,97276,6,0,P|439:105|372:135,1,83.9999974365235,2|0,1:2|0:0,0:0:0:0:
136,83,97466,5,10,3:2:0:0:
213,0,97561,1,0,1:0:0:0:
322,23,97656,1,2,1:2:0:0:
177,247,97845,6,0,B|123:229|106:160|106:160|69:242|70:328|166:378|166:378|133:344|159:276,1,420,2|0,3:2|0:0,0:0:0:0:
280,214,98225,2,0,B|317:158|285:104|285:104|364:133|419:199|378:300|378:300|380:253|316:217,1,420,10|0,3:2|0:0,0:0:0:0:
206,153,98605,5,2,3:2:0:0:
109,6,98700,2,0,P|147:33|228:84,1,105.000004005432,2|2,1:2|1:2,0:0:0:0:
177,247,98890,2,0,P|132:252|35:256,1,105.000004005432,10|2,3:2|1:2,0:0:0:0:
420,51,99175,6,0,B|496:-1|496:-1|204:60,1,315.000012016297,2|0,3:2|0:0,0:0:0:0:
431,225,99554,6,0,P|462:277|468:355,1,105.000004005432,10|0,3:2|0:0,0:0:0:0:
173,230,99744,2,0,P|113:231|42:198,1,105.000004005432,2|0,3:2|0:0,0:0:0:0:
303,302,99934,6,0,P|274:355|209:399,1,105.000004005432,10|0,3:2|0:0,0:0:0:0:
194,96,100124,2,0,P|163:44|158:-34,1,105.000004005432,2|0,3:2|0:0,0:0:0:0:
64,329,100504,6,0,B|138:314|191:241|191:241|181:327|248:391,1,315.000012016297,10|0,1:2|0:0,0:0:0:0:
321,378,103921,6,0,P|445:372|519:368,1,186.666666666667,4|6,3:2|3:2,0:0:0:0:
285,53,105440,5,6,3:2:0:0:
132,121,105630,5,2,3:2:0:0:
150,287,105819,5,6,3:2:0:0:
314,321,106009,5,2,3:2:0:0:
397,176,106199,5,6,3:2:0:0:
512,0,106580,6,0,P|346:22|111:43,1,315.000012016297,8|0,1:2|0:0,0:0:0:0:
121,127,106959,5,6,3:2:0:0:
181,173,107054,1,2,0:2:0:0:
155,245,107148,2,0,P|147:277|130:338,1,70,2|0,1:2|0:0,0:0:0:0:
266,372,107338,5,10,3:2:0:0:
326,326,107433,1,2,0:2:0:0:
300,254,107527,2,0,P|292:222|275:161,1,70,2|0,1:2|0:0,0:0:0:0:
468,314,107719,6,0,P|492:249|512:182,1,140,2|0,3:2|1:0,0:0:0:0:
283,95,108099,5,10,3:2:0:0:
371,108,108194,1,0,1:0:0:0:
431,39,108288,1,2,1:2:0:0:
400,194,108478,1,2,3:2:0:0:
114,341,108668,5,2,1:2:0:0:
47,296,108763,1,2,1:2:0:0:
119,262,108858,1,10,3:2:0:0:
189,228,108953,1,0,1:0:0:0:
223,298,109048,1,2,1:2:0:0:
250,371,109143,1,0,1:0:0:0:
322,341,109238,1,2,3:2:0:0:
211,0,109428,6,0,P|195:25|166:64,1,70,0|0,1:0|0:0,0:0:0:0:
3,91,109618,2,0,P|33:93|81:99,1,70,8|0,3:2|0:0,0:0:0:0:
184,227,109807,2,0,P|171:201|152:156,1,70,0|0,1:0|0:0,0:0:0:0:
211,0,109997,6,0,P|195:25|166:64,1,70,0|0,3:0|0:0,0:0:0:0:
315,42,110187,1,2,1:2:0:0:
358,113,110282,1,0,1:0:0:0:
238,131,110377,1,10,3:2:0:0:
147,240,110567,5,2,1:2:0:0:
280,265,110757,6,0,P|250:162|224:99,1,140,2|2,3:2|1:2,0:0:0:0:
8,199,111137,2,0,P|39:303|65:366,1,140,10|0,3:2|1:0,0:0:0:0:
375,133,111516,6,0,P|391:58|402:18,1,70,2|0,3:2|0:0,0:0:0:0:
507,237,111705,2,0,P|491:162|480:122,1,70,2|0,1:2|0:0,0:0:0:0:
212,117,111896,6,0,P|287:133|327:144,1,70,10|0,3:2|0:0,0:0:0:0:
114,247,112085,2,0,P|189:231|229:220,1,70,2|0,1:2|0:0,0:0:0:0:
29,150,112276,6,0,P|13:75|2:35,1,70,2|0,3:2|0:0,0:0:0:0:
0,0,112656,6,0,P|166:22|401:43,1,315.000012016297,8|0,3:2|0:0,0:0:0:0:
512,147,113035,6,0,P|475:122|442:98,1,52.5000020027161,6|0,0:2|0:0,0:0:0:0:
446,18,113225,6,0,P|402:7|363:-4,1,52.5000020027161,2|0,1:2|0:0,0:0:0:0:
367,141,113415,6,0,P|330:116|297:92,1,52.5000020027161,2|0,3:2|0:0,0:0:0:0:
243,50,113605,6,0,P|199:39|160:28,1,52.5000020027161,2|0,1:2|0:0,0:0:0:0:
101,12,113795,6,0,P|74:52|31:110,3,105.000004005432,2|2|2|2,3:2|1:2|3:2|1:2,0:0:0:0:
24,302,114554,6,0,B|17:289|-7:287|-7:287|8:270|43:266|74:309,1,105.000004005432,2|0,3:2|0:0,0:0:0:0:
135,214,114744,2,0,B|131:222|129:236|129:236|119:224|107:219,1,52.5000020027161,2|0,1:2|0:0,0:0:0:0:
154,352,114934,6,0,B|155:337|135:323|135:323|157:316|189:330|194:383,1,105.000004005432,2|0,3:2|0:0,0:0:0:0:
295,332,115124,2,0,B|287:337|278:348|278:348|275:332|267:322,1,52.5000020027161,2|0,1:2|0:0,0:0:0:0:
286,202,115314,6,0,B|286:186|266:172|266:172|288:166|320:179|325:232,1,105.000004005432,2|0,3:2|0:0,0:0:0:0:
426,181,115504,2,0,B|417:185|408:196|408:196|406:180|398:170,1,52.5000020027161,2|0,1:2|0:0,0:0:0:0:
375,317,115694,6,0,B|382:304|372:282|372:282|394:287|416:314|393:363,1,105.000004005432,2|0,3:2|0:0,0:0:0:0:
508,370,115884,2,0,B|498:369|485:374|485:374|490:360|489:347,1,52.5000020027161,2|0,1:2|0:0,0:0:0:0:
512,84,116073,6,0,P|487:91|461:97,1,52.5000020027161,2|0,3:2|0:0,0:0:0:0:
416,5,116263,6,0,P|395:21|373:34,1,52.5000020027161,2|0,1:2|0:0,0:0:0:0:
280,18,116452,6,0,P|253:20|227:22,1,52.5000020027161,2|0,3:2|0:0,0:0:0:0:
229,114,116642,6,0,P|203:107|178:100,1,52.5000020027161,2|0,1:2|0:0,0:0:0:0:
7,20,116833,6,0,P|53:33|122:54,3,105.000004005432,2|2|2|2,3:2|1:2|3:2|1:2,0:0:0:0:
35,220,117592,6,0,B|5:243|9:280|9:280|24:297|59:301|74:274,1,105.000004005432,2|0,3:2|0:0,0:0:0:0:
118,369,117782,2,0,B|113:361|111:347|111:347|101:359|89:364,1,52.5000020027161,2|0,1:2|0:0,0:0:0:0:
134,192,117972,6,0,B|119:227|141:257|141:257|162:265|195:251|194:220,1,105.000004005432,2|0,3:2|0:0,0:0:0:0:
280,280,118162,2,0,B|271:275|262:264|262:264|259:280|251:290,1,52.5000020027161,2|0,1:2|0:0,0:0:0:0:
363,83,118352,6,0,B|386:52|423:56|423:56|441:71|445:106|418:121,1,105.000004005432,2|0,3:2|0:0,0:0:0:0:
511,165,118542,2,0,B|502:159|488:157|488:157|501:147|506:135,1,52.5000020027161,2|0,1:2|0:0,0:0:0:0:
272,167,118732,6,0,B|307:152|337:174|337:174|345:195|331:228|300:227,1,105.000004005432,2|0,3:2|0:0,0:0:0:0:
360,313,118922,2,0,B|355:304|344:295|344:295|359:292|370:284,1,52.5000020027161,2|0,1:2|0:0,0:0:0:0:
512,32,119111,6,0,P|475:7|442:-17,1,52.5000020027161,6|0,3:2|0:0,0:0:0:0:
443,123,119301,6,0,P|399:112|360:101,1,52.5000020027161,2|0,1:2|0:0,0:0:0:0:
314,32,119491,6,0,P|277:7|244:-17,1,52.5000020027161,2|0,3:2|0:0,0:0:0:0:
227,93,119681,6,0,P|183:82|144:71,1,52.5000020027161,2|0,1:2|0:0,0:0:0:0:
101,12,119871,6,0,P|74:52|31:110,3,105.000004005432,2|2|2|2,3:2|1:2|3:2|1:2,0:0:0:0:
0,242,120630,6,0,B|32:227|36:205|36:205|69:199|112:224,1,105.000004005432,2|0,3:2|0:0,0:0:0:0:
162,287,120820,2,0,B|143:301|123:292|123:292|142:288|153:264,1,52.5000020027161,2|0,1:2|0:0,0:0:0:0:
322,384,121010,6,0,B|294:364|273:371|273:371|252:346|251:297,1,105.000004005432,2|0,3:2|0:0,0:0:0:0:
280,222,121200,2,0,B|302:232|304:254|304:254|291:239|265:242,1,52.5000020027161,2|0,1:2|0:0,0:0:0:0:
393,167,121390,6,0,B|396:132|379:118|379:118|391:87|433:62,1,105.000004005432,2|0,3:2|0:0,0:0:0:0:
512,49,121580,2,0,B|514:73|496:86|496:86|502:67|487:46,1,52.5000020027161,2|0,1:2|0:0,0:0:0:0:
465,297,121770,6,0,B|433:312|429:334|429:334|396:339|353:315,1,105.000004005432,2|0,3:2|0:0,0:0:0:0:
304,253,121960,2,0,B|323:239|344:248|344:248|325:252|313:276,1,52.5000020027161,2|0,1:2|0:0,0:0:0:0:
44,32,122149,6,0,B|12:49|12:49|61:-4,1,70,2|0,3:2|0:0,0:0:0:0:
129,115,122339,2,0,B|110:146|110:146|126:74,1,70,2|0,1:2|0:0,0:0:0:0:
257,107,122528,2,0,B|255:150|255:150|229:66,1,83.9999974365235,2|0,3:2|0:0,0:0:0:0:
357,23,122719,2,0,B|377:61|377:61|312:1,1,83.9999974365235,2|0,1:2|0:0,0:0:0:0:
58,30,122908,6,0,B|14:54|14:54|83:-20,1,97.9999970092774,2|0,3:2|0:0,0:0:0:0:
132,110,123099,2,0,B|106:153|106:153|128:54,1,97.9999970092774,2|0,1:2|0:0,0:0:0:0:
258,98,123288,2,0,B|257:156|257:156|222:45,1,112,2|0,3:2|0:0,0:0:0:0:
357,23,123478,2,0,B|385:74|385:74|299:-5,1,112,2|0,1:2|0:0,0:0:0:0:
428,240,123668,6,0,B|429:280|449:305|449:305|361:285|350:199|402:141,1,251.999992309571,6|0,3:2|0:0,0:0:0:0:
193,307,124048,2,0,B|192:267|172:242|172:242|260:262|271:348|219:406,1,251.999992309571,6|0,3:2|0:0,0:0:0:0:
284,27,124428,6,0,P|291:74|314:181,1,87.5,6|0,3:2|0:0,0:0:0:0:
475,164,124618,2,0,P|428:171|321:194,1,87.5,0|2,0:2|1:2,0:0:0:0:
97,146,124807,6,0,B|57:94|-22:124|-36:215|62:267|141:262|80:98|166:95|236:178,1,315.000012016297,2|0,3:2|0:0,0:0:0:0:
160,43,125186,6,0,P|204:24|273:-2,1,105.000004005432,6|0,3:2|0:0,0:0:0:0:
356,68,125376,2,0,P|400:49|469:23,1,70,2|0,1:2|0:0,0:0:0:0:
238,198,125566,2,0,P|282:179|351:153,1,70,10|0,3:2|0:0,0:0:0:0:
408,214,125756,5,2,1:2:0:0:
512,334,125947,2,0,P|446:359|379:379,1,140,2|0,3:2|1:0,0:0:0:0:
259,179,126326,1,10,3:2:0:0:
298,114,126421,1,0,1:0:0:0:
296,36,126516,1,2,1:2:0:0:
331,107,126611,1,0,1:0:0:0:
404,131,126705,1,2,3:2:0:0:
79,263,126896,5,2,1:2:0:0:
121,330,126991,1,2,1:2:0:0:
155,258,127086,1,10,3:2:0:0:
189,188,127181,1,0,1:0:0:0:
119,154,127276,1,2,1:2:0:0:
46,127,127371,1,0,1:0:0:0:
76,55,127466,1,2,3:2:0:0:
450,166,127656,6,0,P|434:142|405:103,1,70,0|0,1:0|0:0,0:0:0:0:
218,52,127846,2,0,P|248:50|296:44,1,70,8|0,3:2|0:0,0:0:0:0:
373,25,128035,1,0,1:0:0:0:
450,166,128225,6,0,P|434:142|405:103,1,70,0|0,3:0|0:0,0:0:0:0:
334,154,128415,1,2,1:2:0:0:
298,230,128510,1,0,1:0:0:0:
412,259,128605,1,10,3:2:0:0:
121,193,128795,5,2,1:2:0:0:
149,329,128985,6,0,P|46:299|-17:273,1,140,2|0,3:2|1:0,0:0:0:0:
80,64,129365,2,0,P|184:95|247:121,1,140,10|0,3:2|1:0,0:0:0:0:
375,298,129743,6,0,P|391:373|402:413,1,70,2|0,3:2|0:0,0:0:0:0:
507,194,129933,2,0,P|491:269|480:309,1,70,2|0,1:2|0:0,0:0:0:0:
212,314,130123,6,0,P|287:298|327:287,1,70,10|0,3:2|0:0,0:0:0:0:
114,184,130313,2,0,P|189:200|229:211,1,70,2|0,1:2|0:0,0:0:0:0:
29,234,130504,6,0,P|13:309|2:349,1,70,2|0,3:2|0:0,0:0:0:0:
0,384,130884,6,0,P|166:362|401:341,1,315.000012016297,8|0,3:2|0:0,0:0:0:0:
392,69,131262,6,0,P|348:50|279:24,1,105.000004005432,6|0,3:2|0:0,0:0:0:0:
196,94,131452,2,0,P|152:75|83:49,1,70,2|0,1:2|0:0,0:0:0:0:
314,224,131642,2,0,P|270:205|201:179,1,70,10|0,3:2|0:0,0:0:0:0:
153,212,131832,5,2,1:2:0:0:
396,212,132023,2,0,P|421:278|441:345,1,140,2|0,3:2|1:0,0:0:0:0:
234,273,132402,6,0,P|190:281|138:293,1,70,10|0,3:2|0:0,0:0:0:0:
121,357,132592,1,2,1:2:0:0:
86,286,132687,1,0,1:0:0:0:
13,262,132781,1,2,3:2:0:0:
329,136,132972,5,2,1:2:0:0:
406,146,133067,1,2,1:2:0:0:
379,73,133162,1,10,3:2:0:0:
345,3,133257,1,0,1:0:0:0:
275,37,133352,1,2,1:2:0:0:
203,71,133447,1,0,1:0:0:0:
168,0,133542,1,2,3:2:0:0:
240,331,133732,6,0,P|257:307|286:268,1,70,0|0,1:0|0:0,0:0:0:0:
457,243,133922,2,0,P|427:241|379:235,1,70,8|0,3:2|0:0,0:0:0:0:
297,180,134111,1,0,1:0:0:0:
242,333,134301,6,0,P|259:309|288:270,1,70,0|0,3:0|0:0,0:0:0:0:
184,268,134491,1,2,1:2:0:0:
104,282,134586,1,0,1:0:0:0:
154,377,134681,1,10,3:2:0:0:
370,93,134871,5,2,1:2:0:0:
237,68,135061,6,0,P|268:172|294:235,1,140,2|0,3:2|1:0,0:0:0:0:
509,134,135441,2,0,P|479:31|453:-32,1,140,10|0,3:2|1:0,0:0:0:0:
137,133,135819,6,0,P|121:58|110:18,1,70,2|0,3:2|0:0,0:0:0:0:
5,237,136009,2,0,P|21:162|32:122,1,70,2|0,1:2|0:0,0:0:0:0:
300,117,136199,6,0,P|225:133|185:144,1,70,10|0,3:2|0:0,0:0:0:0:
398,247,136389,2,0,P|323:231|283:220,1,70,2|0,1:2|0:0,0:0:0:0:
483,234,136580,6,0,P|499:309|510:349,1,70,2|0,3:2|0:0,0:0:0:0:
512,384,136960,6,0,P|346:362|111:341,1,315.000012016297,10|0,3:2|0:0,0:0:0:0:
49,220,137338,6,0,L|77:30,1,140.000005340576,6|0,3:2|0:0,0:0:0:0:
77,81,137528,2,0,L|56:219,1,140.000005340576,2|0,1:2|0:0,0:0:0:0:
149,229,137718,6,0,L|177:39,1,140.000005340576,10|0,3:2|0:0,0:0:0:0:
177,91,137908,2,0,L|156:229,1,140.000005340576,2|0,1:2|0:0,0:0:0:0:
299,249,138098,6,0,P|358:258|434:222,1,111.999996582031,2|0,3:2|0:0,0:0:0:0:
415,238,138288,2,0,P|393:182|324:134,1,111.999996582031,2|0,1:2|0:0,0:0:0:0:
347,144,138478,2,0,P|309:190|302:274,1,111.999996582031,10|0,3:2|0:0,0:0:0:0:
353,355,138667,6,0,L|23:304,2,280,2|0|2,1:2|3:0|1:2,0:0:0:0:
502,24,139237,2,0,L|224:59,1,280.000010681153,10|0,3:2|0:0,0:0:0:0:
223,53,139427,2,0,L|537:12,1,280,2|0,1:2|3:0,0:0:0:0:
238,257,139806,6,0,P|319:192|432:221,1,186.666666666667,2|0,1:2|0:0,0:0:0:0:
417,119,139997,2,0,P|433:209|385:286,1,186.666666666667,10|0,3:2|0:0,0:0:0:0:
448,338,140186,2,0,P|361:307|317:227,1,186.666666666667,2|0,1:2|0:0,0:0:0:0:
187,134,140376,6,0,L|-55:149,1,186.666666666667,2|0,3:2|0:0,0:0:0:0:
0,153,140566,2,0,L|186:141,1,186.666666666667,2|0,1:2|0:0,0:0:0:0:
187,134,140756,6,0,L|-55:149,1,186.666666666667,10|0,3:2|0:0,0:0:0:0:
0,153,140946,2,0,L|186:141,1,186.666666666667,0|0,1:0|0:0,0:0:0:0:
231,285,141136,6,0,L|77:274,1,140.000005340576,2|0,3:2|0:0,0:0:0:0:
92,266,141325,2,0,L|231:277,1,140.000005340576,2|0,1:2|0:0,0:0:0:0:
231,285,141515,6,0,L|77:274,1,140.000005340576,10|0,3:2|0:0,0:0:0:0:
92,266,141704,2,0,L|231:277,1,140.000005340576,2|0,1:2|0:0,0:0:0:0:
338,206,141895,6,0,L|498:183,1,140.000005340576,2|0,3:2|0:0,0:0:0:0:
475,180,142085,2,0,L|314:203,1,140.000005340576,2|0,1:2|0:0,0:0:0:0:
338,206,142275,6,0,L|496:183,1,140.000005340576,10|0,3:2|0:0,0:0:0:0:
475,180,142465,2,0,L|314:203,1,140.000005340576,2|0,1:2|0:0,0:0:0:0:
232,75,142655,6,0,L|372:92,1,111.999996582031,2|0,3:2|0:0,0:0:0:0:
344,82,142844,2,0,L|224:67,1,111.999996582031,2|0,1:2|0:0,0:0:0:0:
232,75,143034,6,0,L|372:92,1,111.999996582031,10|0,3:2|0:0,0:0:0:0:
344,82,143223,2,0,L|224:67,1,111.999996582031,0|0,1:0|0:0,0:0:0:0:
2,263,143414,6,0,L|34:66,1,186.666666666667,6|0,3:2|0:0,0:0:0:0:
39,80,143604,2,0,L|8:263,1,186.666666666667,2|0,1:2|0:0,0:0:0:0:
106,276,143794,6,0,L|138:79,1,186.666666666667,10|0,3:2|0:0,0:0:0:0:
143,92,143984,2,0,L|112:275,1,186.666666666667,2|0,1:2|0:0,0:0:0:0:
316,315,144174,6,0,P|373:262|399:159,1,186.666666666667,2|0,3:2|0:0,0:0:0:0:
480,146,144364,2,0,P|390:120|303:149,1,186.666666666667,2|0,1:2|0:0,0:0:0:0:
258,80,144554,2,0,P|277:168|349:238,1,186.666666666667,10|0,3:2|0:0,0:0:0:0:
488,315,144743,6,0,L|175:357,2,280,2|0|2,1:2|3:0|1:2,0:0:0:0:
445,21,145313,2,0,L|132:61,1,280.000010681153,10|0,3:2|0:0,0:0:0:0:
169,65,145503,2,0,L|481:24,1,280,2|0,1:2|3:0,0:0:0:0:
255,378,145882,6,0,P|253:300|191:213,1,186.666666666667,2|0,1:2|0:0,0:0:0:0:
237,152,146073,2,0,P|162:203|128:289,1,186.666666666667,10|0,3:2|0:0,0:0:0:0:
49,279,146262,2,0,P|130:319|222:307,1,186.666666666667,2|0,1:2|0:0,0:0:0:0:
380,101,146452,6,0,L|353:332,1,223.999993164063,2|0,3:2|0:0,0:0:0:0:
362,324,146642,2,0,L|388:91,1,223.999993164063,2|0,1:2|0:0,0:0:0:0:
489,111,146832,6,0,L|462:342,1,223.999993164063,10|0,3:2|0:0,0:0:0:0:
470,335,147022,2,0,L|496:102,1,223.999993164063,2|0,1:2|0:0,0:0:0:0:
296,42,147211,6,0,P|211:115|178:240,1,223.999993164063,2|0,3:2|0:0,0:0:0:0:
93,232,147402,2,0,P|204:265|315:236,1,223.999993164063,2|0,1:2|0:0,0:0:0:0:
353,311,147592,2,0,P|326:197|246:114,1,223.999993164063,10|0,3:2|0:0,0:0:0:0:
77,84,147781,6,0,L|53:345,1,251.999992309571,2|0,1:2|3:0,0:0:0:0:
435,84,148161,2,0,L|459:345,1,251.999992309571,2|10,1:2|3:2,0:0:0:0:
77,84,148541,6,0,L|53:345,2,251.999992309571,2|0|0,1:2|3:0|1:0,0:0:0:0:
312,160,149110,6,0,B|337:143|337:143|228:119|228:119|244:145,1,167.999994873047,8|0,3:2|0:0,0:0:0:0:
203,325,149300,2,0,B|179:345|179:345|288:371|288:371|260:329,1,167.999994873047,0|0,1:0|0:0,0:0:0:0:
512,39,149681,6,0,L|304:24,1,140,10|0,3:2|0:0,0:0:0:0:
364,31,149871,2,0,L|360:75,1,35,10|0,3:2|0:0,0:0:0:0:
0,180,150061,6,0,L|209:165,1,140,10|0,3:2|0:0,0:0:0:0:
148,171,150251,2,0,L|152:215,1,35,10|0,3:2|0:0,0:0:0:0:
502,326,150820,6,0,L|380:157,1,140,10|0,3:2|0:0,0:0:0:0:
411,219,151010,2,0,L|438:255,1,35,10|0,3:2|0:0,0:0:0:0:
128,353,151200,6,0,L|336:332,1,140,10|0,3:2|0:0,0:0:0:0:
264,330,151390,2,0,L|220:335,1,35,10|0,3:2|0:0,0:0:0:0:
287,0,151580,6,0,L|201:190,1,140,10|0,3:2|0:0,0:0:0:0:
238,132,151769,2,0,L|256:93,1,35,10|0,3:2|0:0,0:0:0:0:
16,120,152148,6,0,B|3:148|22:171|22:171|26:148|48:127,1,105,0|0,3:0|0:0,0:0:0:0:
113,183,152528,6,0,B|189:179|232:256|201:325|201:325|177:263|35:248,1,280,6|0,3:2|1:0,0:0:0:0:
145,273,152814,1,0,1:0:0:0:
327,375,152908,2,0,P|163:359|8:341,1,280,10|0,3:2|1:0,0:0:0:0:
484,206,153288,5,2,3:2:0:0:
296,142,153383,1,2,1:2:0:0:
484,206,153573,5,2,1:2:0:0:
362,35,153668,2,0,P|379:125|399:205,1,140,10|0,3:2|0:0,0:0:0:0:
303,236,153858,2,0,P|287:305|274:374,1,140,0|0,1:0|0:0,0:0:0:0:
44,255,154047,5,2,3:2:0:0:
122,181,154142,1,0,1:0:0:0:
215,225,154237,1,2,1:2:0:0:
293,151,154332,1,0,0:0:0:0:
388,186,154427,1,10,3:2:0:0:
457,108,154522,1,0,1:0:0:0:
312,264,154712,5,2,1:2:0:0:
468,314,154807,1,0,3:0:0:0:
169,328,154997,6,0,B|170:369|160:385|160:385|184:377|225:344|166:262,1,140,0|0,1:0|1:0,0:0:0:0:
103,263,155187,2,0,B|66:264|50:274|50:274|58:250|90:209|172:268,1,140,8|0,3:2|0:0,0:0:0:0:
215,225,155377,5,2,1:2:0:0:
359,157,155566,6,0,P|288:127|259:72,1,140,2|0,3:2|0:0,0:0:0:0:
320,0,155756,2,0,P|380:29|419:101,1,140,2|0,1:2|0:0,0:0:0:0:
271,326,155946,6,0,P|265:258|309:189,1,97.9999970092774,10|0,3:2|0:0,0:0:0:0:
382,233,156136,2,0,P|387:321|325:399,1,97.9999970092774,2|0,1:2|0:0,0:0:0:0:
74,74,156326,6,0,P|34:81|-38:159,1,97.9999970092774,2|0,3:2|0:0,0:0:0:0:
89,216,156516,2,0,P|62:270|93:371,1,97.9999970092774,2|0,1:2|0:0,0:0:0:0:
207,257,156705,2,0,P|240:307|344:330,1,119.000002269745,10|0,3:2|0:0,0:0:0:0:
292,135,156895,6,0,B|372:128|403:197|403:197|398:123|472:84|472:84|392:96|359:19|359:19|368:102|291:130,2,560,2|2|2,1:2|1:2|1:2,0:0:0:0:
85,31,157845,5,2,3:2:0:0:
183,65,157940,1,2,1:2:0:0:
101,134,158035,5,2,1:2:0:0:
164,223,158130,1,2,1:2:0:0:
60,231,158225,5,10,3:2:0:0:
88,331,158320,1,0,1:0:0:0:
0,384,158415,1,2,1:2:0:0:
298,0,158604,6,0,B|374:-4|417:73|386:142|386:142|362:80|220:65,1,280,2|0,3:2|1:0,0:0:0:0:
330,90,158890,1,0,1:0:0:0:
512,193,158984,2,0,P|348:177|193:159,1,280,10|0,3:2|1:0,0:0:0:0:
123,326,159364,5,2,3:2:0:0:
18,375,159459,1,2,1:2:0:0:
123,326,159649,5,2,1:2:0:0:
0,216,159743,2,0,P|12:147|22:77,1,140,10|0,3:2|0:0,0:0:0:0:
146,0,159934,2,0,P|215:12|285:21,1,140,2|0,1:2|0:0,0:0:0:0:
441,156,160123,5,2,3:2:0:0:
363,230,160218,1,0,1:0:0:0:
270,186,160313,1,2,1:2:0:0:
192,260,160408,1,0,0:0:0:0:
97,225,160503,1,10,3:2:0:0:
28,303,160598,1,0,1:0:0:0:
165,95,160788,5,0,1:0:0:0:
24,19,160883,1,2,3:2:0:0:
490,226,161073,6,0,B|513:252|519:270|519:270|528:247|530:194|429:187,1,140,0|0,1:0|1:0,0:0:0:0:
384,202,161263,2,0,B|349:215|337:230|337:230|336:205|352:155|449:183,1,140,8|0,3:2|0:0,0:0:0:0:
460,111,161453,5,2,1:2:0:0:
79,124,161642,6,0,P|142:166|171:221,1,140,2|0,3:2|0:0,0:0:0:0:
349,355,161832,2,0,P|288:325|249:253,1,119.000002269745,2|0,1:2|0:0,0:0:0:0:
269,92,162022,6,0,P|274:159|230:228,1,97.9999970092774,10|0,3:2|0:0,0:0:0:0:
160,295,162212,2,0,P|174:215|221:176,1,77.0000023498536,2|0,1:2|0:0,0:0:0:0:
79,124,162402,6,0,P|119:117|191:39,1,77.0000023498536,2|0,3:2|0:0,0:0:0:0:
362,257,162592,2,0,P|388:202|357:101,1,97.9999970092774,2|0,1:2|0:0,0:0:0:0:
512,69,162781,2,0,P|478:18|374:-5,1,119.000002269745,10|0,3:2|0:0,0:0:0:0:
285,340,162971,5,2,1:2:0:0:
389,363,163066,2,0,P|454:347|514:334,1,119.000002269745,0|0,1:0|3:0,0:0:0:0:
352,60,163351,6,0,B|307:50|274:11|274:11|294:58|273:107|273:107|306:65|355:60,2,280,2|10|2,1:2|3:2|1:2,0:0:0:0:
199,263,163921,5,10,3:2:0:0:
114,282,164016,1,0,1:0:0:0:
141,198,164111,1,0,1:0:0:0:
131,160,164301,5,10,3:2:0:0:
95,308,164396,1,0,1:0:0:0:
231,262,164491,1,2,1:2:0:0:
477,226,164680,5,4,3:2:0:0:
477,226,164870,2,0,P|332:153|186:85,2,280,2|10|2,1:2|3:2|1:2,0:0:0:0:
37,341,165440,6,0,P|25:322|-4:275,1,70,2|0,3:2|0:0,0:0:0:0:
112,298,165630,2,0,P|100:279|71:232,1,70,2|0,1:2|0:0,0:0:0:0:
173,107,165819,6,0,P|185:88|214:41,1,70,10|0,3:2|0:0,0:0:0:0:
98,64,166009,2,0,P|110:45|139:-2,1,70,2|0,1:2|0:0,0:0:0:0:
285,384,166199,6,0,P|273:365|196:230,1,140,2|0,3:2|0:0,0:0:0:0:
363,334,166389,2,0,P|351:315|274:180,1,140,2|0,1:2|0:0,0:0:0:0:
424,170,166579,6,0,P|436:151|513:16,1,140,10|0,3:2|0:0,0:0:0:0:
346,120,166769,2,0,P|358:101|435:-34,1,140,2|0,1:2|0:0,0:0:0:0:
24,24,166959,6,0,P|253:185|478:352,3,560,2|2|10|2,3:2|1:2|3:2|1:2,0:0:0:0:
477,351,167718,1,0,3:0:0:0:
54,276,167908,5,2,1:2:0:0:
107,354,168003,1,2,1:2:0:0:
206,345,168098,1,10,3:2:0:0:
206,345,168287,5,2,1:2:0:0:
150,266,168382,1,2,1:2:0:0:
54,276,168477,1,2,3:2:0:0:
478,99,168667,5,2,1:2:0:0:
419,13,168762,1,2,1:2:0:0:
311,23,168857,1,10,3:2:0:0:
311,23,169046,5,2,1:2:0:0:
372,110,169141,1,2,1:2:0:0:
478,99,169236,1,2,3:2:0:0:
16,291,169427,5,2,1:2:0:0:
79,383,169522,1,2,1:2:0:0:
196,373,169617,1,10,3:2:0:0:
196,373,169806,5,2,1:2:0:0:
130,279,169901,1,0,0:0:0:0:
16,291,169996,1,2,3:2:0:0:
191,0,170186,5,2,1:2:0:0:
502,124,170376,5,10,3:2:0:0:
321,384,170566,5,2,1:2:0:0:
16,291,170756,6,0,P|58:167|73:6,1,280,6|0,3:2|0:0,0:0:0:0:
496,93,171136,2,0,P|453:216|438:377,1,280,10|2,3:2|1:2,0:0:0:0:
251,58,171516,5,10,3:2:0:0:
168,231,171611,2,0,B|158:305|223:351|223:351|268:266|384:236,1,280,2|10,1:2|3:2,0:0:0:0:
443,183,172085,6,0,B|439:122|528:78|528:78|417:21|313:87|270:201,1,420.000016021729,2|0,3:2|0:0,0:0:0:0:
240,275,172465,5,2,3:2:0:0:
112,332,172560,1,0,0:0:0:0:
0,240,172655,2,0,P|25:227|125:196,1,105.000004005432,2|0,3:2|0:0,0:0:0:0:
231,0,172845,2,0,P|256:13|356:44,1,122.500001168251,2|0,3:2|0:0,0:0:0:0:
380,384,173035,2,0,P|429:363|529:332,1,140,6|0,3:2|0:0,0:0:0:0:
72,324,173414,6,0,B|146:309|199:236|199:236|189:322|256:386,1,315.000012016297,10|0,3:2|0:0,0:0:0:0:
375,311,173794,5,4,3:2:0:0:
413,84,173984,1,2,1:2:0:0:
279,172,174174,1,8,3:2:0:0:
506,210,174364,1,0,1:0:0:0:
118,210,174554,5,0,3:0:0:0:
91,51,174744,1,0,1:0:0:0:
183,119,174933,2,0,P|225:109|304:93,1,105.000004005432,10|2,3:2|1:2,0:0:0:0:
210,210,175123,2,0,P|252:200|331:184,1,105.000004005432,2|2,1:2|1:2,0:0:0:0:
380,119,175313,1,2,3:2:0:0:
375,281,175503,5,0,1:0:0:0:
210,210,175693,2,0,P|220:252|236:331,1,105.000004005432,10|2,3:2|1:2,0:0:0:0:
397,360,175883,1,2,1:2:0:0:
453,300,175978,1,2,1:2:0:0:
375,281,176073,1,2,3:2:0:0:
113,127,176262,5,0,1:0:0:0:
113,127,176452,1,10,3:2:0:0:
43,85,176547,1,2,1:2:0:0:
119,46,176642,1,2,1:2:0:0:
279,54,176832,6,0,P|321:44|400:27,1,105.000004005432,2|2,3:2|1:2,0:0:0:0:
468,11,177022,2,0,P|478:53|494:132,1,105.000004005432,2|2,1:2|1:2,0:0:0:0:
512,198,177212,1,10,3:2:0:0:
377,283,177402,5,2,1:2:0:0:
298,324,177497,1,2,1:2:0:0:
218,363,177592,1,2,3:2:0:0:
145,309,177686,1,0,0:0:0:0:
73,259,177781,1,0,0:0:0:0:
73,259,177971,5,10,3:2:0:0:
154,221,178066,1,2,1:2:0:0:
81,170,178161,1,2,1:2:0:0:
1,203,178256,1,2,1:2:0:0:
73,259,178351,1,2,3:2:0:0:
154,221,178446,1,2,1:2:0:0:
224,277,178541,1,2,1:2:0:0:
300,235,178636,1,2,1:2:0:0:
377,283,178731,1,10,3:2:0:0:
455,240,178826,1,2,1:2:0:0:
380,197,178921,1,2,1:2:0:0:
300,235,179016,1,2,1:2:0:0:
224,277,179111,5,2,3:2:0:0:
142,66,179300,1,0,1:0:0:0:
78,206,179490,1,8,3:2:0:0:
289,124,179679,1,0,1:0:0:0:
225,279,179870,5,4,3:2:0:0:
372,251,180060,1,2,1:2:0:0:
452,284,180155,1,2,1:2:0:0:
384,340,180250,1,10,3:2:0:0:
384,340,180440,1,2,1:2:0:0:
302,305,180535,1,2,1:2:0:0:
237,368,180630,1,2,3:2:0:0:
237,368,180819,1,2,1:2:0:0:
157,335,180914,1,2,1:2:0:0:
225,279,181009,1,10,3:2:0:0:
275,16,181199,5,2,1:2:0:0:
210,77,181294,1,2,1:2:0:0:
128,44,181389,1,2,3:2:0:0:
227,160,181516,5,2,1:2:0:0:
275,16,181642,5,2,1:2:0:0:
128,44,181769,5,10,3:2:0:0:
332,184,181959,1,0,1:0:0:0:
38,268,182148,5,2,3:2:0:0:
185,240,182275,5,2,1:2:0:0:
137,384,182402,5,2,1:2:0:0:
38,268,182528,5,10,3:2:0:0:
120,300,182623,1,2,1:2:0:0:
185,240,182718,1,2,1:2:0:0:
422,66,182908,5,2,3:2:0:0:
447,207,183098,1,0,1:0:0:0:
512,128,183288,1,10,3:2:0:0:
356,150,183478,1,2,1:2:0:0:
442,183,183573,1,2,1:2:0:0:
512,128,183667,1,2,3:2:0:0:
237,265,183857,1,2,1:2:0:0:
453,330,184047,1,10,3:2:0:0:
316,55,184237,1,2,1:2:0:0:
378,191,184427,5,2,3:2:0:0:
162,313,184617,5,2,1:2:0:0:
162,313,184680,1,0,0:0:0:0:
162,313,184743,1,0,0:0:0:0:
162,313,184807,1,10,3:2:0:0:
322,44,184997,5,2,1:2:0:0:
403,9,185092,1,0,1:0:0:0:
473,63,185187,1,2,1:2:0:0:
0,259,185946,6,0,P|57:250|112:244,1,70,6|0,3:2|0:0,0:0:0:0:
286,213,186136,2,0,P|228:221|173:227,1,70,0|0,1:2|0:0,0:0:0:0:
123,94,186326,6,0,P|131:151|137:206,1,70,10|0,3:2|0:0,0:0:0:0:
169,381,186516,2,0,P|160:323|154:268,1,70,2|0,1:2|0:0,0:0:0:0:
241,87,186705,6,0,P|269:18|337:-18,1,105.000004005432,2|0,3:2|0:0,0:0:0:0:
512,208,186895,2,0,P|402:117|286:70,1,210.000008010865,2|10,1:2|3:2,0:0:0:0:
180,162,187275,6,0,B|117:198|89:142|91:135|96:135|57:79|-1:129,1,210.000008010865,2|0,1:2|3:2,0:0:0:0:
246,231,187560,1,0,1:0:0:0:
244,237,187655,6,0,P|227:281|209:331,1,70,2|0,1:2|0:0,0:0:0:0:
344,210,187845,2,0,P|373:246|407:287,1,70,10|0,3:2|0:0,0:0:0:0:
362,114,188035,2,0,P|408:106|460:97,1,70,2|0,1:2|0:0,0:0:0:0:
124,378,188224,6,0,B|110:302|178:296|176:301|180:306|242:310|244:229,1,210.000008010865,2|0,3:2|1:0,0:0:0:0:
378,325,188604,6,0,B|329:307|348:266|350:269|355:267|378:233|332:205,1,140,10|0,3:2|0:0,0:0:0:0:
467,147,188794,2,0,B|426:180|400:143|404:143|405:137|387:101|340:126,1,140,2|0,1:2|0:0,0:0:0:0:
183,115,188984,5,2,3:2:0:0:
166,38,189079,1,2,1:2:0:0:
195,110,189174,5,2,1:2:0:0:
153,44,189269,1,2,1:2:0:0:
247,44,189364,6,0,P|303:22|351:-6,1,105.000004005432,10|0,3:2|0:0,0:0:0:0:
96,113,189554,2,0,P|40:135|-8:163,1,105.000004005432,2|0,1:2|0:0,0:0:0:0:
331,286,189743,5,0,3:0:0:0:
348,209,189838,1,2,1:2:0:0:
319,281,189933,5,2,1:2:0:0:
361,215,190028,1,2,1:2:0:0:
267,215,190123,6,0,P|211:193|163:165,1,105.000004005432,10|0,3:2|0:0,0:0:0:0:
418,284,190313,2,0,P|474:306|522:334,1,105.000004005432,2|0,1:2|0:0,0:0:0:0:
228,383,190503,6,0,B|226:310|164:314|160:319|162:324|94:318|107:243,1,210.000008010865,2|0,3:2|0:0,0:0:0:0:
359,191,190883,6,0,P|384:186|450:182,1,70.0000026702882,10|0,3:2|0:0,0:0:0:0:
318,119,191009,6,0,P|326:94|355:36,1,70.0000026702882,2|0,1:2|0:0,0:0:0:0:
237,128,191136,6,0,P|220:108|183:53,1,70.0000026702882,2|0,1:2|0:0,0:0:0:0:
280,194,191262,6,0,B|288:244|243:248|244:245|241:241|199:239|199:292,1,140,2|0,3:2|0:0,0:0:0:0:
72,105,191452,2,0,B|119:122|100:163|98:161|94:162|71:197|116:223,1,140,2|0,1:2|0:0,0:0:0:0:
2,318,191642,2,0,B|80:252|132:327|125:327|123:336|160:411|252:359,1,280,10|2,3:2|1:2,0:0:0:0:
400,0,192022,6,0,P|388:56|374:110,1,70,6|0,3:2|0:0,0:0:0:0:
345,284,192212,2,0,P|356:227|370:173,1,70,0|0,1:0|0:0,0:0:0:0:
512,172,192402,6,0,P|455:160|401:146,1,70,10|0,3:2|0:0,0:0:0:0:
227,117,192592,2,0,P|283:128|337:142,1,70,2|0,1:2|0:0,0:0:0:0:
271,294,192781,6,0,P|242:362|174:399,1,105.000004005432,2|0,3:2|0:0,0:0:0:0:
0,173,192971,2,0,P|109:263|225:310,1,210.000008010865,2|10,1:2|3:2,0:0:0:0:
326,144,193351,6,0,B|389:108|417:164|415:170|410:171|449:227|507:177,1,210.000008010865,2|2,1:2|3:2,0:0:0:0:
261,74,193636,1,0,1:0:0:0:
263,65,193731,6,0,P|280:21|298:-29,1,70,2|0,1:2|0:0,0:0:0:0:
164,85,193921,2,0,P|134:48|100:7,1,70,10|0,3:2|0:0,0:0:0:0:
125,182,194111,2,0,P|78:189|26:198,1,70,2|0,1:2|0:0,0:0:0:0:
308,244,194300,6,0,B|321:319|253:325|255:320|251:315|189:311|187:392,1,210.000008010865,2|2,3:2|1:2,0:0:0:0:
257,81,194680,2,0,B|334:110|360:22|244:-88|97:102|216:245|313:244,1,420,10|0,3:2|0:0,0:0:0:0:
401,330,195060,6,0,P|430:366|464:407,1,70,2|0,3:2|0:0,0:0:0:0:
430,237,195250,2,0,P|476:229|528:220,1,70,0|0,1:0|0:0,0:0:0:0:
368,169,195440,2,0,P|385:124|402:75,1,70,10|0,3:2|0:0,0:0:0:0:
268,192,195630,2,0,P|238:155|204:114,1,70,0|0,1:0|0:0,0:0:0:0:
138,238,195819,5,2,3:2:0:0:
39,202,195946,5,2,1:2:0:0:
21,98,196073,5,2,1:2:0:0:
101,31,196199,5,10,3:2:0:0:
200,67,196326,5,2,1:2:0:0:
218,170,196452,5,2,1:2:0:0:
313,206,196579,5,2,3:2:0:0:
368,189,196674,1,2,1:2:0:0:
388,243,196769,1,2,1:2:0:0:
333,261,196864,1,2,1:2:0:0:
368,169,196959,6,0,P|390:113|418:65,1,105.000004005432,10|0,3:2|0:0,0:0:0:0:
332,286,197148,2,0,P|310:342|282:390,1,105.000004005432,2|0,1:2|0:0,0:0:0:0:
238,160,197338,5,2,3:2:0:0:
183,143,197433,1,2,1:2:0:0:
163,197,197528,1,2,1:2:0:0:
218,215,197623,1,2,1:2:0:0:
183,123,197718,6,0,P|161:67|133:19,1,105.000004005432,10|0,3:2|0:0,0:0:0:0:
219,240,197907,2,0,P|241:296|269:344,1,105.000004005432,2|0,1:2|0:0,0:0:0:0:
0,337,198288,6,0,L|208:322,1,140,10|0,3:2|0:0,0:0:0:0:
151,329,198478,2,0,L|154:373,1,35,10|0,3:2|0:0,0:0:0:0:
512,180,198668,6,0,L|303:165,1,140,10|0,3:2|0:0,0:0:0:0:
363,174,198858,2,0,L|358:218,1,35,10|0,3:2|0:0,0:0:0:0:
107,188,199427,6,0,L|128:-19,1,140,10|0,3:2|0:0,0:0:0:0:
34,44,199617,2,0,L|29:89,1,35,10|0,3:2|0:0,0:0:0:0:
179,384,199807,6,0,L|200:176,1,140,10|0,3:2|0:0,0:0:0:0:
278,251,199997,2,0,L|273:295,1,35,10|0,3:2|0:0,0:0:0:0:
385,68,200187,6,0,L|364:276,1,140,10|0,3:2|0:0,0:0:0:0:
453,221,200377,2,0,L|457:179,1,35,10|0,3:2|0:0,0:0:0:0:
351,384,200756,6,0,B|338:355|357:332|357:332|361:355|383:376,1,105,2|0,3:2|0:0,0:0:0:0:
490,328,201136,6,0,B|492:349|468:375|468:375|551:322|511:221|511:221|490:253|433:263,1,280,6|0,3:2|1:0,0:0:0:0:
314,251,201421,1,0,1:0:0:0:
425,23,201516,2,0,B|363:37|355:84|355:84|397:123|382:188|382:188|349:150|302:156,1,280,8|0,3:2|1:0,0:0:0:0:
0,218,201895,5,2,3:2:0:0:
108,147,201990,1,2,1:2:0:0:
0,218,202180,5,2,1:2:0:0:
146,282,202275,2,0,P|236:299|316:319,1,140,10|0,3:2|0:0,0:0:0:0:
319,155,202465,2,0,P|388:139|457:126,1,140,2|0,1:2|0:0,0:0:0:0:
280,70,202655,5,2,3:2:0:0:
199,42,202750,1,0,1:0:0:0:
132,96,202845,1,2,1:2:0:0:
283,310,203035,5,10,3:2:0:0:
407,354,203130,1,2,1:2:0:0:
283,310,203319,5,2,1:2:0:0:
470,226,203414,1,0,3:0:0:0:
39,68,203604,6,0,B|23:38|35:4|35:4|15:19|-12:64|71:121,1,140,0|0,1:0|0:0,0:0:0:0:
130,104,203794,2,0,B|165:94|176:66|176:66|177:91|161:141|64:113,1,140,8|0,3:2|0:0,0:0:0:0:
369,233,203984,5,2,1:2:0:0:
369,233,204174,6,0,P|323:255|294:310,1,105.000004005432,2|0,3:2|0:0,0:0:0:0:
365,369,204364,2,0,P|411:347|440:292,1,105.000004005432,2|0,1:2|0:0,0:0:0:0:
272,57,204554,6,0,P|266:125|310:194,1,119.000002269745,10|0,3:2|0:0,0:0:0:0:
441,151,204743,2,0,P|447:83|403:14,1,119.000002269745,2|0,1:2|0:0,0:0:0:0:
74,310,204933,6,0,P|34:303|-38:225,1,77.0000023498536,2|0,3:2|0:0,0:0:0:0:
89,168,205123,2,0,P|62:114|86:34,1,77.0000023498536,2|0,1:2|0:0,0:0:0:0:
207,127,205313,2,0,P|240:77|344:54,1,97.9999970092774,10|0,3:2|0:0,0:0:0:0:
266,267,205503,6,0,B|347:276|371:198|371:198|365:278|446:311|446:311|359:302|336:380|336:380|342:299|261:269,2,560,2|2|2,1:2|1:2|1:2,0:0:0:0:
14,85,206452,5,2,3:2:0:0:
48,183,206547,1,2,1:2:0:0:
117,101,206642,5,2,1:2:0:0:
206,164,206737,1,2,1:2:0:0:
214,60,206832,5,10,3:2:0:0:
314,88,206927,1,2,1:2:0:0:
367,0,207022,1,2,1:2:0:0:
45,300,207212,6,0,B|43:321|67:347|67:347|-16:294|23:193|23:193|45:225|102:235,1,280,6|0,3:2|1:0,0:0:0:0:
149,239,207497,1,0,1:0:0:0:
319,291,207592,2,0,B|305:353|225:390|154:334|154:334|200:329|222:296,1,280,10|0,3:2|1:0,0:0:0:0:
439,295,207971,5,2,3:2:0:0:
493,176,208066,1,2,1:2:0:0:
439,295,208256,5,2,1:2:0:0:
379,137,208351,2,0,P|396:47|416:-33,1,140,10|0,3:2|0:0,0:0:0:0:
218,74,208541,2,0,P|230:142|245:211,1,140,2|0,1:2|0:0,0:0:0:0:
181,332,208731,5,2,3:2:0:0:
101,361,208826,1,0,1:0:0:0:
37,308,208921,1,2,1:2:0:0:
458,89,209111,5,10,3:2:0:0:
343,210,209206,1,2,1:2:0:0:
100,36,209395,5,2,1:2:0:0:
152,185,209490,1,0,3:0:0:0:
368,295,209680,5,2,1:2:0:0:
448,266,209775,1,0,1:0:0:0:
512,319,209870,1,10,3:2:0:0:
314,0,210060,5,2,1:2:0:0:
314,0,210250,6,0,P|301:77|283:231,1,140,2|0,3:2|0:0,0:0:0:0:
0,118,210440,2,0,P|61:167|185:260,1,119.000002269745,2|0,1:2|0:0,0:0:0:0:
198,174,210630,2,0,P|212:210|243:281,1,97.9999970092774,10|0,3:2|0:0,0:0:0:0:
61,315,210820,2,0,P|100:321|177:330,1,77.0000023498536,2|0,1:2|0:0,0:0:0:0:
414,325,211009,6,0,P|453:319|491:313,1,77.0000023498536,2|0,3:2|0:0,0:0:0:0:
290,156,211199,2,0,P|310:110|327:65,1,97.9999970092774,2|0,1:2|0:0,0:0:0:0:
415,192,211389,2,0,P|462:155|508:117,1,119.000002269745,10|0,3:2|0:0,0:0:0:0:
309,280,211579,5,2,1:2:0:0:
211,260,211674,1,0,1:0:0:0:
117,238,211769,1,0,3:0:0:0:
31,82,211959,6,0,B|76:72|109:33|109:33|89:80|110:129|110:129|77:87|28:82,2,280,2|10|2,1:2|3:2|1:2,0:0:0:0:
507,296,212528,5,2,3:2:0:0:
473,198,212623,1,2,1:2:0:0:
404,280,212718,5,2,1:2:0:0:
315,217,212813,1,2,1:2:0:0:
307,321,212908,5,2,3:2:0:0:
207,293,213003,1,2,1:2:0:0:
154,381,213098,1,2,1:2:0:0:
171,6,213288,6,0,B|95:2|52:79|83:148|83:148|110:93|249:71,1,280,6|0,3:2|1:0,0:0:0:0:
141,99,213574,1,0,1:0:0:0:
0,211,213668,2,0,B|38:275|115:267|115:267|156:183|226:170,1,280,10|0,3:2|1:0,0:0:0:0:
512,327,214048,5,2,3:2:0:0:
402,278,214143,1,0,1:0:0:0:
512,327,214333,5,0,1:0:0:0:
349,378,214427,2,0,P|259:361|179:341,1,140,10|0,3:2|0:0,0:0:0:0:
116,185,214617,2,0,P|133:95|153:15,1,140,2|0,1:2|0:0,0:0:0:0:
468,129,214807,5,2,3:2:0:0:
390,203,214902,1,2,1:2:0:0:
297,159,214997,1,2,1:2:0:0:
219,233,215092,1,2,1:2:0:0:
124,198,215186,1,10,3:2:0:0:
55,276,215282,1,2,1:2:0:0:
205,134,215472,5,2,1:2:0:0:
63,53,215567,1,2,3:2:0:0:
380,53,215757,6,0,B|358:20|362:-6|362:-6|345:13|326:62|418:103,1,140,0|0,1:0|0:0,0:0:0:0:
462,105,215947,2,0,B|502:114|521:96|521:96|513:120|484:154|399:102,1,140,8|0,3:2|0:0,0:0:0:0:
198,0,216137,5,2,1:2:0:0:
198,0,216326,6,0,P|162:58|123:139,1,140,2|0,3:2|0:0,0:0:0:0:
207,199,216516,2,0,P|266:160|327:127,1,119.000002269745,2|0,1:2|0:0,0:0:0:0:
155,282,216705,6,0,P|188:342|238:416,1,97.9999970092774,10|0,3:2|0:0,0:0:0:0:
50,276,216895,2,0,P|52:335|55:373,1,77.0000023498536,2|0,1:2|0:0,0:0:0:0:
365,364,217085,6,0,P|331:347|297:329,1,77.0000023498536,2|0,3:2|0:0,0:0:0:0:
507,233,217275,2,0,P|459:234|410:231,1,97.9999970092774,0|0,1:0|0:0,0:0:0:0:
512,26,217465,2,0,P|463:59|411:88,1,119.000002269745,10|0,3:2|0:0,0:0:0:0:
17,237,217655,6,0,B|98:254|131:173|131:173|121:258|202:289|202:289|114:282|87:357|87:357|93:275|16:243,2,560,2|2|2,1:2|1:2|1:2,0:0:0:0:
427,353,218605,5,2,3:2:0:0:
329,319,218700,1,2,1:2:0:0:
411,250,218795,5,2,1:2:0:0:
348,161,218890,1,2,1:2:0:0:
452,153,218985,5,10,3:2:0:0:
424,53,219080,1,2,1:2:0:0:
512,0,219175,1,2,1:2:0:0:
174,304,219364,6,0,B|98:308|55:231|86:162|86:162|113:217|252:239,1,280,6|0,3:2|1:0,0:0:0:0:
144,211,219648,1,0,1:0:0:0:
3,99,219744,2,0,B|41:35|118:43|118:43|159:127|229:140,1,280,10|0,3:2|1:0,0:0:0:0:
388,139,220124,5,2,3:2:0:0:
496,71,220219,1,2,1:2:0:0:
388,139,220409,5,2,1:2:0:0:
512,255,220504,2,0,P|422:272|342:292,1,140,10|0,3:2|0:0,0:0:0:0:
220,138,220694,2,0,P|204:69|191:0,1,140,2|0,1:2|0:0,0:0:0:0:
24,206,220883,5,2,3:2:0:0:
102,280,220978,1,2,1:2:0:0:
195,236,221073,1,2,1:2:0:0:
273,310,221168,1,2,1:2:0:0:
368,275,221263,1,10,3:2:0:0:
437,353,221358,1,2,1:2:0:0:
432,133,221548,5,2,1:2:0:0:
512,7,221643,1,2,3:2:0:0:
155,83,221833,6,0,B|173:59|168:29|168:29|185:48|204:97|112:138,1,140,0|0,1:0|0:0,0:0:0:0:
51,120,222023,2,0,B|25:108|11:76|11:76|6:100|14:152|114:142,1,140,8|0,3:2|0:0,0:0:0:0:
421,243,222213,5,2,1:2:0:0:
425,363,222402,2,0,P|354:358|310:262,1,140,2|0,3:2|0:0,0:0:0:0:
154,71,222592,2,0,P|215:101|260:185,1,119.000002269745,2|0,1:2|0:0,0:0:0:0:
219,348,222782,6,0,P|214:281|262:207,1,97.9999970092774,10|0,3:2|0:0,0:0:0:0:
343,123,222971,2,0,P|343:166|284:243,1,77.0000023498536,2|0,1:2|0:0,0:0:0:0:
494,188,223161,6,0,P|459:196|387:274,1,77.0000023498536,2|0,3:2|0:0,0:0:0:0:
272,48,223352,2,0,P|246:103|277:204,1,97.9999970092774,2|0,1:2|0:0,0:0:0:0:
30,283,223541,2,0,P|65:337|169:360,1,119.000002269745,10|0,3:2|0:0,0:0:0:0:
307,371,223731,5,2,1:2:0:0:
397,321,223826,2,0,P|462:305|522:292,1,119.000002269745,0|0,1:0|3:0,0:0:0:0:
0,175,224111,6,0,B|45:185|78:224|78:224|58:177|79:128|79:128|46:170|-3:175,2,280,2|10|2,1:2|3:2|1:2,0:0:0:0:
313,121,224681,5,2,3:2:0:0:
398,102,224776,1,0,1:0:0:0:
371,186,224871,1,2,1:2:0:0:
383,213,225061,5,10,3:2:0:0:
417,76,225156,1,0,1:0:0:0:
279,114,225251,1,2,1:2:0:0:
141,38,225440,5,4,1:2:0:0:
141,38,225630,2,0,P|68:183|0:329,2,280,2|10|2,1:2|3:2|1:2,0:0:0:0:
390,64,226200,6,0,P|409:52|456:23,1,70,2|0,3:2|0:0,0:0:0:0:
433,139,226390,2,0,P|452:127|499:98,1,70,2|0,1:2|0:0,0:0:0:0:
397,304,226579,6,0,P|378:292|331:263,1,70,10|0,3:2|0:0,0:0:0:0:
354,379,226769,2,0,P|335:367|288:338,1,70,2|0,1:2|0:0,0:0:0:0:
105,76,226959,6,0,P|124:64|259:-13,1,140,2|0,3:2|0:0,0:0:0:0:
155,153,227149,2,0,P|173:141|309:64,1,140,2|0,1:2|0:0,0:0:0:0:
170,302,227339,6,0,P|151:290|16:213,1,140,10|0,3:2|0:0,0:0:0:0:
120,380,227529,2,0,P|101:368|-34:291,1,140,2|0,1:2|0:0,0:0:0:0:
492,350,227719,6,0,P|258:197|27:38,3,560,2|2|10|2,3:2|1:2|3:2|1:2,0:0:0:0:
27,38,228478,1,4,3:2:0:0:
453,219,228668,5,2,1:2:0:0:
433,122,228763,1,2,1:2:0:0:
415,26,228858,1,10,3:2:0:0:
415,26,229047,5,2,1:2:0:0:
433,122,229142,1,2,1:2:0:0:
453,219,229237,1,2,3:2:0:0:
39,162,229427,5,2,1:2:0:0:
58,266,229522,1,2,1:2:0:0:
81,374,229617,1,10,3:2:0:0:
81,374,229806,5,2,1:2:0:0:
58,266,229901,1,2,1:2:0:0:
39,162,229996,1,2,3:2:0:0:
478,222,230186,5,2,1:2:0:0:
456,110,230281,1,2,1:2:0:0:
435,4,230376,1,10,3:2:0:0:
435,4,230565,5,2,1:2:0:0:
456,110,230660,1,2,1:2:0:0:
478,222,230755,1,2,3:2:0:0:
225,384,230946,5,2,1:2:0:0:
33,161,231136,5,2,3:2:0:0:
287,0,231327,5,2,1:2:0:0:
206,279,231516,6,0,P|338:235|477:221,1,280,6|0,3:2|0:0,0:0:0:0:
424,0,231895,2,0,P|291:43|152:57,1,280,10|0,3:2|0:0,0:0:0:0:
325,132,232276,5,10,3:2:0:0:
477,221,232371,2,0,B|488:309|416:356|416:356|368:258|238:271,1,280,2|10,1:2|3:2,0:0:0:0:
142,334,232845,6,0,B|14:334|-5:183|47:121|47:121|63:214|120:229,1,420,2|0,3:2|0:0,0:0:0:0:
166,135,233225,6,0,B|166:7|322:-35|392:40|392:40|314:72|310:158,3,420.000016021729,2|2|2|2,3:2|3:2|3:2|3:2,0:0:0:0:
451,291,234174,6,0,B|401:300|366:349|366:349|373:292|328:249,1,210.000008010865,14|0,3:2|0:0,0:0:0:0:
