osu file format v14

[General]
AudioFilename: audio.mp3
AudioLeadIn: 0
PreviewTime: 76119
Countdown: 0
SampleSet: Soft
StackLeniency: 0.7
Mode: 0
LetterboxInBreaks: 0
WidescreenStoryboard: 0

[Editor]
Bookmarks: 200234,205719
DistanceSpacing: 0.6
BeatDivisor: 4
GridSize: 32
TimelineZoom: 2.959999

[Metadata]
Title:PEKORANDOMBRAIN!
TitleUnicode:ぺこらんだむぶれいん!
Artist:Usada Pekora
ArtistUnicode:兎田ぺこら
Creator:Yuuma
Version:Welcome to Pekoland!
Source:
Tags:xidorn kuse ホロライブ hololive vtuber virtual youtuber japanese pop jpop j-pop
BeatmapID:2788624
BeatmapSetID:1346547

[Difficulty]
HPDrainRate:6
CircleSize:4
OverallDifficulty:9
ApproachRate:9.3
SliderMultiplier:1.8
SliderTickRate:1

[Events]
//Background and Video events
0,0,"pekopeko.jpg",0,0
//Break Periods
2,200433,204480
//Storyboard Layer 0 (Background)
//Storyboard Layer 1 (Fail)
//Storyboard Layer 2 (Pass)
//Storyboard Layer 3 (Foreground)
//Storyboard Layer 4 (Overlay)
//Storyboard Sound Samples

[TimingPoints]
6,342.857142857143,4,2,1,80,1,0
6862,-166.666666666667,4,2,1,60,0,0
9605,-125,4,2,1,70,0,0
12348,-100,4,2,1,80,0,0
16462,-66.6666666666667,4,2,1,80,0,0
16719,-66.6666666666667,4,2,1,5,0,0
16805,-66.6666666666667,4,2,1,80,0,0
17062,-66.6666666666667,4,2,1,5,0,0
17148,-100,4,2,1,80,0,0
17834,-100,4,2,1,80,0,0
23319,-83.3333333333333,4,2,1,80,0,0
34291,-142.857142857143,4,2,1,50,0,0
36348,-200,4,2,1,50,0,0
37034,-142.857142857143,4,2,1,50,0,0
39091,-200,4,2,1,50,0,0
39777,-111.111111111111,4,2,1,70,0,0
45262,-125,4,2,1,60,0,0
50748,-83.3333333333333,4,2,1,70,0,0
53491,-100,4,2,1,70,0,0
57605,-166.666666666667,4,2,1,60,0,0
63091,-100,4,2,1,80,0,0
76806,-90.9090909090909,4,2,1,80,0,1
85034,-66.6666666666667,4,2,1,80,0,1
86405,-90.9090909090909,4,2,1,80,0,1
96005,-200,4,2,1,60,0,1
96691,-133.333333333333,4,2,1,60,0,1
97377,-66.6666666666667,4,2,1,60,0,1
98748,-100,4,2,1,80,0,0
104234,-83.3333333333333,4,2,1,80,0,0
115205,-100,4,2,1,80,0,0
116577,-125,4,2,1,80,0,0
125491,-200,4,2,1,60,0,0
127548,-100,4,2,1,80,0,0
133034,-83.3333333333333,4,2,1,80,0,0
135777,-100,4,2,1,80,0,0
139891,-166.666666666667,4,2,1,70,0,0
142634,-111.111111111111,4,2,1,70,0,0
145377,-100,4,2,1,80,0,0
156348,-200,4,2,1,60,0,0
158405,-100,4,2,1,70,0,0
159091,-90.9090909090909,4,2,1,80,0,1
167319,-66.6666666666667,4,2,1,80,0,1
168691,-90.9090909090909,4,2,1,80,0,1
178291,-200,4,2,1,80,0,1
178977,-133.333333333333,4,2,1,80,0,1
179663,-66.6666666666667,4,2,1,80,0,1
181034,-100,4,2,1,80,0,0
197148,-100,4,2,1,50,0,0
197319,-100,4,2,1,80,0,0
197405,-100,4,2,1,50,0,0
197491,-100,4,2,1,80,0,0
198862,-125,4,2,1,70,0,0
199377,-142.857142857143,4,2,1,60,0,0
199891,-166.666666666667,4,2,1,50,0,0
200234,-200,4,2,1,50,0,0
205719,-133.333333333333,4,2,1,60,0,0
209662,-111.111111111111,4,2,1,60,0,0
210519,-142.857142857143,4,2,1,60,0,0
211205,-200,4,2,1,50,0,0
212919,-142.857142857143,4,2,1,60,0,0
213262,-111.111111111111,4,2,1,70,0,0
213605,-90.9090909090909,4,2,1,80,0,0
213948,-100,4,2,1,80,0,1
224919,-90.9090909090909,4,2,1,80,0,1
233148,-200,4,2,1,80,0,1
233834,-133.333333333333,4,2,1,80,0,1
234520,-66.6666666666667,4,2,1,80,0,1
235205,-100,4,2,1,80,0,1
235891,-100,4,2,1,80,0,0
246177,-125,4,2,1,80,0,0
246862,-125,4,2,1,30,0,0

[Colours]
Combo1 : 117,186,255
Combo2 : 153,255,255
Combo3 : 255,189,157

[HitObjects]
197,317,1377,5,6,1:2:0:0:
446,253,1548,1,2,0:0:0:0:
201,191,1720,1,2,1:2:0:0:
201,191,1806,2,0,L|264:179,1,45,2|0,0:0|3:0,0:0:0:0:
326,125,1977,1,2,0:0:0:0:
326,125,2063,2,0,P|345:165|342:209,1,90,2|0,0:0|3:0,0:0:0:0:
256,371,2406,5,8,0:0:0:0:
207,81,2577,1,8,0:0:0:0:
342,209,2748,5,6,1:2:0:0:
90,159,2920,1,2,0:0:0:0:
302,50,3091,1,2,0:0:0:0:
302,50,3177,2,0,L|295:116,1,45,2|0,0:0|3:0,0:0:0:0:
330,189,3348,1,2,0:0:0:0:
330,189,3434,2,0,P|265:192|228:168,1,90,2|0,0:0|3:0,0:0:0:0:
127,50,3777,5,8,0:0:0:0:
419,128,3948,1,8,0:0:0:0:
419,128,4034,1,8,0:0:0:0:
419,128,4120,5,6,1:2:0:0:
179,227,4291,1,2,1:2:0:0:
336,42,4463,1,2,0:0:0:0:
336,42,4548,1,2,0:0:0:0:
336,42,4634,2,0,L|344:100,1,45,0|0,3:0|0:0,0:0:0:0:
441,238,4806,5,2,1:2:0:0:
201,139,4977,1,2,1:2:0:0:
358,324,5148,1,8,0:0:0:0:
358,324,5234,1,2,0:0:0:0:
358,324,5320,2,0,L|366:266,1,45,2|0,0:0|0:0,0:0:0:0:
254,54,5491,5,14,0:0:0:0:
205,26,5577,1,2,0:0:0:0:
151,35,5663,1,2,0:0:0:0:
114,76,5748,1,2,0:0:0:0:
111,131,5834,2,0,L|120:198,1,45,10|2,0:0|0:0,0:0:0:0:
275,364,6006,2,0,L|281:319,1,45,2|2,0:0|0:0,0:0:0:0:
304,119,6177,5,10,0:0:0:0:
86,277,6348,1,0,0:0:0:0:
205,26,6520,5,10,0:0:0:0:
281,319,6691,1,8,0:0:0:0:
281,319,6777,1,0,0:0:0:0:
281,319,6863,6,0,P|383:298|396:297,2,107.999996704102,4|2|2,0:0|0:0|0:0,0:0:0:0:
163,361,7891,1,2,0:0:0:0:
85,318,8063,2,0,B|74:290|74:290|89:210,1,107.999996704102,2|2,0:0|0:0,0:0:0:0:
170,271,8577,1,2,0:0:0:0:
59,180,8748,1,2,0:0:0:0:
59,180,8920,2,0,L|36:300,1,107.999996704102,2|0,0:0|0:0,0:0:0:0:
192,128,9434,1,2,3:2:0:0:
192,128,9520,1,0,3:0:0:0:
192,128,9606,5,6,3:2:0:0:
61,52,9777,1,2,3:2:0:0:
171,288,9948,2,0,L|182:210,1,72,10|2,0:0|0:0,0:0:0:0:
330,67,10291,1,0,3:0:0:0:
192,128,10463,1,0,3:0:0:0:
379,229,10634,5,10,0:0:0:0:
379,229,10806,2,0,L|459:215,1,72,2|0,0:0|3:0,0:0:0:0:
251,309,11148,1,2,3:2:0:0:
317,116,11320,1,10,0:0:0:0:
364,350,11491,1,2,0:0:0:0:
364,350,11577,1,0,3:0:0:0:
364,350,11663,1,0,3:0:0:0:
141,253,11834,1,0,3:0:0:0:
404,143,12006,1,0,3:0:0:0:
404,143,12091,1,0,3:0:0:0:
404,143,12177,1,0,3:0:0:0:
404,143,12263,1,0,3:0:0:0:
404,143,12348,6,0,P|418:196|411:240,1,90,6|0,3:2|0:0,0:0:0:0:
197,156,12691,1,10,0:0:0:0:
343,47,12863,1,0,3:0:0:0:
343,47,12948,1,0,3:0:0:0:
343,47,13034,2,0,L|439:34,1,90,2|0,3:2|0:0,0:0:0:0:
299,204,13377,1,10,0:0:0:0:
124,110,13548,6,0,L|18:90,1,90,2|0,0:0|3:0,0:0:0:0:
173,268,13891,1,2,3:2:0:0:
236,56,14063,1,10,0:0:0:0:
332,255,14234,1,2,3:2:0:0:
332,255,14320,1,0,3:0:0:0:
332,255,14406,1,0,3:0:0:0:
129,145,14577,1,0,3:0:0:0:
354,118,14748,5,10,0:0:0:0:
68,236,14920,1,10,0:0:0:0:
36,204,15006,1,8,0:0:0:0:
28,161,15091,5,6,0:0:0:0:
236,56,15606,1,10,0:0:0:0:
236,56,15691,1,8,0:0:0:0:
236,56,15777,5,14,0:0:0:0:
332,338,15948,1,10,0:0:0:0:
118,166,16120,5,10,0:0:0:0:
464,171,16291,1,10,0:0:0:0:
464,171,16377,1,2,0:0:0:0:
464,171,16463,6,0,B|485:135|488:69|488:69|438:111|427:144,1,202.500007724762,6|0,0:0|0:0,0:0:0:0:
289,133,16806,2,0,B|282:92|303:29|303:29|334:86|332:122,1,202.500007724762,6|0,0:0|0:0,0:0:0:0:
361,214,17148,5,6,0:0:0:0:
144,109,17320,1,8,0:0:0:0:
144,109,17406,1,8,0:0:0:0:
144,109,17491,1,8,0:0:0:0:
238,360,17663,1,8,0:0:0:0:
238,360,17748,1,8,0:0:0:0:
238,360,17834,6,0,L|326:344,1,90,6|0,1:2|3:0,0:0:0:0:
487,269,18177,1,8,0:0:0:0:
245,239,18348,1,2,0:0:0:0:
245,239,18434,1,0,3:0:0:0:
245,239,18520,5,2,1:2:0:0:
453,349,18691,1,0,1:0:0:0:
307,144,18863,1,8,0:0:0:0:
349,374,19034,2,0,P|359:310|369:277,1,90,2|8,0:0|0:0,0:0:0:0:
455,92,19377,5,2,1:2:0:0:
470,257,19548,1,10,0:0:0:0:
305,272,19720,1,2,1:2:0:0:
290,107,19891,5,10,0:0:0:0:
507,172,20063,1,10,0:0:0:0:
208,202,20234,5,10,0:0:0:0:
455,92,20406,1,10,0:0:0:0:
305,272,20577,6,0,P|252:307|211:314,1,90,6|0,1:2|3:0,0:0:0:0:
32,194,20920,1,8,0:0:0:0:
218,134,21091,1,2,1:2:0:0:
218,134,21177,1,8,0:0:0:0:
218,134,21263,2,0,L|226:223,1,90,2|0,1:2|1:0,0:0:0:0:
119,348,21606,2,0,L|129:247,1,90,8|2,0:0|0:0,0:0:0:0:
315,65,21948,5,10,0:0:0:0:
336,248,22120,1,2,1:2:0:0:
153,269,22291,1,10,0:0:0:0:
132,86,22463,1,2,1:2:0:0:
375,147,22634,5,10,0:0:0:0:
67,187,22806,1,10,0:0:0:0:
438,235,22977,1,10,0:0:0:0:
438,235,23320,5,6,3:2:0:0:
408,23,23491,1,8,0:0:0:0:
312,276,23663,1,2,3:2:0:0:
277,41,23834,1,8,0:0:0:0:
277,41,23920,1,2,0:0:0:0:
277,41,24006,6,0,L|338:62,1,53.9999983520508,2|2,3:2|0:0,0:0:0:0:
481,125,24177,1,10,0:0:0:0:
231,180,24348,1,2,3:2:0:0:
408,23,24520,1,10,0:0:0:0:
312,276,24691,5,2,3:2:0:0:
158,84,24863,1,10,0:0:0:0:
147,281,25034,1,2,3:2:0:0:
304,87,25206,2,0,L|319:150,1,53.9999983520508,8|2,0:0|0:0,0:0:0:0:
367,340,25377,5,2,3:2:0:0:
367,340,25463,1,2,3:2:0:0:
367,340,25548,1,10,0:0:0:0:
117,288,25720,1,2,0:0:0:0:
395,184,25891,1,8,0:0:0:0:
133,78,26063,5,6,3:2:0:0:
158,284,26234,1,8,0:0:0:0:
259,37,26406,1,2,3:2:0:0:
294,272,26577,1,8,0:0:0:0:
294,272,26663,1,2,0:0:0:0:
294,272,26748,6,0,L|237:248,1,53.9999983520508,2|2,3:2|0:0,0:0:0:0:
90,188,26920,1,8,0:0:0:0:
340,133,27091,1,2,0:0:0:0:
158,284,27263,1,8,0:0:0:0:
259,37,27434,5,2,3:2:0:0:
413,229,27606,1,10,0:0:0:0:
424,32,27777,1,2,3:2:0:0:
267,226,27948,1,8,0:0:0:0:
512,115,28120,5,10,0:0:0:0:
512,115,28206,1,8,0:0:0:0:
512,115,28291,1,8,0:0:0:0:
238,34,28463,1,10,0:0:0:0:
507,240,28634,1,8,0:0:0:0:
346,5,28806,5,6,3:2:0:0:
382,270,28977,1,8,0:0:0:0:
227,49,29148,1,2,3:2:0:0:
262,312,29320,1,8,0:0:0:0:
262,312,29406,1,2,0:0:0:0:
262,312,29491,6,0,L|229:262,1,53.9999983520508,2|2,3:2|0:0,0:0:0:0:
102,88,29663,1,8,0:0:0:0:
146,351,29834,1,0,3:2:0:0:
16,135,30006,1,8,0:0:0:0:
231,293,30177,5,2,3:2:0:0:
0,232,30348,1,10,0:0:0:0:
257,196,30520,1,2,3:2:0:0:
42,323,30691,2,0,L|76:269,1,53.9999983520508,8|2,0:0|0:0,0:0:0:0:
210,109,30863,5,2,3:2:0:0:
210,109,30948,1,0,3:0:0:0:
210,109,31034,1,10,0:0:0:0:
146,351,31206,1,2,0:0:0:0:
109,90,31377,1,8,0:0:0:0:
49,317,31548,5,4,0:0:0:0:
411,279,31720,1,10,0:0:0:0:
79,200,31891,5,2,0:0:0:0:
444,163,32063,1,10,0:0:0:0:
109,90,32234,5,2,0:0:0:0:
468,56,32406,1,10,0:0:0:0:
95,199,32577,5,2,0:0:0:0:
461,162,32748,1,10,0:0:0:0:
115,344,32920,5,10,0:0:0:0:
85,68,33091,1,10,0:0:0:0:
315,338,33263,5,10,0:0:0:0:
273,40,33434,1,10,0:0:0:0:
507,288,33606,6,0,P|506:261|499:235,1,53.9999983520508,2|2,0:0|0:0,0:0:0:0:
413,80,33777,2,0,P|389:93|370:112,1,53.9999983520508,2|2,3:2|3:2,0:0:0:0:
281,265,33948,1,2,0:0:0:0:
302,281,34034,1,2,0:0:0:0:
327,290,34120,1,2,0:0:0:0:
354,293,34206,1,2,0:0:0:0:
382,288,34291,6,0,L|506:270,1,125.999996154785,6|8,0:0|3:0,0:0:0:0:
358,189,34806,1,2,3:2:0:0:
309,366,34977,2,0,L|350:360,2,31.4999990386963,2|0|2,0:0|3:0|3:2,0:0:0:0:
358,189,35320,2,0,L|431:179,1,62.9999980773926,10|2,0:0|0:0,0:0:0:0:
208,98,35663,5,14,0:0:0:0:
163,324,35834,1,10,0:0:0:0:
131,56,36006,1,10,0:0:0:0:
131,56,36348,6,0,L|126:19,1,22.5,2|0,0:0|3:0,0:0:0:0:
208,98,36520,2,0,L|212:134,1,22.5,2|0,3:2|0:0,0:0:0:0:
41,71,36691,1,10,0:0:0:0:
275,290,37034,6,0,P|211:289|158:330,1,125.999996154785,6|8,0:0|3:0,0:0:0:0:
96,376,37548,1,2,3:2:0:0:
24,246,37720,2,0,P|14:217|12:203,2,31.4999990386963,2|0|2,0:0|3:0|3:2,0:0:0:0:
162,323,38063,2,0,P|176:273|176:245,1,62.9999980773926,10|2,0:0|0:0,0:0:0:0:
130,48,38406,5,14,0:0:0:0:
85,274,38577,1,10,0:0:0:0:
216,24,38748,1,10,0:0:0:0:
216,24,39091,6,0,L|258:18,2,22.5,0|0|2,0:0|0:0|0:0,0:0:0:0:
274,101,39434,2,0,L|339:92,1,45,10|2,0:0|0:0,0:0:0:0:
130,48,39777,6,0,P|102:109|96:215,1,161.999995056153,6|8,3:2|0:0,0:0:0:0:
121,333,40291,1,2,0:0:0:0:
238,124,40463,2,0,P|256:197|253:223,1,80.9999975280763,2|2,3:2|0:0,0:0:0:0:
201,342,40806,2,0,L|113:332,1,80.9999975280763,10|2,0:0|0:0,0:0:0:0:
348,231,41148,6,0,B|413:239|413:239|442:261|442:261|501:269,1,161.999995056153,6|8,3:2|0:0,0:0:0:0:
364,318,41663,1,0,0:0:0:0:
484,181,41834,2,0,B|529:127|505:56|505:56|478:67|474:100,1,161.999995056153,2|8,3:2|0:0,0:0:0:0:
395,148,42348,1,2,0:0:0:0:
233,23,42520,5,6,3:2:0:0:
233,23,42863,1,10,0:0:0:0:
231,42,42948,1,2,0:0:0:0:
229,62,43034,1,2,0:0:0:0:
227,82,43120,1,0,0:0:0:0:
225,103,43206,5,14,0:0:0:0:
484,181,43377,1,2,3:2:0:0:
278,182,43548,5,10,0:0:0:0:
415,116,43720,1,2,3:2:0:0:
331,318,43891,5,14,0:0:0:0:
286,34,44063,2,0,P|335:15|379:15,1,80.9999975280763,10|0,0:0|3:0,0:0:0:0:
278,182,44406,2,0,B|199:206|207:125|119:150,1,161.999995056153,14|0,0:0|0:0,0:0:0:0:
264,79,44920,5,10,0:0:0:0:
140,260,45091,1,10,0:0:0:0:
140,260,45177,1,10,0:0:0:0:
140,260,45263,6,0,P|89:271|30:195,1,144,6|8,3:2|0:0,0:0:0:0:
33,100,45777,1,2,0:0:0:0:
123,46,45948,2,0,P|138:99|135:120,1,72,2|2,3:2|0:0,0:0:0:0:
216,203,46291,2,0,P|256:190|294:192,1,72,10|2,0:0|0:0,0:0:0:0:
266,296,46634,5,2,3:2:0:0:
105,191,46806,1,2,0:0:0:0:
278,97,46977,1,10,0:0:0:0:
290,77,47320,5,2,0:0:0:0:
82,190,47491,1,2,0:0:0:0:
275,316,47663,2,0,L|348:305,1,72,10|0,0:0|0:0,0:0:0:0:
173,115,48006,6,0,B|151:162|151:162|150:209|173:257,1,144,2|8,3:2|0:0,0:0:0:0:
294,173,48520,1,2,0:0:0:0:
204,25,48691,2,0,P|169:26|120:53,1,72,2|2,3:2|0:0,0:0:0:0:
225,188,49034,2,0,P|260:187|309:160,1,72,10|2,0:0|0:0,0:0:0:0:
421,21,49377,5,2,3:2:0:0:
240,92,49548,1,2,0:0:0:0:
412,190,49720,1,10,0:0:0:0:
439,192,50063,5,2,0:0:0:0:
267,94,50234,1,2,0:0:0:0:
448,23,50406,2,0,L|456:105,1,72,10|2,0:0|0:0,0:0:0:0:
474,311,50748,5,2,3:2:0:0:
368,119,50920,1,0,3:0:0:0:
173,344,51091,2,0,L|304:325,1,107.999996704102,10|2,0:0|0:0,0:0:0:0:
421,215,51434,5,2,3:2:0:0:
315,23,51606,1,0,3:0:0:0:
120,248,51777,2,0,L|251:229,1,107.999996704102,8|2,0:0|0:0,0:0:0:0:
368,119,52120,5,10,0:0:0:0:
148,34,52291,1,10,0:0:0:0:
148,34,52634,2,0,P|188:112|190:270,1,215.999993408203,2|0,0:0|0:0,0:0:0:0:
146,333,53148,5,10,0:0:0:0:
132,330,53234,1,2,0:0:0:0:
119,327,53320,1,2,0:0:0:0:
106,324,53406,1,2,0:0:0:0:
93,321,53491,5,10,0:0:0:0:
389,242,53663,1,10,0:0:0:0:
407,233,54177,5,10,0:0:0:0:
111,154,54348,1,10,0:0:0:0:
88,147,54691,6,0,P|103:208|109:290,1,135,10|0,0:0|0:0,0:0:0:0:
93,321,55034,5,2,0:0:0:0:
298,261,55206,1,10,0:0:0:0:
176,88,55377,1,2,0:0:0:0:
176,88,55463,1,8,0:0:0:0:
176,88,55548,5,10,0:0:0:0:
412,136,55720,1,10,0:0:0:0:
188,216,55891,1,10,0:0:0:0:
421,264,56063,1,10,0:0:0:0:
421,264,56406,6,0,P|361:269|327:290,1,90,10|0,0:0|0:0,0:0:0:0:
213,255,56748,2,0,P|292:284|309:365,1,135,10|0,0:0|0:0,0:0:0:0:
309,360,57091,1,2,0:0:0:0:
412,136,57263,1,10,0:0:0:0:
104,28,57606,6,0,L|-3:45,1,107.999996704102,4|2,0:0|0:0,0:0:0:0:
67,115,58120,1,2,3:2:0:0:
168,104,58291,2,0,P|205:53|196:-4,1,107.999996704102,10|2,0:0|0:0,0:0:0:0:
104,28,58806,1,8,0:0:0:0:
104,28,58891,1,8,0:0:0:0:
104,28,58977,5,2,3:2:0:0:
128,198,59148,1,8,0:0:0:0:
285,87,59320,2,0,P|248:74|208:76,1,53.9999983520508,2|0,0:0|0:0,0:0:0:0:
256,215,59663,2,0,P|304:242|359:241,1,107.999996704102,10|2,0:0|0:0,0:0:0:0:
461,188,60177,1,8,0:0:0:0:
399,91,60348,6,0,P|353:219|356:245,1,161.999995056153,2|0,3:2|0:0,0:0:0:0:
229,309,61034,2,0,P|168:259|83:251,1,161.999995056153,10|2,0:0|0:0,0:0:0:0:
14,277,61634,1,10,0:0:0:0:
14,277,61720,5,2,0:0:0:0:
220,189,61891,1,10,0:0:0:0:
129,337,62063,1,2,0:0:0:0:
94,206,62234,1,2,3:2:0:0:
229,309,62406,2,0,L|243:199,1,107.999996704102,10|2,0:0|0:0,0:0:0:0:
129,337,62920,1,10,0:0:0:0:
325,266,63091,5,14,0:0:0:0:
129,105,63263,1,10,0:0:0:0:
312,373,63434,1,10,0:0:0:0:
312,373,65320,5,0,3:0:0:0:
362,176,65491,1,8,0:0:0:0:
170,227,65663,1,0,0:0:0:0:
170,227,65748,1,8,0:0:0:0:
170,227,65834,5,14,0:0:0:0:
436,305,66006,1,10,0:0:0:0:
247,51,66177,1,2,0:0:0:0:
233,201,67206,5,10,0:0:0:0:
111,115,67377,1,10,0:0:0:0:
247,51,67548,1,10,0:0:0:0:
147,224,67720,1,10,0:0:0:0:
46,45,67891,5,10,0:0:0:0:
323,158,68063,1,10,0:0:0:0:
47,261,68234,2,0,L|23:258,6,22.5,10|2|2|2|10|2|2,0:0|0:0|0:0|0:0|0:0|0:0|0:0,0:0:0:0:
14,274,68577,6,0,B|74:280|74:280|121:262|121:262|189:270,1,180,6|10,3:2|0:0,0:0:0:0:
333,306,69091,1,0,0:0:0:0:
365,168,69263,2,0,P|280:176|268:183,1,90,2|0,3:2|0:0,0:0:0:0:
333,306,69606,2,0,P|418:298|430:291,1,90,10|0,0:0|0:0,0:0:0:0:
225,87,69948,6,0,P|195:123|196:257,1,180,4|10,3:2|0:0,0:0:0:0:
236,353,70463,1,0,0:0:0:0:
90,239,70634,2,0,L|1:257,1,90,2|0,3:2|0:0,0:0:0:0:
269,180,70977,2,0,L|369:195,1,90,10|0,0:0|0:0,0:0:0:0:
91,108,71320,5,14,0:0:0:0:
138,341,71491,1,10,0:0:0:0:
317,184,71663,1,8,0:0:0:0:
84,231,71834,1,0,3:0:0:0:
84,231,71920,1,8,0:0:0:0:
84,231,72006,5,14,0:0:0:0:
308,336,72177,1,10,0:0:0:0:
287,90,72348,1,8,0:0:0:0:
182,314,72520,1,0,3:0:0:0:
425,189,72691,6,0,B|333:157|346:257|244:222,1,180,6|8,0:0|0:0,0:0:0:0:
287,90,73206,1,6,0:0:0:0:
398,274,73377,1,0,3:0:0:0:
214,154,73548,1,0,3:0:0:0:
452,81,73720,1,8,0:0:0:0:
300,239,73891,1,0,3:0:0:0:
159,16,74063,5,2,3:2:0:0:
319,89,74234,1,2,3:2:0:0:
60,209,74406,1,10,0:0:0:0:
187,96,74577,1,2,0:0:0:0:
187,96,74663,1,8,0:0:0:0:
187,96,74748,6,0,L|196:162,1,45,2|0,3:2|3:0,0:0:0:0:
215,293,74920,1,2,3:2:0:0:
63,148,75091,1,10,0:0:0:0:
83,307,75263,1,2,0:0:0:0:
204,90,75434,5,2,3:2:0:0:
232,303,75606,1,2,3:2:0:0:
333,32,75777,5,10,0:0:0:0:
375,297,75948,1,10,0:0:0:0:
375,297,76034,1,10,0:0:0:0:
375,297,76120,5,14,0:0:0:0:
149,206,76291,2,0,L|214:194,1,45,10|8,0:0|0:0,0:0:0:0:
396,165,76463,1,14,0:0:0:0:
226,339,76634,1,10,0:0:0:0:
226,339,76720,1,8,0:0:0:0:
226,339,76806,6,0,B|118:362|151:271|33:285,1,198.000006042481,6|10,3:2|0:0,0:0:0:0:
200,245,77320,1,0,0:0:0:0:
82,89,77491,2,0,P|52:147|52:212,1,99.0000030212403,2|0,3:2|0:0,0:0:0:0:
277,81,77834,1,10,0:0:0:0:
200,245,78006,6,0,L|188:129,1,99.0000030212403,2|0,0:0|3:0,0:0:0:0:
374,46,78348,1,2,0:0:0:0:
292,244,78520,1,10,0:0:0:0:
473,75,78691,1,2,0:0:0:0:
473,75,78863,2,0,L|462:173,1,99.0000030212403,2|0,3:2|0:0,0:0:0:0:
438,326,79206,1,8,0:0:0:0:
189,146,79377,6,0,P|288:126|355:222,1,198.000006042481,2|2,0:0|0:0,0:0:0:0:
236,308,79891,1,10,0:0:0:0:
449,248,80063,1,2,0:0:0:0:
280,126,80234,2,0,P|269:184|266:231,1,99.0000030212403,2|0,3:2|0:0,0:0:0:0:
318,307,80577,1,10,0:0:0:0:
470,61,80748,6,0,P|481:146|481:163,1,99.0000030212403,2|0,0:0|3:0,0:0:0:0:
449,248,81091,1,2,0:0:0:0:
280,126,81263,2,0,L|384:92,1,99.0000030212403,10|2,0:0|0:0,0:0:0:0:
299,316,81606,2,0,L|189:274,1,99.0000030212403,2|2,3:2|0:0,0:0:0:0:
35,203,81948,1,10,0:0:0:0:
22,181,82034,1,2,0:0:0:0:
17,157,82120,1,2,0:0:0:0:
18,132,82206,1,2,0:0:0:0:
25,106,82291,6,0,B|32:52|32:52|61:19,1,99.0000030212403,6|2,3:2|0:0,0:0:0:0:
280,126,82634,2,0,B|274:181|274:181|246:215,1,99.0000030212403,10|2,0:0|0:0,0:0:0:0:
135,69,82977,2,0,P|215:11|319:43,1,198.000006042481,2|10,3:2|0:0,0:0:0:0:
463,233,83491,6,0,P|381:219|364:205,1,99.0000030212403,2|0,0:0|3:0,0:0:0:0:
280,126,83834,1,2,0:0:0:0:
447,52,84006,1,10,0:0:0:0:
447,52,84177,1,2,0:0:0:0:
274,246,84348,2,0,L|261:142,1,99.0000030212403,2|0,3:2|0:0,0:0:0:0:
447,52,84691,2,0,L|434:150,1,99.0000030212403,10|2,0:0|0:0,0:0:0:0:
347,306,85034,6,0,P|293:344|229:332,1,135.000005149842,14|0,0:0|0:0,0:0:0:0:
141,366,85291,2,0,P|134:300|177:251,1,135.000005149842,10|0,0:0|0:0,0:0:0:0:
252,184,85548,2,0,P|269:212|273:245,1,67.5000025749208,10|0,0:0|0:0,0:0:0:0:
177,251,85720,6,0,L|168:111,1,135.000005149842,14|0,0:0|0:0,0:0:0:0:
243,49,85977,2,0,L|251:183,1,135.000005149842,10|0,0:0|0:0,0:0:0:0:
155,258,86234,2,0,L|150:180,1,67.5000025749208,10|0,0:0|0:0,0:0:0:0:
262,34,86406,6,0,P|285:25|309:25,3,49.5000015106202,6|2|2|2,0:0|0:0|0:0|0:0,0:0:0:0:
367,77,86748,1,10,0:0:0:0:
384,123,86834,1,2,0:0:0:0:
397,171,86920,1,2,0:0:0:0:
403,220,87006,1,10,0:0:0:0:
402,269,87091,5,10,0:0:0:0:
112,169,87263,1,10,0:0:0:0:
414,117,87434,5,10,0:0:0:0:
62,258,87606,1,10,0:0:0:0:
266,42,87777,6,0,B|300:109|241:157|282:250,1,198.000006042481,6|10,3:2|0:0,0:0:0:0:
359,178,88291,1,0,0:0:0:0:
188,93,88463,2,0,L|70:105,1,99.0000030212403,2|0,3:2|0:0,0:0:0:0:
188,272,88806,1,10,0:0:0:0:
303,126,88977,6,0,P|307:64|280:20,1,99.0000030212403,2|0,0:0|3:0,0:0:0:0:
147,187,89320,1,2,0:0:0:0:
351,260,89491,1,10,0:0:0:0:
222,92,89663,1,2,0:0:0:0:
99,327,89834,2,0,P|155:265|290:281,1,198.000006042481,2|8,3:2|0:0,0:0:0:0:
403,367,90348,6,0,B|442:292|442:292|421:165,1,198.000006042481,2|2,0:0|0:0,0:0:0:0:
265,125,90863,1,10,0:0:0:0:
399,54,91034,1,2,0:0:0:0:
356,273,91206,2,0,L|240:259,1,99.0000030212403,2|0,3:2|0:0,0:0:0:0:
473,156,91548,1,10,0:0:0:0:
371,20,91720,6,0,P|283:75|319:179,1,198.000006042481,2|2,0:0|0:0,0:0:0:0:
356,273,92234,1,14,0:0:0:0:
186,147,92406,1,2,0:0:0:0:
186,147,92491,1,2,0:0:0:0:
186,147,92577,2,0,P|177:195|154:239,1,99.0000030212403,2|2,3:2|0:0,0:0:0:0:
14,83,92920,5,10,0:0:0:0:
56,57,93006,1,2,0:0:0:0:
102,40,93091,1,2,0:0:0:0:
151,34,93177,1,2,0:0:0:0:
201,38,93263,6,0,L|311:56,1,99.0000030212403,6|2,3:2|0:0,0:0:0:0:
153,239,93606,2,0,L|55:223,1,99.0000030212403,10|2,0:0|0:0,0:0:0:0:
285,136,93948,2,0,B|362:145|362:145|404:170|404:170|475:178,1,198.000006042481,2|10,3:2|0:0,0:0:0:0:
306,334,94463,6,0,P|285:269|301:230,1,99.0000030212403,2|0,0:0|3:0,0:0:0:0:
420,93,94806,1,2,0:0:0:0:
379,279,94977,1,10,0:0:0:0:
379,279,95148,1,2,0:0:0:0:
210,132,95320,2,0,P|256:118|306:120,1,99.0000030212403,2|0,3:2|0:0,0:0:0:0:
204,341,95663,1,10,0:0:0:0:
181,350,95748,1,2,0:0:0:0:
157,355,95834,1,2,0:0:0:0:
132,357,95920,1,2,0:0:0:0:
107,353,96006,6,0,B|101:323|101:323|110:305|110:305|103:266,1,90,14|2,0:0|0:0,0:0:0:0:
210,132,96520,1,2,0:0:0:0:
210,132,96606,1,2,0:0:0:0:
210,132,96691,6,0,B|218:180|218:180|205:207|205:207|213:262,1,135.000005149842,14|2,0:0|0:0,0:0:0:0:
92,154,97206,1,2,0:0:0:0:
92,154,97291,1,2,0:0:0:0:
92,154,97377,6,0,P|141:209|255:165,1,202.500007724762,14|0,0:0|0:0,0:0:0:0:
338,119,97720,2,0,P|289:64|175:108,1,202.500007724762,14|0,0:0|0:0,0:0:0:0:
92,62,98063,5,14,0:0:0:0:
146,305,98234,1,8,0:0:0:0:
146,305,98320,1,8,0:0:0:0:
146,305,98406,1,8,0:0:0:0:
355,162,98577,1,8,0:0:0:0:
355,162,98663,1,8,0:0:0:0:
355,162,98748,6,0,P|363:103|352:63,1,90,6|0,1:2|3:0,0:0:0:0:
207,162,99091,1,8,0:0:0:0:
334,253,99263,1,2,0:0:0:0:
334,253,99348,1,0,3:0:0:0:
334,253,99434,5,2,1:2:0:0:
146,305,99606,1,0,1:0:0:0:
281,120,99777,1,8,0:0:0:0:
242,355,99948,2,0,L|222:254,1,90,2|8,0:0|0:0,0:0:0:0:
32,132,100291,5,2,1:2:0:0:
61,295,100463,1,10,0:0:0:0:
224,266,100634,1,2,1:2:0:0:
195,103,100806,5,10,0:0:0:0:
19,222,100977,1,10,0:0:0:0:
293,164,101148,5,10,0:0:0:0:
32,132,101320,1,10,0:0:0:0:
282,28,101491,6,0,P|358:43|379:61,1,90,6|0,1:2|3:0,0:0:0:0:
290,188,101834,1,8,0:0:0:0:
151,93,102006,1,2,0:0:0:0:
151,93,102091,1,0,3:0:0:0:
151,93,102177,2,0,P|75:108|54:126,1,90,2|0,1:2|1:0,0:0:0:0:
161,281,102520,2,0,P|237:266|258:248,1,90,8|2,0:0|0:0,0:0:0:0:
411,84,102863,5,10,0:0:0:0:
232,106,103034,1,2,1:2:0:0:
254,285,103206,1,10,0:0:0:0:
433,263,103377,1,2,1:2:0:0:
187,194,103548,5,10,0:0:0:0:
469,162,103720,1,10,0:0:0:0:
137,105,103891,1,10,0:0:0:0:
137,105,104234,5,6,3:2:0:0:
65,310,104406,1,8,0:0:0:0:
241,146,104577,5,2,3:2:0:0:
169,351,104748,1,8,0:0:0:0:
169,351,104834,1,2,0:0:0:0:
169,351,104920,6,0,L|161:287,1,53.9999983520508,2|2,3:2|0:0,0:0:0:0:
137,105,105091,1,10,0:0:0:0:
271,338,105263,5,2,3:2:0:0:
239,92,105434,1,8,0:0:0:0:
169,351,105606,5,2,3:2:0:0:
382,298,105777,1,10,0:0:0:0:
151,229,105948,5,2,3:2:0:0:
364,176,106120,2,0,L|281:156,1,53.9999983520508,8|2,0:0|0:0,0:0:0:0:
124,101,106291,5,2,3:2:0:0:
124,101,106377,1,0,3:0:0:0:
124,101,106463,1,10,0:0:0:0:
306,273,106634,1,2,0:0:0:0:
68,214,106806,1,10,0:0:0:0:
375,105,106977,5,6,3:2:0:0:
447,310,107148,1,8,0:0:0:0:
271,146,107320,5,2,3:2:0:0:
343,351,107491,1,8,0:0:0:0:
343,351,107577,1,2,0:0:0:0:
343,351,107663,6,0,L|351:287,1,53.9999983520508,2|2,3:2|0:0,0:0:0:0:
375,105,107834,1,10,0:0:0:0:
241,338,108006,5,2,3:2:0:0:
273,92,108177,1,8,0:0:0:0:
343,351,108348,5,2,3:2:0:0:
130,298,108520,1,10,0:0:0:0:
361,229,108691,5,2,3:2:0:0:
148,176,108863,2,0,L|231:156,1,53.9999983520508,8|0,0:0|0:0,0:0:0:0:
381,92,109034,5,10,0:0:0:0:
381,92,109120,1,10,0:0:0:0:
381,92,109206,2,0,P|384:132|381:147,1,53.9999983520508,10|2,0:0|0:0,0:0:0:0:
338,336,109377,2,0,P|301:318|290:308,1,53.9999983520508,10|2,0:0|0:0,0:0:0:0:
148,176,109548,2,0,P|181:153|195:148,1,53.9999983520508,10|2,0:0|0:0,0:0:0:0:
400,238,109720,5,6,3:2:0:0:
147,293,109891,1,8,0:0:0:0:
292,119,110063,5,2,3:2:0:0:
314,356,110234,1,8,0:0:0:0:
314,356,110320,1,2,0:0:0:0:
314,356,110406,6,0,L|252:326,1,53.9999983520508,2|2,3:2|0:0,0:0:0:0:
102,258,110577,1,10,0:0:0:0:
292,119,110748,5,2,3:2:0:0:
180,368,110920,1,8,0:0:0:0:
49,153,111091,5,2,3:2:0:0:
286,247,111263,1,10,0:0:0:0:
51,306,111434,5,2,3:2:0:0:
175,130,111606,2,0,L|208:192,1,53.9999983520508,8|2,0:0|0:0,0:0:0:0:
306,363,111777,5,2,3:2:0:0:
306,363,111863,1,0,3:0:0:0:
306,363,111948,1,10,0:0:0:0:
124,253,112120,1,2,0:0:0:0:
321,143,112291,1,10,0:0:0:0:
195,338,112463,5,14,0:0:0:0:
154,63,112634,1,10,0:0:0:0:
307,318,112806,5,10,0:0:0:0:
278,44,112977,1,10,0:0:0:0:
416,311,113148,5,10,0:0:0:0:
430,8,113320,1,10,0:0:0:0:
309,331,113491,5,10,0:0:0:0:
272,24,113663,1,10,0:0:0:0:
201,353,113834,5,6,0:0:0:0:
154,63,114177,5,6,0:0:0:0:
438,164,114520,5,6,0:0:0:0:
248,195,114691,1,2,0:0:0:0:
57,226,114863,2,0,L|-6:236,4,53.9999983520508,2|2|2|2|2,0:0|0:0|0:0|0:0|0:0,0:0:0:0:
137,34,116577,6,0,P|85:80|81:150,1,144,6|8,3:2|0:0,0:0:0:0:
139,264,117091,1,2,0:0:0:0:
238,202,117263,2,0,P|233:151|224:122,1,72,2|2,3:2|0:0,0:0:0:0:
139,264,117606,2,0,P|144:315|153:344,1,72,10|2,0:0|0:0,0:0:0:0:
311,265,117948,5,2,3:2:0:0:
147,183,118120,1,2,0:0:0:0:
334,143,118291,1,10,0:0:0:0:
227,284,118463,1,2,0:0:0:0:
227,284,118548,1,2,0:0:0:0:
227,284,118634,5,2,3:2:0:0:
190,61,118806,1,0,0:0:0:0:
409,116,118977,1,10,0:0:0:0:
239,173,119148,1,0,0:0:0:0:
452,37,119320,6,0,P|497:97|487:170,1,144,2|8,3:2|0:0,0:0:0:0:
433,245,119834,1,2,0:0:0:0:
338,128,120006,2,0,L|420:113,1,72,2|2,3:2|0:0,0:0:0:0:
340,261,120348,2,0,L|269:273,1,72,10|2,0:0|0:0,0:0:0:0:
133,135,120691,5,2,3:2:0:0:
272,183,120863,1,2,0:0:0:0:
164,273,121034,1,10,0:0:0:0:
133,135,121206,1,2,0:0:0:0:
133,135,121291,1,2,0:0:0:0:
133,135,121377,5,2,3:2:0:0:
263,284,121548,1,2,0:0:0:0:
70,323,121720,2,0,L|59:238,1,72,10|2,0:0|0:0,0:0:0:0:
179,47,122063,6,0,L|168:197,1,144,4|8,3:2|0:0,0:0:0:0:
73,124,122577,1,2,0:0:0:0:
164,273,122748,2,0,P|222:286|245:282,1,72,2|2,3:2|0:0,0:0:0:0:
336,147,123091,2,0,P|278:134|255:138,1,72,10|2,0:0|0:0,0:0:0:0:
370,298,123434,6,0,B|412:301|444:318|444:318|467:296|499:283,1,144,2|8,3:2|0:0,0:0:0:0:
430,228,123948,1,0,0:0:0:0:
330,378,124120,2,0,P|282:324|300:252,1,144,2|8,3:2|0:0,0:0:0:0:
345,139,124634,1,2,0:0:0:0:
370,298,124806,5,2,3:2:0:0:
208,230,124977,1,0,0:0:0:0:
208,230,125063,1,8,0:0:0:0:
208,230,125148,1,8,0:0:0:0:
210,265,125234,1,8,0:0:0:0:
213,301,125320,1,8,0:0:0:0:
216,337,125406,1,8,0:0:0:0:
219,373,125491,5,2,0:0:0:0:
370,298,125834,5,2,0:0:0:0:
345,139,126177,5,2,0:0:0:0:
416,210,126348,1,2,0:0:0:0:
416,210,126691,6,0,P|359:184|322:181,1,90,2|0,0:0|0:0,0:0:0:0:
213,245,127206,1,10,0:0:0:0:
109,160,127377,1,10,0:0:0:0:
109,160,127463,1,10,0:0:0:0:
109,160,127548,5,2,3:2:0:0:
332,180,127720,1,8,0:0:0:0:
132,284,127891,1,0,3:0:0:0:
180,63,128063,1,10,0:0:0:0:
259,275,128234,1,2,3:2:0:0:
66,171,128406,1,10,0:0:0:0:
281,100,128577,1,2,3:2:0:0:
241,317,128748,1,10,0:0:0:0:
66,171,128920,5,2,3:2:0:0:
66,171,129006,1,2,0:0:0:0:
66,171,129091,1,10,0:0:0:0:
66,171,129177,1,2,0:0:0:0:
66,171,129263,1,2,3:2:0:0:
45,353,129434,1,8,0:0:0:0:
45,353,129520,1,0,3:0:0:0:
45,353,129606,6,0,L|103:343,1,45,2|2,0:0|3:2,0:0:0:0:
193,277,129777,2,0,L|251:267,1,45,10|2,0:0|0:0,0:0:0:0:
352,318,129948,2,0,L|449:301,1,90,2|8,3:2|0:0,0:0:0:0:
313,132,130291,5,2,3:2:0:0:
267,351,130463,1,8,0:0:0:0:
413,183,130634,1,0,3:2:0:0:
202,113,130806,1,10,0:0:0:0:
358,282,130977,1,2,3:2:0:0:
426,67,131148,1,10,0:0:0:0:
252,269,131320,1,2,3:2:0:0:
174,11,131491,1,10,0:0:0:0:
426,67,131663,5,2,3:2:0:0:
426,67,131748,1,2,0:0:0:0:
426,67,131834,1,10,0:0:0:0:
426,67,131920,1,2,0:0:0:0:
426,67,132006,1,2,3:2:0:0:
212,130,132177,1,10,0:0:0:0:
212,130,132263,1,2,3:2:0:0:
212,130,132348,6,0,L|225:200,1,45,2|0,3:2|3:0,0:0:0:0:
430,257,132520,2,0,L|438:212,1,45,10|0,0:0|0:0,0:0:0:0:
309,47,132691,2,0,L|327:145,1,90,2|10,3:2|0:0,0:0:0:0:
240,271,133034,5,2,3:2:0:0:
453,125,133206,1,2,3:2:0:0:
193,24,133377,2,0,P|171:74|164:127,1,107.999996704102,10|0,0:0|0:0,0:0:0:0:
130,297,133720,5,2,3:2:0:0:
343,151,133891,1,0,3:2:0:0:
83,50,134063,2,0,P|61:99|54:152,1,107.999996704102,8|2,0:0|0:0,0:0:0:0:
240,271,134406,5,10,0:0:0:0:
300,21,134577,1,10,0:0:0:0:
300,21,134920,2,0,P|331:94|336:241,1,215.999993408203,2|0,0:0|0:0,0:0:0:0:
202,284,135434,2,0,P|201:222|239:270,1,161.999995056153,10|0,0:0|0:0,0:0:0:0:
249,349,135777,5,10,0:0:0:0:
20,259,135948,1,10,0:0:0:0:
3,253,136463,5,10,0:0:0:0:
268,155,136634,1,10,0:0:0:0:
288,148,136977,6,0,B|245:129|245:129|128:168,1,135,6|0,0:0|0:0,0:0:0:0:
131,171,137320,1,2,0:0:0:0:
272,265,137491,1,10,0:0:0:0:
187,62,137663,1,2,0:0:0:0:
187,62,137748,1,10,0:0:0:0:
187,62,137834,5,10,0:0:0:0:
175,260,138006,1,10,0:0:0:0:
300,64,138177,1,10,0:0:0:0:
366,258,138348,1,10,0:0:0:0:
366,258,138691,6,0,P|373:196|390:162,1,90,10|0,0:0|0:0,0:0:0:0:
269,343,139034,2,0,P|264:275|241:212,1,135,10|0,0:0|0:0,0:0:0:0:
225,187,139377,1,2,0:0:0:0:
454,228,139548,1,10,0:0:0:0:
151,303,139891,5,6,0:0:0:0:
151,303,140234,2,0,P|97:292|23:288,2,107.999996704102,2|2|2,0:0|0:0|0:0,0:0:0:0:
269,343,141091,1,2,0:0:0:0:
269,343,141177,1,2,0:0:0:0:
269,343,141263,6,0,B|281:291|281:291|276:273|276:273|287:230,1,107.999996704102,2|2,0:0|0:0,0:0:0:0:
367,273,141777,1,0,0:0:0:0:
438,182,141948,2,0,L|448:250,1,53.9999983520508,2|0,0:0|0:0,0:0:0:0:
341,164,142291,2,0,L|348:110,1,53.9999983520508,2|0,0:0|0:0,0:0:0:0:
191,33,142634,6,0,P|144:39|108:68,1,80.9999975280763,14|0,0:0|0:0,0:0:0:0:
147,139,142891,2,0,P|191:133|224:107,1,80.9999975280763,8|0,0:0|0:0,0:0:0:0:
200,19,143148,1,8,0:0:0:0:
121,173,143320,2,0,P|205:173|272:99,1,161.999995056153,6|0,0:0|0:0,0:0:0:0:
364,50,143834,1,2,0:0:0:0:
364,50,143920,1,2,0:0:0:0:
364,50,144006,6,0,P|387:84|393:123,1,80.9999975280763,14|0,0:0|0:0,0:0:0:0:
474,144,144263,2,0,P|456:180|425:205,1,80.9999975280763,8|0,0:0|0:0,0:0:0:0:
451,285,144520,1,8,0:0:0:0:
335,192,144691,1,6,0:0:0:0:
271,350,144863,1,8,0:0:0:0:
271,350,144948,1,8,0:0:0:0:
271,350,145034,2,0,L|337:331,1,40.4999987640381,8|8,0:0|0:0,0:0:0:0:
451,285,145206,2,0,L|385:266,1,40.4999987640381,8|8,0:0|0:0,0:0:0:0:
229,213,145377,5,14,0:0:0:0:
474,144,145548,1,10,0:0:0:0:
177,71,145720,1,10,0:0:0:0:
335,192,145891,5,2,0:0:0:0:
335,192,145977,1,0,3:2:0:0:
335,192,146063,2,0,B|347:142|347:142|338:104,1,90,2|2,3:2|0:0,0:0:0:0:
177,71,146406,2,0,B|165:121|165:121|173:158,1,90,10|2,0:0|3:2,0:0:0:0:
198,239,146663,1,0,3:0:0:0:
198,239,146748,5,0,3:2:0:0:
416,183,146920,1,2,3:2:0:0:
215,84,147091,1,10,0:0:0:0:
320,283,147263,2,0,L|339:96,1,180,2|0,3:2|3:0,0:0:0:0:
123,29,147777,1,8,0:0:0:0:
153,241,147948,1,8,0:0:0:0:
270,26,148120,5,14,0:0:0:0:
77,146,148291,1,10,0:0:0:0:
320,283,148463,1,10,0:0:0:0:
233,153,148634,5,0,3:2:0:0:
233,153,148720,1,0,3:0:0:0:
233,153,148806,2,0,L|128:164,1,90,0|2,3:0|0:0,0:0:0:0:
320,283,149148,2,0,L|409:273,1,90,10|2,0:0|0:0,0:0:0:0:
490,263,149406,1,0,3:0:0:0:
490,263,149491,5,2,3:2:0:0:
311,122,149663,1,2,3:2:0:0:
260,341,149834,1,10,0:0:0:0:
425,172,150006,1,10,0:0:0:0:
189,98,150177,5,2,3:2:0:0:
350,270,150348,1,2,3:2:0:0:
426,47,150520,2,0,L|420:22,6,22.5,10|2|2|2|10|2|2,0:0|0:0|0:0|0:0|0:0|0:0|0:0,0:0:0:0:
462,123,150863,6,0,B|368:169|392:63|278:103,1,180,6|10,0:0|0:0,0:0:0:0:
171,162,151377,1,0,0:0:0:0:
302,272,151548,2,0,P|319:210|323:169,1,90,2|0,0:0|0:0,0:0:0:0:
191,74,151891,2,0,P|174:136|170:177,1,90,10|0,0:0|0:0,0:0:0:0:
177,365,152234,6,0,B|231:329|231:329|274:357|346:357,1,180,6|10,0:0|0:0,0:0:0:0:
454,297,152748,1,0,0:0:0:0:
340,206,152920,2,0,P|319:197|297:200,1,45,2|0,0:0|0:0,0:0:0:0:
282,326,153091,2,0,P|302:334|324:331,1,45,8|8,0:0|0:0,0:0:0:0:
442,213,153263,1,10,0:0:0:0:
439,190,153348,1,8,0:0:0:0:
436,168,153434,1,8,0:0:0:0:
434,145,153520,1,8,0:0:0:0:
431,123,153606,5,14,0:0:0:0:
223,242,153777,1,10,0:0:0:0:
454,297,153948,1,10,0:0:0:0:
293,124,154120,1,0,0:0:0:0:
293,124,154206,1,8,0:0:0:0:
293,124,154291,5,10,0:0:0:0:
215,348,154463,1,10,0:0:0:0:
395,196,154634,1,10,0:0:0:0:
171,113,154806,1,0,3:0:0:0:
323,306,154977,6,0,P|254:249|166:242,1,180,6|8,0:0|0:0,0:0:0:0:
14,49,155491,2,0,P|82:105|170:112,1,180,6|0,0:0|3:0,0:0:0:0:
318,28,156006,1,10,0:0:0:0:
372,178,156177,1,8,0:0:0:0:
372,178,156263,1,8,0:0:0:0:
372,178,156348,6,0,L|423:167,2,45,2|2|2,0:0|0:0|0:0,0:0:0:0:
282,122,156863,2,0,L|242:131,1,22.5,2|0,3:2|3:0,0:0:0:0:
188,177,157034,6,0,L|199:237,1,45,2|2,3:2|3:2,0:0:0:0:
301,241,157377,2,0,L|290:301,1,45,2|2,3:2|3:2,0:0:0:0:
231,358,157720,5,10,0:0:0:0:
441,241,157891,1,0,3:0:0:0:
282,122,158063,1,8,0:0:0:0:
392,345,158234,1,0,3:0:0:0:
421,94,158406,5,14,0:0:0:0:
255,336,158577,2,0,L|249:286,1,45,10|10,0:0|0:0,0:0:0:0:
227,98,158748,1,10,0:0:0:0:
104,346,158920,1,8,0:0:0:0:
104,346,159006,1,8,0:0:0:0:
104,346,159091,6,0,P|50:258|89:157,1,198.000006042481,6|10,3:2|0:0,0:0:0:0:
248,211,159606,1,0,0:0:0:0:
134,52,159777,2,0,L|15:71,1,99.0000030212403,2|0,3:2|0:0,0:0:0:0:
149,242,160120,1,10,0:0:0:0:
213,107,160291,6,0,L|331:121,1,99.0000030212403,2|0,0:0|3:0,0:0:0:0:
236,295,160634,1,2,0:0:0:0:
118,151,160806,1,10,0:0:0:0:
291,211,160977,1,2,0:0:0:0:
291,211,161148,2,0,P|315:150|308:109,1,99.0000030212403,2|0,3:2|0:0,0:0:0:0:
149,242,161491,1,8,0:0:0:0:
292,363,161663,6,0,B|409:382|364:276|495:305,1,198.000006042481,2|2,0:0|0:0,0:0:0:0:
300,236,162177,1,10,0:0:0:0:
436,129,162348,1,2,0:0:0:0:
436,129,162520,2,0,B|449:182|449:182|439:225,1,99.0000030212403,0|0,3:0|0:0,0:0:0:0:
358,307,162863,1,10,0:0:0:0:
220,129,163034,6,0,B|207:182|207:182|216:225,1,99.0000030212403,2|0,0:0|3:0,0:0:0:0:
253,337,163377,1,2,0:0:0:0:
120,258,163548,2,0,P|67:235|16:229,1,99.0000030212403,10|2,0:0|0:0,0:0:0:0:
294,180,163891,2,0,P|354:154|406:155,1,99.0000030212403,0|0,3:0|0:0,0:0:0:0:
167,23,164234,1,10,0:0:0:0:
140,48,164320,1,2,0:0:0:0:
124,81,164406,1,2,0:0:0:0:
121,118,164491,1,2,0:0:0:0:
131,153,164577,6,0,L|146:261,1,99.0000030212403,6|2,3:2|0:0,0:0:0:0:
370,360,164920,2,0,L|383:261,1,99.0000030212403,10|2,0:0|0:0,0:0:0:0:
213,101,165263,2,0,L|242:312,1,198.000006042481,2|10,3:2|0:0,0:0:0:0:
440,182,165777,6,0,P|363:163|326:185,1,99.0000030212403,2|0,0:0|3:0,0:0:0:0:
184,232,166120,1,2,0:0:0:0:
383,261,166291,1,10,0:0:0:0:
383,261,166463,1,2,0:0:0:0:
284,93,166634,2,0,P|255:132|251:181,1,99.0000030212403,0|0,3:0|0:0,0:0:0:0:
350,349,166977,2,0,P|378:309|382:260,1,99.0000030212403,10|2,0:0|0:0,0:0:0:0:
170,110,167320,6,0,B|61:128|61:128|83:136,1,135.000005149842,14|0,0:0|0:0,0:0:0:0:
165,208,167577,2,0,B|274:190|274:190|251:181,1,135.000005149842,10|0,0:0|0:0,0:0:0:0:
144,94,167834,2,0,L|77:104,1,67.5000025749208,10|0,0:0|0:0,0:0:0:0:
84,239,168006,6,0,P|127:288|193:294,1,135.000005149842,14|0,0:0|0:0,0:0:0:0:
224,380,168263,2,0,P|273:336|279:270,1,135.000005149842,10|0,0:0|0:0,0:0:0:0:
226,147,168520,2,0,P|213:191|215:224,1,67.5000025749208,10|0,0:0|0:0,0:0:0:0:
361,253,168691,6,0,L|436:241,3,49.5000015106202,6|2|2|2,0:0|0:0|0:0|0:0,0:0:0:0:
453,319,169034,1,10,0:0:0:0:
485,281,169120,1,2,0:0:0:0:
492,233,169206,1,10,0:0:0:0:
472,188,169291,1,10,0:0:0:0:
431,161,169377,5,10,0:0:0:0:
152,244,169548,1,10,0:0:0:0:
376,51,169720,5,10,0:0:0:0:
350,375,169891,1,10,0:0:0:0:
106,127,170063,6,0,B|166:97|166:97|213:137|292:162,1,198.000006042481,6|10,3:2|0:0,0:0:0:0:
460,77,170577,1,0,0:0:0:0:
332,0,170748,2,0,L|346:122,1,99.0000030212403,2|0,3:2|0:0,0:0:0:0:
364,238,171091,1,10,0:0:0:0:
203,68,171263,6,0,L|189:190,1,99.0000030212403,2|0,0:0|3:0,0:0:0:0:
171,306,171606,1,2,0:0:0:0:
280,158,171777,1,10,0:0:0:0:
101,106,171948,1,2,0:0:0:0:
243,277,172120,2,0,B|321:290|299:207|389:219|389:219|359:231|338:277,1,198.000006042481,2|8,3:2|0:0,0:0:0:0:
221,374,172634,6,0,P|147:284|197:200,1,198.000006042481,2|2,0:0|0:0,0:0:0:0:
266,82,173148,1,10,0:0:0:0:
243,277,173320,1,2,0:0:0:0:
44,227,173491,2,0,P|59:181|90:142,1,99.0000030212403,0|0,3:0|0:0,0:0:0:0:
291,171,173834,1,10,0:0:0:0:
55,43,174006,6,0,P|139:34|184:165,1,198.000006042481,2|2,0:0|0:0,0:0:0:0:
132,309,174520,1,10,0:0:0:0:
105,119,174691,1,2,0:0:0:0:
105,119,174777,1,2,0:0:0:0:
105,119,174863,2,0,L|-8:138,1,99.0000030212403,2|2,3:2|0:0,0:0:0:0:
199,257,175206,1,10,0:0:0:0:
247,249,175291,1,2,0:0:0:0:
296,241,175377,1,2,0:0:0:0:
345,233,175463,1,2,0:0:0:0:
394,226,175548,6,0,P|424:146|420:108,1,99.0000030212403,6|2,3:2|0:0,0:0:0:0:
227,65,175891,2,0,L|114:81,1,99.0000030212403,10|2,0:0|0:0,0:0:0:0:
317,17,176234,2,0,B|365:115|258:110|312:214,1,198.000006042481,2|10,3:2|0:0,0:0:0:0:
306,355,176748,6,0,P|353:364|397:342,1,99.0000030212403,2|0,0:0|3:0,0:0:0:0:
456,185,177091,1,2,0:0:0:0:
252,264,177263,1,10,0:0:0:0:
385,88,177434,1,2,0:0:0:0:
340,282,177606,2,0,L|321:158,1,99.0000030212403,2|0,3:2|0:0,0:0:0:0:
109,79,177948,1,10,0:0:0:0:
105,103,178034,1,2,0:0:0:0:
101,127,178120,1,2,0:0:0:0:
97,152,178206,1,2,0:0:0:0:
94,176,178291,6,0,B|83:232|83:232|65:244|36:238,1,90,10|0,0:0|0:0,0:0:0:0:
173,343,178806,1,2,0:0:0:0:
173,343,178891,1,2,0:0:0:0:
173,343,178977,6,0,B|187:267|187:267|212:250|251:259,1,135.000005149842,10|0,0:0|0:0,0:0:0:0:
391,293,179491,1,2,0:0:0:0:
391,293,179577,1,2,0:0:0:0:
391,293,179663,6,0,B|423:235|423:235|396:98,1,202.500007724762,14|0,0:0|0:0,0:0:0:0:
314,65,180006,2,0,B|282:123|282:123|309:260,1,202.500007724762,14|0,0:0|0:0,0:0:0:0:
411,303,180348,5,10,0:0:0:0:
500,156,180520,1,8,0:0:0:0:
500,156,180606,1,8,0:0:0:0:
500,156,180691,1,8,0:0:0:0:
277,44,180863,1,8,0:0:0:0:
277,44,180948,1,8,0:0:0:0:
277,44,181034,6,0,P|338:67|377:92,1,90,6|0,1:2|3:2,0:0:0:0:
216,209,181377,1,8,0:0:0:0:
105,100,181548,1,2,0:0:0:0:
105,100,181634,1,0,3:0:0:0:
105,100,181720,5,2,1:2:0:0:
286,161,181891,1,2,1:2:0:0:
81,205,182063,1,8,0:0:0:0:
227,292,182234,2,0,L|347:268,1,90,2|8,0:0|0:0,0:0:0:0:
421,89,182577,5,2,1:2:0:0:
271,113,182748,1,10,0:0:0:0:
295,263,182920,1,2,1:2:0:0:
445,239,183091,5,10,0:0:0:0:
210,197,183263,1,10,0:0:0:0:
421,89,183434,5,10,0:0:0:0:
200,302,183606,1,10,0:0:0:0:
286,37,183777,6,0,P|293:82|305:125,1,90,6|0,1:2|3:0,0:0:0:0:
359,282,184120,1,8,0:0:0:0:
187,119,184291,1,2,0:0:0:0:
187,119,184377,1,0,3:0:0:0:
187,119,184463,2,0,P|180:163|168:206,1,90,2|0,1:2|1:0,0:0:0:0:
257,361,184806,2,0,P|263:316|275:273,1,90,8|2,0:0|0:0,0:0:0:0:
451,88,185148,5,10,0:0:0:0:
480,264,185320,1,2,1:2:0:0:
304,293,185491,1,10,0:0:0:0:
275,117,185663,1,2,1:2:0:0:
502,172,185834,5,10,0:0:0:0:
247,212,186006,1,10,0:0:0:0:
354,31,186177,2,0,L|368:133,1,90,10|2,0:0|0:0,0:0:0:0:
304,293,186520,6,0,P|212:314|150:237,1,180,6|8,3:2|0:0,0:0:0:0:
109,119,187034,1,0,0:0:0:0:
109,119,187120,1,0,3:0:0:0:
109,119,187206,1,2,3:2:0:0:
270,159,187377,1,2,3:2:0:0:
55,240,187548,1,10,0:0:0:0:
228,61,187720,6,0,L|241:276,1,180,2|2,0:0|0:0,0:0:0:0:
326,335,188234,1,8,0:0:0:0:
457,247,188406,1,2,3:2:0:0:
457,247,188491,1,0,3:0:0:0:
457,247,188577,2,0,P|375:218|345:218,1,90,0|0,3:0|3:0,0:0:0:0:
167,320,188920,2,0,P|249:349|279:349,1,90,8|2,0:0|0:0,0:0:0:0:
326,335,189177,1,2,0:0:0:0:
326,335,189263,5,2,3:2:0:0:
301,134,189434,1,2,0:0:0:0:
132,257,189606,1,10,0:0:0:0:
346,227,189777,1,2,0:0:0:0:
346,227,189863,1,0,0:0:0:0:
346,227,189948,1,2,3:2:0:0:
211,54,190120,1,2,0:0:0:0:
239,265,190291,1,10,0:0:0:0:
393,113,190463,6,0,B|296:88|326:189|220:163,1,180,2|2,0:0|0:0,0:0:0:0:
380,201,190977,1,8,0:0:0:0:
243,77,191148,1,2,3:2:0:0:
243,77,191234,1,0,3:0:0:0:
243,77,191320,2,0,L|229:187,1,90,0|0,3:0|3:0,0:0:0:0:
212,339,191663,1,8,0:0:0:0:
42,237,191834,1,2,0:0:0:0:
42,237,191920,1,10,0:0:0:0:
42,237,192006,5,2,3:2:0:0:
296,263,192177,1,2,3:2:0:0:
82,128,192348,1,10,0:0:0:0:
268,145,192520,1,2,0:0:0:0:
268,145,192606,1,8,0:0:0:0:
268,145,192691,5,2,3:2:0:0:
40,236,192863,1,2,0:0:0:0:
360,175,193034,1,10,0:0:0:0:
157,47,193206,6,0,L|170:159,1,90,2|0,0:0|0:0,0:0:0:0:
186,269,193548,1,2,0:0:0:0:
343,71,193720,1,10,0:0:0:0:
286,250,193891,1,2,0:0:0:0:
245,66,194063,1,2,0:0:0:0:
427,121,194234,1,2,3:2:0:0:
211,229,194406,1,10,0:0:0:0:
305,0,194577,1,2,0:0:0:0:
459,230,194748,6,0,L|362:215,1,90,2|0,3:2|0:0,0:0:0:0:
188,132,195091,1,8,0:0:0:0:
395,64,195263,6,0,L|388:128,1,45,2|2,3:2|3:2,0:0:0:0:
370,287,195434,1,8,0:0:0:0:
290,92,195606,6,0,L|283:156,1,45,0|0,3:0|3:0,0:0:0:0:
262,338,195777,1,8,0:0:0:0:
188,132,195948,5,2,3:2:0:0:
188,132,196034,1,2,3:2:0:0:
188,132,196120,1,10,0:0:0:0:
364,288,196463,5,10,0:0:0:0:
395,64,196806,5,14,0:0:0:0:
187,131,197063,6,0,L|244:138,1,45,10|0,0:0|0:0,0:0:0:0:
364,288,197320,2,0,L|319:282,1,45,10|0,0:0|0:0,0:0:0:0:
219,338,197491,6,0,B|194:361|144:364|115:355|94:324|89:280|111:251|111:251|92:187|93:151|93:151|131:183|157:217|157:217|165:173|187:130|187:130|206:173|208:230|208:230|226:245|229:261,1,630,6|2,0:0|0:0,0:0:0:0:
228,260,198777,1,2,0:0:0:0:
228,260,198863,6,0,P|313:262|376:299,1,144,10|0,3:0|0:0,0:0:0:0:
406,362,199377,6,0,P|369:294|369:229,1,125.999996154785,6|0,3:0|0:0,0:0:0:0:
406,157,199891,6,0,P|370:215|319:244,1,107.999996704102,2|4,0:0|0:0,0:0:0:0:
466,57,205034,6,0,L|501:51,2,30,2|2|2,0:0|0:0|0:0,0:0:0:0:
389,96,205377,2,0,L|356:93,2,30,2|2|2,0:0|0:0|0:0,0:0:0:0:
462,143,205720,6,0,P|480:191|461:282,1,135.000005149842,6|2,0:0|0:0,0:0:0:0:
279,282,206406,2,0,P|261:234|280:143,1,135.000005149842,10|2,0:0|0:0,0:0:0:0:
371,210,206920,1,2,0:0:0:0:
371,210,207091,6,0,L|375:285,1,67.5000025749208,0|2,0:0|0:0,0:0:0:0:
199,359,207434,2,0,L|195:291,1,67.5000025749208,2|2,0:0|0:0,0:0:0:0:
276,182,207777,2,0,L|280:257,1,67.5000025749208,10|2,0:0|0:0,0:0:0:0:
104,331,208120,1,0,0:0:0:0:
94,165,208291,1,8,0:0:0:0:
94,165,208377,1,8,0:0:0:0:
94,165,208463,5,10,0:0:0:0:
371,210,208634,1,10,0:0:0:0:
148,224,209148,5,2,0:0:0:0:
336,139,209320,1,2,0:0:0:0:
195,291,209491,1,8,0:0:0:0:
276,77,209663,6,0,P|287:136|295:247,1,161.999995056153,6|2,0:0|0:0,0:0:0:0:
159,125,210177,1,10,0:0:0:0:
387,55,210348,1,10,0:0:0:0:
322,320,210520,6,0,B|197:344|252:216|113:249,1,220.499993270874,6|0,0:0|0:0,0:0:0:0:
71,302,211206,6,0,L|76:347,5,30,2|2|2|2|2|2,0:0|0:0|0:0|0:0|0:0|0:0,0:0:0:0:
5,258,211891,2,0,L|1:227,5,30,2|2|2|2|2|2,0:0|0:0|0:0|0:0|0:0|0:0,0:0:0:0:
130,245,212577,5,2,0:0:0:0:
130,245,212691,2,0,P|132:222|129:198,1,30,2|2,0:0|0:0,0:0:0:0:
201,175,212920,5,2,0:0:0:0:
201,175,213034,2,0,P|186:157|154:137,1,41.9999987182618,2|2,0:0|0:0,0:0:0:0:
190,70,213263,5,2,0:0:0:0:
190,70,213377,2,0,P|166:68|111:88,1,53.9999983520508,2|2,0:0|0:0,0:0:0:0:
95,4,213606,6,0,P|77:18|69:128,1,132.00000402832,2|2,0:0|0:0,0:0:0:0:
130,245,213948,6,0,L|198:236,2,60,6|0|0,3:2|3:0|3:0,0:0:0:0:
176,321,214291,2,0,L|300:304,1,120,2|0,3:2|0:0,0:0:0:0:
335,224,214634,6,0,L|402:214,2,60,10|8|8,0:0|0:0|0:0,0:0:0:0:
381,299,214977,2,0,L|505:282,1,120,2|0,3:2|0:0,0:0:0:0:
459,126,215320,5,10,0:0:0:0:
403,104,215434,1,8,0:0:0:0:
345,114,215548,1,8,0:0:0:0:
301,154,215663,1,10,0:0:0:0:
256,194,215777,1,8,0:0:0:0:
197,204,215891,1,8,0:0:0:0:
143,183,216006,2,0,L|137:113,3,60,10|8|8|10,0:0|0:0|0:0|0:0,0:0:0:0:
345,114,216691,6,0,L|351:44,2,60,10|8|8,0:0|0:0|0:0,0:0:0:0:
391,187,217034,2,0,P|334:202|282:176,1,120,10|0,0:0|0:0,0:0:0:0:
143,183,217377,6,0,L|137:113,2,60,10|8|8,0:0|0:0|0:0,0:0:0:0:
97,256,217720,2,0,P|153:271|205:245,1,120,2|0,3:2|0:0,0:0:0:0:
345,113,218063,5,10,0:0:0:0:
400,95,218177,1,8,0:0:0:0:
456,114,218291,1,8,0:0:0:0:
487,164,218406,1,10,0:0:0:0:
481,223,218520,1,8,0:0:0:0:
440,265,218634,1,8,0:0:0:0:
382,272,218748,2,0,L|396:368,2,60,10|8|8,0:0|0:0|0:0,0:0:0:0:
255,239,219091,2,0,L|263:179,2,60,10|8|8,0:0|0:0|0:0,0:0:0:0:
134,298,219434,5,6,0:0:0:0:
134,298,220120,5,6,0:0:0:0:
134,298,220806,6,0,P|115:258|117:214,2,90,6|2|2,0:0|0:0|0:0,0:0:0:0:
203,181,221320,2,0,B|243:215|234:278|234:278|258:212|313:181|313:181|342:240|317:303,1,360,2|0,0:0|0:0,0:0:0:0:
256,359,222177,1,2,0:0:0:0:
236,70,222520,5,4,0:0:0:0:
236,70,223206,5,4,0:0:0:0:
256,359,223548,5,8,0:0:0:0:
352,87,223720,1,8,0:0:0:0:
369,350,223891,2,0,P|363:329|355:308,1,45,2|2,3:2|0:0,0:0:0:0:
236,70,224063,2,0,P|227:90|223:112,1,45,10|10,0:0|0:0,0:0:0:0:
142,328,224234,5,10,0:0:0:0:
407,205,224406,1,8,0:0:0:0:
177,2,224577,5,10,0:0:0:0:
156,28,224663,1,8,0:0:0:0:
143,59,224748,1,8,0:0:0:0:
137,93,224834,1,8,0:0:0:0:
139,126,224920,6,0,B|173:245|173:245|155:325,1,198.000006042481,6|8,3:2|0:0,0:0:0:0:
233,154,225434,1,0,0:0:0:0:
84,264,225606,2,0,P|36:252|6:214,1,99.0000030212403,2|0,3:2|0:0,0:0:0:0:
139,126,225948,1,10,0:0:0:0:
196,323,226120,6,0,P|263:304|300:299,1,99.0000030212403,2|0,0:0|3:0,0:0:0:0:
436,263,226463,1,2,0:0:0:0:
290,150,226634,1,10,0:0:0:0:
387,359,226806,1,2,0:0:0:0:
393,140,226977,2,0,P|379:220|258:245,1,198.000006042481,0|8,3:2|0:0,0:0:0:0:
139,126,227491,6,0,B|155:92|193:79|193:79|250:82|290:151,1,198.000006042481,2|2,0:0|0:0,0:0:0:0:
355,308,228006,1,10,0:0:0:0:
176,234,228177,1,2,0:0:0:0:
363,91,228348,2,0,P|384:147|370:210,1,99.0000030212403,0|0,3:0|0:0,0:0:0:0:
268,329,228691,1,2,0:0:0:0:
100,178,228863,6,0,B|161:171|161:171|190:148|190:148|227:163|227:163|287:155,1,198.000006042481,2|2,0:0|0:0,0:0:0:0:
125,319,229377,2,0,L|11:332,1,99.0000030212403,10|2,0:0|0:0,0:0:0:0:
120,160,229720,1,0,3:0:0:0:
249,272,229891,2,0,L|309:264,1,49.5000015106202,2|2,0:0|0:0,0:0:0:0:
380,185,230063,5,10,0:0:0:0:
400,141,230148,1,2,0:0:0:0:
390,93,230234,1,2,0:0:0:0:
353,61,230320,1,2,0:0:0:0:
304,59,230406,6,0,P|256:67|211:87,1,99.0000030212403,6|0,3:2|0:0,0:0:0:0:
274,289,230748,2,0,P|290:242|295:193,1,99.0000030212403,10|0,0:0|0:0,0:0:0:0:
95,154,231091,2,0,P|126:191|166:220,1,99.0000030212403,2|0,3:2|0:0,0:0:0:0:
211,87,231434,1,10,0:0:0:0:
22,22,231606,6,0,P|5:68|0:117,1,99.0000030212403,2|0,0:0|3:2,0:0:0:0:
41,266,231948,1,2,0:0:0:0:
221,165,232120,1,10,0:0:0:0:
86,79,232291,1,2,0:0:0:0:
156,295,232463,1,2,3:2:0:0:
302,130,232634,1,2,0:0:0:0:
91,186,232806,5,10,0:0:0:0:
320,251,232977,1,2,0:0:0:0:
344,245,233063,1,2,0:0:0:0:
368,243,233148,6,0,L|380:348,1,90,6|0,0:0|0:0,0:0:0:0:
190,166,233663,1,2,0:0:0:0:
159,157,233748,1,2,0:0:0:0:
128,155,233834,6,0,L|111:302,1,135.000005149842,6|0,0:0|0:0,0:0:0:0:
256,371,234348,1,2,0:0:0:0:
256,371,234434,1,2,0:0:0:0:
256,371,234520,6,0,L|461:326,1,202.500007724762,14|0,0:0|0:0,0:0:0:0:
510,256,234863,2,0,L|301:215,1,202.500007724762,14|0,0:0|0:0,0:0:0:0:
230,180,235206,5,10,0:0:0:0:
383,86,235377,1,8,0:0:0:0:
383,86,235463,1,8,0:0:0:0:
383,86,235548,1,8,0:0:0:0:
146,76,235720,2,0,P|167:69|189:66,1,45,8|8,0:0|0:0,0:0:0:0:
401,110,235891,6,0,P|310:117|289:125,1,90,6|0,1:2|3:0,0:0:0:0:
110,202,236234,1,8,0:0:0:0:
319,289,236406,1,2,0:0:0:0:
319,289,236491,1,0,3:0:0:0:
319,289,236577,1,2,1:2:0:0:
231,79,236748,1,0,1:0:0:0:
191,312,236920,1,8,0:0:0:0:
400,155,237091,2,0,P|416:238|416:267,1,90,2|8,0:0|0:0,0:0:0:0:
214,160,237434,5,2,3:2:0:0:
386,56,237606,1,10,0:0:0:0:
208,47,237777,1,2,3:2:0:0:
400,155,237948,5,10,0:0:0:0:
126,196,238120,1,10,0:0:0:0:
311,13,238291,5,10,0:0:0:0:
287,277,238463,1,10,0:0:0:0:
48,55,238634,6,0,P|33:132|29:168,1,90,6|0,1:2|3:0,0:0:0:0:
48,283,238977,1,8,0:0:0:0:
176,122,239148,1,2,0:0:0:0:
176,122,239234,1,8,0:0:0:0:
176,122,239320,1,2,1:2:0:0:
214,338,239491,1,0,1:0:0:0:
66,183,239663,1,8,0:0:0:0:
274,95,239834,1,2,0:0:0:0:
274,95,239920,1,2,0:0:0:0:
274,95,240006,5,14,0:0:0:0:
120,310,240177,1,10,0:0:0:0:
32,67,240348,1,10,0:0:0:0:
299,194,240520,1,10,0:0:0:0:
15,272,240691,1,10,0:0:0:0:
154,31,240863,1,8,0:0:0:0:
154,31,240948,1,8,0:0:0:0:
154,31,241034,1,8,0:0:0:0:
218,285,241206,1,8,0:0:0:0:
218,285,241291,1,8,0:0:0:0:
218,285,241377,6,0,L|116:269,1,90,6|10,1:2|0:0,0:0:0:0:
335,107,241720,2,0,P|353:144|353:169,1,45,2|2,1:2|3:2,0:0:0:0:
431,297,241891,2,0,P|389:294|368:281,1,45,10|2,3:2|3:2,0:0:0:0:
218,285,242063,1,2,3:2:0:0:
218,285,242148,1,10,3:2:0:0:
218,285,242234,1,10,0:0:0:0:
218,285,242320,1,2,0:0:0:0:
218,285,242406,2,0,P|241:250|262:238,1,45,2|2,3:2|0:0,0:0:0:0:
335,107,242577,2,0,P|353:144|353:169,1,45,10|2,0:0|0:0,0:0:0:0:
301,346,242748,5,2,1:2:0:0:
202,106,242920,1,10,0:0:0:0:
386,293,243091,1,2,1:2:0:0:
386,293,243177,1,2,3:2:0:0:
386,293,243263,2,0,L|393:238,1,45,10|2,0:0|3:2,0:0:0:0:
312,68,243434,2,0,L|306:112,1,45,2|2,0:0|0:0,0:0:0:0:
199,269,243606,2,0,L|206:214,1,45,10|2,3:2|0:0,0:0:0:0:
137,27,243777,1,10,0:0:0:0:
81,21,243863,1,10,0:0:0:0:
33,49,243948,1,10,0:0:0:0:
10,99,244034,1,10,0:0:0:0:
19,154,244120,6,0,L|35:261,1,90,6|8,1:2|3:2,0:0:0:0:
202,106,244463,1,8,0:0:0:0:
131,334,244634,1,2,0:0:0:0:
131,334,244720,1,8,0:0:0:0:
131,334,244806,2,0,L|122:267,1,45,2|8,1:2|3:2,0:0:0:0:
305,121,244977,2,0,L|297:184,1,45,0|0,1:2|3:2,0:0:0:0:
277,332,245148,1,8,0:0:0:0:
103,184,245320,1,10,0:0:0:0:
103,184,245406,1,8,0:0:0:0:
103,184,245491,5,14,0:0:0:0:
486,108,245663,1,10,0:0:0:0:
129,295,245834,5,10,0:0:0:0:
512,219,246006,1,10,0:0:0:0:
78,66,246177,6,0,P|36:166|160:138,1,288,10|0,0:0|0:0,0:0:0:0:
