osu file format v14

[General]
AudioFilename: audio.mp3
AudioLeadIn: 0
PreviewTime: 76119
Countdown: 0
SampleSet: Soft
StackLeniency: 0.4
Mode: 0
LetterboxInBreaks: 0
WidescreenStoryboard: 1

[Editor]
DistanceSpacing: 0.7
BeatDivisor: 3
GridSize: 32
TimelineZoom: 1.36

[Metadata]
Title:PEKORANDOMBRAIN!
TitleUnicode:ぺこらんだむぶれいん!
Artist:Usada Pekora
ArtistUnicode:兎田ぺこら
Creator:Yuuma
Version:Kuse's Insane
Source:
Tags:xidorn kuse ホロライブ hololive vtuber virtual youtuber japanese pop jpop j-pop
BeatmapID:2808771
BeatmapSetID:1346547

[Difficulty]
HPDrainRate:5
CircleSize:3.8
OverallDifficulty:8
ApproachRate:9
SliderMultiplier:1.8
SliderTickRate:1

[Events]
//Background and Video events
0,0,"pekopeko.jpg",0,0
//Break Periods
2,200234,204434
//Storyboard Layer 0 (Background)
//Storyboard Layer 1 (Fail)
//Storyboard Layer 2 (Pass)
//Storyboard Layer 3 (Foreground)
//Storyboard Layer 4 (Overlay)
//Storyboard Sound Samples

[TimingPoints]
6,342.857142857143,4,2,1,80,1,0
691,-250,4,2,1,40,0,0
1377,-83.3333333333333,4,2,1,80,0,0
6862,-83.3333333333333,4,2,1,60,0,0
6863,-111.111111111111,4,2,1,60,0,0
9605,-111.111111111111,4,2,1,70,0,0
9606,-100,4,2,1,70,0,0
12348,-83.3333333333333,4,2,1,80,0,1
15091,-83.3333333333333,4,2,1,80,0,0
16463,-83.3333333333333,4,2,1,80,0,0
16805,-83.3333333333333,4,2,1,80,0,0
16806,-83.3333333333333,4,2,1,80,0,0
17148,-64.5161290322581,4,2,1,80,0,0
17834,-83.3333333333333,4,2,1,80,0,1
22977,-83.3333333333333,4,2,1,80,0,0
23320,-76.9230769230769,4,2,1,80,0,1
25977,-76.9230769230769,4,2,1,80,0,1
26063,-76.9230769230769,4,2,1,80,0,1
31463,-76.9230769230769,4,2,1,80,0,1
31548,-76.9230769230769,4,2,1,80,0,1
33606,-100,4,2,1,80,0,1
34291,-125,4,2,1,50,0,0
39263,-200,4,2,1,50,0,0
39777,-100,4,2,1,70,0,0
41406,-100,4,2,1,70,0,0
41491,-100,4,2,1,70,0,0
43206,-76.9230769230769,4,2,1,70,0,0
43463,-76.9230769230769,4,2,1,70,0,0
43548,-76.9230769230769,4,2,1,70,0,0
43806,-76.9230769230769,4,2,1,70,0,0
43891,-100,4,2,1,70,0,0
43977,-100,4,2,1,70,0,0
44063,-76.9230769230769,4,2,1,70,0,0
44320,-76.9230769230769,4,2,1,70,0,0
44406,-76.9230769230769,4,2,1,70,0,0
45262,-76.9230769230769,4,2,1,60,0,0
45263,-100,4,2,1,60,0,0
47920,-100,4,2,1,60,0,0
48006,-100,4,2,1,60,0,0
50748,-100,4,2,1,70,0,0
51091,-76.9230769230769,4,2,1,70,0,0
51348,-76.9230769230769,4,2,1,70,0,0
51434,-76.9230769230769,4,2,1,70,0,0
52034,-76.9230769230769,4,2,1,70,0,0
52120,-100,4,2,1,70,0,0
52206,-100,4,2,1,70,0,0
52291,-76.9230769230769,4,2,1,70,0,0
52548,-100,4,2,1,70,0,0
52634,-125,4,2,1,70,0,0
54691,-100,4,2,1,70,0,0
57006,-100,4,2,1,70,0,0
57091,-100,4,2,1,70,0,0
57605,-100,4,2,1,60,0,0
57606,-142.857142857143,4,2,1,60,0,0
63091,-100,4,2,1,80,0,0
68834,-100,4,2,1,80,0,0
68920,-100,4,2,1,80,0,0
69863,-100,4,2,1,80,0,0
69948,-100,4,2,1,80,0,0
70206,-100,4,2,1,80,0,0
70291,-100,4,2,1,80,0,0
73977,-100,4,2,1,80,0,0
74063,-100,4,2,1,80,0,0
76806,-83.3333333333333,4,2,1,80,0,1
85034,-71.4285714285714,4,2,1,80,0,1
86748,-100,4,2,1,80,0,1
87777,-83.3333333333333,4,2,1,80,0,1
96005,-83.3333333333333,4,2,1,60,0,1
96006,-111.111111111111,4,2,1,60,0,0
97377,-83.3333333333333,4,2,1,60,0,0
98748,-90.9090909090909,4,2,1,80,0,1
103891,-90.9090909090909,4,2,1,80,0,0
104234,-76.9230769230769,4,2,1,80,0,1
106891,-76.9230769230769,4,2,1,80,0,1
106977,-76.9230769230769,4,2,1,80,0,1
112377,-76.9230769230769,4,2,1,80,0,1
112463,-76.9230769230769,4,2,1,80,0,1
114091,-76.9230769230769,4,2,1,80,0,1
114177,-76.9230769230769,4,2,1,80,0,1
114434,-76.9230769230769,4,2,1,80,0,1
114520,-76.9230769230769,4,2,1,80,0,1
115206,-100,4,2,1,80,0,0
123691,-100,4,2,1,80,0,0
123777,-100,4,2,1,80,0,0
125491,-76.9230769230769,4,2,1,60,0,0
125748,-76.9230769230769,4,2,1,5,0,0
125834,-76.9230769230769,4,2,1,60,0,0
126091,-76.9230769230769,4,2,1,5,0,0
126177,-100,4,2,1,60,0,0
126263,-100,4,2,1,5,0,0
126348,-76.9230769230769,4,2,1,60,0,0
126606,-76.9230769230769,4,2,1,5,0,0
126691,-76.9230769230769,4,2,1,60,0,0
127548,-100,4,2,1,80,0,0
133377,-76.9230769230769,4,2,1,80,0,0
133634,-76.9230769230769,4,2,1,80,0,0
133720,-76.9230769230769,4,2,1,80,0,0
134320,-76.9230769230769,4,2,1,80,0,0
134406,-100,4,2,1,80,0,0
134491,-100,4,2,1,80,0,0
134577,-76.9230769230769,4,2,1,80,0,0
134834,-76.9230769230769,4,2,1,80,0,0
134920,-125,4,2,1,80,0,0
136977,-100,4,2,1,80,0,0
139291,-100,4,2,1,5,0,0
139377,-100,4,2,1,80,0,0
139891,-142.857142857143,4,2,1,70,0,0
142634,-90.9090909090909,4,2,1,70,0,0
143320,-111.111111111111,4,2,1,70,0,0
144006,-90.9090909090909,4,2,1,70,0,0
144691,-111.111111111111,4,2,1,70,0,0
145377,-100,4,2,1,80,0,0
151120,-100,4,2,1,5,0,0
151206,-100,4,2,1,80,0,0
152148,-100,4,2,1,5,0,0
152234,-100,4,2,1,80,0,0
152491,-100,4,2,1,5,0,0
152577,-100,4,2,1,80,0,0
156348,-125,4,2,1,60,0,0
158405,-125,4,2,1,70,0,0
159091,-83.3333333333333,4,2,1,80,0,1
167320,-71.4285714285714,4,2,1,80,0,1
169034,-100,4,2,1,80,0,1
170063,-83.3333333333333,4,2,1,80,0,1
178291,-111.111111111111,4,2,1,80,0,0
179663,-83.3333333333333,4,2,1,80,0,0
181034,-90.9090909090909,4,2,1,80,0,1
186434,-83.3333333333333,4,2,1,5,0,0
186520,-100,4,2,1,80,0,0
196377,-100,4,2,1,80,0,0
196463,-100,4,2,1,80,0,0
197148,-100,4,2,1,50,0,0
197319,-100,4,2,1,80,0,0
197405,-100,4,2,1,50,0,0
197491,-142.857142857143,4,2,1,80,0,0
198862,-142.857142857143,4,2,1,50,0,0
199377,-142.857142857143,4,2,1,50,0,0
199891,-142.857142857143,4,2,1,50,0,0
200234,-142.857142857143,4,2,1,50,0,0
205719,-142.857142857143,4,2,1,60,0,0
205720,-111.111111111111,4,2,1,60,0,0
208463,-100,4,2,1,60,0,0
210520,-125,4,2,1,60,0,0
211120,-125,4,2,1,5,0,0
211205,-125,4,2,1,50,0,0
211206,-142.857142857143,4,2,1,50,0,0
212577,-181.818181818182,4,2,1,50,0,0
212920,-142.857142857143,4,2,1,50,0,0
213262,-117.647058823529,4,2,1,60,0,0
213605,-83.3333333333333,4,2,1,60,0,0
213948,-111.111111111111,4,2,1,80,0,0
220806,-100,4,2,1,80,0,0
221320,-125,4,2,1,80,0,0
224920,-83.3333333333333,4,2,1,80,0,1
233148,-111.111111111111,4,2,1,80,0,0
234520,-83.3333333333333,4,2,1,80,0,0
235891,-90.9090909090909,4,2,1,80,0,1
241291,-90.9090909090909,4,2,1,80,0,0
241377,-90.9090909090909,4,2,1,80,0,1
243777,-125,4,2,1,80,0,1
244120,-100,4,2,1,80,0,1
246177,-90.9090909090909,4,2,1,80,0,1
246862,-66.6666666666667,4,2,1,30,0,1
246863,-66.6666666666667,4,2,1,30,0,0

[Colours]
Combo1 : 117,186,255
Combo2 : 153,255,255
Combo3 : 255,189,157

[HitObjects]
218,182,691,6,0,L|215:163,3,18,0|0|0|0,0:0|0:0|0:0|0:0,0:0:0:0:
295,210,1034,2,0,L|290:241,3,18,0|0|0|0,0:0|0:0|0:0|0:0,0:0:0:0:
287,129,1377,6,0,L|363:145,1,53.9999983520508,6|0,1:2|0:0,0:0:0:0:
459,192,1548,2,0,L|394:211,1,53.9999983520508,2|0,0:0|0:0,0:0:0:0:
326,302,1720,1,2,1:2:0:0:
326,302,1806,2,0,P|282:272|218:277,1,107.999996704102,2|2,0:0|0:0,0:0:0:0:
146,320,2063,6,0,L|139:378,2,53.9999983520508,2|0|0,0:0|0:0|3:0,0:0:0:0:
102,204,2406,1,8,0:0:0:0:
46,288,2577,1,8,0:0:0:0:
83,119,2748,6,0,L|159:135,1,53.9999983520508,6|0,1:2|0:0,0:0:0:0:
255,182,2920,2,0,L|190:201,1,53.9999983520508,2|0,0:0|0:0,0:0:0:0:
172,53,3091,1,2,0:0:0:0:
172,53,3177,2,0,P|214:24|291:70,1,107.999996704102,2|2,0:0|0:0,0:0:0:0:
343,97,3434,6,0,L|335:164,2,53.9999983520508,2|0|0,0:0|0:0|3:0,0:0:0:0:
385,0,3777,1,8,0:0:0:0:
442,84,3948,1,8,0:0:0:0:
512,210,4120,6,0,L|446:193,1,53.9999983520508,6|0,1:2|0:0,0:0:0:0:
398,252,4291,2,0,L|336:268,1,53.9999983520508,2|0,1:2|0:0,0:0:0:0:
264,206,4463,1,2,0:0:0:0:
264,206,4548,2,0,P|309:233|321:315,1,107.999996704102,2|0,0:0|0:0,0:0:0:0:
236,339,4806,6,0,L|244:286,1,53.9999983520508,2|0,1:2|0:0,0:0:0:0:
183,223,4977,2,0,L|176:159,1,53.9999983520508,2|0,1:2|0:0,0:0:0:0:
247,104,5148,1,8,0:0:0:0:
247,104,5234,2,0,P|211:135|140:119,1,107.999996704102,2|0,0:0|0:0,0:0:0:0:
22,39,5491,5,14,0:0:0:0:
56,72,5577,1,2,0:0:0:0:
73,110,5663,1,2,0:0:0:0:
76,145,5748,1,2,0:0:0:0:
69,179,5834,5,10,0:0:0:0:
55,207,5920,1,2,0:0:0:0:
46,230,6006,1,2,0:0:0:0:
41,247,6091,1,2,0:0:0:0:
43,260,6177,5,10,0:0:0:0:
95,358,6348,1,0,0:0:0:0:
174,229,6520,1,10,0:0:0:0:
235,378,6691,1,0,0:0:0:0:
235,378,6777,1,0,0:0:0:0:
235,378,6863,6,0,P|256:320|363:322,1,161.999995056153,4|2,0:0|0:0,0:0:0:0:
499,166,7548,2,0,P|456:229|363:196,1,161.999995056153,2|2,0:0|0:0,0:0:0:0:
280,6,8234,6,0,L|299:184,1,161.999995056153,0|2,0:0|0:0,0:0:0:0:
379,217,8748,1,2,0:0:0:0:
463,110,8920,2,0,P|478:61|395:74,1,161.999995056153,2|0,0:0|0:0,0:0:0:0:
305,175,9434,1,2,3:2:0:0:
305,175,9520,1,0,3:0:0:0:
305,175,9606,6,0,L|299:270,1,90,6|2,3:2|3:2,0:0:0:0:
372,350,9948,2,0,P|327:306|203:318,1,180,10|0,0:0|3:0,0:0:0:0:
157,376,10463,1,0,3:0:0:0:
74,220,10634,2,0,P|128:224|163:255,1,90,10|2,0:0|0:0,0:0:0:0:
289,202,10977,6,0,L|301:101,1,90,0|2,3:0|3:2,0:0:0:0:
381,8,11320,1,10,0:0:0:0:
445,142,11491,1,2,0:0:0:0:
423,148,11577,1,0,3:0:0:0:
406,163,11663,2,0,L|393:265,1,90,0|0,3:0|3:0,0:0:0:0:
288,351,12006,1,8,0:0:0:0:
273,334,12091,1,8,0:0:0:0:
270,311,12177,1,8,0:0:0:0:
279,290,12263,1,8,0:0:0:0:
302,269,12348,6,0,B|246:257|246:257|176:300,1,107.999996704102,6|0,3:2|0:0,0:0:0:0:
37,259,12691,2,0,B|92:272|92:272|157:224,1,107.999996704102,10|0,0:0|3:0,0:0:0:0:
151,159,12948,1,0,3:0:0:0:
151,159,13034,2,0,P|182:113|262:131,1,107.999996704102,2|0,3:2|0:0,0:0:0:0:
303,150,13377,1,10,0:0:0:0:
386,9,13548,6,0,L|374:127,1,107.999996704102,2|0,0:0|3:0,0:0:0:0:
367,285,13891,1,2,3:2:0:0:
254,205,14063,1,10,0:0:0:0:
190,321,14234,1,2,3:2:0:0:
190,321,14320,1,0,3:0:0:0:
190,321,14406,2,0,P|237:356|305:341,1,107.999996704102,0|0,3:0|3:0,0:0:0:0:
367,285,14748,1,10,0:0:0:0:
161,185,14920,1,10,0:0:0:0:
161,159,15006,1,8,0:0:0:0:
185,129,15091,5,6,0:0:0:0:
422,143,15606,1,10,0:0:0:0:
423,117,15691,1,8,0:0:0:0:
392,95,15777,5,14,0:0:0:0:
409,183,15948,1,10,0:0:0:0:
422,270,16120,1,10,0:0:0:0:
440,360,16291,1,10,0:0:0:0:
440,360,16377,1,2,0:0:0:0:
440,360,16463,6,0,P|405:319|334:329,1,107.999996704102,6|0,0:0|0:0,0:0:0:0:
132,199,16806,2,0,P|167:240|238:230,1,107.999996704102,6|0,0:0|0:0,0:0:0:0:
342,116,17148,1,14,0:0:0:0:
274,74,17320,1,8,0:0:0:0:
273,46,17406,1,8,0:0:0:0:
271,18,17491,1,8,0:0:0:0:
415,156,17663,1,8,0:0:0:0:
412,193,17748,1,8,0:0:0:0:
410,220,17834,5,6,1:2:0:0:
433,309,18006,1,0,3:0:0:0:
318,194,18177,1,8,0:0:0:0:
342,116,18348,2,0,L|357:60,1,53.9999983520508,2|0,0:0|3:0,0:0:0:0:
512,123,18520,6,0,B|473:158|473:158|413:142,1,107.999996704102,2|0,3:2|3:0,0:0:0:0:
266,91,18863,1,8,0:0:0:0:
355,63,19034,1,2,0:0:0:0:
182,117,19206,5,8,0:0:0:0:
204,268,19377,1,2,1:2:0:0:
72,207,19548,1,10,0:0:0:0:
58,292,19720,1,2,1:2:0:0:
214,344,19891,5,10,0:0:0:0:
193,192,20063,1,10,0:0:0:0:
341,168,20234,1,10,0:0:0:0:
374,325,20406,1,10,0:0:0:0:
374,325,20491,1,0,0:0:0:0:
374,325,20577,5,6,1:2:0:0:
460,294,20748,1,0,3:0:0:0:
474,139,20920,1,8,0:0:0:0:
400,105,21091,2,0,L|348:84,1,53.9999983520508,2|0,0:0|3:0,0:0:0:0:
249,199,21263,6,0,B|306:204|306:204|344:164,1,107.999996704102,2|0,3:2|3:0,0:0:0:0:
410,15,21606,1,8,0:0:0:0:
349,84,21777,1,2,0:0:0:0:
461,211,21948,5,10,0:0:0:0:
497,61,22120,1,2,3:2:0:0:
340,167,22291,1,10,0:0:0:0:
369,323,22463,1,2,3:2:0:0:
209,266,22634,5,10,0:0:0:0:
338,156,22806,1,10,0:0:0:0:
449,299,22977,1,10,0:0:0:0:
449,299,23320,6,0,L|296:283,1,116.999994644165,6|8,3:2|0:0,0:0:0:0:
173,380,23663,2,0,L|306:372,1,116.999994644165,2|8,3:2|0:0,0:0:0:0:
322,373,23920,1,2,0:0:0:0:
322,373,24006,1,2,3:2:0:0:
250,225,24177,1,10,0:0:0:0:
318,162,24348,2,0,P|289:128|202:136,1,116.999994644165,2|10,3:2|0:0,0:0:0:0:
146,240,24691,5,2,3:2:0:0:
33,142,24863,1,10,0:0:0:0:
103,50,25034,2,0,B|128:86|128:86|120:177,1,116.999994644165,2|8,3:2|0:0,0:0:0:0:
66,284,25377,1,2,3:2:0:0:
70,315,25463,1,2,3:2:0:0:
73,345,25548,1,10,0:0:0:0:
212,360,25720,2,0,B|237:226|237:226|210:178,1,175.499991966248,2|0,0:0|0:0,0:0:0:0:
228,156,26063,6,0,P|283:151|335:220,1,116.999994644165,6|8,3:2|0:0,0:0:0:0:
414,329,26406,2,0,P|359:334|305:268,1,116.999994644165,2|8,3:2|0:0,0:0:0:0:
306,275,26663,1,2,0:0:0:0:
306,275,26748,1,2,3:2:0:0:
398,145,26920,1,8,0:0:0:0:
461,205,27091,2,0,B|429:237|429:237|444:345,1,116.999994644165,2|8,0:0|0:0,0:0:0:0:
402,384,27434,5,2,3:2:0:0:
270,285,27606,1,10,0:0:0:0:
229,359,27777,2,0,P|286:368|343:324,1,116.999994644165,2|8,3:2|0:0,0:0:0:0:
202,213,28120,1,10,0:0:0:0:
183,207,28206,1,8,0:0:0:0:
164,207,28291,1,8,0:0:0:0:
148,217,28377,1,0,0:0:0:0:
134,230,28463,5,10,0:0:0:0:
129,186,28548,1,0,0:0:0:0:
126,141,28634,1,8,0:0:0:0:
123,96,28720,1,0,0:0:0:0:
120,51,28806,6,0,L|245:68,1,116.999994644165,6|8,3:2|0:0,0:0:0:0:
383,140,29148,2,0,L|243:149,1,116.999994644165,2|8,3:2|0:0,0:0:0:0:
244,152,29406,1,2,0:0:0:0:
244,152,29491,1,2,3:2:0:0:
295,3,29663,1,8,0:0:0:0:
346,68,29834,2,0,B|380:48|380:48|468:62,1,116.999994644165,0|8,3:2|0:0,0:0:0:0:
512,144,30177,5,2,3:2:0:0:
352,230,30348,1,10,0:0:0:0:
429,296,30520,2,0,L|441:168,1,116.999994644165,2|8,3:2|0:0,0:0:0:0:
265,106,30863,1,2,3:2:0:0:
270,143,30948,1,0,3:0:0:0:
276,180,31034,1,10,0:0:0:0:
213,287,31206,2,0,B|171:300|134:261|148:219|148:219|124:260|81:251,1,175.499991966248,2|0,0:0|0:0,0:0:0:0:
68,228,31548,5,4,0:0:0:0:
75,139,31720,1,10,0:0:0:0:
233,113,31891,1,2,0:0:0:0:
225,24,32063,1,10,0:0:0:0:
172,167,32234,5,2,0:0:0:0:
284,184,32406,1,10,0:0:0:0:
332,31,32577,1,2,0:0:0:0:
433,10,32748,1,10,0:0:0:0:
466,183,32920,6,0,P|409:190|367:129,1,116.999994644165,10|10,0:0|0:0,0:0:0:0:
378,124,33177,1,0,0:0:0:0:
378,124,33263,1,10,0:0:0:0:
472,93,33434,1,10,0:0:0:0:
395,279,33606,6,0,L|405:326,3,45,2|2|2|2,0:0|0:0|3:2|3:2,0:0:0:0:
310,317,33948,1,2,0:0:0:0:
269,325,34034,1,2,0:0:0:0:
229,314,34120,1,2,0:0:0:0:
198,286,34206,1,2,0:0:0:0:
187,251,34291,5,6,0:0:0:0:
191,255,35663,1,14,0:0:0:0:
191,255,35834,1,10,0:0:0:0:
231,132,36006,1,10,0:0:0:0:
50,61,37034,5,6,0:0:0:0:
54,65,38406,1,14,0:0:0:0:
54,65,38577,1,10,0:0:0:0:
96,177,38748,1,10,0:0:0:0:
96,177,39263,2,0,P|112:159|79:168,1,90,2|2,0:0|0:0,0:0:0:0:
29,229,39777,6,0,P|63:254|137:248,1,90,6|0,3:2|0:0,0:0:0:0:
220,187,40120,2,0,L|209:85,1,90,8|2,0:0|0:0,0:0:0:0:
355,32,40463,1,2,3:2:0:0:
320,169,40634,1,2,0:0:0:0:
359,20,40806,1,10,0:0:0:0:
451,138,40977,1,2,0:0:0:0:
376,235,41148,6,0,P|428:228|475:306,1,135,6|0,3:2|0:0,0:0:0:0:
465,300,41491,2,0,B|429:328|429:328|352:324,1,90,8|0,0:0|0:0,0:0:0:0:
269,346,41834,2,0,L|277:237,1,90,2|0,3:2|0:0,0:0:0:0:
209,100,42177,1,8,0:0:0:0:
190,192,42348,1,2,0:0:0:0:
298,63,42520,6,0,P|259:21|204:13,1,90,6|0,3:2|0:0,0:0:0:0:
71,74,42863,1,10,0:0:0:0:
91,82,42948,1,2,0:0:0:0:
104,100,43034,1,2,0:0:0:0:
101,122,43120,1,0,0:0:0:0:
89,139,43206,6,0,P|65:213|68:323,1,175.499991966248,14|0,0:0|0:0,0:0:0:0:
135,356,43548,2,0,B|190:346|190:346|238:291|238:291|331:266,1,175.499991966248,10|0,0:0|0:0,0:0:0:0:
370,301,43891,6,0,L|362:367,1,45,14|0,0:0|0:0,0:0:0:0:
348,358,44063,2,0,L|370:183,1,175.499991966248,10|0,0:0|0:0,0:0:0:0:
450,222,44406,6,0,P|373:268|302:137,1,233.999989288331,14|0,0:0|0:0,0:0:0:0:
415,114,44920,1,10,0:0:0:0:
286,8,45091,1,10,0:0:0:0:
283,37,45177,1,10,0:0:0:0:
280,66,45263,6,0,B|237:52|237:52|85:78,1,180,6|8,3:2|0:0,0:0:0:0:
50,150,45777,1,2,0:0:0:0:
199,226,45948,1,2,3:2:0:0:
210,139,46120,1,2,0:0:0:0:
69,242,46291,1,10,0:0:0:0:
91,332,46463,1,2,0:0:0:0:
191,316,46634,6,0,B|237:315|237:315|300:358,1,90,2|2,3:2|0:0,0:0:0:0:
369,275,46977,2,0,L|357:85,1,180,10|2,0:0|0:0,0:0:0:0:
348,0,47491,1,2,0:0:0:0:
276,123,47663,2,0,P|257:73|167:98,1,135,10|0,0:0|0:0,0:0:0:0:
165,99,48006,6,0,B|36:120|36:120|84:79,1,180,2|8,3:2|0:0,0:0:0:0:
125,8,48520,1,2,0:0:0:0:
207,183,48691,1,2,3:2:0:0:
197,280,48863,1,2,0:0:0:0:
33,320,49034,1,10,0:0:0:0:
18,228,49206,1,2,0:0:0:0:
132,146,49377,6,0,P|172:149|213:210,1,90,2|2,3:2|0:0,0:0:0:0:
119,361,49720,2,0,P|81:280|147:221,1,180,10|2,0:0|0:0,0:0:0:0:
331,336,50234,1,2,0:0:0:0:
197,280,50406,1,10,0:0:0:0:
295,235,50577,1,2,0:0:0:0:
219,87,50748,5,2,3:2:0:0:
219,87,50920,1,0,3:0:0:0:
355,163,51091,2,0,B|392:135|408:97|368:53|368:53|320:79,1,175.499991966248,10|0,0:0|0:0,0:0:0:0:
301,99,51434,5,2,3:2:0:0:
301,99,51606,1,0,3:0:0:0:
160,15,51777,2,0,B|119:-7|119:-7|79:36|95:74|132:102,1,175.499991966248,8|0,0:0|0:0,0:0:0:0:
151,123,52120,6,0,L|143:193,1,45,10|0,0:0|0:0,0:0:0:0:
81,236,52291,2,0,P|144:198|241:228,1,175.499991966248,10|0,0:0|0:0,0:0:0:0:
301,274,52634,6,0,P|371:282|434:224,1,144,2|0,3:2|0:0,0:0:0:0:
382,111,53148,1,10,0:0:0:0:
489,34,53320,1,2,0:0:0:0:
489,34,53406,1,2,0:0:0:0:
489,34,53491,5,10,0:0:0:0:
512,172,53663,1,10,0:0:0:0:
331,38,54177,5,10,0:0:0:0:
319,195,54348,1,10,0:0:0:0:
319,195,54691,6,0,B|222:162|268:269|138:215,1,180,10|2,0:0|0:0,0:0:0:0:
2,155,55206,2,0,P|49:152|95:176,1,90,10|2,0:0|0:0,0:0:0:0:
157,225,55463,1,8,0:0:0:0:
157,225,55548,6,0,P|176:156|106:83,1,180,10|10,0:0|0:0,0:0:0:0:
155,9,56063,2,0,P|204:36|240:84,1,90,10|0,0:0|0:0,0:0:0:0:
337,177,56406,2,0,P|363:140|399:114,1,90,10|0,0:0|0:0,0:0:0:0:
512,240,56748,2,0,L|360:255,1,135,10|0,0:0|0:0,0:0:0:0:
377,253,57091,1,2,0:0:0:0:
232,165,57263,1,10,0:0:0:0:
232,165,57606,6,0,P|201:237|194:303,1,125.999996154785,4|2,0:0|0:0,0:0:0:0:
267,346,58120,1,2,3:2:0:0:
267,346,58291,2,0,P|301:330|341:327,1,62.9999980773926,10|0,0:0|0:0,0:0:0:0:
491,374,58634,2,0,P|451:370|426:358,1,62.9999980773926,2|8,0:0|0:0,0:0:0:0:
408,345,58891,1,8,0:0:0:0:
408,345,58977,5,2,3:2:0:0:
469,254,59148,1,8,0:0:0:0:
399,177,59320,1,2,0:0:0:0:
399,181,59663,5,10,0:0:0:0:
329,105,59834,1,0,0:0:0:0:
383,36,60006,2,0,P|410:66|452:73,1,62.9999980773926,2|8,0:0|0:0,0:0:0:0:
512,97,60263,1,0,0:0:0:0:
512,97,60348,6,0,P|450:111|393:154,1,125.999996154785,2|0,3:2|0:0,0:0:0:0:
375,271,60863,1,0,0:0:0:0:
375,271,61034,2,0,P|323:219|253:203,1,125.999996154785,10|0,0:0|0:0,0:0:0:0:
169,90,61548,1,2,0:0:0:0:
169,90,61634,1,10,0:0:0:0:
169,90,61720,5,2,0:0:0:0:
194,177,61891,2,0,P|183:227|164:261,1,62.9999980773926,10|2,0:0|0:0,0:0:0:0:
107,282,62234,1,2,3:2:0:0:
19,160,62406,2,0,P|55:144|103:213,1,125.999996154785,10|2,0:0|0:0,0:0:0:0:
107,282,62920,1,10,0:0:0:0:
283,189,63091,5,14,0:0:0:0:
304,327,63263,1,10,0:0:0:0:
292,179,63434,1,10,0:0:0:0:
292,179,65320,1,0,3:0:0:0:
349,243,65491,2,0,P|388:220|442:219,1,90,8|0,0:0|0:0,0:0:0:0:
463,237,65748,1,8,0:0:0:0:
463,237,65834,5,14,0:0:0:0:
492,80,66006,1,10,0:0:0:0:
478,251,66177,1,2,0:0:0:0:
318,126,67034,1,0,0:0:0:0:
318,126,67120,1,0,0:0:0:0:
318,126,67206,5,10,0:0:0:0:
203,96,67377,1,10,0:0:0:0:
277,31,67548,1,10,0:0:0:0:
234,206,67720,5,10,0:0:0:0:
89,244,67891,1,10,0:0:0:0:
127,130,68063,5,10,0:0:0:0:
192,280,68234,1,10,0:0:0:0:
294,153,68406,1,10,0:0:0:0:
294,153,68491,1,2,0:0:0:0:
294,153,68577,6,0,P|366:161|403:248,1,135,6|0,3:2|0:0,0:0:0:0:
395,226,68920,2,0,B|336:225|336:225|303:254,1,90,10|0,0:0|0:0,0:0:0:0:
206,323,69263,2,0,P|206:278|241:230,1,90,2|0,3:2|0:0,0:0:0:0:
371,92,69606,2,0,B|332:112|332:112|230:90,1,135,10|0,0:0|0:0,0:0:0:0:
225,54,69948,6,0,P|151:58|134:139,1,135,4|0,3:2|0:0,0:0:0:0:
140,126,70291,2,0,B|167:153|167:153|157:234,1,90,10|0,0:0|0:0,0:0:0:0:
19,247,70634,2,0,P|40:198|88:187,1,90,2|0,3:2|0:0,0:0:0:0:
208,333,70977,2,0,P|188:293|135:284,1,90,10|0,0:0|0:0,0:0:0:0:
73,319,71320,5,14,0:0:0:0:
221,344,71491,1,10,0:0:0:0:
294,274,71663,2,0,P|260:255|258:205,1,90,8|0,0:0|3:0,0:0:0:0:
276,184,71920,1,8,0:0:0:0:
276,184,72006,1,14,0:0:0:0:
311,29,72177,1,10,0:0:0:0:
379,80,72348,2,0,P|360:111|302:105,1,90,8|0,0:0|3:0,0:0:0:0:
161,6,72691,6,0,B|194:40|194:40|173:189,1,180,6|8,0:0|0:0,0:0:0:0:
17,233,73206,2,0,L|2:138,1,90,6|0,0:0|3:0,0:0:0:0:
122,262,73548,1,0,3:0:0:0:
47,328,73720,2,0,B|95:373|95:373|178:349,1,135,8|0,0:0|0:0,0:0:0:0:
188,369,74063,5,2,3:2:0:0:
223,191,74234,1,2,3:2:0:0:
268,307,74406,1,10,0:0:0:0:
154,273,74577,1,2,0:0:0:0:
154,273,74663,1,8,0:0:0:0:
154,273,74748,2,0,L|209:267,1,45,2|0,3:2|3:0,0:0:0:0:
223,191,74920,1,2,3:2:0:0:
173,48,75091,1,10,0:0:0:0:
111,187,75263,1,2,0:0:0:0:
252,116,75434,5,2,3:2:0:0:
93,104,75606,1,2,3:2:0:0:
261,31,75777,1,10,0:0:0:0:
312,185,75948,1,10,0:0:0:0:
334,200,76034,1,10,0:0:0:0:
361,197,76120,5,14,0:0:0:0:
503,109,76291,1,10,0:0:0:0:
470,94,76377,1,8,0:0:0:0:
437,108,76463,5,14,0:0:0:0:
463,293,76634,1,10,0:0:0:0:
492,259,76720,1,8,0:0:0:0:
470,221,76806,6,0,B|349:182|406:326|248:249,2,215.999993408203,6|10|2,3:2|0:0|3:2,0:0:0:0:
512,294,77663,1,0,0:0:0:0:
338,364,77834,1,10,0:0:0:0:
420,384,78006,6,0,P|433:337|415:283,1,107.999996704102,2|0,0:0|3:0,0:0:0:0:
274,142,78348,1,2,0:0:0:0:
354,217,78520,1,10,0:0:0:0:
415,63,78691,1,2,0:0:0:0:
274,142,78863,2,0,B|202:114|113:107|113:107|94:135|46:139,1,215.999993408203,2|8,3:2|0:0,0:0:0:0:
0,298,79377,6,0,P|59:302|100:333,1,107.999996704102,2|0,0:0|0:0,0:0:0:0:
244,285,79720,1,2,0:0:0:0:
269,384,79891,1,10,0:0:0:0:
175,357,80063,1,2,0:0:0:0:
325,255,80234,2,0,P|379:267|412:327,1,107.999996704102,2|0,3:2|0:0,0:0:0:0:
374,384,80577,1,10,0:0:0:0:
474,212,80748,6,0,L|459:84,1,107.999996704102,2|0,0:0|3:0,0:0:0:0:
309,6,81091,1,2,0:0:0:0:
377,131,81263,1,10,0:0:0:0:
410,32,81434,1,2,0:0:0:0:
287,137,81606,2,0,B|244:146|244:146|171:117,1,107.999996704102,2|2,3:2|0:0,0:0:0:0:
38,23,81948,1,10,0:0:0:0:
64,15,82034,1,2,0:0:0:0:
89,23,82120,1,2,0:0:0:0:
104,44,82206,1,2,0:0:0:0:
108,71,82291,6,0,P|83:112|77:186,1,107.999996704102,6|2,3:2|0:0,0:0:0:0:
172,344,82634,2,0,P|166:290|141:243,1,107.999996704102,10|2,0:0|0:0,0:0:0:0:
228,146,82977,2,0,P|319:146|435:210,1,215.999993408203,2|10,3:2|0:0,0:0:0:0:
498,106,83491,6,0,P|448:131|441:186,1,107.999996704102,2|0,0:0|3:0,0:0:0:0:
500,241,83834,1,2,0:0:0:0:
380,371,84006,1,10,0:0:0:0:
322,289,84177,1,2,0:0:0:0:
397,361,84348,2,0,P|412:316|418:246,1,107.999996704102,2|0,3:2|0:0,0:0:0:0:
293,173,84691,1,10,0:0:0:0:
226,324,84863,1,2,0:0:0:0:
181,139,85034,6,0,B|133:121|133:121|48:156|48:156|-10:135,2,188.999994232178,14|10|10,0:0|0:0|0:0,0:0:0:0:
293,173,85720,2,0,B|341:155|341:155|426:190|426:190|484:169,2,188.999994232178,14|10|10,0:0|0:0|0:0,0:0:0:0:
379,57,86405,5,6,0:0:0:0:
416,58,86491,1,2,0:0:0:0:
449,74,86577,1,2,0:0:0:0:
469,105,86662,1,2,0:0:0:0:
477,130,86748,2,0,L|464:198,1,45,10|2,0:0|0:0,0:0:0:0:
394,196,86920,5,2,0:0:0:0:
394,196,87006,1,10,0:0:0:0:
394,196,87091,2,0,L|334:201,1,45,10|0,0:0|0:0,0:0:0:0:
455,265,87263,2,0,L|501:273,1,45,10|0,0:0|0:0,0:0:0:0:
389,345,87434,1,10,0:0:0:0:
286,261,87606,1,10,0:0:0:0:
195,384,87777,6,0,B|225:340|225:340|188:161,2,215.999993408203,6|10|2,3:2|0:0|3:2,0:0:0:0:
97,354,88634,1,0,0:0:0:0:
183,269,88806,1,10,0:0:0:0:
50,222,88977,6,0,P|37:174|70:105,1,107.999996704102,2|0,0:0|3:0,0:0:0:0:
220,104,89320,1,2,0:0:0:0:
123,59,89491,1,10,0:0:0:0:
237,196,89663,1,2,0:0:0:0:
291,29,89834,2,0,P|335:12|443:117,1,215.999993408203,2|8,3:2|0:0,0:0:0:0:
368,198,90348,6,0,P|344:248|356:300,1,107.999996704102,2|0,0:0|0:0,0:0:0:0:
509,358,90691,1,2,0:0:0:0:
429,254,90863,1,10,0:0:0:0:
512,218,91034,1,2,0:0:0:0:
405,364,91206,2,0,P|346:323|200:338,1,215.999993408203,2|10,3:2|0:0,0:0:0:0:
44,368,91720,6,0,P|92:365|135:310,1,107.999996704102,2|0,0:0|0:0,0:0:0:0:
56,282,92063,1,2,0:0:0:0:
140,118,92234,1,14,0:0:0:0:
170,216,92406,1,2,0:0:0:0:
36,98,92577,2,0,P|52:60|114:25,1,107.999996704102,2|2,3:2|0:0,0:0:0:0:
239,123,92920,1,10,0:0:0:0:
263,133,93006,1,2,0:0:0:0:
289,133,93091,1,2,0:0:0:0:
314,125,93177,1,2,0:0:0:0:
336,109,93263,6,0,P|334:58|307:0,1,107.999996704102,6|2,3:2|0:0,0:0:0:0:
461,156,93606,2,0,P|443:201|430:265,1,107.999996704102,10|2,0:0|0:0,0:0:0:0:
359,342,93948,2,0,P|418:343|489:375,2,107.999996704102,2|0|10,3:2|0:0|0:0,0:0:0:0:
264,253,94463,6,0,P|271:194|300:130,1,107.999996704102,2|0,0:0|3:0,0:0:0:0:
235,344,94806,1,2,0:0:0:0:
122,251,94977,1,10,0:0:0:0:
96,341,95148,1,2,0:0:0:0:
51,200,95320,2,0,P|98:169|181:184,1,107.999996704102,2|0,3:2|0:0,0:0:0:0:
63,20,95663,1,10,0:0:0:0:
15,118,95834,1,2,0:0:0:0:
157,27,96006,6,0,P|240:119|357:80,1,242.999992584229,14|2,0:0|0:0,0:0:0:0:
397,240,96691,2,0,B|494:262|494:262|427:214,1,161.999995056153,14|2,0:0|0:0,0:0:0:0:
339,337,97206,1,2,0:0:0:0:
339,337,97291,1,2,0:0:0:0:
339,337,97377,6,0,P|377:298|367:230,1,107.999996704102,14|0,0:0|0:0,0:0:0:0:
149,248,97720,2,0,P|113:211|121:150,1,107.999996704102,14|0,0:0|0:0,0:0:0:0:
339,133,98063,1,14,0:0:0:0:
304,37,98234,1,8,0:0:0:0:
277,30,98320,1,8,0:0:0:0:
253,43,98406,1,8,0:0:0:0:
129,124,98577,1,8,0:0:0:0:
94,136,98663,1,8,0:0:0:0:
62,119,98748,5,6,1:2:0:0:
50,30,98920,1,0,3:0:0:0:
213,133,99091,1,8,0:0:0:0:
195,220,99263,2,0,L|182:282,1,49.5000015106202,2|0,0:0|3:0,0:0:0:0:
28,244,99434,6,0,B|64:208|64:208|125:211,1,99.0000030212403,2|0,3:2|3:0,0:0:0:0:
238,301,99777,1,8,0:0:0:0:
195,220,99948,1,2,0:0:0:0:
329,129,100120,5,8,0:0:0:0:
309,264,100291,1,2,1:2:0:0:
448,184,100462,1,10,0:0:0:0:
458,267,100634,1,2,1:2:0:0:
325,340,100806,5,10,0:0:0:0:
354,198,100977,1,10,0:0:0:0:
212,168,101148,1,10,0:0:0:0:
189,315,101320,1,10,0:0:0:0:
189,315,101405,1,0,0:0:0:0:
189,315,101491,5,6,1:2:0:0:
102,294,101663,1,0,3:0:0:0:
71,148,101834,1,8,0:0:0:0:
149,111,102006,2,0,L|202:88,1,49.5000015106202,2|0,0:0|3:0,0:0:0:0:
302,172,102177,6,0,B|253:190|253:190|205:164,1,99.0000030212403,2|0,3:2|3:0,0:0:0:0:
134,32,102520,1,8,0:0:0:0:
194,91,102691,1,2,0:0:0:0:
38,226,102862,5,10,0:0:0:0:
58,68,103034,1,2,3:2:0:0:
211,167,103205,1,10,0:0:0:0:
191,311,103377,1,2,3:2:0:0:
325,263,103548,5,10,0:0:0:0:
212,158,103720,1,10,0:0:0:0:
105,266,103891,1,10,0:0:0:0:
105,266,104234,6,0,L|228:284,1,116.999994644165,6|8,3:2|0:0,0:0:0:0:
357,183,104577,2,0,L|220:198,1,116.999994644165,2|8,3:2|0:0,0:0:0:0:
215,202,104834,1,2,0:0:0:0:
215,202,104920,1,2,3:2:0:0:
284,349,105091,1,10,0:0:0:0:
346,281,105263,2,0,B|381:261|381:261|457:288,1,116.999994644165,2|8,3:2|0:0,0:0:0:0:
512,171,105606,5,2,3:2:0:0:
370,89,105777,1,10,0:0:0:0:
429,18,105948,2,0,B|459:69|459:69|442:139,1,116.999994644165,2|8,3:2|0:0,0:0:0:0:
300,197,106291,1,2,3:2:0:0:
301,168,106377,1,0,3:0:0:0:
304,140,106463,1,10,0:0:0:0:
197,44,106634,2,0,B|183:98|183:98|212:137|212:137|189:262,1,175.499991966248,2|0,0:0|0:0,0:0:0:0:
185,191,106977,6,0,P|240:182|281:259,1,116.999994644165,6|8,3:2|0:0,0:0:0:0:
349,352,107320,2,0,P|294:361|253:284,1,116.999994644165,2|8,3:2|0:0,0:0:0:0:
248,297,107577,1,2,0:0:0:0:
248,297,107663,1,2,3:2:0:0:
360,188,107834,1,10,0:0:0:0:
423,251,108006,2,0,B|452:230|452:230|465:139,1,116.999994644165,2|8,3:2|0:0,0:0:0:0:
407,35,108348,5,2,3:2:0:0:
292,133,108520,1,10,0:0:0:0:
230,68,108691,2,0,L|89:44,1,116.999994644165,2|8,3:2|0:0,0:0:0:0:
22,157,109034,1,10,0:0:0:0:
24,174,109120,1,10,0:0:0:0:
27,192,109206,1,10,0:0:0:0:
30,211,109291,1,2,0:0:0:0:
32,228,109377,5,10,0:0:0:0:
69,209,109463,1,2,0:0:0:0:
111,212,109548,1,10,0:0:0:0:
149,229,109634,1,2,0:0:0:0:
173,264,109720,6,0,L|182:146,1,116.999994644165,6|8,3:2|0:0,0:0:0:0:
260,4,110063,2,0,L|264:128,1,116.999994644165,2|8,3:2|0:0,0:0:0:0:
268,147,110320,1,2,0:0:0:0:
268,147,110406,1,2,3:2:0:0:
390,255,110577,1,10,0:0:0:0:
321,324,110748,2,0,B|291:297|291:297|306:212,1,116.999994644165,2|8,3:2|0:0,0:0:0:0:
448,180,111091,5,2,3:2:0:0:
341,89,111263,1,10,0:0:0:0:
415,36,111434,2,0,B|497:52|497:52|517:108,1,116.999994644165,2|8,3:2|0:0,0:0:0:0:
448,180,111777,1,2,3:2:0:0:
444,209,111863,1,0,3:0:0:0:
440,237,111948,1,10,0:0:0:0:
472,351,112120,2,0,P|478:299|383:307,1,175.499991966248,2|0,0:0|0:0,0:0:0:0:
394,335,112463,5,14,0:0:0:0:
306,303,112634,1,2,3:2:0:0:
192,369,112806,1,10,0:0:0:0:
99,384,112977,1,2,3:2:0:0:
52,218,113148,5,10,0:0:0:0:
155,237,113320,1,2,3:2:0:0:
201,100,113491,1,10,0:0:0:0:
305,81,113663,1,10,0:0:0:0:
377,183,113834,6,0,B|339:141|339:141|370:-18,1,175.499991966248,6|0,0:0|0:0,0:0:0:0:
377,11,114177,2,0,P|443:5|421:90,1,175.499991966248,6|0,0:0|0:0,0:0:0:0:
428,87,114520,5,6,0:0:0:0:
384,201,114691,1,2,0:0:0:0:
421,217,114777,1,0,0:0:0:0:
461,211,114863,1,2,0:0:0:0:
454,342,116577,6,0,P|421:284|300:310,1,180,6|8,3:2|0:0,0:0:0:0:
265,355,117091,1,2,0:0:0:0:
182,218,117263,1,2,3:2:0:0:
140,302,117434,1,2,0:0:0:0:
88,223,117606,2,0,P|92:186|127:141,1,90,10|2,0:0|0:0,0:0:0:0:
283,76,117948,5,2,3:2:0:0:
216,138,118120,1,2,0:0:0:0:
114,19,118291,2,0,P|153:54|204:52,1,90,10|2,0:0|0:0,0:0:0:0:
351,13,118634,5,2,3:2:0:0:
283,76,118806,1,0,0:0:0:0:
403,177,118977,2,0,P|393:127|336:97,1,90,10|0,0:0|0:0,0:0:0:0:
309,210,119320,6,0,L|512:241,1,180,2|8,3:2|0:0,0:0:0:0:
511,384,119834,1,2,0:0:0:0:
463,316,120006,1,2,3:2:0:0:
512,164,120177,1,2,0:0:0:0:
448,96,120348,2,0,P|462:51|493:8,1,90,10|2,0:0|0:0,0:0:0:0:
454,110,120691,5,2,3:2:0:0:
367,29,120863,1,2,0:0:0:0:
336,130,121034,2,0,P|307:151|160:167,1,180,10|2,0:0|3:2,0:0:0:0:
91,102,121548,1,2,0:0:0:0:
156,0,121720,2,0,P|185:34|174:98,1,90,10|2,0:0|0:0,0:0:0:0:
2,118,122063,6,0,P|120:135|186:191,1,180,4|8,3:2|0:0,0:0:0:0:
137,320,122577,1,2,0:0:0:0:
74,258,122748,2,0,P|37:270|-16:316,1,90,2|2,3:2|0:0,0:0:0:0:
64,365,123091,1,10,0:0:0:0:
137,320,123263,1,2,0:0:0:0:
269,368,123434,6,0,P|295:347|405:345,1,135,2|0,3:2|0:0,0:0:0:0:
409,352,123777,2,0,B|390:325|390:325|400:253,1,90,8|0,0:0|0:0,0:0:0:0:
503,201,124120,2,0,P|501:258|474:306,1,90,2|0,3:2|0:0,0:0:0:0:
401,191,124463,1,8,0:0:0:0:
453,118,124634,1,2,0:0:0:0:
323,221,124806,6,0,P|278:204|222:212,1,90,2|0,3:2|3:0,0:0:0:0:
214,223,125063,1,0,3:0:0:0:
195,211,125148,1,8,0:0:0:0:
169,202,125234,1,8,0:0:0:0:
137,207,125320,1,8,0:0:0:0:
111,232,125406,1,8,0:0:0:0:
98,266,125491,6,0,L|110:76,1,175.499991966248,2|0,0:0|0:0,0:0:0:0:
42,25,125834,2,0,P|113:-4|199:91,1,175.499991966248,2|0,0:0|0:0,0:0:0:0:
233,151,126177,6,0,L|185:144,1,45,2|0,0:0|0:0,0:0:0:0:
181,133,126348,2,0,B|233:139|233:139|281:201|281:201|375:211,1,175.499991966248,2|0,0:0|0:0,0:0:0:0:
397,152,126691,6,0,P|354:195|478:221,1,233.999989288331,2|0,0:0|0:0,0:0:0:0:
488,172,127206,1,10,0:0:0:0:
354,82,127377,1,10,0:0:0:0:
375,62,127463,1,10,0:0:0:0:
404,62,127548,6,0,L|394:188,1,90,2|8,3:2|0:0,0:0:0:0:
249,193,127891,2,0,L|241:88,1,90,0|10,3:0|0:0,0:0:0:0:
101,21,128234,1,2,3:2:0:0:
162,146,128406,1,10,0:0:0:0:
38,91,128577,1,2,3:2:0:0:
3,227,128748,1,10,0:0:0:0:
129,294,128920,5,2,3:2:0:0:
145,279,129006,1,2,0:0:0:0:
165,271,129091,1,10,0:0:0:0:
187,269,129177,1,2,0:0:0:0:
203,284,129263,2,0,P|252:314|312:312,1,90,2|8,3:2|0:0,0:0:0:0:
432,270,129606,5,2,0:0:0:0:
414,255,129691,1,2,3:2:0:0:
392,248,129777,1,10,0:0:0:0:
370,242,129863,1,2,0:0:0:0:
353,257,129948,2,0,L|359:163,1,90,2|8,3:2|0:0,0:0:0:0:
401,57,130291,6,0,L|506:70,1,90,2|8,3:2|0:0,0:0:0:0:
301,110,130634,2,0,L|191:95,1,90,0|10,3:2|0:0,0:0:0:0:
67,190,130977,1,2,3:2:0:0:
155,166,131148,1,10,0:0:0:0:
123,306,131320,1,2,3:2:0:0:
241,335,131491,1,10,0:0:0:0:
362,215,131663,5,2,3:2:0:0:
381,226,131748,1,2,0:0:0:0:
394,244,131834,1,10,0:0:0:0:
401,265,131920,1,2,0:0:0:0:
387,283,132006,2,0,L|278:263,1,90,2|10,3:2|0:0,0:0:0:0:
217,250,132348,1,2,3:2:0:0:
206,123,132520,5,10,0:0:0:0:
269,55,132691,1,2,3:2:0:0:
296,143,132863,1,10,0:0:0:0:
168,11,133034,5,2,3:2:0:0:
168,11,133206,1,2,3:2:0:0:
91,133,133377,2,0,P|57:82|118:120,1,175.499991966248,10|0,0:0|0:0,0:0:0:0:
125,137,133720,5,2,3:2:0:0:
125,137,133891,1,0,3:2:0:0:
198,260,134063,2,0,P|232:209|171:247,1,175.499991966248,8|0,0:0|0:0,0:0:0:0:
208,271,134406,6,0,L|266:274,1,45,10|0,0:0|0:0,0:0:0:0:
296,349,134577,2,0,L|121:341,1,175.499991966248,10|0,0:0|0:0,0:0:0:0:
42,353,134920,6,0,B|24:276|103:297|69:196,1,144,10|0,0:0|0:0,0:0:0:0:
0,120,135434,1,10,0:0:0:0:
111,45,135606,1,0,0:0:0:0:
111,45,135691,1,0,0:0:0:0:
111,45,135777,5,10,0:0:0:0:
92,181,135948,1,10,0:0:0:0:
240,75,136463,5,10,0:0:0:0:
254,234,136635,1,10,0:0:0:0:
254,234,136977,6,0,P|300:174|403:190,1,180,6|2,0:0|0:0,0:0:0:0:
415,335,137491,2,0,P|375:296|386:235,1,90,10|2,0:0|0:0,0:0:0:0:
399,187,137748,1,10,0:0:0:0:
399,187,137834,6,0,B|447:124|413:62|413:62|363:111,1,180,10|10,0:0|0:0,0:0:0:0:
289,150,138348,2,0,P|249:119|220:74,1,90,10|0,0:0|0:0,0:0:0:0:
128,188,138691,2,0,P|101:224|65:250,1,90,10|0,0:0|0:0,0:0:0:0:
181,384,139034,6,0,L|198:237,1,135,10|0,0:0|0:0,0:0:0:0:
196,249,139377,1,2,0:0:0:0:
324,367,139548,1,10,0:0:0:0:
324,367,139891,6,0,B|418:381|442:281|442:281|385:260|356:295|356:295|404:242|368:175,1,377.999988464356,6|2,0:0|0:0,0:0:0:0:
362,107,141091,1,2,0:0:0:0:
362,107,141177,1,2,0:0:0:0:
362,107,141263,21,2,0:0:0:0:
390,111,141434,5,0,0:0:0:0:
436,137,141606,21,2,0:0:0:0:
465,208,141777,5,0,0:0:0:0:
436,285,141948,21,2,0:0:0:0:
345,312,142120,5,0,0:0:0:0:
249,258,142291,21,2,0:0:0:0:
379,191,142463,5,0,0:0:0:0:
379,191,142548,1,0,0:0:0:0:
379,191,142634,6,0,B|427:199|427:199|463:242|463:242|535:253,2,148.50000453186,6|8|8,3:2|0:0|0:0,0:0:0:0:
284,130,143320,2,0,B|248:125|224:150|224:150|207:137|207:137|174:169|130:151,1,161.999995056153,6|0,3:2|0:0,0:0:0:0:
39,70,143834,1,2,0:0:0:0:
39,70,143920,1,2,0:0:0:0:
39,70,144006,6,0,L|26:238,2,148.50000453186,14|8|8,0:0|0:0|0:0,0:0:0:0:
129,0,144691,2,0,P|171:3|220:47,1,80.9999975280763,6|8,3:2|0:0,0:0:0:0:
228,52,144948,1,8,0:0:0:0:
228,52,145034,2,0,L|216:117,3,40.4999987640381,8|8|8|8,0:0|0:0|0:0|0:0,0:0:0:0:
296,17,145377,5,14,0:0:0:0:
449,62,145548,1,10,0:0:0:0:
303,31,145720,2,0,L|311:131,1,90,10|2,0:0|0:0,0:0:0:0:
314,155,145977,1,0,3:2:0:0:
314,155,146063,5,2,3:2:0:0:
369,234,146234,1,2,0:0:0:0:
289,345,146406,1,10,0:0:0:0:
234,266,146577,1,2,3:2:0:0:
125,381,146748,6,0,L|28:370,2,90,0|2|10,3:2|3:2|0:0,0:0:0:0:
185,326,147263,2,0,P|177:274|147:225,1,90,2|0,3:2|0:0,0:0:0:0:
52,156,147606,1,0,3:0:0:0:
52,156,147777,1,8,0:0:0:0:
70,246,147948,1,8,0:0:0:0:
176,108,148120,5,14,0:0:0:0:
308,153,148291,1,10,0:0:0:0:
166,120,148463,2,0,L|175:23,1,90,10|0,0:0|3:2,0:0:0:0:
180,0,148720,1,0,3:0:0:0:
180,0,148806,5,0,3:0:0:0:
264,61,148977,1,2,0:0:0:0:
231,204,149148,1,10,0:0:0:0:
308,153,149320,1,2,0:0:0:0:
361,308,149491,6,0,L|466:328,2,90,2|2|10,3:2|3:2|0:0,0:0:0:0:
309,238,150006,1,10,0:0:0:0:
465,172,150177,5,2,3:2:0:0:
479,84,150348,1,2,3:2:0:0:
308,153,150520,5,10,0:0:0:0:
322,65,150691,1,10,0:0:0:0:
381,196,150863,6,0,P|297:197|227:248,1,135,6|0,3:2|0:0,0:0:0:0:
242,245,151206,2,0,B|200:259|200:259|141:228,1,90,10|0,0:0|0:0,0:0:0:0:
111,105,151548,2,0,P|154:122|176:197,1,90,2|0,3:2|0:0,0:0:0:0:
77,226,151891,2,0,B|59:259|59:259|78:364,1,135,10|0,0:0|0:0,0:0:0:0:
91,364,152234,6,0,B|131:356|131:356|181:374|181:374|256:359,1,135,6|0,3:2|0:0,0:0:0:0:
235,351,152577,2,0,P|252:315|308:302,1,90,10|0,0:0|0:0,0:0:0:0:
443,267,152920,2,0,P|422:228|380:215,1,90,2|8,3:2|0:0,0:0:0:0:
356,242,153177,1,8,0:0:0:0:
356,242,153263,2,0,L|347:188,3,45,10|8|8|8,0:0|0:0|0:0|0:0,0:0:0:0:
297,299,153606,5,6,3:2:0:0:
233,145,153777,1,2,3:2:0:0:
178,215,153948,2,0,P|141:204|161:137,1,90,10|0,0:0|0:0,0:0:0:0:
151,142,154206,1,8,0:0:0:0:
151,142,154291,1,2,3:2:0:0:
265,224,154463,1,2,3:2:0:0:
309,146,154634,2,0,P|352:165|343:218,1,90,10|0,0:2|3:0,0:0:0:0:
222,108,154977,6,0,P|256:45|361:69,1,180,6|8,3:2|0:0,0:0:0:0:
496,55,155491,2,0,P|474:26|419:34,1,90,6|0,3:2|0:0,0:0:0:0:
415,115,155834,1,0,3:0:0:0:
511,202,156006,1,10,0:0:0:0:
390,251,156177,1,8,0:0:0:0:
392,233,156263,1,8,0:0:0:0:
393,215,156348,6,0,P|328:202|287:267,1,144,2|2,0:0|0:0,0:0:0:0:
196,235,156863,1,2,3:2:0:0:
203,207,156948,1,0,3:0:0:0:
209,182,157034,5,10,0:2:0:0:
168,100,157206,1,2,3:2:0:0:
231,41,157377,1,10,0:2:0:0:
270,119,157548,1,2,3:2:0:0:
119,170,157720,5,2,3:2:0:0:
152,16,157891,1,0,3:0:0:0:
294,201,158063,1,8,0:0:0:0:
323,49,158234,1,0,3:0:0:0:
486,163,158406,5,14,0:0:0:0:
392,123,158577,1,10,0:0:0:0:
389,148,158663,1,10,0:0:0:0:
387,172,158748,1,10,0:0:0:0:
444,320,158920,1,8,0:0:0:0:
447,294,159006,1,8,0:0:0:0:
451,256,159091,6,0,B|380:264|380:264|330:339|330:339|237:352,2,215.999993408203,6|10|2,3:2|0:0|3:2,0:0:0:0:
510,181,159948,1,0,0:0:0:0:
368,42,160120,1,10,0:0:0:0:
450,57,160291,6,0,P|444:115|396:180,1,107.999996704102,2|0,0:0|3:0,0:0:0:0:
265,108,160634,1,2,0:0:0:0:
368,42,160806,1,10,0:0:0:0:
290,200,160977,1,2,0:0:0:0:
389,312,161149,2,0,P|334:239|206:262,1,215.999993408203,2|8,3:2|0:0,0:0:0:0:
76,326,161663,6,0,P|38:287|35:196,1,107.999996704102,2|0,0:0|3:2,0:0:0:0:
152,299,162006,1,2,0:0:0:0:
219,249,162177,1,10,0:0:0:0:
140,215,162349,1,2,0:0:0:0:
233,343,162520,2,0,P|279:316|333:314,1,107.999996704102,0|0,3:0|0:0,0:0:0:0:
374,384,162863,1,10,0:0:0:0:
474,212,163034,6,0,L|459:84,1,107.999996704102,2|0,0:0|3:0,0:0:0:0:
309,6,163377,1,2,0:0:0:0:
377,131,163549,1,10,0:0:0:0:
410,32,163720,1,2,0:0:0:0:
287,137,163892,2,0,B|244:146|244:146|171:117,1,107.999996704102,0|0,3:0|0:0,0:0:0:0:
38,23,164234,1,10,0:0:0:0:
64,15,164320,1,2,0:0:0:0:
89,23,164406,1,2,0:0:0:0:
104,44,164492,1,2,0:0:0:0:
108,71,164577,6,0,P|83:112|77:186,1,107.999996704102,6|2,3:2|0:0,0:0:0:0:
200,302,164920,2,0,P|194:248|169:201,1,107.999996704102,10|2,0:0|0:0,0:0:0:0:
102,370,165263,2,0,B|172:346|258:332|258:332|278:362|328:365,1,215.999993408203,2|10,3:2|0:0,0:0:0:0:
388,213,165777,6,0,P|338:238|324:293,1,107.999996704102,2|0,0:0|3:0,0:0:0:0:
493,302,166120,1,2,0:0:0:0:
388,213,166292,1,10,0:0:0:0:
406,293,166463,1,2,0:0:0:0:
454,137,166634,2,0,P|451:85|399:9,1,107.999996704102,0|0,3:0|0:0,0:0:0:0:
349,133,166977,1,10,0:0:0:0:
478,216,167149,1,2,0:0:0:0:
284,209,167320,6,0,B|239:178|239:178|271:10,2,188.999994232178,14|10|10,0:0|0:0|0:0,0:0:0:0:
166,222,168006,2,0,B|211:253|211:253|179:421,2,188.999994232178,14|10|10,0:0|0:0|0:0,0:0:0:0:
90,266,168691,5,6,0:0:0:0:
53,261,168777,1,2,0:0:0:0:
22,241,168863,1,2,0:0:0:0:
5,208,168948,1,2,0:0:0:0:
0,183,169034,2,0,L|20:116,1,45,10|2,0:0|0:0,0:0:0:0:
50,59,169206,5,10,0:0:0:0:
50,59,169292,1,10,0:0:0:0:
50,59,169377,2,0,L|-10:64,1,45,10|0,0:0|0:0,0:0:0:0:
106,134,169549,2,0,L|152:142,1,45,10|0,0:0|0:0,0:0:0:0:
206,68,169720,1,10,0:0:0:0:
266,198,169892,1,10,0:0:0:0:
312,45,170063,6,0,B|355:13|355:13|534:56,2,215.999993408203,6|10|2,3:2|0:0|3:2,0:0:0:0:
371,165,170920,1,0,0:0:0:0:
233,135,171092,1,10,0:0:0:0:
299,282,171263,6,0,P|348:247|401:258,1,107.999996704102,2|0,0:0|3:0,0:0:0:0:
370,340,171606,1,2,0:0:0:0:
221,271,171777,1,10,0:0:0:0:
189,354,171949,1,2,0:0:0:0:
210,191,172120,2,0,B|122:184|49:240|49:240|85:263|93:301,1,215.999993408203,2|8,3:2|0:0,0:0:0:0:
51,384,172634,6,0,P|1:324|30:302,1,107.999996704102,2|0,0:0|3:0,0:0:0:0:
115,339,172977,1,2,0:0:0:0:
19,239,173149,1,10,0:0:0:0:
137,167,173320,1,2,0:0:0:0:
53,39,173492,2,0,P|98:135|102:265,1,215.999993408203,0|10,3:0|0:0,0:0:0:0:
192,384,174006,6,0,P|194:343|228:278,1,107.999996704102,2|0,0:0|3:0,0:0:0:0:
314,310,174349,1,2,0:0:0:0:
213,205,174520,1,10,0:0:0:0:
275,384,174692,1,2,0:0:0:0:
392,265,174863,2,0,P|386:225|349:165,1,107.999996704102,2|2,3:2|0:0,0:0:0:0:
189,31,175206,1,10,0:0:0:0:
177,55,175292,1,2,0:0:0:0:
178,81,175377,1,2,0:0:0:0:
190,105,175463,1,2,0:0:0:0:
207,125,175549,6,0,P|272:122|320:90,1,107.999996704102,6|2,3:2|0:0,0:0:0:0:
488,35,175891,2,0,P|440:11|386:11,1,107.999996704102,10|2,0:0|0:0,0:0:0:0:
448,173,176234,2,0,L|429:288,2,107.999996704102,2|0|10,3:2|0:0|0:0,0:0:0:0:
351,301,176749,6,0,P|298:247|229:242,1,107.999996704102,2|0,0:0|3:0,0:0:0:0:
155,300,177092,1,2,0:0:0:0:
266,220,177263,1,10,0:0:0:0:
153,123,177434,1,2,0:0:0:0:
41,223,177606,2,0,L|19:97,1,107.999996704102,2|0,3:2|0:0,0:0:0:0:
37,0,177948,1,10,0:0:0:0:
0,124,178120,1,2,0:0:0:0:
147,28,178292,6,0,B|245:38|334:76|334:76|303:75|258:96,1,242.999992584229,10|2,0:0|0:0,0:0:0:0:
184,164,178977,2,0,P|174:239|255:269,1,161.999995056153,10|0,0:0|0:0,0:0:0:0:
307,171,179492,1,2,0:0:0:0:
307,171,179577,1,2,0:0:0:0:
307,171,179663,6,0,P|361:164|409:213,1,107.999996704102,14|0,0:0|0:0,0:0:0:0:
283,359,180006,2,0,P|240:318|250:257,1,107.999996704102,14|0,0:0|0:0,0:0:0:0:
426,303,180349,1,10,0:0:0:0:
478,231,180520,1,8,0:0:0:0:
482,204,180606,1,8,0:0:0:0:
487,177,180692,1,8,0:0:0:0:
378,136,180863,1,8,0:0:0:0:
384,104,180949,1,8,0:0:0:0:
391,75,181034,5,6,1:2:0:0:
311,33,181206,1,0,3:2:0:0:
255,188,181377,1,8,0:0:0:0:
338,219,181548,2,0,L|394:239,1,49.5000015106202,2|0,0:0|3:0,0:0:0:0:
272,362,181720,6,0,B|248:316|248:316|271:257,1,99.0000030212403,2|2,3:2|3:2,0:0:0:0:
409,313,182063,1,8,0:0:0:0:
358,384,182234,1,2,0:0:0:0:
343,221,182406,5,8,0:0:0:0:
492,273,182577,1,2,1:2:0:0:
411,109,182748,1,10,0:0:0:0:
499,96,182920,1,2,1:2:0:0:
336,142,183092,5,10,0:0:0:0:
322,0,183263,1,10,0:0:0:0:
183,6,183434,1,10,0:0:0:0:
195,154,183606,1,10,0:0:0:0:
195,154,183691,1,0,0:0:0:0:
195,154,183777,5,6,1:2:0:0:
104,128,183949,1,0,3:0:0:0:
71,289,184120,1,8,0:0:0:0:
158,269,184291,2,0,L|218:255,1,49.5000015106202,2|0,0:0|3:0,0:0:0:0:
304,344,184463,6,0,B|255:362|255:362|207:336,1,99.0000030212403,2|0,3:2|3:0,0:0:0:0:
160,188,184806,1,8,0:0:0:0:
206,257,184977,1,2,0:0:0:0:
23,356,185148,5,10,0:0:0:0:
64,210,185320,1,2,3:2:0:0:
206,257,185491,1,10,0:0:0:0:
183,109,185663,1,2,3:2:0:0:
325,161,185834,5,10,0:0:0:0:
208,269,186006,1,10,0:0:0:0:
102,75,186177,2,0,P|141:35|234:43,1,148.50000453186,10|0,0:0|0:0,0:0:0:0:
262,59,186520,6,0,L|250:167,1,90,6|0,3:2|0:0,0:0:0:0:
307,362,186863,2,0,L|293:249,1,90,8|0,0:0|0:0,0:0:0:0:
293,246,187120,1,0,3:0:0:0:
293,247,187206,1,2,3:2:0:0:
420,168,187377,1,2,3:2:0:0:
335,118,187548,1,10,0:0:0:0:
447,75,187720,6,0,P|357:73|268:28,1,180,2|2,3:2|3:2,0:0:0:0:
182,90,188234,1,8,0:0:0:0:
254,144,188406,2,0,P|254:189|242:232,1,90,2|0,3:2|3:0,0:0:0:0:
100,169,188748,1,0,3:0:0:0:
63,257,188920,1,8,0:0:0:0:
3,181,189091,1,2,0:0:0:0:
152,244,189263,6,0,L|241:231,2,90,2|2|10,3:2|0:0|0:0,0:0:0:0:
58,352,189777,1,2,0:0:0:0:
58,352,189863,1,0,0:0:0:0:
58,352,189948,2,0,P|88:378|155:377,1,90,2|2,3:2|0:0,0:0:0:0:
204,325,190291,1,10,0:0:0:0:
313,384,190463,6,0,P|273:371|268:243,1,180,2|2,3:2|3:2,0:0:0:0:
376,323,190977,1,8,0:0:0:0:
445,266,191148,2,0,P|412:191|383:186,1,90,2|0,3:2|0:0,0:0:0:0:
297,169,191491,1,0,3:0:0:0:
339,249,191663,1,8,0:0:0:0:
397,113,191834,1,10,0:0:0:0:
397,113,191920,1,10,0:0:0:0:
397,113,192006,5,2,3:2:0:0:
247,64,192177,1,2,3:2:0:0:
328,58,192348,1,10,0:0:0:0:
210,138,192520,1,2,0:0:0:0:
210,138,192606,1,8,0:0:0:0:
210,138,192691,2,0,L|198:245,2,90,2|2|10,3:2|3:2|0:0,0:0:0:0:
84,261,193206,6,0,P|179:251|220:341,1,180,2|2,3:2|3:2,0:0:0:0:
277,380,193720,1,10,0:0:0:0:
333,262,193891,2,0,P|374:234|440:239,1,90,2|2,3:2|0:0,0:0:0:0:
492,242,194234,1,2,3:2:0:0:
400,318,194406,1,10,0:0:0:0:
307,177,194577,1,2,3:2:0:0:
491,137,194748,6,0,L|289:164,1,180,6|8,3:2|0:0,0:0:0:0:
171,204,195263,1,2,3:2:0:0:
161,233,195348,1,2,3:2:0:0:
160,264,195434,2,0,L|94:279,3,45,8|0|0|0,0:0|0:0|3:0|3:0,0:0:0:0:
229,318,195777,2,0,L|291:302,1,45,8|0,0:0|0:0,0:0:0:0:
365,354,195948,1,2,3:2:0:0:
365,354,196034,1,2,3:2:0:0:
365,354,196120,6,0,L|375:198,1,135,10|0,0:0|0:0,0:0:0:0:
362,205,196463,2,0,L|351:85,1,90,14|0,0:0|0:0,0:0:0:0:
246,55,196806,6,0,B|201:63|201:63|167:102|167:102|94:115,2,135,10|10|10,0:0|0:0|0:0,0:0:0:0:
353,115,197491,6,0,P|373:44|246:65,1,251.999992309571,6|0,0:0|0:0,0:0:0:0:
261,160,198348,2,0,L|274:290,1,125.999996154785,2|2,2:3|0:0,0:0:0:0:
296,308,198777,1,2,0:0:0:0:
296,308,198863,6,0,B|382:369|390:251|490:323,2,188.999994232178,8|4|0,3:0|0:3|3:0,0:0:0:0:
449,130,205034,5,2,0:0:0:0:
436,140,205148,2,0,L|359:129,1,41.9999987182618,2|2,0:0|0:0,0:0:0:0:
320,77,205377,2,0,L|251:87,2,41.9999987182618,2|2|2,0:0|0:0|0:0,0:0:0:0:
375,16,205720,6,0,L|348:197,1,161.999995056153,6|2,3:2|0:0,0:0:0:0:
427,347,206406,2,0,P|387:281|294:278,1,161.999995056153,2|2,3:2|0:0,0:0:0:0:
235,222,206920,1,2,0:0:0:0:
151,372,207091,6,0,B|194:351|194:351|218:220,1,161.999995056153,0|2,3:0|0:0,0:0:0:0:
130,172,207606,1,2,0:0:0:0:
234,66,207777,2,0,L|330:82,1,80.9999975280763,10|2,0:0|0:0,0:0:0:0:
372,177,208120,1,0,3:0:0:0:
434,84,208291,1,8,0:0:0:0:
434,84,208377,1,8,0:0:0:0:
434,84,208463,5,10,0:0:0:0:
407,265,208634,1,10,0:0:0:0:
344,101,209148,1,2,3:2:0:0:
411,280,209319,1,2,0:0:0:0:
475,206,209491,1,8,0:0:0:0:
475,353,209663,6,0,P|415:314|293:310,1,180,6|2,0:0|0:0,0:0:0:0:
192,283,210177,1,10,0:0:0:0:
238,384,210348,1,10,0:0:0:0:
312,223,210520,2,0,B|324:159|246:136|246:136|235:171|241:198|241:198|207:176|154:191,1,252,6|0,0:0|0:0,0:0:0:0:
101,184,211206,22,0,B|159:139|141:70|141:70|82:119|81:182|81:182|64:138|12:123|12:123|16:178|76:190,1,440.999986541748,2|0,0:0|0:0,0:0:0:0:
50,265,212577,6,0,L|45:303,2,33.0000010070801,2|2|2,0:0|0:0|0:0,0:0:0:0:
126,266,212920,6,0,L|119:317,2,41.9999987182618,2|2|2,0:0|0:0|0:0,0:0:0:0:
202,270,213263,6,0,L|194:331,2,51.0000009727478,2|2|2,0:0|0:0|0:0,0:0:0:0:
280,265,213606,6,0,L|268:344,2,71.9999978027344,2|0|0,0:0|0:0|0:0,0:0:0:0:
356,208,213948,6,0,L|415:200,2,53.9999983520508,8|8|8,0:0|0:0|0:0,0:0:0:0:
314,136,214291,2,0,L|429:120,1,107.999996704102,2|0,3:2|0:0,0:0:0:0:
388,48,214634,6,0,L|327:57,2,53.9999983520508,10|8|8,0:0|0:0|0:0,0:0:0:0:
425,125,214977,2,0,L|318:140,1,107.999996704102,2|0,3:2|0:0,0:0:0:0:
226,91,215320,5,10,0:0:0:0:
226,91,215434,2,0,L|232:19,1,53.9999983520508,8|8,0:0|0:0,0:0:0:0:
143,70,215663,1,10,0:0:0:0:
143,70,215777,2,0,L|148:6,1,53.9999983520508,8|8,0:0|0:0,0:0:0:0:
67,9,216006,5,10,0:0:0:0:
50,42,216120,1,8,0:0:0:0:
33,75,216234,1,8,0:0:0:0:
18,109,216348,2,0,L|30:230,1,107.999996704102,2|0,3:2|0:0,0:0:0:0:
85,283,216691,6,0,L|77:343,2,53.9999983520508,10|8|8,0:0|0:0|0:0,0:0:0:0:
166,263,217034,2,0,L|151:375,1,107.999996704102,2|0,3:2|0:0,0:0:0:0:
234,355,217377,6,0,L|242:295,2,53.9999983520508,10|8|8,0:0|0:0|0:0,0:0:0:0:
155,367,217720,2,0,L|170:255,1,107.999996704102,2|0,3:2|0:0,0:0:0:0:
245,196,218063,5,10,0:0:0:0:
245,196,218177,2,0,L|303:204,1,53.9999983520508,8|8,0:0|0:0,0:0:0:0:
278,284,218406,1,10,0:0:0:0:
278,284,218520,2,0,L|346:295,1,53.9999983520508,8|8,0:0|0:0,0:0:0:0:
422,350,218748,5,10,0:0:0:0:
418,312,218863,1,8,0:0:0:0:
413,274,218977,1,8,0:0:0:0:
454,245,219091,5,10,0:0:0:0:
459,207,219206,1,8,0:0:0:0:
467,170,219320,1,8,0:0:0:0:
471,130,219434,6,0,P|465:70|305:77,1,242.999992584229,6|0,3:2|0:0,0:0:0:0:
224,113,220120,2,0,P|256:3|314:79,1,242.999992584229,6|0,3:2|0:0,0:0:0:0:
262,194,220806,6,0,B|297:149|297:149|165:185,1,180,6|2,0:0|0:0,0:0:0:0:
150,292,221320,6,0,B|46:224|97:90|97:90|196:126|174:210,1,360,2|2,0:0|0:0,0:0:0:0:
178,181,222520,5,4,0:0:0:0:
333,359,223206,1,4,0:0:0:0:
333,359,223548,5,8,0:0:0:0:
255,320,223720,1,8,0:0:0:0:
405,309,223891,1,2,3:2:0:0:
285,234,224063,1,10,0:0:0:0:
281,212,224148,1,10,0:0:0:0:
291,192,224234,5,10,0:0:0:0:
420,93,224406,1,8,0:0:0:0:
436,112,224491,1,0,0:0:0:0:
438,138,224577,5,10,0:0:0:0:
397,153,224663,1,8,0:0:0:0:
355,143,224748,1,8,0:0:0:0:
321,115,224834,1,8,0:0:0:0:
305,74,224920,6,0,P|207:42|78:28,2,215.999993408203,6|8|2,3:2|0:0|3:2,0:0:0:0:
355,143,225777,1,0,0:0:0:0:
288,287,225948,1,10,0:0:0:0:
208,245,226120,6,0,P|269:201|309:202,1,107.999996704102,2|0,0:0|3:0,0:0:0:0:
382,277,226463,1,2,0:0:0:0:
450,115,226634,1,10,0:0:0:0:
361,144,226806,1,2,0:0:0:0:
283,40,226977,2,0,B|256:16|256:16|394:52|394:52|350:65,1,215.999993408203,0|8,3:2|0:0,0:0:0:0:
247,122,227491,6,0,P|193:87|145:101,1,107.999996704102,2|0,0:0|3:0,0:0:0:0:
40,247,227834,1,2,0:0:0:0:
48,156,228006,1,10,0:0:0:0:
129,213,228177,1,2,0:0:0:0:
52,383,228348,2,0,P|78:323|220:343,1,215.999993408203,0|10,3:0|0:0,0:0:0:0:
361,224,228863,6,0,P|300:248|274:320,1,107.999996704102,2|0,0:0|3:0,0:0:0:0:
342,350,229206,1,2,0:0:0:0:
435,172,229377,1,10,0:0:0:0:
496,245,229548,1,2,0:0:0:0:
351,219,229720,2,0,P|309:179|322:107,1,107.999996704102,0|2,3:0|0:0,0:0:0:0:
427,14,230063,1,10,0:0:0:0:
457,24,230148,1,10,0:0:0:0:
476,50,230234,1,10,0:0:0:0:
487,80,230320,1,10,0:0:0:0:
487,112,230406,6,0,P|442:151|385:154,1,107.999996704102,6|0,3:2|0:0,0:0:0:0:
250,35,230748,2,0,P|318:38|362:69,1,107.999996704102,10|0,0:0|0:0,0:0:0:0:
190,110,231091,1,2,3:2:0:0:
228,226,231263,1,0,0:0:0:0:
81,256,231434,1,10,0:0:0:0:
92,158,231606,1,2,0:0:0:0:
230,331,231777,5,0,3:2:0:0:
143,320,231948,1,2,0:0:0:0:
315,237,232120,5,10,0:0:0:0:
228,226,232291,1,2,0:0:0:0:
388,384,232463,5,2,3:2:0:0:
301,373,232634,1,2,0:0:0:0:
467,192,232806,5,10,0:0:0:0:
380,181,232977,1,2,0:0:0:0:
503,268,233148,6,0,B|522:77|522:77|466:125,1,242.999992584229,6|2,0:0|0:0,0:0:0:0:
380,181,233834,2,0,B|335:157|338:115|338:115|331:156|278:179,1,161.999995056153,6|0,0:0|0:0,0:0:0:0:
204,11,234348,1,2,0:0:0:0:
204,11,234433,1,2,0:0:0:0:
204,11,234520,6,0,P|249:40|255:108,1,107.999996704102,14|0,0:0|0:0,0:0:0:0:
96,197,234862,2,0,P|54:234|56:297,1,107.999996704102,14|0,0:0|0:0,0:0:0:0:
202,375,235205,1,10,0:0:0:0:
261,305,235376,1,8,0:0:0:0:
287,308,235462,1,8,0:0:0:0:
314,312,235548,1,8,0:0:0:0:
244,208,235720,1,8,0:0:0:0:
206,213,235806,1,8,0:0:0:0:
171,219,235891,5,6,1:2:0:0:
143,134,236063,1,0,3:0:0:0:
291,44,236234,1,8,0:0:0:0:
279,132,236405,1,2,0:0:0:0:
380,273,236577,6,0,B|382:221|382:221|337:174,1,99.0000030212403,2|0,3:2|3:0,0:0:0:0:
207,184,236920,1,8,0:0:0:0:
279,132,237091,1,2,0:0:0:0:
255,247,237263,5,8,0:0:0:0:
239,352,237434,1,2,3:2:0:0:
129,265,237605,1,10,0:0:0:0:
140,348,237777,1,2,3:2:0:0:
184,208,237949,5,10,0:0:0:0:
152,71,238120,1,10,0:0:0:0:
287,36,238291,1,10,0:0:0:0:
335,176,238463,1,10,0:0:0:0:
335,176,238548,1,0,0:0:0:0:
335,176,238634,5,6,1:2:0:0:
246,151,238806,1,0,3:0:0:0:
205,311,238977,1,8,0:0:0:0:
292,284,239149,1,2,0:0:0:0:
450,364,239320,6,0,B|401:367|401:367|358:334,1,99.0000030212403,2|0,3:2|3:0,0:0:0:0:
341,208,239663,1,8,0:0:0:0:
407,264,239834,1,2,0:0:0:0:
481,109,240005,5,14,0:0:0:0:
355,129,240177,1,10,0:0:0:0:
374,3,240348,1,10,0:0:0:0:
454,15,240520,1,10,0:0:0:0:
351,140,240691,5,10,0:0:0:0:
231,67,240863,1,8,0:0:0:0:
164,187,241034,1,8,0:0:0:0:
144,171,241120,1,8,0:0:0:0:
121,161,241206,1,8,0:0:0:0:
96,166,241291,1,8,0:0:0:0:
80,185,241377,6,0,L|73:235,3,49.5000015106202,6|0|10|0,1:2|0:0|0:0|0:0,0:0:0:0:
139,291,241720,2,0,L|152:348,3,49.5000015106202,2|2|10|2,1:2|3:2|3:2|3:2,0:0:0:0:
202,220,242063,5,2,3:2:0:0:
226,216,242148,1,10,3:2:0:0:
250,211,242234,2,0,L|305:231,1,49.5000015106202,10|2,0:0|0:0,0:0:0:0:
356,298,242406,1,2,3:2:0:0:
356,298,242491,2,0,L|419:283,1,49.5000015106202,2|10,0:0|0:0,0:0:0:0:
485,245,242663,1,2,0:0:0:0:
462,224,242748,6,0,L|476:172,3,49.5000015106202,2|0|10|0,1:2|0:0|0:0|0:0,0:0:0:0:
375,201,243091,2,0,L|364:140,3,49.5000015106202,2|2|10|2,1:2|3:2|0:0|3:2,0:0:0:0:
440,88,243434,5,2,0:0:0:0:
440,88,243520,1,2,0:0:0:0:
440,88,243606,2,0,L|498:94,1,49.5000015106202,10|2,3:2|0:0,0:0:0:0:
338,69,243777,1,10,0:0:0:0:
303,59,243862,1,10,0:0:0:0:
269,67,243948,1,10,0:0:0:0:
244,93,244034,1,10,0:0:0:0:
236,128,244120,6,0,B|199:102|199:102|220:-2,1,135,6|0,1:2|0:0,0:0:0:0:
216,13,244463,1,8,0:0:0:0:
116,158,244634,1,2,3:2:0:0:
45,66,244806,6,0,B|89:71|89:71|120:173,1,135,2|0,3:2|3:2,0:0:0:0:
115,157,245148,1,8,0:0:0:0:
16,161,245320,1,2,3:2:0:0:
103,260,245491,5,14,0:0:0:0:
241,190,245663,1,2,3:2:0:0:
297,371,245834,1,10,0:0:0:0:
132,339,246006,1,2,3:2:0:0:
342,276,246177,6,0,B|387:230|395:164|395:164|386:151|372:148|372:148|381:122|381:122|373:119|369:110|369:110|361:117|352:116|352:116|353:145|353:145|337:145|325:150|325:150|310:215|333:274,1,396.000012084961,6|0,3:2|0:0,0:0:0:0:
