osu file format v14

[General]
AudioFilename: audio.mp3
AudioLeadIn: 0
PreviewTime: 213261
Countdown: 0
SampleSet: Normal
StackLeniency: 0.7
Mode: 1
LetterboxInBreaks: 0
WidescreenStoryboard: 0

[Editor]
DistanceSpacing: 0.6
BeatDivisor: 4
GridSize: 32
TimelineZoom: 1.6

[Metadata]
Title:PEKORANDOMBRAIN!
TitleUnicode:ぺこらんだむぶれいん!
Artist:Usada Pekora
ArtistUnicode:兎田ぺこら
Creator:TaikOseania
Version:Randomized Thoughts
Source:
Tags:mtntwarz pekoramdombrain ホロライブプロダクション 3期生 hololive production 3rd generation sankisei ホロライブファンタジー fantasy vtuber virtual youtuber バーチャル ユーチューバー japanese pop jpop j-pop 1st original オリジナル 畑亜貴 aki hata 俊龍 shunryuu よる 。 yoru. dig delight direct drive dj d4dj groovy mix gurumiku グルミク グルーヴィーミクス video game
BeatmapID:2804708
BeatmapSetID:1355076

[Difficulty]
HPDrainRate:6
CircleSize:5
OverallDifficulty:6
ApproachRate:5
SliderMultiplier:1.4
SliderTickRate:1

[Events]
//Background and Video events
0,0,"usada pekora feet google buscar.jpg",0,-50
//Break Periods
//Storyboard Layer 0 (Background)
//Storyboard Layer 1 (Fail)
//Storyboard Layer 2 (Pass)
//Storyboard Layer 3 (Foreground)
//Storyboard Layer 4 (Overlay)
//Storyboard Sound Samples

[TimingPoints]
691,342.857142857143,4,1,0,70,1,8
1376,342.857142857143,4,1,0,90,1,0
2742,-95.2380952380952,4,1,0,90,0,0
4113,-90.9090909090909,4,1,0,90,0,0
4799,-86.9565217391304,4,1,0,90,0,0
5485,-83.3333333333333,4,1,0,90,0,0
5828,-83.3333333333333,4,1,0,90,0,0
5999,-85.7142612244968,4,1,0,90,0,0
6171,-88.2353200692118,4,1,0,90,0,0
6256,-89.5522120739665,4,1,0,90,0,0
6342,-90.9090909090909,4,1,0,90,0,0
6428,-92.3077207100679,4,1,0,90,0,0
6513,-93.7499707031342,4,1,0,90,0,0
6685,-96.774224765879,4,1,0,90,0,0
6856,-100,4,1,0,90,0,0
7542,-100,4,1,0,80,0,0
9428,-95.2380952380952,4,1,0,80,0,0
14742,-95.2380952380952,4,1,0,80,0,0
14913,-90.9934666690932,4,1,0,80,0,0
14999,-89.0100216383363,4,1,0,80,0,0
15085,-87.1111250488911,4,1,0,80,0,0
15599,-95.2380952380952,4,1,0,80,0,0
15685,-91.0746812386157,4,1,0,80,0,0
15771,-87.260034904014,4,1,0,80,0,0
15942,-95.2380952380952,4,1,0,80,0,0
16113,-92.3077207100679,4,1,0,80,0,0
16199,-90.9090909090909,4,1,0,80,0,0
16285,-89.5522120739665,4,1,0,80,0,0
16371,-88.2353200692118,4,1,0,80,0,0
16456,-86.9565217391304,4,1,0,80,0,0
17142,-86.9565217391304,4,1,0,80,0,0
17313,-88.8685083776343,4,1,0,80,0,0
17399,-89.8563825437803,4,1,0,80,0,0
17485,-90.8665488430417,4,1,0,80,0,0
17571,-91.8996015233278,4,1,0,80,0,0
17656,-92.9564136671956,4,1,0,80,0,0
17742,-94.0378144859611,4,1,0,80,0,0
17828,-95.1446722313614,4,1,0,80,0,0
21942,-95.2380952380952,4,1,0,80,0,0
22113,-93.0455867547746,4,1,0,80,0,0
22199,-91.9867575863779,4,1,0,80,0,0
22285,-90.9516728286425,4,1,0,80,0,0
22456,-88.9500074273256,4,1,0,80,0,0
22628,-87.0345501053553,4,1,0,80,0,0
23313,-83.3333333333333,4,1,0,80,0,0
31542,-83.3333333333333,4,1,0,80,0,0
31713,-84.2082571248606,4,1,0,80,0,0
31799,-84.6525731419395,4,1,0,80,0,0
31885,-85.1016752264768,4,1,0,80,0,0
32056,-86.0143282668027,4,1,0,80,0,0
32228,-86.9466929825324,4,1,0,80,0,0
32313,-87.4205347339269,4,1,0,80,0,0
32399,-87.8995694679087,4,1,0,80,0,0
32485,-88.873484151636,4,1,0,80,0,0
32571,-89.3686196391116,4,1,0,80,0,0
32742,-89.8693030725416,4,1,0,80,0,0
32913,-90.887608383473,4,1,0,80,0,0
33085,-91.9293394325386,4,1,0,80,0,0
33256,-92.9951410038825,4,1,0,80,0,0
33428,-94.0860341513487,4,1,0,80,0,0
33513,-94.641135012204,4,1,0,80,0,0
33599,-95.2027342225269,4,1,0,80,0,0
33685,-95.7711299844084,4,1,0,80,0,0
33771,-96.3463535795561,4,1,0,80,0,0
33942,-97.5176872705287,4,1,0,80,0,0
34028,-98.114147962022,4,1,0,80,0,0
34113,-98.7179499835635,4,1,0,80,0,0
34285,-99.9481269221274,4,1,0,80,0,0
35142,-100,4,1,0,80,0,0
35313,-98.0392156862745,4,1,0,80,0,0
35399,-97.0873786407767,4,1,0,80,0,0
35485,-96.1538461538461,4,1,0,80,0,0
35571,-95.2380952380952,4,1,0,80,0,0
35656,-94.3396226415094,4,1,0,80,0,0
35828,-92.5925925925926,4,1,0,80,0,0
35999,-90.9090909090909,4,1,0,80,0,0
36342,-100,4,1,0,80,0,0
38056,-98.0392156862745,4,1,0,80,0,0
38142,-97.0873786407767,4,1,0,80,0,0
38228,-96.1538461538461,4,1,0,80,0,0
38399,-94.3396226415094,4,1,0,80,0,0
38571,-92.5925925925926,4,1,0,80,0,0
38742,-90.9090909090909,4,1,0,80,0,0
38913,-100,4,1,0,80,0,0
39771,-95.2380952380952,4,1,0,80,0,0
42171,-95.2380952380952,4,1,0,80,0,0
42342,-94.3396226415094,4,1,0,80,0,0
42428,-93.4579439252336,4,1,0,80,0,0
42513,-92.3077207100679,4,1,0,80,0,0
42685,-90.9090909090909,4,1,0,80,0,0
42856,-89.5522120739665,4,1,0,80,0,0
42942,-88.8888888888889,4,1,0,80,0,0
43028,-88.2353200692118,4,1,0,80,0,0
43113,-87.591215301835,4,1,0,80,0,0
43199,-86.9565217391304,4,1,0,80,0,0
44742,-86.9565217391304,4,1,0,80,0,0
44913,-89.5522120739665,4,1,0,80,0,0
44999,-90.9090909090909,4,1,0,80,0,0
45085,-92.3077207100679,4,1,0,80,0,0
45256,-95.2380952380952,4,1,0,80,0,0
50742,-95.2380952380952,4,1,0,80,0,0
50913,-90.9934666690932,4,1,0,80,0,0
50999,-89.0100216383363,4,1,0,80,0,0
51085,-87.1111250488911,4,1,0,80,0,0
51428,-95.2380952380952,4,1,0,80,0,0
51599,-90.9934666690932,4,1,0,80,0,0
51685,-89.0100216383363,4,1,0,80,0,0
51771,-87.1111250488911,4,1,0,80,0,0
51942,-95.2380952380952,4,1,0,80,0,0
52113,-86.9565217391304,4,1,0,80,0,0
52971,-95.2380952380952,4,1,0,80,0,0
53142,-92.3077207100679,4,1,0,80,0,0
53313,-89.5522120739665,4,1,0,80,0,0
53399,-88.2353200692118,4,1,0,80,0,0
53485,-86.9565217391304,4,1,0,80,0,0
54856,-95.2380952380952,4,1,0,80,0,0
56399,-86.9565217391304,4,1,0,80,0,0
57085,-95.2380952380952,4,1,0,80,0,0
57599,-86.9565217391306,4,1,0,80,0,0
58113,-105.263157894737,4,1,0,70,0,0
63085,-86.9565217391306,4,1,0,80,0,0
65313,-95.2380952380952,4,1,0,80,0,0
65485,-92.3465915334798,4,1,0,80,0,0
65656,-89.6255712509848,4,1,0,80,0,0
65742,-88.3242418247082,4,1,0,80,0,0
65828,-87.060236977965,4,1,0,80,0,0
67028,-100,4,1,0,70,0,0
67113,-99.1773240966185,4,1,0,70,0,0
67199,-98.3680736580135,4,1,0,70,0,0
67371,-96.7885557211715,4,1,0,70,0,0
67542,-95.2589614868019,4,1,0,70,0,0
67628,-94.5121518999305,4,1,0,70,0,0
67713,-93.7770488175183,4,1,0,70,0,0
67799,-93.053205962105,4,1,0,70,0,0
67885,-92.3404518587671,4,1,0,70,0,0
68056,-90.9472060563563,4,1,0,70,0,0
68228,-89.5953783120052,4,1,0,70,0,0
68313,-88.9344233136255,4,1,0,70,0,0
68399,-88.2831487774108,4,1,0,70,0,0
68485,-87.6413435768536,4,1,0,70,0,0
68571,-87.0088026805672,4,1,0,80,0,0
68913,-95.2380952380952,4,1,0,80,0,0
71313,-86.9565217391304,4,1,0,80,0,0
71656,-95.2380952380952,4,1,0,80,0,0
71999,-86.9565217391304,4,1,0,80,0,0
72342,-95.2380952380952,4,1,0,80,0,0
72685,-86.9565217391304,4,1,0,80,0,0
72856,-95.2380952380952,4,1,0,80,0,0
73199,-86.9565217391304,4,1,0,80,0,0
73542,-95.2380952380952,4,1,0,80,0,0
75771,-95.2380952380952,4,1,0,80,0,0
75942,-92.8269807189078,4,1,0,80,0,0
76028,-91.6666743055562,4,1,0,80,0,0
76113,-90.5350166810768,4,1,0,80,0,0
76285,-88.3534278479402,4,1,0,80,0,0
76371,-87.301552658114,4,1,0,80,0,0
76456,-86.2745030372939,4,1,0,80,0,0
76542,-85.271337660001,4,1,0,80,0,0
76628,-84.7457627118644,4,1,0,80,0,0
76713,-84.0336134453781,4,1,0,80,0,0
76804,-83.3333333333333,4,1,0,90,0,1
85028,-76.9230769230769,4,1,0,90,0,1
86571,-83.3333333333333,4,1,0,90,0,1
86656,-82.8431092344385,4,1,0,90,0,1
86742,-82.3586869060394,4,1,0,90,0,1
86913,-81.4065753719059,4,1,0,90,0,1
86999,-80.9386946045457,4,1,0,90,0,1
87085,-80.4761613514845,4,1,0,90,0,1
87256,-79.5668381332029,4,1,0,90,0,1
87342,-79.1198705598918,4,1,0,90,0,1
87428,-78.6778347230461,4,1,0,90,0,1
87513,-78.2407106760232,4,1,0,90,0,1
87599,-77.8084775448624,4,1,0,90,0,1
87685,-77.3809339569205,4,1,0,90,0,1
87771,-76.9581224680778,4,1,0,90,0,1
88113,-83.4049921223985,4,1,0,90,0,1
96004,-76.9230769230769,4,1,0,90,0,1
97371,-76.9230769230769,4,1,0,90,0,1
97542,-78.8177339901478,4,1,0,90,0,1
97713,-80.8080808080808,4,1,0,90,0,1
97885,-82.9015544041451,4,1,0,90,0,1
98056,-85.1063829787234,4,1,0,90,0,1
98228,-87.431693989071,4,1,0,90,0,1
98313,-88.6426592797784,4,1,0,90,0,1
98399,-89.8876404494382,4,1,0,90,0,1
98485,-91.1680911680912,4,1,0,90,0,1
98571,-92.485549132948,4,1,0,90,0,1
98656,-93.841642228739,4,1,0,90,0,1
98747,-95.2380952380952,4,1,0,90,0,0
99085,-95.1041342718209,4,1,0,80,0,0
102856,-95.2380952380952,4,1,0,80,0,0
103028,-93.0455867547746,4,1,0,80,0,0
103113,-91.9867575863779,4,1,0,80,0,0
103199,-90.9516728286425,4,1,0,80,0,0
103371,-88.9500074273256,4,1,0,80,0,0
103542,-87.0345501053553,4,1,0,80,0,0
104228,-83.3333333333333,4,1,0,80,0,0
112456,-83.3333333333333,4,1,0,80,0,0
112628,-85.3535086266791,4,1,0,80,0,0
112713,-86.400851566793,4,1,0,80,0,0
112799,-87.4741404572273,4,1,0,80,0,0
112971,-89.7027519907283,4,1,0,80,0,0
113142,-92.0478906765612,4,1,0,80,0,0
113228,-93.2671385362096,4,1,0,80,0,0
113313,-94.5190304615931,4,1,0,80,0,0
113399,-97.1264178028839,4,1,0,80,0,0
113485,-98.4848111799958,4,1,0,80,0,0
113656,-99.8818397835361,4,1,0,80,0,0
113828,-83.2512614647393,4,1,0,80,0,0
114599,-95.2380952380952,4,1,0,80,0,0
125828,-95.2380952380952,4,1,0,80,0,0
127199,-92.3077207100679,4,1,0,80,0,0
127371,-89.5522120739665,4,1,0,80,0,0
127456,-88.2353200692118,4,1,0,80,0,0
127542,-86.9565217391304,4,1,0,80,0,0
133371,-80,4,1,0,80,0,0
133713,-95.2380952380952,4,1,0,80,0,0
134056,-80,4,1,0,80,0,0
135256,-95.2380952380952,4,1,0,80,0,0
135428,-92.5925925925926,4,1,0,80,0,0
135599,-89.2857142857143,4,1,0,80,0,0
135685,-88.4955752212389,4,1,0,80,0,0
135771,-87.260034904014,4,1,0,80,0,0
137142,-95.6022944550669,4,1,0,80,0,0
138685,-87.260034904014,4,1,0,80,0,0
139371,-95.6022944550669,4,1,0,80,0,0
139885,-87.260034904014,4,1,0,80,0,0
141085,-105.708245243129,4,1,0,70,0,0
142628,-95.2380952380952,4,1,0,80,0,0
142885,-98.7654320987654,4,1,0,80,0,0
143142,-102.564102564103,4,1,0,80,0,0
143313,-105.263157894737,4,1,0,80,0,0
143656,-105.263157894737,4,1,0,80,0,0
143999,-95.2380952380952,4,1,0,80,0,0
144256,-98.7276961793369,4,1,0,80,0,0
144513,-102.48285205678,4,1,0,80,0,0
144685,-105.149043511726,4,1,0,80,0,0
145328,-87.060236977965,4,1,0,80,0,0
146056,-95.3625206221451,4,1,0,80,0,0
148113,-86.9565217391304,4,1,0,80,0,0
148628,-95.2380952380952,4,1,0,80,0,0
149485,-95.2380952380952,4,1,0,80,0,0
149571,-94.6745562130178,4,1,0,80,0,0
149656,-94.1176470588235,4,1,0,80,0,0
149828,-93.0232558139535,4,1,0,80,0,0
149999,-91.9540229885058,4,1,0,80,0,0
150171,-90.9090909090909,4,1,0,80,0,0
150342,-89.8876404494382,4,1,0,80,0,0
150513,-88.8888888888889,4,1,0,80,0,0
150599,-88.3977900552486,4,1,0,80,0,0
150685,-87.9120879120879,4,1,0,80,0,0
150771,-87.431693989071,4,1,0,80,0,0
150856,-86.9565217391304,4,1,0,80,0,0
151199,-95.2380952380952,4,1,0,80,0,0
153599,-86.9565217391304,4,1,0,80,0,0
153942,-95.2380952380952,4,1,0,80,0,0
154285,-86.9565217391304,4,1,0,80,0,0
154628,-95.2380952380952,4,1,0,80,0,0
154928,-86.9565217391304,4,1,0,80,0,0
155313,-95.2380952380952,4,1,0,80,0,0
155485,-86.9565217391304,4,1,0,80,0,0
155828,-95.2380952380952,4,1,0,80,0,0
158056,-95.2380952380952,4,1,0,80,0,0
158228,-92.8446486201428,4,1,0,80,0,0
158313,-91.6924780992516,4,1,0,80,0,0
158399,-90.5686351759522,4,1,0,80,0,0
158571,-88.4014628674075,4,1,0,80,0,0
158656,-87.3563097899343,4,1,0,80,0,0
158742,-86.3355812240831,4,1,0,80,0,0
158828,-85.3384308822714,4,1,0,80,0,0
158913,-84.7457627118644,4,1,0,80,0,0
158999,-84.0336134453781,4,1,0,80,0,0
159090,-83.3333333333333,4,1,0,90,0,1
167313,-76.9230769230769,4,1,0,90,0,1
168856,-83.3333333333333,4,1,0,90,0,1
168942,-82.8402268828134,4,1,0,90,0,1
169028,-82.3529217993125,4,1,0,90,0,1
169199,-81.3953772309455,4,1,0,90,0,1
169285,-80.9248742022831,4,1,0,90,0,1
169371,-80.459779363193,4,1,0,90,0,1
169542,-79.5454455061994,4,1,0,90,0,1
169628,-79.0960273229317,4,1,0,90,0,1
169713,-78.6516588814633,4,1,0,90,0,1
169799,-78.2123167192123,4,1,0,90,0,1
169885,-77.7777950617322,4,1,0,90,0,1
169971,-77.3480748450911,4,1,0,90,0,1
170056,-76.9230769230769,4,1,0,90,0,1
170399,-83.3333333333333,4,1,0,90,0,1
178290,-76.9230769230769,4,1,0,90,0,1
179656,-76.9230769230769,4,1,0,90,0,1
179828,-78.80767145397,4,1,0,90,0,1
179999,-80.7869293211313,4,1,0,90,0,1
180171,-82.8681666909747,4,1,0,90,0,1
180342,-85.0594735839299,4,1,0,90,0,1
180513,-87.3698189697351,4,1,0,90,0,1
180599,-88.5727040183664,4,1,0,90,0,1
180685,-89.8091734682147,4,1,0,90,0,1
180771,-91.0807366974307,4,1,0,90,0,1
180856,-92.3887385518804,4,1,0,90,0,1
180942,-93.7348559623336,4,1,0,90,0,1
181033,-95.1207796099097,4,1,0,90,0,0
181371,-95.2380952380952,4,1,0,80,0,0
185142,-95.2380952380952,4,1,0,80,0,0
185313,-93.0455867547746,4,1,0,80,0,0
185399,-91.9867575863779,4,1,0,80,0,0
185485,-90.9516728286425,4,1,0,80,0,0
185656,-88.9500074273256,4,1,0,80,0,0
185828,-87.0345501053553,4,1,0,80,0,0
186513,-95.2380952380952,4,1,0,80,0,0
192342,-86.9565217391304,4,1,0,80,0,0
192599,-95.2380952380952,4,1,0,80,0,0
193028,-86.9565217391304,4,1,0,80,0,0
193199,-95.2380952380952,4,1,0,80,0,0
193713,-86.9565217391304,4,1,0,80,0,0
193885,-95.2380952380952,4,1,0,80,0,0
194399,-86.9565217391304,4,1,0,80,0,0
194571,-95.2380952380952,4,1,0,80,0,0
194742,-95.2380952380952,4,1,0,80,0,0
194913,-94.1176470588235,4,1,0,80,0,0
194999,-93.5672514619883,4,1,0,80,0,0
195085,-93.0232558139535,4,1,0,80,0,0
195256,-91.9540229885058,4,1,0,80,0,0
195342,-91.4285714285714,4,1,0,80,0,0
195428,-90.9090909090909,4,1,0,80,0,0
195599,-89.8876404494382,4,1,0,80,0,0
195685,-89.3854748603352,4,1,0,80,0,0
195771,-88.8888888888889,4,1,0,80,0,0
195942,-87.9120879120879,4,1,0,80,0,0
196028,-87.431693989071,4,1,0,80,0,0
196113,-86.9565217391304,4,1,0,80,0,0
196456,-86.9565217391304,4,1,0,80,0,0
196799,-89.5337707953374,4,1,0,80,0,0
197056,-91.5693056024848,4,1,0,80,0,0
197313,-93.6995486492741,4,1,0,80,0,0
197485,-95.1755513043809,4,1,0,80,0,0
198513,-105.263157894737,4,1,0,70,0,0
205028,-105.263157894737,4,1,0,70,0,0
205142,-103.448240190262,4,1,0,72,0,0
205256,-101.694949727102,4,1,0,73,0,0
205371,-100,4,1,0,75,0,0
205485,-98.3606234883202,4,1,0,77,0,0
205599,-96.774224765879,4,1,0,78,0,0
205713,-95.2380952380952,4,1,0,80,0,0
206056,-105.263157894737,4,1,0,80,0,0
207942,-102.564102564103,4,1,0,80,0,0
208113,-100,4,1,0,80,0,0
208199,-98.7654320987654,4,1,0,80,0,0
208285,-97.5609756097561,4,1,0,80,0,0
208371,-96.3855421686747,4,1,0,80,0,0
208456,-95.2380952380952,4,1,0,80,0,0
209142,-105.263157894737,4,1,0,80,0,0
209485,-95.2380952380952,4,1,0,80,0,0
209656,-105.263157894737,4,1,0,80,0,0
211199,-105.263157894737,4,1,0,80,0,0
211313,-104.054591200728,4,1,0,80,0,0
211428,-102.873355698001,4,1,0,80,0,0
211542,-101.718741576417,4,1,0,80,0,0
211656,-100.589656566795,4,1,0,80,0,0
211771,-99.485461194701,4,1,0,80,0,0
211885,-98.4051477700901,4,1,0,80,0,0
211999,-97.3481393363388,4,1,0,80,0,0
212113,-96.3135043090662,4,1,0,80,0,0
212228,-95.3007214264612,4,1,0,80,0,0
212571,-105.263157894737,4,1,0,80,0,0
212685,-104.347862381865,4,1,0,80,0,0
212799,-103.448240190262,4,1,0,80,0,0
212913,-102.564102564103,4,1,0,80,0,0
213028,-101.694949727102,4,1,0,80,0,0
213142,-100.840302238554,4,1,0,80,0,0
213256,-100,4,1,0,80,0,0
213371,-99.173586503665,4,1,0,80,0,0
213485,-98.3606234883202,4,1,0,80,0,0
213599,-97.5609756097561,4,1,0,80,0,0
213713,-96.774224765879,4,1,0,80,0,0
213828,-95.9999692800098,4,1,0,80,0,0
213942,-95.2380952380952,4,1,0,80,0,0
214628,-95.2380952380952,4,1,0,80,0,0
214742,-92.365697966015,4,1,0,80,0,0
214856,-89.6614920030915,4,1,0,80,0,0
214971,-87.1111250488911,4,1,0,80,0,0
215313,-95.2380952380952,4,1,0,80,0,0
215428,-94.2476866905302,4,1,0,80,0,0
215542,-93.2775782155813,4,1,0,80,0,0
215656,-92.3273225168797,4,1,0,80,0,0
215771,-91.3961492974378,4,1,0,80,0,0
215885,-90.4836532232087,4,1,0,80,0,0
215999,-89.5891174307275,4,1,0,80,0,0
216113,-88.7121742378072,4,1,0,80,0,0
216228,-87.8521553647797,4,1,0,80,0,0
216342,-87.0087269753156,4,1,0,80,0,0
216685,-95.2380952380952,4,1,0,80,0,0
216799,-92.365697966015,4,1,0,80,0,0
216913,-89.6614920030915,4,1,0,80,0,0
217028,-87.1111250488911,4,1,0,80,0,0
217371,-95.2380952380952,4,1,0,80,0,0
217485,-92.3077207100679,4,1,0,80,0,0
217599,-89.5522120739665,4,1,0,80,0,0
217713,-86.9565217391304,4,1,0,80,0,0
218056,-95.2380952380952,4,1,0,80,0,0
218171,-94.4920579425299,4,1,0,80,0,0
218285,-93.7576178064468,4,1,0,80,0,0
218399,-93.0345064984603,4,1,0,80,0,0
218513,-92.3223786676219,4,1,0,80,0,0
218628,-91.6211538584875,4,1,0,80,0,0
218742,-90.9305009088503,4,1,0,80,0,0
218856,-90.2501825309942,4,1,0,80,0,0
218971,-89.5799684857671,4,1,0,80,0,0
219085,-88.9196353227916,4,1,0,80,0,0
219199,-88.2688882180453,4,1,0,80,0,0
219313,-87.6276735203191,4,1,0,80,0,0
219428,-86.9957076317855,4,1,0,80,0,0
223542,-95.2380952380952,4,1,0,80,0,0
223713,-93.4675527390666,4,1,0,80,0,0
223799,-92.60682660483,4,1,0,80,0,0
223885,-91.7617241660924,4,1,0,80,0,0
224056,-90.1169628060259,4,1,0,80,0,0
224142,-89.3165763527219,4,1,0,80,0,0
224228,-88.5302038496474,4,1,0,80,0,0
224399,-87.719298245614,4,1,0,80,0,0
224485,-86.9565217391304,4,1,0,80,0,0
224571,-86.2068965517241,4,1,0,80,0,0
224656,-85.4700854700855,4,1,0,80,0,0
224742,-84.7457627118644,4,1,0,80,0,0
224828,-84.0336134453781,4,1,0,80,0,0
224918,-83.3333333333333,4,1,0,90,0,1
233147,-76.9230769230769,4,1,0,90,0,1
234513,-76.9230769230769,4,1,0,90,0,1
234685,-78.80767145397,4,1,0,90,0,1
234856,-80.7869293211313,4,1,0,90,0,1
235028,-82.8681666909747,4,1,0,90,0,1
235199,-85.0594735839299,4,1,0,90,0,1
235371,-87.3698189697351,4,1,0,90,0,1
235456,-88.5727040183664,4,1,0,90,0,1
235542,-89.8091734682147,4,1,0,90,0,1
235628,-91.0807366974307,4,1,0,90,0,1
235713,-92.3887385518804,4,1,0,90,0,1
235799,-93.7348559623336,4,1,0,90,0,1
235890,-95.1207796099097,4,1,0,90,0,0
236228,-95.2380952380952,4,1,0,80,0,0
239999,-95.2380952380952,4,1,0,80,0,0
240171,-94.1234051965532,4,1,0,80,0,0
240256,-93.5757444184408,4,1,0,80,0,0
240342,-93.0345064984603,4,1,0,80,0,0
240513,-91.9704296674533,4,1,0,80,0,0
240685,-90.9305009088503,4,1,0,80,0,0
240856,-89.9138265885975,4,1,0,80,0,0
240942,-89.4139274709986,4,1,0,80,0,0
241028,-88.9196353227916,4,1,0,80,0,0
241199,-87.9471121246527,4,1,0,80,0,0
241285,-87.4688610854536,4,1,0,80,0,0
241371,-86.9957076317855,4,1,0,80,0,0
244456,-95.2380952380952,4,1,0,80,0,0
245485,-74.0740740740741,4,1,0,80,0,0

[HitObjects]
256,192,691,5,0,1:0:0:0:
256,192,776,1,0,1:0:0:0:
256,192,862,1,0,1:0:0:0:
256,192,1033,1,8,1:0:0:0:
256,192,1119,1,8,1:0:0:0:
256,192,1205,1,8,1:0:0:0:
256,192,1376,1,12,1:0:0:0:
256,192,1547,1,0,1:0:0:0:
256,192,1718,1,0,1:0:0:0:
256,192,1804,1,8,1:0:0:0:
256,192,1976,1,8,1:0:0:0:
256,192,2061,1,0,1:0:0:0:
256,192,2233,1,0,1:0:0:0:
256,192,2404,1,0,1:0:0:0:
256,192,2490,1,8,1:0:0:0:
256,192,2576,1,8,1:0:0:0:
256,192,2747,1,12,1:0:0:0:
256,192,2918,1,0,1:0:0:0:
256,192,3090,1,8,1:0:0:0:
256,192,3176,1,0,1:0:0:0:
256,192,3347,1,0,1:0:0:0:
256,192,3433,1,8,1:0:0:0:
256,192,3604,1,0,1:0:0:0:
256,192,3776,1,8,1:0:0:0:
256,192,3861,1,0,1:0:0:0:
256,192,3947,1,0,1:0:0:0:
256,192,4118,1,12,1:0:0:0:
256,192,4290,1,0,1:0:0:0:
256,192,4461,1,0,1:0:0:0:
256,192,4547,1,8,1:0:0:0:
256,192,4804,1,12,1:0:0:0:
256,192,4976,1,0,1:0:0:0:
256,192,5147,1,0,1:0:0:0:
256,192,5233,1,8,1:0:0:0:
256,192,5490,1,12,1:0:0:0:
256,192,5661,1,0,1:0:0:0:
256,192,5747,1,0,1:0:0:0:
256,192,5833,1,8,1:0:0:0:
256,192,6004,1,8,1:0:0:0:
256,192,6176,1,8,1:0:0:0:
256,192,6261,1,8,1:0:0:0:
256,192,6347,1,0,1:0:0:0:
256,192,6433,1,0,1:0:0:0:
256,192,6518,1,8,1:0:0:0:
256,192,6690,1,0,1:0:0:0:
256,192,6861,1,12,1:0:0:0:
256,192,7547,1,8,1:0:0:0:
256,192,8233,1,0,1:0:0:0:
256,192,8918,1,8,1:0:0:0:
256,192,9433,1,0,1:0:0:0:
256,192,9518,1,0,1:0:0:0:
256,192,9604,1,8,1:0:0:0:
256,192,9776,1,0,1:0:0:0:
256,192,9947,1,8,1:0:0:0:
256,192,10033,1,0,1:0:0:0:
256,192,10118,1,0,1:0:0:0:
256,192,10290,1,8,1:0:0:0:
256,192,10461,1,0,1:0:0:0:
256,192,10633,1,8,1:0:0:0:
256,192,10718,1,8,1:0:0:0:
256,192,10804,1,0,1:0:0:0:
256,192,10890,1,0,1:0:0:0:
256,192,10976,1,8,1:0:0:0:
256,192,11147,1,0,1:0:0:0:
256,192,11318,1,8,1:0:0:0:
256,192,11490,1,8,1:0:0:0:
256,192,11576,1,0,1:0:0:0:
256,192,11661,1,0,1:0:0:0:
256,192,11833,1,8,1:0:0:0:
256,192,11918,1,0,1:0:0:0:
256,192,12004,1,8,1:0:0:0:
256,192,12090,1,8,1:0:0:0:
256,192,12176,1,0,1:0:0:0:
256,192,12261,1,0,1:0:0:0:
256,192,12347,1,8,1:0:0:0:
256,192,12690,1,8,1:0:0:0:
256,192,12861,1,0,1:0:0:0:
256,192,12947,1,0,1:0:0:0:
256,192,13033,1,8,1:0:0:0:
256,192,13204,1,0,1:0:0:0:
256,192,13376,1,8,1:0:0:0:
256,192,13461,1,0,1:0:0:0:
256,192,13547,1,8,1:0:0:0:
256,192,13633,1,8,1:0:0:0:
256,192,13718,1,0,1:0:0:0:
256,192,13890,1,0,1:0:0:0:
256,192,14061,1,8,1:0:0:0:
256,192,14147,1,0,1:0:0:0:
256,192,14233,1,8,1:0:0:0:
256,192,14404,1,0,1:0:0:0:
256,192,14576,1,0,1:0:0:0:
256,192,14747,1,8,1:0:0:0:
256,192,14918,1,0,1:0:0:0:
256,192,15004,1,0,1:0:0:0:
256,192,15090,1,12,1:0:0:0:
256,192,15604,1,0,1:0:0:0:
256,192,15690,1,0,1:0:0:0:
256,192,15776,1,12,1:0:0:0:
256,192,15947,1,0,1:0:0:0:
256,192,16118,1,0,1:0:0:0:
256,192,16204,1,0,1:0:0:0:
256,192,16290,1,8,1:0:0:0:
256,192,16376,1,0,1:0:0:0:
256,192,16461,1,12,1:0:0:0:
256,192,16804,1,12,1:0:0:0:
256,192,17147,1,12,1:0:0:0:
256,192,17318,1,8,1:0:0:0:
256,192,17404,1,0,1:0:0:0:
256,192,17490,1,8,1:0:0:0:
256,192,17576,1,8,1:0:0:0:
256,192,17661,1,0,1:0:0:0:
256,192,17747,1,0,1:0:0:0:
256,192,17833,1,12,1:0:0:0:
256,192,18004,1,0,0:0:0:0:
256,192,18176,1,8,1:0:0:0:
256,192,18347,1,0,1:0:0:0:
256,192,18433,1,0,1:0:0:0:
256,192,18518,1,12,1:0:0:0:
256,192,18690,1,0,1:0:0:0:
256,192,18861,1,8,1:0:0:0:
256,192,18947,1,8,1:0:0:0:
256,192,19033,1,0,1:0:0:0:
256,192,19118,1,0,1:0:0:0:
256,192,19204,1,12,1:0:0:0:
256,192,19376,1,0,1:0:0:0:
256,192,19461,1,8,1:0:0:0:
256,192,19547,1,8,1:0:0:0:
256,192,19718,1,0,1:0:0:0:
256,192,19890,1,12,1:0:0:0:
256,192,20061,1,0,0:0:0:0:
256,192,20147,1,0,0:0:0:0:
256,192,20233,1,12,1:0:0:0:
256,192,20404,1,0,1:0:0:0:
256,192,20576,1,12,1:0:0:0:
256,192,20747,1,0,1:0:0:0:
256,192,20918,1,8,1:0:0:0:
256,192,21090,1,0,1:0:0:0:
256,192,21176,1,0,1:0:0:0:
256,192,21261,1,12,1:0:0:0:
256,192,21433,1,8,1:0:0:0:
256,192,21518,1,8,1:0:0:0:
256,192,21604,1,0,1:0:0:0:
256,192,21776,1,0,1:0:0:0:
256,192,21947,1,12,1:0:0:0:
256,192,22118,1,0,1:0:0:0:
256,192,22204,1,0,1:0:0:0:
256,192,22290,1,12,1:0:0:0:
256,192,22461,1,0,1:0:0:0:
256,192,22633,1,12,1:0:0:0:
256,192,22804,1,12,1:0:0:0:
256,192,22976,1,12,1:0:0:0:
256,192,23318,1,8,1:0:0:0:
256,192,23490,1,0,1:0:0:0:
256,192,23661,1,8,1:0:0:0:
256,192,23833,1,0,1:0:0:0:
256,192,23918,1,8,1:0:0:0:
256,192,24090,1,8,1:0:0:0:
256,192,24176,1,0,1:0:0:0:
256,192,24261,1,0,1:0:0:0:
256,192,24347,1,8,1:0:0:0:
256,192,24518,1,0,1:0:0:0:
256,192,24690,1,8,1:0:0:0:
256,192,24861,1,0,1:0:0:0:
256,192,24947,1,0,1:0:0:0:
256,192,25033,1,8,1:0:0:0:
256,192,25204,1,0,1:0:0:0:
256,192,25376,1,8,1:0:0:0:
256,192,25461,1,8,1:0:0:0:
256,192,25547,1,0,1:0:0:0:
256,192,25633,1,0,1:0:0:0:
256,192,25718,1,8,1:0:0:0:
256,192,25890,1,0,0:0:0:0:
256,192,26061,1,8,1:0:0:0:
256,192,26233,1,0,1:0:0:0:
256,192,26404,1,8,1:0:0:0:
256,192,26576,1,0,1:0:0:0:
256,192,26661,1,8,1:0:0:0:
256,192,26833,1,8,1:0:0:0:
256,192,26918,1,0,1:0:0:0:
256,192,27004,1,0,1:0:0:0:
256,192,27090,1,8,1:0:0:0:
256,192,27261,1,0,1:0:0:0:
256,192,27433,1,8,1:0:0:0:
256,192,27604,1,0,1:0:0:0:
256,192,27690,1,0,1:0:0:0:
256,192,27776,1,8,1:0:0:0:
256,192,28118,1,8,1:0:0:0:
256,192,28290,1,0,1:0:0:0:
256,192,28376,1,0,1:0:0:0:
256,192,28461,1,8,1:0:0:0:
256,192,28633,1,0,1:0:0:0:
256,192,28718,1,8,1:0:0:0:
256,192,28804,1,8,1:0:0:0:
256,192,28976,1,0,1:0:0:0:
256,192,29147,1,8,1:0:0:0:
256,192,29318,1,0,1:0:0:0:
256,192,29404,1,8,1:0:0:0:
256,192,29576,1,8,1:0:0:0:
256,192,29661,1,0,1:0:0:0:
256,192,29747,1,0,1:0:0:0:
256,192,29833,1,8,1:0:0:0:
256,192,30004,1,0,1:0:0:0:
256,192,30176,1,8,1:0:0:0:
256,192,30347,1,0,1:0:0:0:
256,192,30433,1,0,1:0:0:0:
256,192,30518,1,8,1:0:0:0:
256,192,30690,1,8,1:0:0:0:
256,192,30861,1,0,1:0:0:0:
256,192,30947,1,0,1:0:0:0:
256,192,31033,1,8,1:0:0:0:
256,192,31118,1,0,1:0:0:0:
256,192,31204,1,8,1:0:0:0:
256,192,31376,1,0,0:0:0:0:
256,192,31547,1,8,1:0:0:0:
256,192,31718,1,0,1:0:0:0:
256,192,31804,1,0,1:0:0:0:
256,192,31890,1,8,1:0:0:0:
256,192,32061,1,0,1:0:0:0:
256,192,32233,1,8,1:0:0:0:
256,192,32318,1,8,1:0:0:0:
256,192,32404,1,0,1:0:0:0:
256,192,32490,1,0,1:0:0:0:
256,192,32576,1,8,1:0:0:0:
256,192,32747,1,0,1:0:0:0:
256,192,32918,1,0,1:0:0:0:
256,192,33090,1,8,1:0:0:0:
256,192,33261,1,8,1:0:0:0:
256,192,33433,1,0,1:0:0:0:
256,192,33518,1,0,1:0:0:0:
256,192,33604,1,8,1:0:0:0:
256,192,33690,1,0,1:0:0:0:
256,192,33776,1,8,1:0:0:0:
256,192,33947,1,8,1:0:0:0:
256,192,34033,1,8,1:0:0:0:
256,192,34118,1,0,1:0:0:0:
256,192,34290,1,12,1:0:0:0:
256,192,34633,1,8,1:0:0:0:
256,192,34804,1,0,1:0:0:0:
256,192,34890,1,0,1:0:0:0:
256,192,34976,1,8,1:0:0:0:
256,192,35147,1,0,1:0:0:0:
256,192,35318,1,8,1:0:0:0:
256,192,35404,1,8,1:0:0:0:
256,192,35490,1,0,1:0:0:0:
256,192,35576,1,0,1:0:0:0:
256,192,35661,1,12,1:0:0:0:
256,192,35833,1,12,1:0:0:0:
256,192,36004,1,12,1:0:0:0:
256,192,36347,1,8,1:0:0:0:
256,192,36518,1,0,1:0:0:0:
256,192,36604,1,8,1:0:0:0:
256,192,36690,1,8,1:0:0:0:
256,192,36861,1,0,1:0:0:0:
256,192,37033,1,12,1:0:0:0:
256,192,37376,1,8,1:0:0:0:
256,192,37547,1,0,1:0:0:0:
256,192,37633,1,0,1:0:0:0:
256,192,37718,1,8,1:0:0:0:
256,192,37890,1,0,1:0:0:0:
256,192,38061,1,8,1:0:0:0:
256,192,38147,1,0,1:0:0:0:
256,192,38233,1,0,1:0:0:0:
256,192,38404,1,12,1:0:0:0:
256,192,38576,1,12,1:0:0:0:
256,192,38747,1,12,1:0:0:0:
256,192,38918,1,0,1:0:0:0:
256,192,39090,1,8,1:0:0:0:
256,192,39176,1,8,1:0:0:0:
256,192,39261,1,0,1:0:0:0:
256,192,39347,1,0,1:0:0:0:
256,192,39433,1,8,1:0:0:0:
256,192,39776,1,12,1:0:0:0:
256,192,39947,1,0,1:0:0:0:
256,192,40118,1,8,1:0:0:0:
256,192,40290,1,0,1:0:0:0:
256,192,40376,1,0,1:0:0:0:
256,192,40461,1,8,1:0:0:0:
256,192,40633,1,0,1:0:0:0:
256,192,40804,1,8,1:0:0:0:
256,192,40890,1,8,1:0:0:0:
256,192,40976,1,0,1:0:0:0:
256,192,41147,1,8,1:0:0:0:
256,192,41318,1,0,1:0:0:0:
256,192,41490,1,8,1:0:0:0:
256,192,41661,1,0,1:0:0:0:
256,192,41747,1,0,1:0:0:0:
256,192,41833,1,8,1:0:0:0:
256,192,42004,1,8,1:0:0:0:
256,192,42176,1,0,1:0:0:0:
256,192,42347,1,8,1:0:0:0:
256,192,42433,1,0,1:0:0:0:
256,192,42518,1,8,1:0:0:0:
256,192,42690,1,0,1:0:0:0:
256,192,42861,1,8,1:0:0:0:
256,192,42947,1,8,1:0:0:0:
256,192,43033,1,0,1:0:0:0:
256,192,43118,1,0,1:0:0:0:
256,192,43204,1,12,1:0:0:0:
256,192,43547,1,12,1:0:0:0:
256,192,43890,1,12,1:0:0:0:
256,192,44061,1,4,1:0:0:0:
256,192,44404,1,12,1:0:0:0:
256,192,44747,1,0,1:0:0:0:
256,192,44918,1,0,1:0:0:0:
256,192,45004,1,0,1:0:0:0:
256,192,45090,1,8,1:0:0:0:
256,192,45261,1,12,1:0:0:0:
256,192,45604,1,8,1:0:0:0:
256,192,45776,1,0,1:0:0:0:
256,192,45861,1,0,1:0:0:0:
256,192,45947,1,8,1:0:0:0:
256,192,46118,1,0,1:0:0:0:
256,192,46290,1,8,1:0:0:0:
256,192,46376,1,0,1:0:0:0:
256,192,46461,1,0,1:0:0:0:
256,192,46633,1,8,1:0:0:0:
256,192,46718,1,8,1:0:0:0:
256,192,46804,1,0,1:0:0:0:
256,192,46890,1,0,1:0:0:0:
256,192,46976,1,8,1:0:0:0:
256,192,47147,1,0,1:0:0:0:
256,192,47318,1,8,1:0:0:0:
256,192,47404,1,0,1:0:0:0:
256,192,47490,1,8,1:0:0:0:
256,192,47576,1,0,1:0:0:0:
256,192,47661,1,8,1:0:0:0:
256,192,47833,1,0,1:0:0:0:
256,192,48004,1,8,1:0:0:0:
256,192,48347,1,8,1:0:0:0:
256,192,48518,1,0,1:0:0:0:
256,192,48690,1,8,1:0:0:0:
256,192,48776,1,0,1:0:0:0:
256,192,48861,1,0,1:0:0:0:
256,192,49033,1,8,1:0:0:0:
256,192,49204,1,0,1:0:0:0:
256,192,49376,1,8,1:0:0:0:
256,192,49547,1,8,1:0:0:0:
256,192,49633,1,0,1:0:0:0:
256,192,49718,1,8,1:0:0:0:
256,192,50061,1,8,1:0:0:0:
256,192,50233,1,8,1:0:0:0:
256,192,50318,1,0,1:0:0:0:
256,192,50404,1,0,1:0:0:0:
256,192,50576,1,0,1:0:0:0:
256,192,50747,1,8,1:0:0:0:
256,192,50918,1,0,1:0:0:0:
256,192,51004,1,0,1:0:0:0:
256,192,51090,1,12,1:0:0:0:
256,192,51433,1,0,1:0:0:0:
256,192,51604,1,0,1:0:0:0:
256,192,51690,1,0,1:0:0:0:
256,192,51776,1,12,1:0:0:0:
256,192,51947,1,0,1:0:0:0:
256,192,52118,1,12,1:0:0:0:
256,192,52290,1,4,1:0:0:0:
256,192,52633,1,12,1:0:0:0:
256,192,52976,1,0,1:0:0:0:
256,192,53147,1,8,1:0:0:0:
256,192,53318,1,0,1:0:0:0:
256,192,53404,1,0,1:0:0:0:
256,192,53490,1,12,1:0:0:0:
256,192,53661,1,12,1:0:0:0:
256,192,54176,1,12,1:0:0:0:
256,192,54347,1,12,1:0:0:0:
256,192,54690,1,12,1:0:0:0:
256,192,55033,1,0,1:0:0:0:
256,192,55204,1,8,1:0:0:0:
256,192,55376,1,0,1:0:0:0:
256,192,55461,1,0,1:0:0:0:
256,192,55547,1,8,1:0:0:0:
256,192,55718,1,0,1:0:0:0:
256,192,55890,1,8,1:0:0:0:
256,192,55976,1,8,1:0:0:0:
256,192,56061,1,0,1:0:0:0:
256,192,56404,1,12,1:0:0:0:
256,192,56747,1,12,1:0:0:0:
256,192,57090,1,0,1:0:0:0:
256,192,57261,1,8,1:0:0:0:
256,192,57604,1,12,1:0:0:0:
256,192,58118,1,0,1:0:0:0:
256,192,58290,1,8,1:0:0:0:
256,192,58633,1,8,1:0:0:0:
256,192,58804,1,0,1:0:0:0:
256,192,58890,1,0,1:0:0:0:
256,192,58976,1,8,1:0:0:0:
256,192,59147,1,0,1:0:0:0:
256,192,59318,1,8,1:0:0:0:
256,192,59661,1,8,1:0:0:0:
256,192,60004,1,0,1:0:0:0:
256,192,60176,1,8,1:0:0:0:
256,192,60347,1,8,1:0:0:0:
256,192,60861,1,0,1:0:0:0:
256,192,61033,1,8,1:0:0:0:
256,192,61376,1,0,1:0:0:0:
256,192,61547,1,8,1:0:0:0:
256,192,61633,1,0,1:0:0:0:
256,192,61718,1,8,1:0:0:0:
256,192,61890,1,8,1:0:0:0:
256,192,62233,1,0,1:0:0:0:
256,192,62404,1,8,1:0:0:0:
256,192,62747,1,8,1:0:0:0:
256,192,63090,1,12,1:0:0:0:
256,192,63261,1,12,1:0:0:0:
256,192,63433,1,12,1:0:0:0:
256,192,65318,1,0,1:0:0:0:
256,192,65490,1,8,1:0:0:0:
256,192,65661,1,0,1:0:0:0:
256,192,65747,1,0,1:0:0:0:
256,192,65833,1,12,1:0:0:0:
256,192,66004,1,12,1:0:0:0:
256,192,66176,1,12,1:0:0:0:
256,192,67033,1,0,1:0:0:0:
256,192,67118,1,0,1:0:0:0:
256,192,67204,1,8,1:0:0:0:
256,192,67376,1,8,1:0:0:0:
256,192,67547,1,0,1:0:0:0:
256,192,67633,1,0,1:0:0:0:
256,192,67718,1,8,1:0:0:0:
256,192,67804,1,0,1:0:0:0:
256,192,67890,1,8,1:0:0:0:
256,192,68061,1,0,1:0:0:0:
256,192,68233,1,8,1:0:0:0:
256,192,68318,1,8,1:0:0:0:
256,192,68404,1,0,1:0:0:0:
256,192,68490,1,0,1:0:0:0:
256,192,68576,1,12,1:0:0:0:
256,192,68918,1,8,1:0:0:0:
256,192,69090,1,0,1:0:0:0:
256,192,69176,1,0,1:0:0:0:
256,192,69261,1,8,1:0:0:0:
256,192,69433,1,0,1:0:0:0:
256,192,69604,1,8,1:0:0:0:
256,192,69690,1,8,1:0:0:0:
256,192,69776,1,0,1:0:0:0:
256,192,69861,1,0,1:0:0:0:
256,192,69947,1,8,1:0:0:0:
256,192,70118,1,0,1:0:0:0:
256,192,70290,1,8,1:0:0:0:
256,192,70461,1,8,1:0:0:0:
256,192,70547,1,8,1:0:0:0:
256,192,70633,1,0,1:0:0:0:
256,192,70804,1,0,1:0:0:0:
256,192,70976,1,8,1:0:0:0:
256,192,71061,1,8,1:0:0:0:
256,192,71147,1,0,1:0:0:0:
256,192,71233,1,0,1:0:0:0:
256,192,71318,1,12,1:0:0:0:
256,192,71490,1,12,1:0:0:0:
256,192,71661,1,0,1:0:0:0:
256,192,71833,1,0,1:0:0:0:
256,192,71918,1,0,1:0:0:0:
256,192,72004,1,12,1:0:0:0:
256,192,72176,1,12,1:0:0:0:
256,192,72347,1,0,1:0:0:0:
256,192,72518,1,0,1:0:0:0:
256,192,72604,1,0,1:0:0:0:
256,192,72690,1,12,1:0:0:0:
256,192,72861,1,0,0:0:0:0:
256,192,73033,1,0,1:0:0:0:
256,192,73204,1,12,1:0:0:0:
256,192,73547,1,0,1:0:0:0:
256,192,73718,1,0,1:0:0:0:
256,192,73804,1,0,1:0:0:0:
256,192,73890,1,8,1:0:0:0:
256,192,74061,1,8,1:0:0:0:
256,192,74233,1,0,1:0:0:0:
256,192,74404,1,8,1:0:0:0:
256,192,74576,1,0,1:0:0:0:
256,192,74661,1,8,1:0:0:0:
256,192,74747,1,0,1:0:0:0:
256,192,74833,1,0,1:0:0:0:
256,192,74918,1,8,1:0:0:0:
256,192,75090,1,8,1:0:0:0:
256,192,75261,1,0,1:0:0:0:
256,192,75433,1,8,1:0:0:0:
256,192,75518,1,0,1:0:0:0:
256,192,75604,1,0,1:0:0:0:
256,192,75776,1,8,1:0:0:0:
256,192,75947,1,0,1:0:0:0:
256,192,76033,1,0,1:0:0:0:
256,192,76118,1,8,1:0:0:0:
256,192,76290,1,0,1:0:0:0:
256,192,76376,1,0,1:0:0:0:
256,192,76461,1,8,1:0:0:0:
256,192,76547,1,8,1:0:0:0:
256,192,76633,1,0,1:0:0:0:
256,192,76718,1,0,1:0:0:0:
256,192,76804,1,12,1:0:0:0:
256,192,77147,1,8,1:0:0:0:
256,192,77318,1,0,1:0:0:0:
256,192,77404,1,0,1:0:0:0:
256,192,77490,1,8,1:0:0:0:
256,192,77661,1,0,1:0:0:0:
256,192,77833,1,8,1:0:0:0:
256,192,78004,1,8,1:0:0:0:
256,192,78090,1,8,1:0:0:0:
256,192,78176,1,0,1:0:0:0:
256,192,78347,1,0,1:0:0:0:
256,192,78518,1,0,1:0:0:0:
256,192,78604,1,0,1:0:0:0:
256,192,78690,1,8,1:0:0:0:
256,192,78861,1,8,1:0:0:0:
256,192,78947,1,0,1:0:0:0:
256,192,79033,1,8,1:0:0:0:
256,192,79204,1,8,1:0:0:0:
256,192,79376,1,0,1:0:0:0:
256,192,79547,1,0,1:0:0:0:
256,192,79633,1,8,0:0:0:0:
256,192,79718,1,0,1:0:0:0:
256,192,79804,1,0,0:0:0:0:
256,192,79890,1,8,1:0:0:0:
256,192,80061,1,8,1:0:0:0:
256,192,80233,1,0,1:0:0:0:
256,192,80318,1,0,1:0:0:0:
256,192,80404,1,0,1:0:0:0:
256,192,80490,1,0,1:0:0:0:
256,192,80576,1,8,1:0:0:0:
256,192,80747,1,8,1:0:0:0:
256,192,80918,1,0,0:0:0:0:
256,192,81004,1,8,0:0:0:0:
256,192,81090,1,8,0:0:0:0:
256,192,81176,1,8,0:0:0:0:
256,192,81261,1,0,0:0:0:0:
256,192,81433,1,8,1:0:0:0:
256,192,81604,1,8,1:0:0:0:
256,192,81690,1,8,1:0:0:0:
256,192,81776,1,0,1:0:0:0:
256,192,81861,1,0,1:0:0:0:
256,192,81947,1,8,1:0:0:0:
256,192,82033,1,0,1:0:0:0:
256,192,82118,1,0,1:0:0:0:
256,192,82204,1,0,1:0:0:0:
256,192,82290,1,8,1:0:0:0:
256,192,82633,1,0,1:0:0:0:
256,192,82804,1,8,1:0:0:0:
256,192,82890,1,0,1:0:0:0:
256,192,82976,1,0,1:0:0:0:
256,192,83147,1,8,1:0:0:0:
256,192,83318,1,8,1:0:0:0:
256,192,83404,1,0,1:0:0:0:
256,192,83490,1,8,1:0:0:0:
256,192,83576,1,8,1:0:0:0:
256,192,83661,1,0,1:0:0:0:
256,192,83833,1,0,1:0:0:0:
256,192,84004,1,8,1:0:0:0:
256,192,84090,1,0,1:0:0:0:
256,192,84176,1,8,1:0:0:0:
256,192,84347,1,0,1:0:0:0:
256,192,84518,1,0,1:0:0:0:
256,192,84604,1,0,1:0:0:0:
256,192,84690,1,8,1:0:0:0:
256,192,84861,1,0,1:0:0:0:
256,192,85033,1,12,1:0:0:0:
256,192,85290,1,4,1:0:0:0:
256,192,85547,1,4,1:0:0:0:
256,192,85718,1,12,1:0:0:0:
256,192,85976,1,4,1:0:0:0:
256,192,86233,1,4,1:0:0:0:
256,192,86404,1,12,1:0:0:0:
256,192,86576,1,0,1:0:0:0:
256,192,86661,1,8,1:0:0:0:
256,192,86747,1,8,1:0:0:0:
256,192,86918,1,0,1:0:0:0:
256,192,87004,1,0,1:0:0:0:
256,192,87090,1,8,1:0:0:0:
256,192,87261,1,0,1:0:0:0:
256,192,87347,1,0,1:0:0:0:
256,192,87433,1,8,1:0:0:0:
256,192,87518,1,8,1:0:0:0:
256,192,87604,1,0,1:0:0:0:
256,192,87690,1,0,1:0:0:0:
256,192,87776,1,12,1:0:0:0:
256,192,88118,1,8,1:0:0:0:
256,192,88290,1,0,1:0:0:0:
256,192,88376,1,0,1:0:0:0:
256,192,88461,1,8,1:0:0:0:
256,192,88633,1,0,1:0:0:0:
256,192,88804,1,8,1:0:0:0:
256,192,88976,1,8,1:0:0:0:
256,192,89061,1,8,1:0:0:0:
256,192,89147,1,0,1:0:0:0:
256,192,89318,1,0,1:0:0:0:
256,192,89490,1,0,1:0:0:0:
256,192,89576,1,0,1:0:0:0:
256,192,89661,1,8,1:0:0:0:
256,192,89833,1,8,1:0:0:0:
256,192,89918,1,0,1:0:0:0:
256,192,90004,1,8,1:0:0:0:
256,192,90176,1,8,1:0:0:0:
256,192,90347,1,0,1:0:0:0:
256,192,90518,1,0,1:0:0:0:
256,192,90604,1,8,0:0:0:0:
256,192,90690,1,0,1:0:0:0:
256,192,90776,1,0,0:0:0:0:
256,192,90861,1,8,1:0:0:0:
256,192,91033,1,8,1:0:0:0:
256,192,91204,1,0,1:0:0:0:
256,192,91290,1,0,1:0:0:0:
256,192,91376,1,0,1:0:0:0:
256,192,91461,1,0,1:0:0:0:
256,192,91547,1,8,1:0:0:0:
256,192,91718,1,8,1:0:0:0:
256,192,91890,1,0,1:0:0:0:
256,192,91976,1,8,0:0:0:0:
256,192,92061,1,8,1:0:0:0:
256,192,92147,1,8,1:0:0:0:
256,192,92233,1,0,1:0:0:0:
256,192,92404,1,8,1:0:0:0:
256,192,92576,1,8,1:0:0:0:
256,192,92661,1,8,1:0:0:0:
256,192,92747,1,0,1:0:0:0:
256,192,92833,1,0,1:0:0:0:
256,192,92918,1,8,1:0:0:0:
256,192,93004,1,0,1:0:0:0:
256,192,93090,1,0,1:0:0:0:
256,192,93176,1,0,1:0:0:0:
256,192,93261,1,8,1:0:0:0:
256,192,93604,1,0,1:0:0:0:
256,192,93776,1,8,1:0:0:0:
256,192,93861,1,0,1:0:0:0:
256,192,93947,1,0,1:0:0:0:
256,192,94118,1,8,1:0:0:0:
256,192,94290,1,8,1:0:0:0:
256,192,94376,1,0,1:0:0:0:
256,192,94461,1,8,1:0:0:0:
256,192,94547,1,8,1:0:0:0:
256,192,94633,1,0,1:0:0:0:
256,192,94804,1,0,1:0:0:0:
256,192,94976,1,8,1:0:0:0:
256,192,95061,1,0,1:0:0:0:
256,192,95147,1,8,1:0:0:0:
256,192,95318,1,0,1:0:0:0:
256,192,95490,1,0,1:0:0:0:
256,192,95576,1,0,1:0:0:0:
256,192,95661,1,8,1:0:0:0:
256,192,95833,1,0,1:0:0:0:
256,192,96004,1,12,1:0:0:0:
256,192,96261,1,0,1:0:0:0:
256,192,96518,1,0,1:0:0:0:
256,192,96690,1,12,1:0:0:0:
256,192,96947,1,0,1:0:0:0:
256,192,97204,1,0,1:0:0:0:
256,192,97290,1,0,1:0:0:0:
256,192,97376,1,12,1:0:0:0:
256,192,97547,1,0,1:0:0:0:
256,192,97718,1,12,1:0:0:0:
256,192,97890,1,0,1:0:0:0:
256,192,98061,1,12,1:0:0:0:
256,192,98233,1,0,1:0:0:0:
256,192,98318,1,0,1:0:0:0:
256,192,98404,1,8,1:0:0:0:
256,192,98490,1,8,1:0:0:0:
256,192,98576,1,0,1:0:0:0:
256,192,98661,1,0,1:0:0:0:
256,192,98747,1,12,1:0:0:0:
256,192,98918,1,0,0:0:0:0:
256,192,99090,1,8,1:0:0:0:
256,192,99261,1,0,1:0:0:0:
256,192,99347,1,0,1:0:0:0:
256,192,99433,1,12,1:0:0:0:
256,192,99604,1,0,1:0:0:0:
256,192,99776,1,8,1:0:0:0:
256,192,99861,1,8,1:0:0:0:
256,192,99947,1,0,1:0:0:0:
256,192,100033,1,0,1:0:0:0:
256,192,100118,1,12,1:0:0:0:
256,192,100290,1,0,1:0:0:0:
256,192,100376,1,8,1:0:0:0:
256,192,100461,1,8,1:0:0:0:
256,192,100633,1,0,1:0:0:0:
256,192,100804,1,12,1:0:0:0:
256,192,100976,1,0,0:0:0:0:
256,192,101061,1,0,0:0:0:0:
256,192,101147,1,12,1:0:0:0:
256,192,101318,1,0,1:0:0:0:
256,192,101490,1,12,1:0:0:0:
256,192,101661,1,0,1:0:0:0:
256,192,101833,1,8,1:0:0:0:
256,192,102004,1,0,1:0:0:0:
256,192,102090,1,0,1:0:0:0:
256,192,102176,1,12,1:0:0:0:
256,192,102347,1,8,1:0:0:0:
256,192,102433,1,8,1:0:0:0:
256,192,102518,1,0,1:0:0:0:
256,192,102690,1,0,1:0:0:0:
256,192,102861,1,12,1:0:0:0:
256,192,103033,1,0,1:0:0:0:
256,192,103118,1,0,1:0:0:0:
256,192,103204,1,12,1:0:0:0:
256,192,103376,1,0,1:0:0:0:
256,192,103547,1,12,1:0:0:0:
256,192,103718,1,12,1:0:0:0:
256,192,103890,1,12,1:0:0:0:
256,192,104233,1,8,1:0:0:0:
256,192,104404,1,0,1:0:0:0:
256,192,104576,1,8,1:0:0:0:
256,192,104747,1,0,1:0:0:0:
256,192,104833,1,8,1:0:0:0:
256,192,105004,1,8,1:0:0:0:
256,192,105090,1,0,1:0:0:0:
256,192,105176,1,0,1:0:0:0:
256,192,105261,1,8,1:0:0:0:
256,192,105433,1,0,1:0:0:0:
256,192,105604,1,8,1:0:0:0:
256,192,105776,1,0,1:0:0:0:
256,192,105861,1,0,1:0:0:0:
256,192,105947,1,8,1:0:0:0:
256,192,106118,1,0,1:0:0:0:
256,192,106290,1,8,1:0:0:0:
256,192,106376,1,8,1:0:0:0:
256,192,106461,1,0,1:0:0:0:
256,192,106547,1,0,1:0:0:0:
256,192,106633,1,8,1:0:0:0:
256,192,106804,1,0,0:0:0:0:
256,192,106976,1,8,1:0:0:0:
256,192,107147,1,0,1:0:0:0:
256,192,107318,1,8,1:0:0:0:
256,192,107490,1,0,1:0:0:0:
256,192,107576,1,8,1:0:0:0:
256,192,107747,1,8,1:0:0:0:
256,192,107833,1,0,1:0:0:0:
256,192,107918,1,0,1:0:0:0:
256,192,108004,1,8,1:0:0:0:
256,192,108176,1,0,1:0:0:0:
256,192,108347,1,8,1:0:0:0:
256,192,108518,1,0,1:0:0:0:
256,192,108604,1,0,1:0:0:0:
256,192,108690,1,8,1:0:0:0:
256,192,109033,1,8,1:0:0:0:
256,192,109204,1,0,1:0:0:0:
256,192,109290,1,0,1:0:0:0:
256,192,109376,1,8,1:0:0:0:
256,192,109547,1,0,1:0:0:0:
256,192,109633,1,8,0:0:0:0:
256,192,109718,1,8,1:0:0:0:
256,192,109890,1,0,1:0:0:0:
256,192,110061,1,8,1:0:0:0:
256,192,110233,1,0,1:0:0:0:
256,192,110318,1,8,1:0:0:0:
256,192,110490,1,8,1:0:0:0:
256,192,110576,1,0,1:0:0:0:
256,192,110661,1,0,1:0:0:0:
256,192,110747,1,8,1:0:0:0:
256,192,110918,1,0,1:0:0:0:
256,192,111090,1,8,1:0:0:0:
256,192,111261,1,0,1:0:0:0:
256,192,111347,1,0,1:0:0:0:
256,192,111433,1,8,1:0:0:0:
256,192,111604,1,8,1:0:0:0:
256,192,111776,1,0,1:0:0:0:
256,192,111861,1,0,1:0:0:0:
256,192,111947,1,8,1:0:0:0:
256,192,112033,1,0,1:0:0:0:
256,192,112118,1,8,1:0:0:0:
256,192,112290,1,0,0:0:0:0:
256,192,112461,1,8,1:0:0:0:
256,192,112633,1,0,1:0:0:0:
256,192,112718,1,0,1:0:0:0:
256,192,112804,1,8,1:0:0:0:
256,192,112976,1,0,1:0:0:0:
256,192,113147,1,8,1:0:0:0:
256,192,113233,1,8,1:0:0:0:
256,192,113318,1,0,1:0:0:0:
256,192,113404,1,0,1:0:0:0:
256,192,113490,1,8,1:0:0:0:
256,192,113661,1,0,1:0:0:0:
256,192,113833,1,12,1:0:0:0:
256,192,114176,1,12,1:0:0:0:
256,192,114518,1,12,1:0:0:0:
256,192,114690,1,0,1:0:0:0:
256,192,114776,1,0,1:0:0:0:
256,192,114861,1,8,1:0:0:0:
256,192,115204,1,0,1:0:0:0:
256,192,115376,1,8,1:0:0:0:
256,192,115547,1,8,1:0:0:0:
256,192,115718,1,0,1:0:0:0:
256,192,115804,1,8,1:0:0:0:
256,192,115890,1,0,1:0:0:0:
256,192,115976,1,8,0:0:0:0:
256,192,116061,1,0,1:0:0:0:
256,192,116233,1,8,1:0:0:0:
256,192,116290,1,8,1:0:0:0:
256,192,116347,1,8,0:0:0:0:
256,192,116404,1,0,1:0:0:0:
256,192,116576,1,8,1:0:0:0:
256,192,116918,1,8,1:0:0:0:
256,192,117090,1,0,1:0:0:0:
256,192,117176,1,0,1:0:0:0:
256,192,117261,1,8,1:0:0:0:
256,192,117433,1,8,1:0:0:0:
256,192,117604,1,0,1:0:0:0:
256,192,117690,1,0,1:0:0:0:
256,192,117776,1,8,1:0:0:0:
256,192,117861,1,0,1:0:0:0:
256,192,117947,1,8,1:0:0:0:
256,192,118118,1,8,1:0:0:0:
256,192,118290,1,8,1:0:0:0:
256,192,118633,1,0,1:0:0:0:
256,192,118804,1,0,1:0:0:0:
256,192,118890,1,0,1:0:0:0:
256,192,118976,1,8,1:0:0:0:
256,192,119147,1,0,1:0:0:0:
256,192,119318,1,8,1:0:0:0:
256,192,119661,1,8,1:0:0:0:
256,192,119833,1,0,1:0:0:0:
256,192,120004,1,0,1:0:0:0:
256,192,120090,1,0,1:0:0:0:
256,192,120176,1,8,1:0:0:0:
256,192,120347,1,8,1:0:0:0:
256,192,120433,1,8,1:0:0:0:
256,192,120518,1,0,1:0:0:0:
256,192,120604,1,0,1:0:0:0:
256,192,120690,1,8,1:0:0:0:
256,192,120861,1,8,1:0:0:0:
256,192,121033,1,8,1:0:0:0:
256,192,121376,1,8,1:0:0:0:
256,192,121547,1,0,1:0:0:0:
256,192,121633,1,0,1:0:0:0:
256,192,121718,1,8,1:0:0:0:
256,192,121890,1,0,1:0:0:0:
256,192,122061,1,12,1:0:0:0:
256,192,122233,1,8,1:0:0:0:
256,192,122318,1,0,1:0:0:0:
256,192,122404,1,8,1:0:0:0:
256,192,122576,1,0,1:0:0:0:
256,192,122747,1,0,1:0:0:0:
256,192,122833,1,0,1:0:0:0:
256,192,122918,1,8,1:0:0:0:
256,192,123004,1,8,1:0:0:0:
256,192,123090,1,0,1:0:0:0:
256,192,123261,1,0,1:0:0:0:
256,192,123433,1,8,1:0:0:0:
256,192,123604,1,0,1:0:0:0:
256,192,123690,1,0,1:0:0:0:
256,192,123776,1,8,1:0:0:0:
256,192,123947,1,0,1:0:0:0:
256,192,124118,1,8,1:0:0:0:
256,192,124461,1,8,1:0:0:0:
256,192,124633,1,0,1:0:0:0:
256,192,124804,1,8,1:0:0:0:
256,192,124976,1,0,1:0:0:0:
256,192,125147,1,0,1:0:0:0:
256,192,125233,1,0,1:0:0:0:
256,192,125318,1,0,1:0:0:0:
256,192,125404,1,0,1:0:0:0:
256,192,125490,1,8,1:0:0:0:
256,192,125833,1,0,1:0:0:0:
256,192,126176,1,8,1:0:0:0:
256,192,126347,1,0,1:0:0:0:
256,192,126690,1,8,1:0:0:0:
256,192,127033,1,0,1:0:0:0:
256,192,127204,1,8,1:0:0:0:
256,192,127376,1,0,1:0:0:0:
256,192,127461,1,0,1:0:0:0:
256,192,127547,1,8,1:0:0:0:
256,192,127718,1,0,1:0:0:0:
256,192,127890,1,8,1:0:0:0:
256,192,128061,1,0,1:0:0:0:
256,192,128147,1,0,1:0:0:0:
256,192,128233,1,8,1:0:0:0:
256,192,128404,1,8,1:0:0:0:
256,192,128490,1,8,1:0:0:0:
256,192,128576,1,8,1:0:0:0:
256,192,128747,1,0,1:0:0:0:
256,192,128918,1,8,1:0:0:0:
256,192,129004,1,8,1:0:0:0:
256,192,129090,1,0,1:0:0:0:
256,192,129176,1,8,1:0:0:0:
256,192,129261,1,0,1:0:0:0:
256,192,129433,1,0,1:0:0:0:
256,192,129604,1,8,1:0:0:0:
256,192,129690,1,0,1:0:0:0:
256,192,129776,1,8,1:0:0:0:
256,192,129861,1,0,1:0:0:0:
256,192,129947,1,8,1:0:0:0:
256,192,130118,1,0,1:0:0:0:
256,192,130290,1,8,1:0:0:0:
256,192,130461,1,0,1:0:0:0:
256,192,130547,1,8,0:0:0:0:
256,192,130633,1,8,1:0:0:0:
256,192,130804,1,0,1:0:0:0:
256,192,130890,1,0,1:0:0:0:
256,192,130976,1,8,1:0:0:0:
256,192,131147,1,0,1:0:0:0:
256,192,131318,1,8,1:0:0:0:
256,192,131404,1,0,1:0:0:0:
256,192,131490,1,0,1:0:0:0:
256,192,131661,1,8,1:0:0:0:
256,192,131747,1,0,1:0:0:0:
256,192,131833,1,0,1:0:0:0:
256,192,131918,1,0,1:0:0:0:
256,192,132004,1,8,1:0:0:0:
256,192,132176,1,0,1:0:0:0:
256,192,132261,1,0,0:0:0:0:
256,192,132347,1,8,1:0:0:0:
256,192,132433,1,0,0:0:0:0:
256,192,132518,1,8,0:0:0:0:
256,192,132690,1,0,1:0:0:0:
256,192,132861,1,8,1:0:0:0:
256,192,133033,1,8,1:0:0:0:
256,192,133204,1,0,0:0:0:0:
256,192,133376,1,12,1:0:0:0:
256,192,133718,1,0,1:0:0:0:
256,192,133890,1,0,1:0:0:0:
256,192,134061,1,12,1:0:0:0:
256,192,134404,1,12,1:0:0:0:
256,192,134576,1,4,1:0:0:0:
256,192,134918,1,12,1:0:0:0:
256,192,135261,1,0,1:0:0:0:
256,192,135433,1,8,1:0:0:0:
256,192,135604,1,0,1:0:0:0:
256,192,135690,1,0,1:0:0:0:
256,192,135776,1,12,1:0:0:0:
256,192,135947,1,12,1:0:0:0:
256,192,136461,1,12,1:0:0:0:
256,192,136633,1,12,1:0:0:0:
256,192,136976,1,12,1:0:0:0:
256,192,137318,1,0,1:0:0:0:
256,192,137490,1,8,1:0:0:0:
256,192,137661,1,0,1:0:0:0:
256,192,137747,1,0,1:0:0:0:
256,192,137833,1,8,1:0:0:0:
256,192,138004,1,0,1:0:0:0:
256,192,138176,1,8,1:0:0:0:
256,192,138261,1,8,1:0:0:0:
256,192,138347,1,0,1:0:0:0:
256,192,138690,1,12,1:0:0:0:
256,192,139033,1,12,1:0:0:0:
256,192,139376,1,0,1:0:0:0:
256,192,139547,1,8,1:0:0:0:
256,192,139890,1,12,1:0:0:0:
256,192,141090,1,0,1:0:0:0:
256,192,141176,1,0,1:0:0:0:
256,192,141261,1,8,1:0:0:0:
256,192,141433,1,0,1:0:0:0:
256,192,141604,1,8,1:0:0:0:
256,192,141776,1,8,1:0:0:0:
256,192,141947,1,0,1:0:0:0:
256,192,142033,1,0,1:0:0:0:
256,192,142118,1,0,1:0:0:0:
256,192,142204,1,0,1:0:0:0:
256,192,142290,1,8,1:0:0:0:
256,192,142633,1,12,1:0:0:0:
256,192,142890,1,12,1:0:0:0:
256,192,143147,1,12,1:0:0:0:
256,192,143318,1,12,1:0:0:0:
256,192,143661,1,0,1:0:0:0:
256,192,143833,1,8,1:0:0:0:
256,192,143918,1,0,1:0:0:0:
256,192,144004,1,12,1:0:0:0:
256,192,144261,1,12,1:0:0:0:
256,192,144518,1,12,1:0:0:0:
256,192,144690,1,12,1:0:0:0:
256,192,144861,1,0,1:0:0:0:
256,192,144947,1,0,1:0:0:0:
256,192,145033,1,8,1:0:0:0:
256,192,145118,1,8,1:0:0:0:
256,192,145204,1,0,1:0:0:0:
256,192,145290,1,0,0:0:0:0:
256,192,145376,1,12,0:0:0:0:
256,192,145547,1,12,1:0:0:0:
256,192,145718,1,12,1:0:0:0:
256,192,146061,1,8,1:0:0:0:
256,192,146233,1,0,1:0:0:0:
256,192,146404,1,8,1:0:0:0:
256,192,146490,1,0,1:0:0:0:
256,192,146576,1,8,1:0:0:0:
256,192,146747,1,8,1:0:0:0:
256,192,146833,1,0,1:0:0:0:
256,192,146918,1,0,1:0:0:0:
256,192,147004,1,0,1:0:0:0:
256,192,147090,1,8,1:0:0:0:
256,192,147261,1,0,1:0:0:0:
256,192,147604,1,8,1:0:0:0:
256,192,147776,1,0,1:0:0:0:
256,192,147947,1,0,1:0:0:0:
256,192,148118,1,12,1:0:0:0:
256,192,148290,1,12,1:0:0:0:
256,192,148461,1,12,1:0:0:0:
256,192,148633,1,0,0:0:0:0:
256,192,148718,1,0,0:0:0:0:
256,192,148804,1,0,1:0:0:0:
256,192,148976,1,8,1:0:0:0:
256,192,149147,1,0,1:0:0:0:
256,192,149233,1,0,1:0:0:0:
256,192,149318,1,8,1:0:0:0:
256,192,149490,1,8,1:0:0:0:
256,192,149576,1,0,1:0:0:0:
256,192,149661,1,8,1:0:0:0:
256,192,149833,1,0,1:0:0:0:
256,192,150004,1,8,1:0:0:0:
256,192,150176,1,8,1:0:0:0:
256,192,150347,1,0,1:0:0:0:
256,192,150518,1,8,1:0:0:0:
256,192,150604,1,8,1:0:0:0:
256,192,150690,1,0,1:0:0:0:
256,192,150776,1,0,1:0:0:0:
256,192,150861,1,12,1:0:0:0:
256,192,151204,1,8,1:0:0:0:
256,192,151376,1,0,1:0:0:0:
256,192,151461,1,8,1:0:0:0:
256,192,151547,1,8,1:0:0:0:
256,192,151718,1,0,1:0:0:0:
256,192,151890,1,8,1:0:0:0:
256,192,151976,1,8,1:0:0:0:
256,192,152061,1,0,1:0:0:0:
256,192,152147,1,0,1:0:0:0:
256,192,152233,1,8,1:0:0:0:
256,192,152404,1,0,1:0:0:0:
256,192,152576,1,8,1:0:0:0:
256,192,152747,1,0,1:0:0:0:
256,192,152833,1,0,1:0:0:0:
256,192,152918,1,8,1:0:0:0:
256,192,153090,1,0,1:0:0:0:
256,192,153176,1,0,1:0:0:0:
256,192,153261,1,8,1:0:0:0:
256,192,153347,1,8,1:0:0:0:
256,192,153433,1,0,1:0:0:0:
256,192,153518,1,0,0:0:0:0:
256,192,153604,1,12,1:0:0:0:
256,192,153776,1,12,1:0:0:0:
256,192,153947,1,0,1:0:0:0:
256,192,154118,1,0,1:0:0:0:
256,192,154204,1,0,1:0:0:0:
256,192,154290,1,12,1:0:0:0:
256,192,154461,1,12,1:0:0:0:
256,192,154633,1,0,1:0:0:0:
256,192,154804,1,0,1:0:0:0:
256,192,154890,1,0,1:0:0:0:
256,192,154976,1,12,1:0:0:0:
256,192,155318,1,0,1:0:0:0:
256,192,155490,1,12,1:0:0:0:
256,192,155833,1,0,1:0:0:0:
256,192,156004,1,0,1:0:0:0:
256,192,156090,1,0,1:0:0:0:
256,192,156176,1,8,1:0:0:0:
256,192,156347,1,8,1:0:0:0:
256,192,156518,1,0,1:0:0:0:
256,192,156690,1,0,1:0:0:0:
256,192,156861,1,8,1:0:0:0:
256,192,156947,1,0,1:0:0:0:
256,192,157033,1,8,1:0:0:0:
256,192,157204,1,8,1:0:0:0:
256,192,157376,1,8,1:0:0:0:
256,192,157547,1,0,1:0:0:0:
256,192,157718,1,8,1:0:0:0:
256,192,157890,1,0,0:0:0:0:
256,192,158061,1,8,1:0:0:0:
256,192,158233,1,0,1:0:0:0:
256,192,158318,1,0,1:0:0:0:
256,192,158404,1,8,1:0:0:0:
256,192,158576,1,0,1:0:0:0:
256,192,158661,1,0,1:0:0:0:
256,192,158747,1,8,1:0:0:0:
256,192,158833,1,8,1:0:0:0:
256,192,158918,1,0,1:0:0:0:
256,192,159004,1,0,1:0:0:0:
256,192,159090,1,12,1:0:0:0:
256,192,159433,1,8,1:0:0:0:
256,192,159604,1,0,1:0:0:0:
256,192,159690,1,0,1:0:0:0:
256,192,159776,1,8,1:0:0:0:
256,192,159947,1,0,1:0:0:0:
256,192,160118,1,8,1:0:0:0:
256,192,160290,1,8,1:0:0:0:
256,192,160376,1,8,1:0:0:0:
256,192,160461,1,0,1:0:0:0:
256,192,160633,1,0,1:0:0:0:
256,192,160804,1,0,1:0:0:0:
256,192,160890,1,0,1:0:0:0:
256,192,160976,1,8,1:0:0:0:
256,192,161147,1,8,1:0:0:0:
256,192,161233,1,0,1:0:0:0:
256,192,161318,1,8,1:0:0:0:
256,192,161490,1,8,1:0:0:0:
256,192,161661,1,0,1:0:0:0:
256,192,161833,1,0,1:0:0:0:
256,192,161918,1,8,0:0:0:0:
256,192,162004,1,0,1:0:0:0:
256,192,162090,1,0,0:0:0:0:
256,192,162176,1,8,1:0:0:0:
256,192,162347,1,8,1:0:0:0:
256,192,162518,1,0,1:0:0:0:
256,192,162604,1,0,1:0:0:0:
256,192,162690,1,0,1:0:0:0:
256,192,162776,1,0,1:0:0:0:
256,192,162861,1,8,1:0:0:0:
256,192,163033,1,8,1:0:0:0:
256,192,163204,1,0,1:0:0:0:
256,192,163290,1,8,0:0:0:0:
256,192,163376,1,8,0:0:0:0:
256,192,163461,1,8,0:0:0:0:
256,192,163547,1,0,0:0:0:0:
256,192,163718,1,8,1:0:0:0:
256,192,163890,1,8,1:0:0:0:
256,192,163976,1,8,1:0:0:0:
256,192,164061,1,0,1:0:0:0:
256,192,164147,1,0,1:0:0:0:
256,192,164233,1,8,1:0:0:0:
256,192,164318,1,0,1:0:0:0:
256,192,164404,1,0,1:0:0:0:
256,192,164490,1,0,1:0:0:0:
256,192,164576,1,8,1:0:0:0:
256,192,164918,1,0,1:0:0:0:
256,192,165090,1,8,1:0:0:0:
256,192,165176,1,0,1:0:0:0:
256,192,165261,1,0,1:0:0:0:
256,192,165433,1,8,1:0:0:0:
256,192,165604,1,8,1:0:0:0:
256,192,165690,1,0,1:0:0:0:
256,192,165776,1,8,1:0:0:0:
256,192,165861,1,8,1:0:0:0:
256,192,165947,1,0,1:0:0:0:
256,192,166118,1,0,1:0:0:0:
256,192,166290,1,8,1:0:0:0:
256,192,166376,1,0,1:0:0:0:
256,192,166461,1,8,1:0:0:0:
256,192,166633,1,0,1:0:0:0:
256,192,166804,1,0,1:0:0:0:
256,192,166890,1,0,1:0:0:0:
256,192,166976,1,8,1:0:0:0:
256,192,167147,1,0,1:0:0:0:
256,192,167318,1,12,1:0:0:0:
256,192,167576,1,4,1:0:0:0:
256,192,167833,1,4,1:0:0:0:
256,192,168004,1,12,1:0:0:0:
256,192,168261,1,4,1:0:0:0:
256,192,168518,1,4,1:0:0:0:
256,192,168690,1,12,1:0:0:0:
256,192,168861,1,0,1:0:0:0:
256,192,168947,1,8,1:0:0:0:
256,192,169033,1,8,1:0:0:0:
256,192,169204,1,0,1:0:0:0:
256,192,169290,1,0,1:0:0:0:
256,192,169376,1,8,1:0:0:0:
256,192,169547,1,0,1:0:0:0:
256,192,169633,1,0,1:0:0:0:
256,192,169718,1,8,1:0:0:0:
256,192,169804,1,8,1:0:0:0:
256,192,169890,1,0,1:0:0:0:
256,192,169976,1,0,1:0:0:0:
256,192,170061,1,12,1:0:0:0:
256,192,170404,1,8,1:0:0:0:
256,192,170576,1,0,1:0:0:0:
256,192,170661,1,0,1:0:0:0:
256,192,170747,1,8,1:0:0:0:
256,192,170918,1,0,1:0:0:0:
256,192,171090,1,8,1:0:0:0:
256,192,171261,1,8,1:0:0:0:
256,192,171347,1,8,1:0:0:0:
256,192,171433,1,0,1:0:0:0:
256,192,171604,1,0,1:0:0:0:
256,192,171776,1,0,1:0:0:0:
256,192,171861,1,0,1:0:0:0:
256,192,171947,1,8,1:0:0:0:
256,192,172118,1,8,1:0:0:0:
256,192,172204,1,0,1:0:0:0:
256,192,172290,1,8,1:0:0:0:
256,192,172461,1,8,1:0:0:0:
256,192,172633,1,0,1:0:0:0:
256,192,172804,1,0,1:0:0:0:
256,192,172890,1,8,0:0:0:0:
256,192,172976,1,0,1:0:0:0:
256,192,173061,1,0,0:0:0:0:
256,192,173147,1,8,1:0:0:0:
256,192,173318,1,8,1:0:0:0:
256,192,173490,1,0,1:0:0:0:
256,192,173576,1,0,1:0:0:0:
256,192,173661,1,0,1:0:0:0:
256,192,173747,1,0,1:0:0:0:
256,192,173833,1,8,1:0:0:0:
256,192,174004,1,8,1:0:0:0:
256,192,174176,1,0,1:0:0:0:
256,192,174261,1,8,0:0:0:0:
256,192,174347,1,8,1:0:0:0:
256,192,174433,1,8,1:0:0:0:
256,192,174518,1,0,1:0:0:0:
256,192,174690,1,8,1:0:0:0:
256,192,174861,1,8,1:0:0:0:
256,192,174947,1,8,1:0:0:0:
256,192,175033,1,0,1:0:0:0:
256,192,175118,1,0,1:0:0:0:
256,192,175204,1,8,1:0:0:0:
256,192,175290,1,0,1:0:0:0:
256,192,175376,1,0,1:0:0:0:
256,192,175461,1,0,1:0:0:0:
256,192,175547,1,8,1:0:0:0:
256,192,175890,1,0,1:0:0:0:
256,192,176061,1,8,1:0:0:0:
256,192,176147,1,0,1:0:0:0:
256,192,176233,1,0,1:0:0:0:
256,192,176404,1,8,1:0:0:0:
256,192,176576,1,8,1:0:0:0:
256,192,176661,1,0,1:0:0:0:
256,192,176747,1,8,1:0:0:0:
256,192,176833,1,8,1:0:0:0:
256,192,176918,1,0,1:0:0:0:
256,192,177090,1,0,1:0:0:0:
256,192,177261,1,8,1:0:0:0:
256,192,177347,1,0,1:0:0:0:
256,192,177433,1,8,1:0:0:0:
256,192,177604,1,0,1:0:0:0:
256,192,177776,1,0,1:0:0:0:
256,192,177861,1,0,1:0:0:0:
256,192,177947,1,8,1:0:0:0:
256,192,178118,1,0,1:0:0:0:
256,192,178290,1,12,1:0:0:0:
256,192,178547,1,0,1:0:0:0:
256,192,178804,1,0,1:0:0:0:
256,192,178976,1,12,1:0:0:0:
256,192,179233,1,0,1:0:0:0:
256,192,179490,1,0,1:0:0:0:
256,192,179576,1,0,0:0:0:0:
256,192,179661,1,12,1:0:0:0:
256,192,179833,1,0,0:0:0:0:
256,192,180004,1,12,1:0:0:0:
256,192,180176,1,0,0:0:0:0:
256,192,180347,1,12,1:0:0:0:
256,192,180518,1,0,1:0:0:0:
256,192,180604,1,0,1:0:0:0:
256,192,180690,1,8,1:0:0:0:
256,192,180776,1,8,1:0:0:0:
256,192,180861,1,0,1:0:0:0:
256,192,180947,1,0,1:0:0:0:
256,192,181033,1,12,1:0:0:0:
256,192,181204,1,0,0:0:0:0:
256,192,181376,1,8,1:0:0:0:
256,192,181547,1,0,1:0:0:0:
256,192,181633,1,0,1:0:0:0:
256,192,181718,1,12,1:0:0:0:
256,192,181890,1,0,1:0:0:0:
256,192,182061,1,8,1:0:0:0:
256,192,182147,1,8,1:0:0:0:
256,192,182233,1,0,1:0:0:0:
256,192,182318,1,0,1:0:0:0:
256,192,182404,1,12,1:0:0:0:
256,192,182576,1,0,1:0:0:0:
256,192,182661,1,8,1:0:0:0:
256,192,182747,1,8,1:0:0:0:
256,192,182918,1,0,1:0:0:0:
256,192,183090,1,12,1:0:0:0:
256,192,183261,1,0,0:0:0:0:
256,192,183433,1,12,1:0:0:0:
256,192,183604,1,0,1:0:0:0:
256,192,183776,1,12,1:0:0:0:
256,192,183947,1,0,1:0:0:0:
256,192,184033,1,0,1:0:0:0:
256,192,184118,1,8,1:0:0:0:
256,192,184290,1,0,1:0:0:0:
256,192,184461,1,12,1:0:0:0:
256,192,184633,1,8,1:0:0:0:
256,192,184718,1,8,1:0:0:0:
256,192,184804,1,0,1:0:0:0:
256,192,184976,1,0,1:0:0:0:
256,192,185147,1,12,1:0:0:0:
256,192,185318,1,0,1:0:0:0:
256,192,185404,1,0,1:0:0:0:
256,192,185490,1,12,1:0:0:0:
256,192,185661,1,0,1:0:0:0:
256,192,185833,1,12,1:0:0:0:
256,192,186004,1,12,1:0:0:0:
256,192,186176,1,12,1:0:0:0:
256,192,186518,1,0,1:0:0:0:
256,192,186861,1,8,1:0:0:0:
256,192,187118,1,8,1:0:0:0:
256,192,187204,1,0,1:0:0:0:
256,192,187376,1,0,1:0:0:0:
256,192,187547,1,8,1:0:0:0:
256,192,187718,1,8,1:0:0:0:
256,192,188061,1,0,1:0:0:0:
256,192,188233,1,8,1:0:0:0:
256,192,188404,1,0,1:0:0:0:
256,192,188576,1,0,1:0:0:0:
256,192,188747,1,0,1:0:0:0:
256,192,188918,1,8,1:0:0:0:
256,192,189261,1,8,1:0:0:0:
256,192,189433,1,0,0:0:0:0:
256,192,189604,1,8,1:0:0:0:
256,192,189861,1,0,1:0:0:0:
256,192,189947,1,8,1:0:0:0:
256,192,190118,1,0,1:0:0:0:
256,192,190290,1,8,1:0:0:0:
256,192,190461,1,8,1:0:0:0:
256,192,190804,1,8,1:0:0:0:
256,192,190976,1,8,1:0:0:0:
256,192,191147,1,0,1:0:0:0:
256,192,191318,1,0,1:0:0:0:
256,192,191490,1,0,1:0:0:0:
256,192,191661,1,8,1:0:0:0:
256,192,191918,1,8,1:0:0:0:
256,192,192004,1,0,1:0:0:0:
256,192,192176,1,0,1:0:0:0:
256,192,192347,1,12,1:0:0:0:
256,192,192604,1,0,1:0:0:0:
256,192,192690,1,8,1:0:0:0:
256,192,192861,1,0,1:0:0:0:
256,192,193033,1,12,1:0:0:0:
256,192,193204,1,8,1:0:0:0:
256,192,193376,1,0,1:0:0:0:
256,192,193547,1,0,1:0:0:0:
256,192,193718,1,12,1:0:0:0:
256,192,193890,1,0,1:0:0:0:
256,192,194233,1,0,1:0:0:0:
256,192,194404,1,12,1:0:0:0:
256,192,194576,1,8,1:0:0:0:
256,192,194747,1,0,1:0:0:0:
256,192,194918,1,0,1:0:0:0:
256,192,195004,1,0,1:0:0:0:
256,192,195090,1,8,1:0:0:0:
256,192,195261,1,8,1:0:0:0:
256,192,195347,1,8,1:0:0:0:
256,192,195433,1,0,1:0:0:0:
256,192,195604,1,0,1:0:0:0:
256,192,195690,1,0,1:0:0:0:
256,192,195776,1,8,1:0:0:0:
256,192,195947,1,8,1:0:0:0:
256,192,196033,1,8,1:0:0:0:
256,192,196118,1,8,1:0:0:0:
256,192,196461,1,12,1:0:0:0:
256,192,196804,1,4,1:0:0:0:
256,192,197061,1,4,1:0:0:0:
256,192,197318,1,4,1:0:0:0:
256,192,197490,1,12,1:0:0:0:
256,192,198518,1,8,1:0:0:0:
256,192,198690,1,0,1:0:0:0:
256,192,198776,1,0,1:0:0:0:
256,192,198861,1,8,1:0:0:0:
256,192,199204,1,0,1:0:0:0:
256,192,199376,1,8,1:0:0:0:
256,192,199890,1,8,1:0:0:0:
256,192,200233,1,0,1:0:0:0:
256,192,200576,1,8,1:0:0:0:
256,192,200918,1,8,1:0:0:0:
256,192,201261,1,0,1:0:0:0:
256,192,201433,1,8,1:0:0:0:
256,192,201776,1,8,1:0:0:0:
256,192,201947,1,0,1:0:0:0:
256,192,202118,1,0,1:0:0:0:
256,192,202290,1,8,1:0:0:0:
256,192,202461,1,0,1:0:0:0:
256,192,202804,1,8,1:0:0:0:
256,192,202976,1,8,1:0:0:0:
256,192,203147,1,0,1:0:0:0:
256,192,203318,1,8,1:0:0:0:
256,192,203490,1,8,1:0:0:0:
256,192,203661,1,0,1:0:0:0:
256,192,203833,1,0,1:0:0:0:
256,192,204176,1,0,1:0:0:0:
256,192,204518,1,8,1:0:0:0:
256,192,204690,1,8,1:0:0:0:
256,192,204861,1,0,1:0:0:0:
256,192,205033,1,8,1:0:0:0:
256,192,205147,1,0,1:0:0:0:
256,192,205261,1,0,1:0:0:0:
256,192,205376,1,8,1:0:0:0:
256,192,205490,1,0,1:0:0:0:
256,192,205604,1,0,1:0:0:0:
256,192,205718,1,12,1:0:0:0:
256,192,206061,1,0,1:0:0:0:
256,192,206404,1,8,1:0:0:0:
256,192,206747,1,0,1:0:0:0:
256,192,206918,1,8,1:0:0:0:
256,192,207261,1,8,1:0:0:0:
256,192,207433,1,0,1:0:0:0:
256,192,207604,1,0,1:0:0:0:
256,192,207776,1,8,1:0:0:0:
256,192,207947,1,0,1:0:0:0:
256,192,208118,1,0,1:0:0:0:
256,192,208204,1,0,1:0:0:0:
256,192,208290,1,0,1:0:0:0:
256,192,208376,1,0,1:0:0:0:
256,192,208461,1,12,1:0:0:0:
256,192,208633,1,12,1:0:0:0:
256,192,209147,1,0,1:0:0:0:
256,192,209318,1,0,1:0:0:0:
256,192,209490,1,12,1:0:0:0:
256,192,209661,1,8,1:0:0:0:
256,192,210004,1,0,1:0:0:0:
256,192,210176,1,8,1:0:0:0:
256,192,210347,1,0,1:0:0:0:
256,192,210518,1,8,1:0:0:0:
256,192,211204,1,8,1:0:0:0:
256,192,211318,1,8,1:0:0:0:
256,192,211433,1,8,1:0:0:0:
256,192,211547,1,0,1:0:0:0:
256,192,211661,1,0,1:0:0:0:
256,192,211776,1,0,1:0:0:0:
256,192,211890,1,8,1:0:0:0:
256,192,212004,1,8,1:0:0:0:
256,192,212118,1,8,1:0:0:0:
256,192,212233,1,0,1:0:0:0:
256,192,212576,1,8,1:0:0:0:
256,192,212690,1,8,1:0:0:0:
256,192,212804,1,8,1:0:0:0:
256,192,212918,1,0,1:0:0:0:
256,192,213033,1,0,1:0:0:0:
256,192,213147,1,0,1:0:0:0:
256,192,213261,1,8,1:0:0:0:
256,192,213376,1,8,1:0:0:0:
256,192,213490,1,8,1:0:0:0:
256,192,213604,1,0,1:0:0:0:
256,192,213718,1,0,1:0:0:0:
256,192,213833,1,0,1:0:0:0:
256,192,213947,1,12,1:0:0:0:
256,192,214290,1,8,1:0:0:0:
256,192,214633,1,0,1:0:0:0:
256,192,214747,1,0,1:0:0:0:
256,192,214861,1,0,1:0:0:0:
256,192,214976,1,8,1:0:0:0:
256,192,215318,1,0,1:0:0:0:
256,192,215433,1,0,1:0:0:0:
256,192,215547,1,8,1:0:0:0:
256,192,215661,1,8,1:0:0:0:
256,192,215776,1,0,1:0:0:0:
256,192,215890,1,0,1:0:0:0:
256,192,216004,1,8,1:0:0:0:
256,192,216118,1,0,1:0:0:0:
256,192,216233,1,0,1:0:0:0:
256,192,216347,1,8,1:0:0:0:
256,192,216690,1,8,1:0:0:0:
256,192,216804,1,8,1:0:0:0:
256,192,216918,1,8,1:0:0:0:
256,192,217033,1,0,1:0:0:0:
256,192,217376,1,8,1:0:0:0:
256,192,217490,1,8,1:0:0:0:
256,192,217604,1,0,1:0:0:0:
256,192,217718,1,0,1:0:0:0:
256,192,218061,1,0,1:0:0:0:
256,192,218176,1,0,1:0:0:0:
256,192,218290,1,0,1:0:0:0:
256,192,218404,1,8,1:0:0:0:
256,192,218518,1,0,1:0:0:0:
256,192,218633,1,0,1:0:0:0:
256,192,218747,1,8,1:0:0:0:
256,192,218861,1,8,1:0:0:0:
256,192,218976,1,0,1:0:0:0:
256,192,219090,1,8,1:0:0:0:
256,192,219204,1,0,1:0:0:0:
256,192,219318,1,0,1:0:0:0:
256,192,219433,1,12,1:0:0:0:
256,192,220118,1,12,1:0:0:0:
256,192,220804,1,12,1:0:0:0:
256,192,221147,1,12,1:0:0:0:
256,192,221318,1,12,1:0:0:0:
256,192,222518,1,12,1:0:0:0:
256,192,223204,1,12,1:0:0:0:
256,192,223547,1,12,1:0:0:0:
256,192,223718,1,0,1:0:0:0:
256,192,223804,1,8,1:0:0:0:
256,192,223890,1,8,1:0:0:0:
256,192,224061,1,0,1:0:0:0:
256,192,224147,1,0,1:0:0:0:
256,192,224233,1,8,1:0:0:0:
256,192,224404,1,0,1:0:0:0:
256,192,224490,1,0,1:0:0:0:
256,192,224576,1,8,1:0:0:0:
256,192,224661,1,8,1:0:0:0:
256,192,224747,1,0,1:0:0:0:
256,192,224833,1,0,1:0:0:0:
256,192,224918,1,12,1:0:0:0:
256,192,225261,1,8,1:0:0:0:
256,192,225433,1,0,1:0:0:0:
256,192,225518,1,0,1:0:0:0:
256,192,225604,1,8,1:0:0:0:
256,192,225776,1,0,1:0:0:0:
256,192,225947,1,8,1:0:0:0:
256,192,226118,1,8,1:0:0:0:
256,192,226204,1,8,1:0:0:0:
256,192,226290,1,0,1:0:0:0:
256,192,226461,1,0,1:0:0:0:
256,192,226633,1,0,1:0:0:0:
256,192,226718,1,0,1:0:0:0:
256,192,226804,1,8,1:0:0:0:
256,192,226976,1,8,1:0:0:0:
256,192,227061,1,0,1:0:0:0:
256,192,227147,1,8,1:0:0:0:
256,192,227318,1,8,1:0:0:0:
256,192,227490,1,0,1:0:0:0:
256,192,227661,1,0,1:0:0:0:
256,192,227747,1,8,0:0:0:0:
256,192,227833,1,0,1:0:0:0:
256,192,227918,1,0,0:0:0:0:
256,192,228004,1,8,1:0:0:0:
256,192,228176,1,8,1:0:0:0:
256,192,228347,1,0,1:0:0:0:
256,192,228433,1,0,1:0:0:0:
256,192,228518,1,0,1:0:0:0:
256,192,228604,1,0,1:0:0:0:
256,192,228690,1,8,1:0:0:0:
256,192,228861,1,8,1:0:0:0:
256,192,229033,1,0,1:0:0:0:
256,192,229118,1,8,0:0:0:0:
256,192,229204,1,8,1:0:0:0:
256,192,229290,1,8,1:0:0:0:
256,192,229376,1,0,1:0:0:0:
256,192,229547,1,8,1:0:0:0:
256,192,229718,1,8,1:0:0:0:
256,192,229804,1,8,1:0:0:0:
256,192,229890,1,0,1:0:0:0:
256,192,229976,1,0,1:0:0:0:
256,192,230061,1,8,1:0:0:0:
256,192,230147,1,0,1:0:0:0:
256,192,230233,1,0,1:0:0:0:
256,192,230318,1,0,1:0:0:0:
256,192,230404,1,8,1:0:0:0:
256,192,230747,1,0,1:0:0:0:
256,192,230918,1,8,1:0:0:0:
256,192,231004,1,0,1:0:0:0:
256,192,231090,1,0,1:0:0:0:
256,192,231261,1,8,1:0:0:0:
256,192,231433,1,8,1:0:0:0:
256,192,231518,1,0,1:0:0:0:
256,192,231604,1,8,1:0:0:0:
256,192,231690,1,8,1:0:0:0:
256,192,231776,1,0,1:0:0:0:
256,192,231947,1,0,1:0:0:0:
256,192,232118,1,8,1:0:0:0:
256,192,232204,1,8,1:0:0:0:
256,192,232290,1,0,1:0:0:0:
256,192,232461,1,8,1:0:0:0:
256,192,232633,1,0,1:0:0:0:
256,192,232718,1,0,1:0:0:0:
256,192,232804,1,8,1:0:0:0:
256,192,232976,1,0,1:0:0:0:
256,192,233147,1,12,1:0:0:0:
256,192,233404,1,0,1:0:0:0:
256,192,233661,1,0,1:0:0:0:
256,192,233833,1,12,1:0:0:0:
256,192,234090,1,0,1:0:0:0:
256,192,234347,1,0,1:0:0:0:
256,192,234433,1,0,1:0:0:0:
256,192,234518,1,12,1:0:0:0:
256,192,234690,1,0,1:0:0:0:
256,192,234861,1,12,1:0:0:0:
256,192,235033,1,0,1:0:0:0:
256,192,235204,1,12,1:0:0:0:
256,192,235376,1,0,1:0:0:0:
256,192,235461,1,0,1:0:0:0:
256,192,235547,1,8,1:0:0:0:
256,192,235633,1,8,1:0:0:0:
256,192,235718,1,0,1:0:0:0:
256,192,235804,1,0,1:0:0:0:
256,192,235890,1,12,1:0:0:0:
256,192,236061,1,0,0:0:0:0:
256,192,236233,1,8,1:0:0:0:
256,192,236404,1,0,1:0:0:0:
256,192,236490,1,0,1:0:0:0:
256,192,236576,1,12,1:0:0:0:
256,192,236747,1,0,1:0:0:0:
256,192,236918,1,8,1:0:0:0:
256,192,237004,1,8,1:0:0:0:
256,192,237090,1,0,1:0:0:0:
256,192,237176,1,0,1:0:0:0:
256,192,237261,1,12,1:0:0:0:
256,192,237433,1,0,1:0:0:0:
256,192,237518,1,8,1:0:0:0:
256,192,237604,1,8,1:0:0:0:
256,192,237776,1,0,1:0:0:0:
256,192,237947,1,12,1:0:0:0:
256,192,238118,1,0,0:0:0:0:
256,192,238290,1,12,1:0:0:0:
256,192,238461,1,0,1:0:0:0:
256,192,238633,1,12,1:0:0:0:
256,192,238804,1,0,1:0:0:0:
256,192,238976,1,8,1:0:0:0:
256,192,239147,1,0,1:0:0:0:
256,192,239233,1,0,1:0:0:0:
256,192,239318,1,12,1:0:0:0:
256,192,239490,1,8,1:0:0:0:
256,192,239576,1,8,1:0:0:0:
256,192,239661,1,0,1:0:0:0:
256,192,239833,1,0,1:0:0:0:
256,192,240004,1,12,1:0:0:0:
256,192,240176,1,0,1:0:0:0:
256,192,240261,1,0,1:0:0:0:
256,192,240347,1,12,1:0:0:0:
256,192,240518,1,0,1:0:0:0:
256,192,240690,1,8,1:0:0:0:
256,192,240861,1,0,0:0:0:0:
256,192,240947,1,0,0:0:0:0:
256,192,241033,1,8,1:0:0:0:
256,192,241204,1,0,1:0:0:0:
256,192,241290,1,0,1:0:0:0:
256,192,241376,1,8,1:0:0:0:
256,192,241547,1,8,1:0:0:0:
256,192,241718,1,0,1:0:0:0:
256,192,241804,1,0,1:0:0:0:
256,192,241890,1,0,1:0:0:0:
256,192,242061,1,8,1:0:0:0:
256,192,242147,1,0,1:0:0:0:
256,192,242233,1,8,1:0:0:0:
256,192,242318,1,8,0:0:0:0:
256,192,242404,1,0,0:0:0:0:
256,192,242576,1,0,1:0:0:0:
256,192,242661,1,0,1:0:0:0:
256,192,242747,1,8,1:0:0:0:
256,192,242918,1,0,1:0:0:0:
256,192,243090,1,8,1:0:0:0:
256,192,243176,1,0,1:0:0:0:
256,192,243261,1,8,1:0:0:0:
256,192,243347,1,8,1:0:0:0:
256,192,243433,1,0,1:0:0:0:
256,192,243518,1,0,0:0:0:0:
256,192,243604,1,8,0:0:0:0:
256,192,243776,1,8,1:0:0:0:
256,192,243861,1,0,1:0:0:0:
256,192,243947,1,0,1:0:0:0:
256,192,244033,1,0,1:0:0:0:
256,192,244118,1,12,1:0:0:0:
256,192,244461,1,8,1:0:0:0:
256,192,244633,1,0,1:0:0:0:
256,192,244718,1,0,1:0:0:0:
256,192,244804,1,12,1:0:0:0:
256,192,244976,1,0,1:0:0:0:
256,192,245147,1,8,1:0:0:0:
256,192,245318,1,0,1:0:0:0:
256,192,245490,1,12,1:0:0:0:
256,192,245661,1,4,1:0:0:0:
256,192,245833,1,12,1:0:0:0:
256,192,246004,1,4,1:0:0:0:
256,192,246176,1,12,1:0:0:0:
